osu file format v14

[General]
AudioFilename: audio.mp3
AudioLeadIn: 0
PreviewTime: 52446
Countdown: 0
SampleSet: Soft
StackLeniency: 0.4
Mode: 0
LetterboxInBreaks: 0
WidescreenStoryboard: 0

[Editor]
Bookmarks: 354,10788,21223,31658,52527,72093,92962,112527,125571,146440,156875,166006,176440,188506
DistanceSpacing: 0.6
BeatDivisor: 4
GridSize: 32
TimelineZoom: 2.1

[Metadata]
Title:(please) replay
TitleUnicode:(please) replay
Artist:Limonene
ArtistUnicode:Limonène
Creator:Realazy
Version:(always) remember
Source:
Tags:-[Shady]- Mimilie Suzuhara Lulu Hitsukuya meiikyuu Lasse kamome sano サノカモメ mikanzil 月島春果 evergreen japanese rock
BeatmapID:2658824
BeatmapSetID:1279941

[Difficulty]
HPDrainRate:5
CircleSize:4.5
OverallDifficulty:8.5
ApproachRate:9.2
SliderMultiplier:2
SliderTickRate:1

[Events]
//Background and Video events
0,0,"happy birthday.jpg",0,0
//Break Periods
//Storyboard Layer 0 (Background)
//Storyboard Layer 1 (Fail)
//Storyboard Layer 2 (Pass)
//Storyboard Layer 3 (Foreground)
//Storyboard Layer 4 (Overlay)
//Storyboard Sound Samples

[TimingPoints]
-950,326.086956521739,4,2,1,40,1,0
3288,-200,4,2,1,40,0,0
3886,-200,4,2,1,5,0,0
3940,-200,4,2,1,40,0,0
4538,-200,4,2,1,5,0,0
4593,-200,4,2,1,40,0,0
5571,-133.333333333333,4,2,1,50,0,0
8180,-133.333333333333,4,2,1,60,0,0
10136,-133.333333333333,4,2,1,50,0,0
10788,-100,4,2,1,80,0,0
11359,-100,4,2,1,5,0,0
11440,-100,4,2,1,80,0,0
13968,-100,4,2,1,5,0,0
14049,-100,4,2,1,80,0,0
16576,-100,4,2,1,5,0,0
16658,-100,4,2,1,80,0,0
19185,-100,4,2,1,5,0,0
19267,-100,4,2,1,80,0,0
19756,-200,4,2,1,80,0,0
20408,-200,4,2,1,5,0,0
20571,-166.666666666667,4,2,1,50,0,0
21223,-133.333333333333,4,2,1,60,0,0
24076,-133.333333333333,4,2,1,5,0,0
24158,-133.333333333333,4,2,1,60,0,0
30598,-133.333333333333,4,2,1,5,0,0
30680,-133.333333333333,4,2,1,60,0,0
31658,-100,4,2,1,70,0,0
33125,-66.6666666666667,4,2,1,70,0,0
33614,-100,4,2,1,70,0,0
33859,-100,4,2,1,5,0,0
33940,-100,4,2,1,70,0,0
34511,-100,4,2,1,5,0,0
34593,-100,4,2,1,70,0,0
35734,-66.6666666666667,4,2,1,70,0,0
36875,-133.333333333333,4,2,1,70,0,0
37201,-66.6666666666667,4,2,1,70,0,0
37690,-100,4,2,1,70,0,0
38261,-100,4,2,1,5,0,0
38343,-100,4,2,1,70,0,0
39076,-100,4,2,1,5,0,0
39158,-100,4,2,1,70,0,0
39728,-100,4,2,1,5,0,0
39810,-100,4,2,1,70,0,0
42093,-133.333333333333,4,2,1,60,0,0
47147,-100,4,2,1,70,0,0
48696,-100,4,2,1,5,0,0
48777,-100,4,2,1,70,0,0
49919,-100,4,2,1,80,0,0
51875,-200,4,2,1,70,0,0
52528,-250,4,2,1,90,0,1
52772,-250,4,2,1,5,0,1
52853,-79.9999999999999,4,2,1,90,0,1
56277,-66.6666666666667,4,2,1,90,0,1
57582,-57.1428571428571,4,2,1,90,0,1
58071,-80,4,2,1,90,0,1
59131,-80,4,2,1,5,0,1
59212,-80,4,2,1,90,0,1
60435,-80,4,2,1,5,0,1
60517,-80,4,2,1,90,0,1
61739,-80,4,2,1,5,0,1
61821,-80,4,2,1,90,0,1
62881,-80,4,2,1,5,0,1
62962,-250,4,2,1,90,0,1
63207,-250,4,2,1,5,0,1
63288,-80,4,2,1,90,0,1
66142,-80,4,2,1,5,0,1
66223,-80,4,2,1,90,0,1
66712,-66.6666666666667,4,2,1,90,0,1
68017,-57.1428571428571,4,2,1,90,0,1
68506,-80,4,2,1,90,0,1
69565,-80,4,2,1,5,0,1
69647,-80,4,2,1,90,0,1
70218,-80,4,2,1,5,0,1
70299,-80,4,2,1,90,0,1
72093,-133.333333333333,4,2,1,60,0,0
80163,-133.333333333333,4,2,1,5,0,0
80245,-133.333333333333,4,2,1,60,0,0
80652,-133.333333333333,4,2,1,5,0,0
80734,-133.333333333333,4,2,1,60,0,0
82527,-100,4,2,1,70,0,0
82772,-100,4,2,1,5,0,0
82853,-100,4,2,1,70,0,0
85381,-100,4,2,1,5,0,0
85462,-100,4,2,1,70,0,0
87582,-100,4,2,1,60,0,0
90353,-100,4,2,1,70,0,0
92228,-100,4,2,1,60,0,0
92881,-100,4,2,1,5,0,0
92963,-250,4,2,1,90,0,1
93207,-250,4,2,1,5,0,1
93288,-79.9999999999999,4,2,1,90,0,1
96142,-79.9999999999999,4,2,1,5,0,1
96223,-79.9999999999999,4,2,1,90,0,1
96712,-66.6666666666667,4,2,1,90,0,1
98017,-57.1428571428571,4,2,1,90,0,1
98506,-80,4,2,1,90,0,1
99566,-80,4,2,1,5,0,1
99647,-80,4,2,1,90,0,1
100870,-80,4,2,1,5,0,1
100952,-80,4,2,1,90,0,1
102174,-80,4,2,1,5,0,1
102256,-80,4,2,1,90,0,1
103316,-80,4,2,1,5,0,1
103397,-250,4,2,1,90,0,1
103642,-250,4,2,1,5,0,1
103723,-80,4,2,1,90,0,1
104783,-80,4,2,1,5,0,1
104864,-80,4,2,1,90,0,1
106577,-80,4,2,1,5,0,1
106658,-80,4,2,1,90,0,1
107147,-66.6666666666667,4,2,1,90,0,1
108451,-57.1428571428571,4,2,1,90,0,1
108940,-80,4,2,1,90,0,1
110000,-80,4,2,1,5,0,1
110082,-80,4,2,1,90,0,1
110653,-80,4,2,1,5,0,1
110734,-80,4,2,1,90,0,1
112528,-100,4,2,1,70,0,0
115381,-100,4,2,1,5,0,0
115462,-100,4,2,1,70,0,0
120353,-133.333333333333,4,2,1,70,0,0
122881,-133.333333333333,4,2,1,5,0,0
122962,-133.333333333333,4,2,1,70,0,0
124919,-100,4,2,1,70,0,0
125571,-250,4,2,1,90,0,1
125816,-250,4,2,1,5,0,1
125897,-79.9999999999999,4,2,1,90,0,1
128424,-79.9999999999999,4,2,1,5,0,1
128506,-79.9999999999999,4,2,1,90,0,1
128750,-79.9999999999999,4,2,1,5,0,1
128832,-79.9999999999999,4,2,1,90,0,1
129321,-66.6666666666667,4,2,1,90,0,1
130625,-57.1428571428571,4,2,1,90,0,1
131114,-80,4,2,1,90,0,1
132175,-80,4,2,1,5,0,1
132256,-80,4,2,1,90,0,1
133479,-80,4,2,1,5,0,1
133561,-80,4,2,1,90,0,1
134783,-80,4,2,1,5,0,1
134864,-80,4,2,1,90,0,1
135925,-80,4,2,1,5,0,1
136006,-250,4,2,1,90,0,1
136251,-250,4,2,1,5,0,1
136332,-80,4,2,1,90,0,1
137392,-80,4,2,1,5,0,1
137473,-80,4,2,1,90,0,1
138859,-80,4,2,1,5,0,1
138940,-80,4,2,1,90,0,1
139186,-80,4,2,1,5,0,1
139267,-80,4,2,1,90,0,1
139756,-66.6666666666667,4,2,1,90,0,1
141060,-57.1428571428571,4,2,1,90,0,1
141549,-80,4,2,1,90,0,1
142609,-80,4,2,1,5,0,1
142691,-80,4,2,1,90,0,1
143262,-80,4,2,1,5,0,1
143343,-80,4,2,1,90,0,1
145136,-100,4,2,1,60,0,0
146359,-100,4,2,1,5,0,0
146440,-100,4,2,1,70,0,0
149620,-100,4,2,1,5,0,0
149701,-100,4,2,1,70,0,0
150190,-80,4,2,1,70,0,0
151495,-100,4,2,1,70,0,0
154756,-66.6666666666667,4,2,1,70,0,0
155652,-66.6666666666667,4,2,1,5,0,0
155734,-66.6666666666667,4,2,1,70,0,0
156794,-66.6666666666667,4,2,1,5,0,0
156875,-100,4,2,1,70,0,0
158261,-100,4,2,1,5,0,0
158343,-100,4,2,1,70,0,0
160055,-100,4,2,1,5,0,0
160136,-100,4,2,1,70,0,0
160625,-80,4,2,1,70,0,0
161930,-100,4,2,1,70,0,0
163478,-100,4,2,1,5,0,0
163560,-100,4,2,1,70,0,0
164131,-100,4,2,1,5,0,0
164212,-100,4,2,1,70,0,0
165924,-100,4,2,1,5,0,0
166006,-86.9565217391304,4,2,1,80,0,0
166576,-86.9565217391304,4,2,1,5,0,0
166658,-86.9565217391304,4,2,1,80,0,0
167392,-86.9565217391304,4,2,1,5,0,0
167473,-86.9565217391304,4,2,1,80,0,0
168696,-86.9565217391304,4,2,1,5,0,0
168777,-86.9565217391304,4,2,1,80,0,0
169756,-71.4285714285714,4,2,1,80,0,0
171060,-86.9565217391304,4,2,1,80,0,0
172609,-86.9565217391304,4,2,1,5,0,0
172690,-86.9565217391304,4,2,1,80,0,0
173261,-86.9565217391304,4,2,1,5,0,0
173343,-86.9565217391304,4,2,1,80,0,0
173913,-86.9565217391304,4,2,1,5,0,0
173995,-86.9565217391304,4,2,1,80,0,0
174402,-86.9565217391304,4,2,1,5,0,0
174484,-86.9565217391304,4,2,1,80,0,0
177011,-86.9565217391304,4,2,1,5,0,0
177093,-86.9565217391304,4,2,1,80,0,0
179131,-86.9565217391304,4,2,1,5,0,0
179212,-86.9565217391304,4,2,1,80,0,0
180190,-71.4285714285714,4,2,1,80,0,0
181495,-86.9565217391304,4,2,1,80,0,0
181739,-86.9565217391304,4,2,1,5,0,0
181821,-86.9565217391304,4,2,1,80,0,0
183044,-86.9565217391304,4,2,1,5,0,0
183125,-86.9565217391304,4,2,1,80,0,0
183696,-86.9565217391304,4,2,1,5,0,0
183777,-86.9565217391304,4,2,1,80,0,0
184348,-86.9565217391304,4,2,1,5,0,0
184430,-86.9565217391304,4,2,1,80,0,0
185408,-235.294117647059,4,2,1,80,0,0
188506,-235.294117647059,4,2,1,5,0,0

[Colours]
Combo1 : 227,121,242
Combo2 : 125,183,230
Combo3 : 245,234,154
Combo4 : 94,112,236

[HitObjects]
78,319,190,6,0,L|85:351,3,33.3333333333333,2|2|2|2,0:0|0:0|0:0|0:0,0:0:0:0:
211,384,680,1,0,1:0:0:0:
281,274,1332,1,0,1:0:0:0:
211,384,1658,1,2,0:0:0:0:
198,173,1984,1,0,1:0:0:0:
281,274,2310,1,2,0:0:0:0:
76,220,2636,1,0,1:0:0:0:
198,173,2799,2,0,L|207:141,3,33.3333333333333,2|2|2|2,0:0|0:0|0:0|0:0,0:0:0:0:
0,28,3288,6,0,P|7:32|14:35,1,16.6666666666667
0,27,3397,2,0,P|48:82|120:80,1,150,2|0,0:0|0:0,0:0:0:0:
130,102,3941,2,0,P|194:40|282:46,1,183.333333333333,2|0,1:2|0:0,0:0:0:0:
297,37,4593,2,0,P|309:58|314:82,1,50,2|0,1:2|0:0,0:0:0:0:
465,103,4919,5,8,0:3:0:0:
374,195,5082,1,8,0:3:0:0:
452,254,5245,1,4,0:3:0:0:
397,311,5408,1,4,0:3:0:0:
475,86,5571,6,0,P|482:49|479:13,1,75.0000028610231,4|0,0:1|0:0,0:0:0:0:
385,115,5897,2,0,P|458:116|513:164,1,150.000005722046,0|0,1:0|0:0,0:0:0:0:
288,185,6549,2,0,P|323:120|392:94,1,150.000005722046,0|0,1:0|0:0,0:0:0:0:
337,319,7201,1,0,1:0:0:0:
502,266,7364,5,2,0:3:0:0:
480,271,7446,1,2,0:3:0:0:
458,277,7527,1,8,1:2:0:0:
276,215,7690,1,8,0:3:0:0:
397,173,7853,1,8,0:3:0:0:
337,319,8017,1,4,0:3:0:0:
213,101,8180,5,10,1:2:0:0:
142,378,8343,1,10,1:2:0:0:
206,90,8669,5,10,1:2:0:0:
135,367,8832,1,10,1:2:0:0:
128,356,9158,5,10,1:2:0:0:
444,285,9321,1,10,1:2:0:0:
453,291,9647,5,10,1:2:0:0:
137,220,9810,1,10,1:2:0:0:
137,220,10136,6,0,P|151:185|149:148,1,75.0000028610231,0|0,1:0|3:0,0:0:0:0:
111,84,10381,1,0,3:0:0:0:
111,84,10462,1,8,3:2:0:0:
254,221,10625,1,8,3:0:0:0:
73,336,10788,6,0,P|48:335|24:342,1,50,6|0,1:2|0:0,0:0:0:0:
15,335,11114,2,0,P|87:325|142:373,1,150,10|0,1:2|0:0,0:0:0:0:
147,384,11440,1,10,1:2:0:0:
254,221,11603,1,0,1:0:0:0:
147,384,11767,1,10,1:2:0:0:
17,194,11930,6,0,P|39:150|40:100,1,100,2|8,1:2|1:2,0:0:0:0:
96,285,12256,1,2,1:2:0:0:
57,98,12419,2,0,P|46:49|14:11,1,100,10|0,1:2|1:0,0:0:0:0:
194,237,12745,5,10,1:2:0:0:
285,77,12908,1,0,1:0:0:0:
319,203,13071,1,10,1:2:0:0:
160,111,13234,1,0,1:0:0:0:
345,15,13397,6,0,L|443:30,1,100,10|0,1:2|1:0,0:0:0:0:
285,77,13723,2,0,B|185:60|185:60|163:104,1,150,10|0,1:2|0:0,0:0:0:0:
160,111,14049,1,10,1:2:0:0:
5,15,14212,2,0,B|51:-2|51:-2|71:44,1,100,2|8,1:2|1:2,0:0:0:0:
244,169,14538,6,0,P|150:168|118:256,1,200,2|0,1:2|1:0,0:0:0:0:
255,160,15027,1,10,1:2:0:0:
90,69,15190,1,0,1:2:0:0:
118,256,15353,2,0,L|222:277,1,100,10|0,1:2|1:0,0:0:0:0:
82,361,15680,1,10,1:2:0:0:
23,184,15843,1,0,1:0:0:0:
221,384,16006,6,0,L|270:377,1,50,10|0,1:2|0:0,0:0:0:0:
224,371,16332,2,0,B|274:363|274:363|298:319|298:319|346:313,1,150,10|0,1:2|0:0,0:0:0:0:
365,310,16658,1,10,1:2:0:0:
191,219,16821,1,0,1:0:0:0:
382,140,16984,1,10,1:2:0:0:
182,30,17147,6,0,B|160:76|160:76|191:113,1,100,2|8,1:2|1:2,0:0:0:0:
351,225,17473,1,2,1:2:0:0:
192,114,17636,2,0,L|290:98,1,100,10|0,1:2|1:0,0:0:0:0:
438,257,17962,5,10,1:2:0:0:
264,195,18125,1,0,1:0:0:0:
382,140,18288,1,10,1:2:0:0:
319,312,18451,1,0,1:0:0:0:
290,98,18614,6,0,L|306:-6,1,100,10|0,1:2|1:0,0:0:0:0:
460,166,18940,2,0,B|417:141|417:141|432:42,1,150,10|0,1:2|0:0,0:0:0:0:
436,24,19267,5,10,1:2:0:0:
351,225,19430,1,8,3:0:0:0:
290,98,19593,1,4,3:0:0:0:
152,355,19756,6,0,P|170:275|227:333,1,200,6|0,1:2|0:0,0:0:0:0:
328,367,20571,6,0,L|387:356,1,59.9999981689454,8|0,1:3|3:0,0:0:0:0:
463,383,20815,1,8,0:0:0:0:
463,383,20897,1,8,0:0:0:0:
315,358,21060,1,0,1:0:0:0:
502,226,21223,6,0,P|429:235|368:193,1,150.000005722046,6|8,1:2|0:0,0:0:0:0:
453,133,21712,1,2,0:0:0:0:
358,198,21875,2,0,P|343:163|341:126,1,75.0000028610231,2|0,1:2|1:0,0:0:0:0:
453,133,22201,1,10,0:0:0:0:
295,267,22364,2,0,P|234:225|161:234,1,150.000005722046,2|0,1:2|0:0,0:0:0:0:
18,296,22853,1,8,0:0:0:0:
78,158,23017,5,2,0:0:0:0:
73,179,23098,1,2,0:3:0:0:
68,201,23180,1,0,1:2:0:0:
111,329,23343,1,2,1:2:0:0:
161,234,23506,1,10,0:0:0:0:
204,362,23669,1,2,0:0:0:0:
362,318,23832,6,0,P|307:313|258:287,1,112.500004291535,2|0,1:2|0:0,0:0:0:0:
247,276,24158,1,10,0:0:0:0:
443,384,24321,2,0,P|476:365|513:359,1,75.0000028610231,2|0,0:0|1:0,0:0:0:0:
358,219,24647,1,2,1:2:0:0:
358,219,24810,1,10,0:0:0:0:
498,144,24973,2,0,P|504:108|490:74,1,75.0000028610231,2|0,1:2|0:0,0:0:0:0:
422,156,25299,2,0,P|407:121|412:85,1,75.0000028610231,2|8,1:2|0:0,0:0:0:0:
474,232,25625,5,2,0:3:0:0:
453,241,25707,1,2,0:3:0:0:
432,251,25788,2,0,P|417:285|416:322,1,75.0000028610231,2|0,1:2|0:0,0:0:0:0:
320,296,26114,2,0,P|320:259|305:225,1,75.0000028610231,10|0,0:0|0:0,0:0:0:0:
422,155,26440,6,0,P|350:144|315:80,1,150.000005722046,2|8,1:2|0:0,0:0:0:0:
228,165,26930,1,2,0:0:0:0:
127,93,27093,2,0,P|115:57|119:20,1,75.0000028610231,2|0,1:2|1:0,0:0:0:0:
228,165,27419,1,10,0:0:0:0:
119,20,27582,2,0,P|86:87|92:160,1,150.000005722046,2|0,1:2|1:0,0:0:0:0:
0,0,28071,1,8,0:0:0:0:
228,165,28234,5,2,0:3:0:0:
250,161,28315,1,2,0:3:0:0:
272,157,28397,2,0,P|288:123|288:86,1,75.0000028610231,2|0,1:2|1:0,0:0:0:0:
289,248,28723,2,0,P|324:235|350:209,1,75.0000028610231,10|0,0:0|0:0,0:0:0:0:
202,290,29049,6,0,P|275:285|333:329,1,150.000005722046,2|8,1:2|0:0,0:0:0:0:
190,278,29538,1,2,0:0:0:0:
87,364,29701,2,0,P|49:363|16:347,1,75.0000028610231,2|0,1:2|1:0,0:0:0:0:
190,278,30027,1,8,0:0:0:0:
0,97,30190,5,2,1:2:0:0:
73,269,30353,2,0,P|89:215|81:160,1,112.500004291535,2|0,1:2|0:0,0:0:0:0:
75,146,30680,1,10,0:0:0:0:
272,5,30843,5,8,0:0:0:0:
255,21,30924,1,8,0:0:0:0:
243,42,31006,1,0,1:0:0:0:
42,66,31169,5,0,1:0:0:0:
87,59,31250,1,0,1:0:0:0:
130,78,31332,1,8,1:2:0:0:
156,116,31413,1,8,1:2:0:0:
158,162,31495,1,0,1:0:0:0:
326,79,31658,6,0,P|415:94|439:6,1,200,4|0,1:2|0:0,0:0:0:0:
282,165,32147,1,2,0:0:0:0:
438,104,32310,2,0,P|459:59|459:9,1,100,2|0,1:2|1:0,0:0:0:0:
243,42,32636,1,10,0:2:0:0:
370,204,32799,2,0,P|385:251|379:300,1,100,2|0,1:2|0:0,0:0:0:0:
151,370,33126,6,0,P|184:352|207:323,1,75.0000028610231,2|0,0:1|0:0,0:0:0:0:
196,252,33289,2,0,P|194:289|207:323,1,75.0000028610231,10|0,0:0|0:0,0:0:0:0:
275,349,33452,2,0,P|243:328|206:323,1,75.0000028610231,2|0,0:1|0:0,0:0:0:0:
15,307,33614,6,0,P|85:303|107:235,1,150,2|0,1:2|0:0,0:0:0:0:
107,235,33940,2,0,P|74:198|25:195,1,100,10|0,0:0|0:0,0:0:0:0:
141,0,34267,6,0,B|180:-8|210:18|210:18|240:45|279:37,1,150,2|0,1:2|0:0,0:0:0:0:
297,32,34593,1,10,0:0:0:0:
163,176,34756,2,0,P|148:128|154:79,1,100,2|0,0:0|1:0,0:0:0:0:
250,233,35082,1,2,1:2:0:0:
250,233,35163,1,0,1:0:0:0:
250,233,35245,1,10,0:2:0:0:
108,236,35408,2,0,P|77:196|67:148,1,100,2|0,1:2|0:0,0:0:0:0:
84,348,35734,6,0,P|120:356|157:350,1,75.0000028610231,2|0,0:1|0:0,0:0:0:0:
173,360,35897,2,0,P|204:340|226:309,1,75.0000028610231,10|0,0:1|0:0,0:0:0:0:
246,305,36060,2,0,P|254:268|248:231,1,75.0000028610231,2|0,1:0|0:0,0:0:0:0:
175,104,36223,6,0,P|176:141|191:175,1,75.0000028610231,2|0,1:0|0:0,0:0:0:0:
186,194,36386,2,0,P|213:219|248:232,1,75.0000028610231,2|0,1:0|0:0,0:0:0:0:
398,234,36549,6,0,P|365:216|327:213,1,75.0000028610231,10|0,0:1|0:0,0:0:0:0:
313,198,36712,2,0,P|277:208|248:232,1,75.0000028610231,2|0,0:1|0:0,0:0:0:0:
77,368,36875,6,0,P|84:327|93:367,1,112.500004291535,0|0,1:0|0:0,0:0:0:0:
84,348,37201,6,2,B|27:277|95:196|136:230|193:162|149:91,1,300.000011444092,10|0,1:0|1:0,1:0:0:0:
250,12,37690,1,0,1:0:0:0:
181,186,37853,1,10,0:2:0:0:
35,42,38017,2,0,P|69:104|139:99,1,150,2|0,1:2|0:0,0:0:0:0:
148,90,38343,5,2,0:0:0:0:
249,108,38506,1,10,0:0:0:0:
355,133,38669,1,2,0:0:0:0:
355,133,38750,1,2,0:0:0:0:
355,133,38832,2,0,P|426:128|451:61,1,150,2|0,1:2|0:0,0:0:0:0:
451,61,39158,2,0,P|430:106|434:155,1,100,10|0,0:0|0:0,0:0:0:0:
512,331,39484,6,0,P|451:289|377:291,1,150,2|0,1:2|0:0,0:0:0:0:
364,299,39810,1,10,0:0:0:0:
495,213,39973,2,0,P|515:168|511:118,1,100,2|0,0:0|1:0,0:0:0:0:
364,299,40299,1,2,1:2:0:0:
434,155,40462,2,0,P|416:108|379:76,1,100,10|0,0:0|0:0,0:0:0:0:
252,139,40788,2,0,P|301:134|346:155,1,100,2|0,0:0|1:0,0:0:0:0:
179,22,41114,6,0,B|187:52|198:69|198:69|181:79|168:107,1,100,8|2,0:0|0:3,0:0:0:0:
112,57,41359,1,2,0:3:0:0:
112,57,41440,1,0,1:0:0:0:
23,144,41603,1,0,1:0:0:0:
68,152,41685,1,0,1:0:0:0:
112,160,41767,1,8,1:2:0:0:
168,106,41930,1,8,0:3:0:0:
231,227,42093,5,2,1:2:0:0:
231,227,42419,2,0,L|241:301,1,75.0000028610231,10|0,0:0|0:0,0:0:0:0:
136,382,42745,1,2,1:2:0:0:
50,352,42908,1,2,1:2:0:0:
146,374,43071,1,10,0:0:0:0:
40,360,43234,2,0,L|29:285,1,75.0000028610231,2|0,1:2|0:0,0:0:0:0:
156,366,43560,1,2,1:2:0:0:
50,352,43723,2,0,L|39:277,1,75.0000028610231,10|2,0:0|0:3,0:0:0:0:
49,269,43968,1,2,0:3:0:0:
58,260,44049,2,0,L|47:185,1,75.0000028610231,0|0,1:0|1:0,0:0:0:0:
191,132,44375,6,0,P|119:125|90:59,2,150.000005722046,10|2|8,0:0|1:2|0:0,0:0:0:0:
264,80,45190,1,2,0:0:0:0:
264,80,45353,2,0,P|264:42|278:7,1,75.0000028610231,2|0,1:2|1:0,0:0:0:0:
328,162,45680,1,10,0:0:0:0:
409,105,45843,2,0,P|444:93|481:93,1,75.0000028610231,2|0,1:2|0:0,0:0:0:0:
395,95,46169,1,2,1:2:0:0:
467,179,46332,2,0,P|484:211|490:248,1,75.0000028610231,10|2,0:0|0:3,0:0:0:0:
460,324,46576,1,2,0:3:0:0:
460,324,46658,1,0,1:0:0:0:
355,186,46821,5,10,0:0:0:0:
239,382,46984,1,10,0:0:0:0:
174,143,47147,6,0,B|227:119|278:158|256:176|302:209|354:187,1,200,6|0,1:2|0:0,0:0:0:0:
171,331,47636,2,0,P|128:305|72:301,1,100,10|2,0:0|0:3,0:0:0:0:
8,334,47881,1,2,0:3:0:0:
8,334,47962,1,2,0:0:0:0:
136,223,48125,1,0,1:0:0:0:
4,88,48288,1,8,0:0:0:0:
208,8,48451,6,0,P|164:66|92:61,1,150,2|0,0:0|0:0,0:0:0:0:
84,53,48777,1,2,1:2:0:0:
231,183,48940,1,10,0:0:0:0:
383,137,49103,1,0,0:0:0:0:
242,179,49267,5,2,1:2:0:0:
371,140,49430,1,2,1:2:0:0:
287,95,49593,1,8,0:0:0:0:
334,232,49756,1,0,1:0:0:0:
334,232,49837,1,0,1:0:0:0:
334,232,49919,5,10,1:2:0:0:
263,9,50082,1,10,1:2:0:0:
270,0,50408,5,10,1:2:0:0:
212,257,50571,1,10,1:2:0:0:
203,248,50897,5,10,1:2:0:0:
492,313,51060,1,10,1:2:0:0:
504,302,51386,5,10,1:2:0:0:
147,347,51549,1,10,1:2:0:0:
147,347,51875,6,0,L|97:338,1,50,0|0,1:0|0:0,0:0:0:0:
31,376,52120,1,8,0:0:0:0:
31,376,52201,1,8,0:0:0:0:
160,340,52364,1,0,1:0:0:0:
49,241,52528,6,0,B|48:209|48:209|64:233,1,60,6|0,1:2|0:0,0:0:0:0:
49,241,52853,6,0,B|172:222,1,125,10|0,1:2|0:0,0:0:0:0:
241,53,53180,1,2,1:2:0:0:
107,141,53343,1,2,1:2:0:0:
264,174,53506,1,10,1:2:0:0:
19,0,53669,2,0,P|24:84|164:68,1,250,2|0,1:2|1:0,0:0:0:0:
281,253,54158,1,8,0:0:0:0:
414,60,54321,5,2,0:0:0:0:
414,60,54402,1,2,0:3:0:0:
414,60,54484,1,2,1:3:0:0:
249,154,54647,1,2,1:2:0:0:
448,252,54810,1,10,1:2:0:0:
265,159,54973,1,2,1:2:0:0:
490,80,55136,6,0,B|532:32|532:32|474:10,1,125,2|0,1:2|0:0,0:0:0:0:
265,159,55462,2,0,B|289:121|289:121|430:140,1,187.5,10|0,1:2|0:0,0:0:0:0:
443,143,55788,1,10,1:2:0:0:
258,176,55951,1,8,0:3:0:0:
361,261,56114,1,4,0:3:0:0:
170,342,56277,6,0,B|131:353|99:329|99:329|67:305|28:317,1,150.000005722046,6|0,1:2|0:0,0:0:0:0:
342,342,56603,2,0,B|380:353|412:329|412:329|444:305|483:317,1,150.000005722046,6|0,1:2|0:0,0:0:0:0:
151,261,56930,6,0,B|115:241|109:202|109:202|104:162|68:143,1,150.000005722046,6|0,1:2|0:0,0:0:0:0:
361,261,57256,2,0,B|396:241|402:202|402:202|407:162|443:143,1,150.000005722046,6|0,1:2|0:0,0:0:0:0:
256,279,57582,6,0,B|294:221|253:160|229:180|162:122|199:21|307:32|322:119|264:157,1,350.00000333786,6|0,1:2|0:0,0:0:0:0:
189,344,58071,6,0,P|132:317|71:321,1,125,8|2,1:2|0:3,0:0:0:0:
2,353,58315,1,2,0:3:0:0:
2,353,58397,1,2,0:0:0:0:
143,276,58560,1,2,1:2:0:0:
301,384,58723,1,10,1:2:0:0:
461,253,58886,2,0,P|449:337|364:333,1,187.5,2|0,1:2|0:0,0:0:0:0:
356,320,59212,5,2,1:2:0:0:
242,158,59375,1,10,1:2:0:0:
116,328,59538,6,0,P|66:291|5:291,1,125,2|0,0:2|1:0,0:0:0:0:
195,220,59864,2,0,P|187:281|218:334,1,125,2|8,1:2|1:2,0:0:0:0:
43,199,60190,2,0,P|127:166|152:79,1,187.5,2|0,1:2|0:0,0:0:0:0:
148,60,60517,1,2,0:0:0:0:
195,220,60680,1,10,1:2:0:0:
315,69,60843,6,0,P|328:95|332:126,1,62.5,2|0,0:0|0:0,0:0:0:0:
346,146,61006,2,0,P|335:174|316:199,1,62.5,2|0,1:0|0:0,0:0:0:0:
299,218,61169,2,0,P|279:241|269:271,1,62.5,2|0,1:0|0:0,0:0:0:0:
249,286,61332,2,0,P|251:315|266:343,1,62.5,10|0,0:0|0:0,0:0:0:0:
335,384,61495,6,0,B|384:396|420:361|420:361|457:325|506:338,1,187.5,2|0,0:1|0:0,0:0:0:0:
507,338,61821,2,0,P|495:309|497:278,1,62.5,2|0,1:0|0:0,0:0:0:0:
437,176,61984,6,0,L|424:237,1,62.5,10|0,1:0|0:0,0:0:0:0:
404,329,62147,1,0,1:0:0:0:
324,109,62310,6,0,L|311:170,1,62.5,10|0,1:0|0:0,0:0:0:0:
291,262,62473,1,0,1:0:0:0:
204,16,62636,6,2,P|235:99|323:110,1,187.5,10|0,1:0|0:0,1:0:0:0:
281,23,62962,6,0,P|293:42|291:20,1,60,6|0,1:2|0:0,0:0:0:0:
293,29,63288,6,0,P|340:9|424:15,1,125,10|0,1:2|0:0,0:0:0:0:
512,129,63614,1,2,1:2:0:0:
348,206,63777,1,2,1:2:0:0:
512,267,63940,1,10,1:2:0:0:
368,344,64103,2,0,P|298:271|399:258,1,250,2|0,1:2|0:0,0:0:0:0:
186,211,64593,1,8,0:0:0:0:
25,352,64756,5,2,0:0:0:0:
25,352,64837,1,2,0:0:0:0:
25,352,64919,1,2,1:2:0:0:
149,302,65082,1,2,1:2:0:0:
125,135,65245,1,10,1:2:0:0:
1,185,65408,1,2,0:0:0:0:
185,211,65571,6,0,P|246:201|302:229,1,125,2|0,1:2|0:0,0:0:0:0:
207,51,65897,2,0,B|254:77|261:125|261:125|283:84|336:77,1,187.5,10|0,1:2|0:0,0:0:0:0:
354,78,66223,1,8,1:2:0:0:
258,144,66386,1,8,0:3:0:0:
188,46,66549,1,4,0:3:0:0:
369,178,66712,6,0,B|343:118|400:66|445:106,1,150.000005722046,6|0,1:2|0:0,0:0:0:0:
142,178,67038,2,0,B|168:118|111:66|67:106,1,150.000005722046,6|0,1:2|0:0,0:0:0:0:
426,245,67364,6,0,B|470:284|527:232|501:172,1,150.000005722046,6|0,1:2|0:0,0:0:0:0:
86,245,67690,2,0,B|42:284|-15:232|11:172,1,150.000005722046,6|0,1:2|0:0,0:0:0:0:
178,383,68017,6,0,B|248:335|256:234|256:234|264:335|334:383,1,350.00000333786,6|0,1:2|0:0,0:0:0:0:
155,250,68506,6,0,P|101:281|39:281,1,125,8|2,1:2|0:0,0:0:0:0:
0,350,68750,1,2,0:0:0:0:
0,350,68832,1,2,0:0:0:0:
165,236,68995,1,2,1:2:0:0:
0,123,69158,1,10,1:2:0:0:
174,224,69321,2,0,P|158:145|88:184,1,187.5,2|0,1:2|0:0,0:0:0:0:
86,202,69647,5,2,1:2:0:0:
234,22,69810,1,10,1:2:0:0:
404,178,69973,2,0,P|318:178|303:93,1,187.5,2|0,0:0|0:0,0:0:0:0:
313,79,70299,5,2,1:2:0:0:
420,178,70462,1,10,1:2:0:0:
504,45,70625,2,0,B|501:30|492:18|492:18|493:61|474:111,1,125,2|0,1:2|0:0,0:0:0:0:
328,291,70951,2,0,B|336:302|349:311|349:311|329:266|332:217,1,125,2|8,0:0|1:2,0:0:0:0:
262,384,71277,5,0,1:0:0:0:
225,373,71359,1,0,1:0:0:0:
189,363,71440,1,8,1:2:0:0:
328,291,71603,1,8,0:3:0:0:
462,380,71767,1,8,0:3:0:0:
462,380,72094,6,0,B|480:353|504:342|504:342|489:300|489:250,1,150.000005722046,6|8,1:2|0:0,0:0:0:0:
332,295,72582,1,2,0:0:0:0:
332,295,72745,2,0,P|369:296|404:309,1,75.0000028610231,2|0,1:2|1:0,0:0:0:0:
512,155,73071,1,10,0:0:0:0:
369,81,73234,2,0,P|402:149|411:223,1,150.000005722046,2|0,1:2|1:0,0:0:0:0:
469,68,73723,1,8,0:0:0:0:
310,12,73886,5,8,0:0:0:0:
310,12,73968,1,8,0:0:0:0:
310,12,74049,2,0,P|287:42|280:78,1,75.0000028610231,2|0,1:2|1:0,0:0:0:0:
319,232,74375,1,10,0:0:0:0:
319,232,74701,6,0,P|286:214|248:211,1,75.0000028610231,2|0,1:2|0:0,0:0:0:0:
366,309,75027,1,10,0:0:0:0:
236,197,75190,2,0,P|199:203|168:225,1,75.0000028610231,2|0,0:0|1:0,0:0:0:0:
353,144,75517,1,0,1:0:0:0:
353,144,75680,1,8,0:0:0:0:
247,71,75843,6,0,P|212:85|175:85,1,75.0000028610231,2|0,1:2|0:0,0:0:0:0:
33,139,76169,2,0,P|70:139|105:154,1,75.0000028610231,2|8,1:2|0:0,0:0:0:0:
36,2,76576,5,0,1:0:0:0:
36,2,76658,1,2,1:2:0:0:
175,85,76821,1,0,1:0:0:0:
56,208,76984,2,0,P|37:175|32:138,1,75.0000028610231,10|0,1:2|0:0,0:0:0:0:
0,280,77310,6,0,P|65:245|139:248,1,150.000005722046,2|8,1:2|0:0,0:0:0:0:
294,322,77799,1,2,0:0:0:0:
214,384,77962,2,0,P|203:348|204:310,1,75.0000028610231,2|0,1:2|0:0,0:0:0:0:
304,332,78288,1,10,0:0:0:0:
139,247,78451,6,0,P|102:252|68:268,1,75.0000028610231,2|0,1:2|0:0,0:0:0:0:
148,232,78777,1,2,1:2:0:0:
54,261,78940,1,8,0:0:0:0:
238,177,79103,5,8,0:0:0:0:
238,177,79185,1,8,0:0:0:0:
238,177,79267,2,0,P|237:214|245:251,1,75.0000028610231,2|0,1:2|0:0,0:0:0:0:
304,332,79593,2,0,P|336:350|371:362,1,75.0000028610231,10|0,0:0|0:0,0:0:0:0:
422,208,79919,6,0,P|368:200|331:239,1,112.500004291535,2|0,1:2|0:0,0:0:0:0:
328,254,80245,1,10,0:0:0:0:
512,384,80408,2,0,P|483:336|479:280,1,112.500004291535,2|0,0:0|0:0,0:0:0:0:
482,266,80734,1,2,1:2:0:0:
343,341,80897,2,0,P|380:351|412:369,1,75.0000028610231,10|0,0:0|1:0,0:0:0:0:
242,384,81223,2,0,P|253:348|257:311,2,75.0000028610231,2|0|8,0:0|1:0|0:0,0:0:0:0:
165,234,81712,5,0,1:0:0:0:
182,241,81794,1,0,1:0:0:0:
199,248,81875,1,8,0:0:0:0:
354,171,82038,5,0,1:0:0:0:
329,182,82120,1,8,0:0:0:0:
303,192,82201,1,8,0:0:0:0:
125,79,82364,5,8,1:2:0:0:
163,94,82446,1,8,1:2:0:0:
201,110,82527,2,0,P|263:77|254:8,1,150,2|0,1:2|0:0,0:0:0:0:
244,0,82853,5,10,0:0:0:0:
346,93,83017,1,2,0:0:0:0:
464,20,83180,1,2,1:2:0:0:
336,101,83343,5,2,1:2:0:0:
490,170,83506,1,10,0:0:0:0:
393,294,83669,2,0,P|372:249|373:200,1,100,2|0,1:2|0:0,0:0:0:0:
462,369,83995,1,0,1:0:0:0:
373,200,84158,2,0,P|356:246|321:281,1,100,10|0,0:0|1:0,0:0:0:0:
347,355,84402,1,8,0:0:0:0:
347,355,84484,1,8,0:0:0:0:
241,198,84647,1,0,1:0:0:0:
148,355,84810,1,10,0:0:0:0:
148,355,85136,6,0,P|115:291|44:296,1,150,2|0,1:2|0:0,0:0:0:0:
44,296,85462,2,0,P|22:251|22:202,1,100,10|0,0:0|0:0,0:0:0:0:
138,37,85788,1,2,1:2:0:0:
4,84,85951,1,0,1:0:0:0:
154,153,86114,1,10,0:0:0:0:
326,14,86277,6,0,P|234:21|226:113,1,200,2|0,1:2|1:0,0:0:0:0:
65,123,86767,2,0,P|115:123|154:153,1,100,10|0,0:0|1:0,0:0:0:0:
222,196,87011,1,0,1:0:0:0:
222,196,87093,1,2,1:2:0:0:
130,31,87256,1,2,1:2:0:0:
88,234,87419,1,8,0:0:0:0:
253,1,87582,6,0,B|291:-6|321:20|321:20|351:46|391:38,1,150.000005722046,6|0,1:2|0:0,0:0:0:0:
392,38,87908,2,0,P|401:61|402:85,1,50,10|0,0:0|0:0,0:0:0:0:
512,149,88071,5,2,0:3:0:0:
512,149,88152,1,2,0:3:0:0:
512,149,88234,2,0,L|505:199,1,50,6|0,1:2|0:0,0:0:0:0:
432,168,88397,2,0,L|425:218,1,50,2|0,0:0|0:0,0:0:0:0:
352,187,88560,2,0,L|345:237,1,50,2|0,0:0|0:0,0:0:0:0:
264,126,88723,6,0,L|256:178,1,50,6|0,1:2|0:0,0:0:0:0:
241,284,88886,2,0,L|234:333,1,50,10|0,0:0|0:0,0:0:0:0:
352,244,89049,5,8,0:0:0:0:
352,244,89131,1,8,0:0:0:0:
352,244,89212,2,0,L|299:236,1,50,14|0,0:2|0:0,0:0:0:0:
194,222,89375,2,0,L|144:215,1,50,10|0,0:0|0:0,0:0:0:0:
21,32,89538,5,0,1:0:0:0:
21,32,89620,1,0,1:0:0:0:
21,32,89701,2,0,B|64:6|64:6|107:30,1,100,2|0,1:2|0:0,0:0:0:0:
117,131,89946,1,10,0:0:0:0:
117,131,90027,2,0,B|73:156|73:156|30:132,1,100,10|0,0:0|0:0,0:0:0:0:
220,5,90353,5,10,1:2:0:0:
266,254,90517,1,10,1:2:0:0:
260,264,90843,5,10,1:2:0:0:
313,52,91006,1,10,1:2:0:0:
306,38,91331,5,10,1:2:0:0:
360,321,91495,1,10,1:2:0:0:
352,336,91821,5,10,1:2:0:0:
412,26,91984,1,10,1:2:0:0:
512,136,92228,5,0,1:0:0:0:
512,136,92310,1,0,1:0:0:0:
378,154,92473,1,0,1:0:0:0:
244,172,92636,2,0,P|177:152|171:82,1,150,8|0,0:2|0:0,0:0:0:0:
237,29,92963,6,0,B|253:20|268:31|268:31|252:39|237:29,1,60,6|0,1:2|0:0,0:0:0:0:
237,29,93288,6,0,P|293:49|357:34,1,125,10|0,1:2|0:0,0:0:0:0:
163,172,93614,1,2,1:2:0:0:
94,38,93777,1,2,1:2:0:0:
179,162,93940,1,10,1:2:0:0:
16,296,94103,2,0,P|65:264|139:269,1,125,2|0,1:2|0:0,0:0:0:0:
11,173,94430,1,0,1:0:0:0:
11,173,94593,1,8,0:0:0:0:
116,377,94756,5,2,0:0:0:0:
116,377,94837,1,2,0:3:0:0:
116,377,94919,1,2,1:3:0:0:
242,325,95082,1,2,1:2:0:0:
181,139,95245,1,10,1:2:0:0:
129,265,95408,1,2,1:2:0:0:
294,198,95571,6,0,P|324:144|318:83,1,125,2|0,1:2|0:0,0:0:0:0:
34,180,95897,2,0,B|83:168|119:203|119:203|156:239|204:226,1,187.5,10|0,1:2|0:0,0:0:0:0:
216,215,96223,1,10,1:2:0:0:
324,287,96386,1,8,0:3:0:0:
221,367,96549,1,4,0:3:0:0:
388,227,96712,6,0,B|425:244|462:244|462:244|428:258|411:295,1,150.000005722046,6|0,1:2|0:0,0:0:0:0:
124,227,97038,2,0,B|87:244|50:244|50:244|84:258|100:295,1,150.000005722046,6|0,1:2|0:0,0:0:0:0:
493,79,97364,6,0,B|476:112|479:153|479:153|445:139|406:140,1,150.000005722046,6|0,1:2|0:0,0:0:0:0:
19,79,97690,2,0,B|36:112|33:153|33:153|67:139|106:140,1,150.000005722046,6|0,1:2|0:0,0:0:0:0:
297,84,98017,6,0,B|326:15|225:-45|147:67|224:152|244:137|282:187|247:254,1,350.00000333786,6|0,1:2|0:0,0:0:0:0:
19,79,98506,6,0,P|61:122|122:121,1,125,8|2,1:2|0:3,0:0:0:0:
93,51,98750,1,2,0:3:0:0:
93,51,98832,1,2,0:0:0:0:
149,210,98995,1,2,1:2:0:0:
257,11,99158,1,10,1:2:0:0:
312,169,99321,2,0,P|399:159|407:72,1,187.5,2|0,1:2|0:0,0:0:0:0:
397,55,99647,5,2,1:2:0:0:
228,220,99810,1,10,1:2:0:0:
364,382,99973,6,0,P|416:350|477:354,1,125,2|0,0:2|1:0,0:0:0:0:
306,186,100299,2,0,P|307:247|272:298,1,125,2|8,1:2|1:2,0:0:0:0:
503,232,100625,2,0,P|430:178|415:88,1,187.5,2|0,1:2|0:0,0:0:0:0:
421,71,100951,1,2,0:0:0:0:
386,271,101114,1,10,1:2:0:0:
229,122,101277,6,0,P|202:138|172:143,1,62.5,2|0,0:0|0:0,0:0:0:0:
152,158,101440,2,0,P|121:151|96:132,1,62.5,2|0,1:0|0:0,0:0:0:0:
73,131,101603,2,0,P|56:104|51:74,1,62.5,2|0,1:0|0:0,0:0:0:0:
35,55,101767,2,0,P|41:24|60:0,1,62.5,10|0,0:0|0:0,0:0:0:0:
178,31,101930,6,0,P|235:99|324:87,1,187.5,2|0,0:1|0:0,0:0:0:0:
337,76,102256,1,2,1:0:0:0:
510,220,102419,6,0,L|449:205,1,62.5,10|0,1:0|0:0,0:0:0:0:
357,184,102582,1,0,1:0:0:0:
489,110,102745,6,0,L|428:95,1,62.5,10|0,1:0|0:0,0:0:0:0:
337,76,102908,1,0,1:0:0:0:
470,315,103071,6,2,L|287:272,1,187.5,10|0,1:0|0:0,1:0:0:0:
218,321,103397,6,0,B|219:356|219:356|227:332,1,60,6|0,1:2|0:0,0:0:0:0:
227,332,103723,6,0,B|170:310|170:310|116:345,1,125,10|0,1:2|0:0,0:0:0:0:
240,188,104049,1,2,1:2:0:0:
64,213,104212,1,2,1:2:0:0:
162,287,104375,1,10,1:2:0:0:
137,116,104538,2,0,P|99:36|12:46,1,187.5,2|0,1:2|0:0,0:0:0:0:
1,56,104864,1,0,1:0:0:0:
190,0,105027,1,8,0:0:0:0:
300,119,105190,5,2,0:0:0:0:
300,119,105272,1,2,0:0:0:0:
300,119,105353,1,2,1:2:0:0:
345,0,105517,1,2,1:2:0:0:
380,217,105680,1,10,1:2:0:0:
425,98,105844,1,2,0:0:0:0:
255,238,106006,6,0,L|131:221,1,125,2|0,1:2|0:0,0:0:0:0:
289,351,106332,2,0,B|328:300|328:300|450:317,1,187.5,10|0,1:2|0:0,0:0:0:0:
468,321,106658,1,8,1:2:0:0:
350,270,106821,1,8,0:3:0:0:
471,206,106984,1,4,0:3:0:0:
383,17,107147,6,0,P|338:75|348:148,1,150.000005722046,6|0,1:2|0:0,0:0:0:0:
129,17,107473,2,0,P|173:75|164:147,1,150.000005722046,6|0,1:2|0:0,0:0:0:0:
348,148,107799,6,0,P|397:201|470:205,1,150.000005722046,6|0,1:2|0:0,0:0:0:0:
164,147,108125,2,0,P|114:200|41:204,1,150.000005722046,6|0,1:2|0:0,0:0:0:0:
178,384,108451,6,0,B|248:336|256:235|256:235|264:336|334:384,1,350.00000333786,6|0,1:2|0:0,0:0:0:0:
70,280,108940,6,0,P|23:319|21:380,1,125,8|2,1:2|0:0,0:0:0:0:
100,357,109185,1,2,0:0:0:0:
100,357,109267,1,2,0:0:0:0:
0,218,109430,1,2,1:2:0:0:
166,165,109593,1,10,1:2:0:0:
0,9,109756,2,0,P|38:89|126:82,1,187.5,2|0,1:2|0:0,0:0:0:0:
136,72,110082,5,2,1:2:0:0:
283,195,110245,1,10,1:2:0:0:
96,361,110408,2,0,P|134:281|222:288,1,187.5,2|0,0:0|0:0,0:0:0:0:
234,298,110734,5,2,1:2:0:0:
391,224,110897,1,10,1:2:0:0:
294,70,111060,2,0,B|280:91|261:103|261:103|279:134|283:178,1,125,2|0,1:2|0:0,0:0:0:0:
452,275,111386,2,0,B|465:253|484:241|484:241|466:210|462:166,1,125,2|8,0:0|1:2,0:0:0:0:
315,262,111712,5,0,1:0:0:0:
321,290,111794,1,0,1:0:0:0:
328,319,111875,1,8,1:2:0:0:
355,123,112038,1,0,1:0:0:0:
285,384,112201,1,8,1:2:0:0:
285,384,112527,5,6,1:2:0:0:
169,347,112690,1,2,0:0:0:0:
328,319,112853,1,8,0:0:0:0:
152,349,113017,2,0,B|121:311|121:311|137:264,1,100,2|0,0:0|1:0,0:0:0:0:
62,219,113343,5,2,1:2:0:0:
217,285,113506,1,10,0:0:0:0:
320,209,113669,2,0,L|419:222,1,100,2|0,1:2|0:0,0:0:0:0:
206,273,113995,5,2,1:2:0:0:
318,192,114158,1,8,0:0:0:0:
200,70,114321,1,2,0:0:0:0:
200,70,114402,1,2,0:0:0:0:
200,70,114484,1,2,1:2:0:0:
236,196,114647,1,0,1:0:0:0:
272,322,114810,2,0,B|319:342|319:342|358:312,1,100,10|0,1:2|0:0,0:0:0:0:
497,130,115136,6,0,B|456:143|456:143|441:249,1,150,2|0,1:2|0:0,0:0:0:0:
441,249,115462,2,0,B|468:240|468:240|478:169,1,100,10|0,1:2|0:0,0:0:0:0:
275,5,115788,5,2,1:2:0:0:
378,144,115951,1,2,1:2:0:0:
396,21,116114,1,8,0:0:0:0:
255,126,116277,2,0,B|172:131|172:131|140:98|140:98|70:103,1,200,2|0,1:2|1:0,0:0:0:0:
275,5,116767,1,10,0:0:0:0:
198,216,116930,5,2,1:2:0:0:
198,216,117011,1,2,1:2:0:0:
198,216,117093,1,2,1:2:0:0:
102,194,117256,1,0,1:0:0:0:
6,172,117419,1,8,0:0:0:0:
6,172,117745,6,0,B|33:130|33:130|15:82,1,100,2|0,1:2|0:0,0:0:0:0:
198,216,118071,1,10,0:0:0:0:
271,139,118234,1,0,0:0:0:0:
102,194,118397,2,0,B|74:235|74:235|92:283,1,100,2|2,1:2|0:0,0:0:0:0:
92,282,118642,1,2,0:0:0:0:
92,282,118723,1,10,0:0:0:0:
3,361,118886,6,0,B|34:321|34:321|182:340,1,200,2|0,1:2|0:0,0:0:0:0:
364,289,119375,1,8,0:0:0:0:
269,378,119538,1,8,0:0:0:0:
274,348,119620,1,8,0:0:0:0:
279,318,119701,1,0,1:0:0:0:
411,384,119864,5,8,0:0:0:0:
182,340,120027,1,0,1:0:0:0:
364,289,120190,1,8,0:0:0:0:
183,157,120353,6,0,P|241:150|285:222,1,150.000005722046,4|2,1:2|0:3,0:0:0:0:
284,222,120843,1,8,0:3:0:0:
335,120,121006,2,0,L|260:132,1,75.0000028610231
438,194,121332,1,2,1:2:0:0:
438,194,121658,5,4,0:3:0:0:
419,284,121821,1,8,0:3:0:0:
441,177,121984,1,4,0:3:0:0:
416,301,122147,5,0,1:0:0:0:
394,306,122228,1,0,1:0:0:0:
372,311,122310,1,8,1:0:0:0:
494,353,122473,1,0,1:0:0:0:
291,276,122636,2,0,P|237:276|206:320,1,112.500004291535,10|0,0:0|0:0,0:0:0:0:
207,339,122962,5,10,1:2:0:0:
155,94,123125,1,10,1:2:0:0:
142,112,123451,5,10,1:2:0:0:
386,60,123614,1,10,1:2:0:0:
368,47,123940,5,10,1:2:0:0:
430,340,124103,1,10,1:2:0:0:
443,322,124430,5,10,1:2:0:0:
149,384,124593,1,10,1:2:0:0:
149,384,124919,5,0,1:0:0:0:
185,376,125000,1,0,1:0:0:0:
213,352,125082,1,2,1:3:0:0:
227,318,125163,1,0,1:0:0:0:
223,281,125245,2,0,L|164:268,1,50,2|0,1:3|0:0,0:0:0:0:
28,211,125408,5,0,1:0:0:0:
28,211,125489,1,0,1:0:0:0:
28,211,125571,2,0,B|60:212|60:212|36:196,1,60,6|0,1:2|0:0,0:0:0:0:
28,211,125897,6,0,B|-6:155|-6:155|29:107,1,125,10|0,1:2|0:0,0:0:0:0:
162,276,126223,1,2,1:2:0:0:
39,360,126386,1,2,1:2:0:0:
174,268,126549,1,10,1:2:0:0:
302,376,126712,2,0,P|355:345|415:355,1,125,2|0,1:2|0:0,0:0:0:0:
185,261,127038,5,0,1:0:0:0:
319,384,127201,1,8,0:0:0:0:
431,262,127364,1,2,0:0:0:0:
431,262,127446,1,2,0:3:0:0:
431,262,127527,1,2,1:3:0:0:
499,325,127690,1,2,1:2:0:0:
415,356,127853,5,10,1:2:0:0:
512,224,128017,1,2,1:2:0:0:
385,47,128180,2,0,P|427:139|498:126,1,187.5,2|0,1:2|0:0,0:0:0:0:
497,126,128506,2,0,B|446:112|409:148|409:148|373:183|324:171,1,187.5,10|0,1:2|0:0,0:0:0:0:
290,105,128832,5,10,1:2:0:0:
269,230,128995,1,8,0:3:0:0:
231,160,129158,1,4,0:3:0:0:
336,319,129321,6,0,B|364:283|406:300|406:300|378:336|336:319,1,150.000005722046,6|0,1:2|0:0,0:0:0:0:
176,319,129647,2,0,B|147:283|105:300|105:300|133:336|176:319,1,150.000005722046,6|0,1:2|0:0,0:0:0:0:
382,222,129973,6,0,B|424:224|447:195|447:195|446:234|480:261,1,150.000005722046,6|0,1:2|0:0,0:0:0:0:
129,222,130299,2,0,B|87:224|64:195|64:195|65:234|32:261,1,150.000005722046,6|0,1:2|0:0,0:0:0:0:
302,94,130625,6,0,B|359:12|239:-81|136:70|239:188,1,350.00000333786,6|0,1:2|0:0,0:0:0:0:
512,40,131114,6,0,P|461:74|399:73,1,125,8|2,1:2|0:3,0:0:0:0:
344,26,131359,1,2,0:3:0:0:
344,26,131440,1,2,0:0:0:0:
497,145,131603,1,2,1:2:0:0:
323,225,131767,1,10,1:2:0:0:
506,377,131930,2,0,P|469:297|381:306,1,187.5,2|0,1:2|0:0,0:0:0:0:
369,321,132256,5,2,1:2:0:0:
253,206,132419,1,10,1:2:0:0:
105,347,132582,6,0,P|158:315|219:321,1,125,2|0,0:2|1:0,0:0:0:0:
59,148,132908,2,0,P|59:209|24:259,1,125,2|8,1:2|1:2,0:0:0:0:
253,206,133234,2,0,P|181:150|176:59,1,187.5,2|0,1:2|0:0,0:0:0:0:
183,44,133560,1,2,0:0:0:0:
138,235,133723,1,10,1:2:0:0:
330,104,133886,6,0,P|359:114|390:115,1,62.5,2|0,0:0|0:0,0:0:0:0:
430,179,134049,2,0,P|419:208|418:239,1,62.5,2|0,1:0|0:0,0:0:0:0:
354,280,134212,2,0,P|324:269|293:268,1,62.5,2|0,1:0|0:0,0:0:0:0:
253,206,134375,2,0,P|263:176|264:145,1,62.5,10|0,0:0|0:0,0:0:0:0:
181,0,134538,6,0,P|144:69|222:71,1,187.5,2|0,0:1|0:0,0:0:0:0:
222,71,134864,2,0,P|230:41|218:13,1,62.5,2|0,1:0|0:0,0:0:0:0:
98,85,135027,6,0,L|104:147,1,62.5,10|0,1:0|0:0,0:0:0:0:
116,240,135190,1,0,1:0:0:0:
264,145,135353,6,0,L|270:207,1,62.5,10|0,1:0|0:0,0:0:0:0:
282,301,135516,1,0,1:0:0:0:
430,205,135680,6,2,B|489:133|489:133|506:225,1,187.5,10|0,1:0|0:0,1:0:0:0:
450,301,136006,6,0,P|443:282|459:298,1,60,6|0,1:2|0:0,0:0:0:0:
451,290,136332,6,0,P|390:304|333:281,1,125,10|0,1:2|0:0,0:0:0:0:
499,372,136658,1,2,1:2:0:0:
346,266,136821,1,2,1:2:0:0:
511,173,136984,1,10,1:2:0:0:
342,43,137147,2,0,P|352:128|436:120,1,187.5,2|0,1:2|0:0,0:0:0:0:
444,108,137473,1,0,1:0:0:0:
346,266,137636,1,8,0:0:0:0:
173,121,137799,5,2,0:0:0:0:
173,121,137881,1,2,0:0:0:0:
173,121,137962,1,2,1:2:0:0:
292,163,138125,1,2,1:2:0:0:
139,297,138288,1,10,1:2:0:0:
258,339,138451,1,2,0:0:0:0:
112,205,138614,6,0,P|29:220|47:303,1,187.5,2|0,1:2|0:0,0:0:0:0:
47,303,138940,2,0,B|59:254|24:218|24:218|-12:181|2:129,1,187.5,10|0,1:2|0:0,0:0:0:0:
7,112,139267,1,8,1:2:0:0:
112,204,139430,1,8,0:3:0:0:
229,120,139593,1,4,0:3:0:0:
95,14,139756,6,0,B|94:54|125:79|125:79|157:103|155:144,1,150.000005722046,6|0,1:2|0:0,0:0:0:0:
417,14,140082,2,0,B|417:54|386:79|386:79|354:103|356:144,1,150.000005722046,6|0,1:2|0:0,0:0:0:0:
83,136,140408,6,0,B|88:95|123:76|123:76|159:57|165:17,1,150.000005722046,6|0,1:2|0:0,0:0:0:0:
429,136,140734,2,0,B|423:95|388:76|388:76|352:57|346:17,1,150.000005722046,6|0,1:2|0:0,0:0:0:0:
256,350,141060,6,0,B|160:253|197:121|336:127|330:246|249:265,1,350.00000333786,6|0,1:2|0:0,0:0:0:0:
11,383,141549,6,0,P|57:344|118:344,1,125,8|2,1:2|0:0,0:0:0:0:
189,384,141794,1,2,0:0:0:0:
189,384,141875,1,2,0:0:0:0:
320,310,142038,1,2,1:2:0:0:
149,222,142201,1,10,1:2:0:0:
309,119,142364,2,0,P|376:180|465:162,1,187.5,2|0,1:2|0:0,0:0:0:0:
476,151,142690,5,2,1:2:0:0:
320,310,142853,1,10,1:2:0:0:
196,95,143017,2,0,B|238:49|238:49|217:172,1,187.5,2|0,0:0|0:0,0:0:0:0:
215,186,143343,5,2,1:2:0:0:
333,323,143506,1,10,1:2:0:0:
464,161,143669,2,0,P|419:121|359:127,1,125,2|0,1:2|0:0,0:0:0:0:
196,95,143995,2,0,P|256:101|301:61,1,125,2|8,0:0|1:2,0:0:0:0:
466,283,144321,5,0,1:0:0:0:
429,276,144402,1,8,1:0:0:0:
391,269,144484,1,8,1:0:0:0:
270,246,144647,1,4,0:3:0:0:
149,223,144810,1,4,0:3:0:0:
28,200,144973,1,8,0:3:0:0:
94,145,145136,5,2,0:3:0:0:
94,145,145462,1,2,0:3:0:0:
94,145,145788,1,2,0:3:0:0:
160,90,145951,6,0,L|208:100,1,50,0|0,1:0|0:0,0:0:0:0:
273,58,146114,2,0,B|315:118|315:118|252:162,1,150,8|0,1:2|0:0,0:0:0:0:
187,204,146440,6,0,L|190:253,1,50,6|0,1:2|0:0,0:0:0:0:
175,211,146767,2,0,B|183:310|183:310|82:318,1,200,10|2,1:2|1:2,0:0:0:0:
187,204,147256,1,2,1:2:0:0:
295,364,147419,1,10,1:2:0:0:
413,290,147582,2,0,P|432:244|429:195,1,100,2|0,1:2|0:0,0:0:0:0:
314,369,147908,5,0,1:0:0:0:
408,309,148071,1,8,0:0:0:0:
310,258,148234,1,2,0:0:0:0:
310,258,148315,1,2,0:3:0:0:
310,258,148397,1,2,1:3:0:0:
403,328,148560,1,2,1:2:0:0:
500,246,148723,2,0,P|510:196|496:142,1,100,10|2,1:2|1:2,0:0:0:0:
349,27,149049,6,0,B|386:62|386:62|430:41,1,100,2|0,1:2|0:0,0:0:0:0:
427,191,149375,2,0,B|370:137|370:137|302:168,1,150,10|0,1:2|0:0,0:0:0:0:
290,178,149701,1,10,1:2:0:0:
276,256,149864,1,8,0:3:0:0:
350,229,150027,1,4,0:3:0:0:
140,68,150190,6,0,B|189:30|189:30|225:82,1,125,6|0,1:2|0:0,0:0:0:0:
179,314,150517,2,0,B|128:349|128:349|92:297,1,125,6|0,1:2|0:0,0:0:0:0:
282,172,150843,2,0,B|317:221|317:221|263:257,1,125,6|0,1:2|0:0,0:0:0:0:
37,211,151170,2,0,B|0:160|0:160|51:124,1,125,6|0,1:2|0:0,0:0:0:0:
268,365,151495,6,0,B|365:379|365:379|399:342|399:342|448:349,1,200,6|0,1:2|0:0,0:0:0:0:
512,166,151984,2,0,B|495:195|495:195|429:199,1,100,8|2,1:2|0:3,0:0:0:0:
358,202,152228,1,2,0:3:0:0:
358,202,152310,1,2,0:0:0:0:
266,43,152473,1,2,1:2:0:0:
391,76,152636,1,10,1:2:0:0:
233,169,152799,6,0,B|180:185|142:144|142:144|104:104|51:120,1,200,2|2,1:2|1:2,0:0:0:0:
205,92,153288,1,10,1:2:0:0:
109,252,153451,5,2,0:2:0:0:
109,252,153533,1,0,0:0:0:0:
109,252,153614,1,0,1:0:0:0:
231,327,153777,1,2,1:2:0:0:
19,368,153940,1,8,1:2:0:0:
108,252,154103,6,0,P|131:208|121:160,1,100,2|0,1:2|0:0,0:0:0:0:
231,327,154430,1,2,0:0:0:0:
340,147,154593,1,10,1:2:0:0:
456,315,154756,6,0,P|418:314|386:296,1,75.0000028610231,2|0,0:0|0:0,0:0:0:0:
329,348,154919,2,0,P|310:315|310:278,1,75.0000028610231,2|0,1:0|0:0,0:0:0:0:
237,255,155082,2,0,P|255:222|287:204,1,75.0000028610231,2|0,1:0|0:0,0:0:0:0:
271,129,155245,2,0,P|308:129|340:147,1,75.0000028610231,10|0,0:0|0:0,0:0:0:0:
372,60,155408,6,0,B|312:41|269:87|269:87|227:133|167:114,1,225.000008583069,2|0,0:1|0:0,0:0:0:0:
167,114,155734,2,0,P|168:76|150:44,1,75.0000028610231,2|0,1:0|0:0,0:0:0:0:
46,15,155897,6,0,B|68:45|68:45|56:80,1,75.0000028610231,10|0,1:0|0:0,0:0:0:0:
31,152,156060,1,0,1:0:0:0:
174,203,156223,6,0,B|151:233|151:233|163:268,1,75.0000028610231,10|0,1:0|0:0,0:0:0:0:
189,340,156386,1,0,1:0:0:0:
0,384,156549,6,2,B|32:339|32:339|200:357,1,225.000008583069,10|0,1:0|0:0,1:0:0:0:
271,304,156875,6,0,P|291:317|315:323,1,50,6|0,1:2|0:0,0:0:0:0:
262,312,157201,2,0,P|354:324|394:239,1,200,10|2,1:2|1:2,0:0:0:0:
471,123,157690,1,2,1:2:0:0:
395,259,157853,1,10,1:2:0:0:
270,167,158017,2,0,P|293:101|363:104,1,150,2|0,1:2|0:0,0:0:0:0:
375,118,158343,1,2,1:2:0:0:
189,75,158506,1,8,0:0:0:0:
433,45,158669,5,2,0:0:0:0:
433,45,158750,1,2,0:0:0:0:
433,45,158832,1,2,1:2:0:0:
349,189,158995,1,2,1:2:0:0:
203,58,159158,2,0,P|154:55|119:89,1,100,10|2,1:2|0:0,0:0:0:0:
279,0,159484,6,0,L|297:98,1,100,2|0,1:2|0:0,0:0:0:0:
59,81,159810,2,0,B|87:40|87:40|186:55,1,150,10|0,1:2|0:0,0:0:0:0:
203,58,160136,1,8,1:2:0:0:
245,146,160299,1,8,0:3:0:0:
153,197,160462,1,4,0:3:0:0:
374,364,160625,6,0,B|412:356|412:356|425:272,1,125,6|0,1:2|0:0,0:0:0:0:
320,169,160951,2,0,B|281:176|281:176|268:260,1,125,6|0,1:2|0:0,0:0:0:0:
443,149,161277,6,0,L|319:169,1,125,6|0,1:2|0:0,0:0:0:0:
250,384,161603,2,0,L|373:363,1,125,6|0,1:2|0:0,0:0:0:0:
189,313,161930,6,0,B|135:296|97:336|97:336|60:377|7:360,1,200,6|0,1:2|0:0,0:0:0:0:
201,298,162419,2,0,P|223:253|212:206,1,100,8|2,1:2|0:0,0:0:0:0:
172,142,162663,1,2,0:0:0:0:
172,142,162745,1,2,0:0:0:0:
308,212,162908,1,2,1:2:0:0:
189,313,163071,1,10,1:2:0:0:
342,374,163234,6,0,P|401:329|474:329,1,150,2|0,1:2|0:0,0:0:0:0:
492,336,163560,1,2,1:2:0:0:
275,292,163723,1,10,1:2:0:0:
412,153,163886,6,0,P|434:223|408:292,1,150,2|0,0:0|0:0,0:0:0:0:
396,306,164212,1,2,1:2:0:0:
512,117,164375,1,10,1:2:0:0:
363,28,164538,5,2,1:2:0:0:
363,28,164620,1,2,1:2:0:0:
363,28,164701,1,0,1:0:0:0:
497,125,164864,1,2,0:0:0:0:
334,186,165027,1,8,1:2:0:0:
431,371,165190,5,0,1:0:0:0:
439,331,165272,1,0,1:0:0:0:
448,292,165353,1,8,1:2:0:0:
482,133,165517,1,0,1:0:0:0:
307,267,165680,2,0,P|237:272|211:206,1,150,8|0,1:2|0:0,0:0:0:0:
261,143,166006,6,0,L|317:154,1,57.5000010967255,4|0,1:2|0:0,0:0:0:0:
273,133,166332,2,0,B|361:150|361:150|375:69,1,172.500003290176,10|0,1:2|0:0,0:0:0:0:
377,49,166658,1,10,1:2:0:0:
440,201,166821,5,0,1:0:0:0:
288,264,166984,1,8,1:2:0:0:
453,195,167147,2,0,P|527:223|511:301,1,172.500003290176,2|0,1:2|0:0,0:0:0:0:
496,318,167473,5,2,1:2:0:0:
385,251,167636,1,10,1:2:0:0:
303,347,167799,1,2,1:2:0:0:
194,282,167962,1,10,1:2:0:0:
23,362,168125,5,0,1:0:0:0:
88,203,168288,1,8,1:2:0:0:
15,375,168451,2,0,P|93:378|117:302,1,172.500003290176,2|0,1:2|0:0,0:0:0:0:
111,287,168777,5,0,1:0:0:0:
265,318,168940,1,10,1:2:0:0:
296,164,169104,1,2,1:2:0:0:
142,133,169267,1,8,1:2:0:0:
203,225,169430,5,2,1:2:0:0:
338,89,169593,1,10,1:2:0:0:
456,276,169756,6,0,B|419:280|399:312|399:312|389:276|358:257,1,139.999995727539,6|0,1:2|0:0,0:0:0:0:
219,148,170082,2,0,B|188:129|178:93|178:93|158:125|121:129,1,139.999995727539,6|0,1:2|0:0,0:0:0:0:
374,180,170408,6,0,B|411:176|431:144|431:144|441:180|472:199,1,139.999995727539,6|0,1:2|0:0,0:0:0:0:
203,225,170734,2,0,B|166:229|146:261|146:261|136:225|105:206,1,139.999995727539,6|0,1:2|0:0,0:0:0:0:
286,0,171060,6,0,B|233:82|322:175|384:88|351:45,1,230.000004386902,6|0,1:2|1:0,0:0:0:0:
219,148,171549,6,0,P|169:120|112:119,1,115.000002193451,10|0,1:2|1:0,0:0:0:0:
229,160,171875,1,10,1:2:0:0:
106,102,172038,1,0,1:0:0:0:
48,225,172201,1,10,1:2:0:0:
99,84,172364,6,0,P|141:157|142:243,1,172.500003290176,2|0,1:2|0:0,0:0:0:0:
138,260,172690,1,0,1:2:0:0:
200,85,172853,1,8,1:2:0:0:
330,160,173017,6,0,P|287:233|286:319,1,172.500003290176,2|0,1:2|0:0,0:0:0:0:
291,335,173343,1,0,1:0:0:0:
229,160,173506,1,8,1:2:0:0:
368,278,173669,6,0,P|446:289|473:214,1,172.500003290176,2|0,1:2|0:0,0:0:0:0:
465,195,173995,1,2,1:2:0:0:
291,335,174158,2,0,P|215:295|130:301,1,172.500003290176,10|0,1:2|0:0,0:0:0:0:
115,309,174484,1,8,1:2:0:0:
293,224,174647,1,0,1:0:0:0:
117,146,174810,1,10,1:2:0:0:
211,28,174973,6,0,P|234:79|227:135,1,115.000002193451,2|8,1:2|1:2,0:0:0:0:
131,302,175299,1,2,1:2:0:0:
5,152,175462,1,8,1:2:0:0:
115,309,175625,5,8,0:3:0:0:
1,262,175788,1,4,0:3:0:0:
196,213,175951,1,0,1:0:0:0:
196,213,176033,1,0,1:0:0:0:
196,213,176114,1,8,1:0:0:0:
129,324,176277,1,8,0:3:0:0:
335,384,176440,6,0,P|343:356|342:328,1,57.5000010967255,6|0,1:2|0:0,0:0:0:0:
345,383,176767,2,0,P|342:301|266:274,1,172.500003290176,10|0,1:2|0:0,0:0:0:0:
252,281,177093,1,10,1:2:0:0:
282,119,177256,1,0,1:0:0:0:
236,289,177419,1,10,1:2:0:0:
130,163,177582,2,0,P|76:146|25:170,1,115.000002193451,2|8,1:2|1:2,0:0:0:0:
190,87,177908,5,0,1:0:0:0:
221,194,178071,1,10,1:2:0:0:
282,119,178234,1,2,1:2:0:0:
342,259,178397,5,8,1:2:0:0:
288,135,178560,1,2,1:2:0:0:
432,166,178723,1,8,1:2:0:0:
377,42,178886,2,0,P|455:22|489:94,1,172.500003290176,2|0,1:2|0:0,0:0:0:0:
483,111,179212,5,0,1:2:0:0:
352,186,179375,1,10,1:2:0:0:
468,292,179538,1,2,1:2:0:0:
432,166,179701,5,10,1:2:0:0:
388,312,179864,1,2,1:2:0:0:
242,268,180027,1,10,1:2:0:0:
358,381,180190,6,0,P|425:379|459:322,1,139.999995727539,2|0,1:2|0:0,0:0:0:0:
310,130,180517,2,0,P|242:131|208:188,1,139.999995727539,2|0,1:2|0:0,0:0:0:0:
399,146,180843,6,0,P|461:169|474:235,1,139.999995727539,2|0,1:2|0:0,0:0:0:0:
269,365,181170,2,0,P|206:341|193:275,1,139.999995727539,2|0,1:2|0:0,0:0:0:0:
14,252,181495,6,0,B|129:227|129:227|89:265,1,172.500003290176,6|0,1:2|0:0,0:0:0:0:
78,276,181821,1,0,1:2:0:0:
102,107,181984,2,0,B|117:139|117:139|194:158,1,115.000002193451,10|0,1:2|1:0,0:0:0:0:
331,35,182310,5,10,1:2:0:0:
172,74,182473,1,0,1:0:0:0:
361,122,182636,1,10,1:2:0:0:
194,158,182799,6,0,P|125:201|137:282,1,172.500003290176,2|0,1:2|0:0,0:0:0:0:
149,292,183125,1,0,1:2:0:0:
102,107,183288,1,8,1:2:0:0:
234,247,183451,6,0,P|306:284|369:234,1,172.500003290176,2|0,1:2|0:0,0:0:0:0:
372,218,183777,1,0,1:0:0:0:
235,352,183940,1,8,1:2:0:0:
290,167,184104,6,0,P|286:85|210:55,1,172.500003290176,2|0,1:2|0:0,0:0:0:0:
196,62,184430,1,0,1:2:0:0:
380,114,184593,1,10,1:2:0:0:
140,188,184756,5,8,0:3:0:0:
284,268,184919,1,4,0:3:0:0:
164,368,185082,1,0,1:0:0:0:
164,368,185163,1,8,1:0:0:0:
164,368,185245,1,8,1:0:0:0:
380,114,185408,6,0,B|410:41|519:61|548:137|519:246|395:222|393:330|393:330|352:231|249:302|179:215|175:132|281:59|338:135,1,807.500015401841,6|0,1:2|0:0,0:0:0:0:
