osu file format v14

[General]
AudioFilename: audio.mp3
AudioLeadIn: 0
PreviewTime: 78221
Countdown: 0
SampleSet: Soft
StackLeniency: 0.3
Mode: 0
LetterboxInBreaks: 0
WidescreenStoryboard: 1

[Editor]
Bookmarks: 23068,34103,45137,67206,78241,87186,100310,133393,144428
DistanceSpacing: 1
BeatDivisor: 8
GridSize: 32
TimelineZoom: 1.2

[Metadata]
Title:Stargazer
TitleUnicode:Stargazer
Artist:Lime
ArtistUnicode:Lime
Creator:Kastellan
Version:Beginner
Source:BMS
Tags:BOF2009
BeatmapID:1922525
BeatmapSetID:858677

[Difficulty]
HPDrainRate:3
CircleSize:2.5
OverallDifficulty:2
ApproachRate:4.5
SliderMultiplier:1.4
SliderTickRate:1

[Events]
//Background and Video events
0,0,"stargazer.jpg",0,0
//Break Periods
2,23268,27326
//Storyboard Layer 0 (Background)
//Storyboard Layer 1 (Fail)
//Storyboard Layer 2 (Pass)
//Storyboard Layer 3 (Foreground)
//Storyboard Sound Samples

[TimingPoints]
1000,689.655172413793,4,2,0,50,1,0
1000,-100,4,2,0,50,0,0
28586,689.655172413793,4,2,0,50,1,0
100310,-100,4,2,0,50,0,1
144448,-100,4,2,0,50,0,0

[Colours]
Combo1 : 236,249,253
Combo2 : 156,213,239

[HitObjects]
22,29,1000,6,0,P|98:37|182:58,1,140
293,93,2379,2,0,P|221:121|145:162,1,140
46,223,3758,2,0,P|122:231|206:252,1,140
317,287,5137,2,0,P|245:315|169:356,1,140
63,283,6517,6,0,B|110:272|171:258|171:258|226:228|306:202,2,210
149,172,9275,5,0,0:0:0:0:
10,152,9965,1,0,0:0:0:0:
100,45,10655,1,0,0:0:0:0:
234,82,11344,1,0,0:0:0:0:
374,54,12034,6,0,P|384:129|422:275,1,140
416,330,13413,2,0,P|363:275|247:179,1,140
219,131,14793,2,0,P|293:144|444:153,1,140
495,176,16172,2,0,P|426:208|299:289,1,140
306,356,17551,6,0,B|302:290|255:228|255:228|250:191|229:161,2,210
173,309,20310,5,0,0:0:0:0:
250,192,21000,1,0,0:0:0:0:
377,249,21690,1,0,0:0:0:0:
459,136,22379,1,0,0:0:0:0:
364,32,23068,1,0,0:0:0:0:
336,124,28586,6,0,B|304:228|243:178|208:294,1,210
321,356,33413,1,0,0:0:0:0:
443,288,34103,5,0,0:0:0:0:
355,178,34792,2,0,P|398:119|417:35,1,140
501,166,36172,1,0,0:0:0:0:
355,178,36861,5,0,0:0:0:0:
281,76,37551,2,0,P|194:37|113:46,1,140
14,68,38930,1,0,0:0:0:0:
116,173,39620,5,0,0:0:0:0:
150,36,40310,2,0,P|190:94|293:152,1,140
212,270,41689,1,0,0:0:0:0:
86,208,42379,5,0,0:0:0:0:
91,347,43068,2,0,P|167:350|255:387,1,140
369,360,44448,1,0,0:0:0:0:
485,283,45137,6,0,P|416:274|345:224,1,140
217,252,46517,2,0,P|272:209|308:130,1,140
385,34,47896,2,0,P|384:121|412:200,1,140
350,302,49275,2,0,P|319:236|310:159,1,140
257,40,50654,6,0,P|182:108|184:234,2,210
377,114,53413,5,0,0:0:0:0:
342,250,54103,1,0,0:0:0:0:
202,260,54792,1,0,0:0:0:0:
150,129,55482,1,0,0:0:0:0:
257,40,56172,6,0,B|248:109|274:108|263:186,1,140
200,304,57551,2,0,P|273:291|387:329,1,140
464,244,58930,6,0,P|406:217|300:200,1,140
191,203,60310,2,0,P|116:221|37:268,1,140
90,113,61689,6,0,B|135:83|186:72|186:72|245:80|298:105,2,210
71,251,64448,5,0,0:0:0:0:
187,172,65137,1,0,0:0:0:0:
291,265,65827,1,0,0:0:0:0:
408,188,66517,1,0,0:0:0:0:
504,289,67206,6,0,P|435:291|344:309,1,140
232,348,68586,1,0,0:0:0:0:
97,309,69275,1,0,0:0:0:0:
199,213,69965,2,0,P|261:120|238:32,2,210
88,299,72723,6,0,P|161:316|270:368,1,140
361,349,74103,1,0,0:0:0:0:
475,268,74792,1,0,0:0:0:0:
487,128,75482,1,0,0:0:0:0:
390,26,76172,1,0,0:0:0:0:
250,36,76861,1,0,0:0:0:0:
161,144,77551,1,0,0:0:0:0:
165,283,78241,6,0,P|65:246|272:62,1,560
161,144,81689,2,0,P|235:166|306:232,2,140
38,211,83758,6,0,B|64:335|245:354|283:204|283:204|399:192|445:82,1,560
453,222,87206,2,0,P|388:265|302:290,2,140
480,359,89275,6,0,P|288:361|192:319,1,280
96,245,91344,1,0,0:0:0:0:
77,383,92034,6,0,B|223:366|188:299|332:279,1,280
472,285,94103,1,0,0:0:0:0:
504,148,94792,6,0,B|432:147|370:185|370:185|307:155|229:168,1,280
104,220,96861,1,0,0:0:0:0:
65,85,97551,6,0,P|154:6|199:121,1,280
336,80,99620,1,0,0:0:0:0:
452,157,100310,5,0,0:0:0:0:
495,289,100999,2,0,P|448:288|318:325,1,140
227,361,102379,1,0,0:0:0:0:
250,223,103068,5,0,0:0:0:0:
119,273,103758,2,0,P|83:196|36:139,1,140
81,16,105137,1,0,0:0:0:0:
186,107,105827,5,0,0:0:0:0:
292,16,106517,2,0,P|356:36|480:35,1,140
488,167,107896,1,0,0:0:0:0:
349,151,108585,5,0,0:0:0:0:
223,88,109275,2,0,L|234:250,1,140
106,165,110654,1,0,0:0:0:0:
39,288,111344,5,0,0:0:0:0:
162,354,112034,2,0,P|236:346|337:359,1,140
438,376,113413,1,0,0:0:0:0:
391,243,114103,5,0,0:0:0:0:
475,131,114792,2,0,P|400:127|337:111,1,140
422,0,116172,1,0,0:0:0:0:
282,12,116861,5,0,0:0:0:0:
141,14,117551,2,0,P|62:38|28:107,1,140
20,223,118930,1,0,0:0:0:0:
147,164,119620,5,0,0:0:0:0:
254,74,120310,2,0,P|286:123|418:138,1,140
499,157,121689,1,0,0:0:0:0:
424,275,122379,5,0,0:0:0:0:
315,363,123068,2,0,L|297:217,1,140
183,305,124448,1,0,0:0:0:0:
49,345,125137,5,0,0:0:0:0:
85,209,125827,2,0,P|127:140|207:88,1,140
41,54,127206,1,0,0:0:0:0:
63,192,127896,5,0,0:0:0:0:
172,103,128585,2,0,P|248:89|349:103,1,140
433,160,129965,1,0,0:0:0:0:
312,231,130654,5,0,0:0:0:0:
173,210,131344,2,0,L|281:80,1,140
124,80,132723,1,0,0:0:0:0:
33,186,133413,5,0,0:0:0:0:
173,210,134103,2,0,P|260:215|360:281,1,140
385,352,135482,1,0,0:0:0:0:
245,361,136172,5,0,0:0:0:0:
307,235,136861,2,0,P|322:176|310:90,1,140
427,179,138241,1,0,0:0:0:0:
466,313,138930,5,0,0:0:0:0:
335,364,139620,2,0,P|267:351|170:352,1,140
67,293,140999,1,0,0:0:0:0:
177,207,141689,5,0,0:0:0:0:
253,89,142379,2,0,L|325:240,1,140
397,103,143758,1,0,0:0:0:0:
456,229,144448,5,0,0:0:0:0:
256,192,144620,12,0,155482,0:0:0:0:
