osu file format v14

[General]
AudioFilename: audio.mp3
AudioLeadIn: 0
PreviewTime:55760
Countdown: 0
SampleSet: Soft
StackLeniency: 0.2
Mode: 0
LetterboxInBreaks: 0
WidescreenStoryboard: 1

[Editor]
Bookmarks:1342,12504,23667,34830,45993,57155,68318,79481,90644,101807,104597,107388,107475,107562,107650,107737,107824,107911,107998,108086,108173,108260,108347,108435,108522,108609,108696,108783,108871,108958,109045,109132,109219,109307,109394,109481,109568,109655,109743,109830,109917,110004,110092,110179,110266,110353,110440,110528,110615,110702,110789,110876,110964,111051,111138,111225,111312,111400,111487,111574,111661,111748,111836,111923,112010,112097,112185,112272,112359,112446,112533,112621,112708,112795,112882,112969,113057,113144,113231,113318,113405,113493,113580,113667,113754,113842,113929,114016,114103,114190,114278,114365,114452,114539,114626,114714,114801,114888,114975,115062,115150,115237,115324,115411,115498,115586,115673,115760,118551,129714,140876
DistanceSpacing: 0.5
BeatDivisor: 8
GridSize: 16
TimelineZoom: 2.2

[Metadata]
Title:Smiling
TitleUnicode:Smiling
Artist:Lime
ArtistUnicode:Lime
Creator:iRedi
Version:Mindmaster's Extra
Source:大血戦 -THE BMS OF FIGHTERS ULTIMATE-
Tags:instrumental electronic chiptune kankitsu 櫟井唯 ichii yui kawaiicore bofu2015 岡野佳 出前 groundbreaking 2015 fa featured artist mindmaster107 aurorance simple- simple
BeatmapID:3791486
BeatmapSetID:1837955

[Difficulty]
HPDrainRate:5
CircleSize:3.5
OverallDifficulty:9
ApproachRate:9.2
SliderMultiplier:2
SliderTickRate:1

[Events]
//Background and Video events
0,0,"884986.jpg",0,0
//Break Periods
2,107587,112399
//Storyboard Layer 0 (Background)
//Storyboard Layer 1 (Fail)
//Storyboard Layer 2 (Pass)
//Storyboard Layer 3 (Foreground)
//Storyboard Layer 4 (Overlay)
//Storyboard Sound Samples

[TimingPoints]
1342,348.837209302326,4,2,1,30,1,0
1342,-166.666666666667,4,2,1,30,0,0
10760,-333.333333333334,4,2,1,30,0,0
11807,-166.666666666667,4,2,1,30,0,0
12504,-100,4,2,1,70,0,0
23667,-125,4,2,1,50,0,0
34830,-111.111111111111,4,2,1,60,0,0
45993,-100,4,2,1,60,0,0
57155,-66.6666666666667,4,2,1,80,0,1
78783,-83.3333333333333,4,2,1,80,0,1
79481,-90.9090909090909,4,2,1,60,0,0
90644,-83.3333333333333,4,2,1,70,0,0
104597,-100,4,2,1,50,0,0
107388,-125,4,2,1,50,0,0
112969,-125,4,2,2,50,0,0
115760,-125,4,2,1,70,0,0
118551,-66.6666666666667,4,2,1,80,0,1
129714,-125,4,2,1,70,0,0
140876,-125,4,2,1,20,0,0

[Colours]
Combo1 : 162,105,224
Combo2 : 253,217,72
Combo3 : 217,96,217
Combo4 : 235,147,70

[HitObjects]
118,324,1342,5,6,0:0:0:0:
111,336,2039,1,10,0:0:0:0:
51,277,2214,1,2,0:0:0:0:
107,205,2388,1,2,0:0:0:0:
5,151,2562,1,2,0:0:0:0:
203,279,2911,5,0,3:2:0:0:
309,279,3086,1,2,0:0:0:0:
256,370,3435,1,10,0:0:0:0:
394,324,3783,5,2,0:0:0:0:
401,336,4132,1,2,3:2:0:0:
461,277,4481,1,2,0:0:0:0:
405,205,4655,1,2,3:2:0:0:
507,151,5004,1,0,0:0:0:0:
364,65,5353,1,2,0:0:0:0:
364,65,5440,1,2,0:0:0:0:
364,65,5528,1,2,0:0:0:0:
210,99,6051,5,2,0:0:0:0:
275,195,6226,1,10,0:2:0:0:
240,253,6400,1,2,0:0:0:0:
269,286,6575,1,2,0:0:0:0:
244,347,6749,1,2,0:0:0:0:
256,384,6923,5,0,3:2:0:0:
87,296,7446,5,2,0:0:0:0:
87,296,7533,1,2,0:0:0:0:
87,296,7621,1,10,0:2:0:0:
59,202,7969,1,2,0:0:0:0:
256,384,8318,5,2,0:0:0:0:
425,296,8842,5,2,0:0:0:0:
453,202,9016,1,10,0:0:0:0:
332,74,9452,1,2,0:0:0:0:
332,74,9539,1,2,0:0:0:0:
332,74,9626,1,2,0:0:0:0:
332,74,9714,6,0,L|388:198,1,119.999996337891,0|0,3:2|0:0,0:0:0:0:
256,112,10237,2,0,L|256:240,1,119.999996337891,2|0,3:2|0:0,0:0:0:0:
180,74,10760,2,0,L|124:198,1,119.999996337891,10|0,0:2|0:0,0:0:0:0:
94,248,11807,6,0,L|134:285,3,29.9999990844727
50,315,12155,2,0,L|55:334,7,14.9999995422363
0,384,12504,5,6,3:2:0:0:
0,0,13028,5,6,3:2:0:0:
512,0,13551,5,6,3:2:0:0:
256,192,13725,12,8,14946,0:0:0:0:
512,0,15295,5,6,3:2:0:0:
512,384,15819,5,6,3:2:0:0:
0,384,16342,5,6,3:2:0:0:
256,192,16516,12,8,17737,0:0:0:0:
512,0,18086,5,6,3:2:0:0:
0,0,18609,5,6,3:2:0:0:
0,384,19133,5,6,3:2:0:0:
512,384,19830,5,6,3:2:0:0:
0,384,20179,5,2,0:0:0:0:
0,0,20528,5,6,3:2:0:0:
256,192,20702,12,8,22272,0:2:0:0:
231,13,23144,5,0,3:2:0:0:
231,13,23231,1,0,3:2:0:0:
231,13,23318,2,0,B|268:-17|268:-17|253:84,1,150,12|0,0:2|0:0,0:0:0:0:
190,137,23667,5,2,0:3:0:0:
281,307,23842,1,0,0:0:0:0:
349,234,24016,1,2,0:3:0:0:
349,234,24190,2,0,P|408:237|459:330,1,160
284,318,24714,1,2,0:3:0:0:
110,200,24888,2,0,P|93:163|83:121,1,80,0|2,0:0|0:3,0:0:0:0:
191,344,25237,1,0,0:0:0:0:
12,222,25411,1,2,0:3:0:0:
79,296,25586,2,0,L|84:383,1,80,0|2,0:0|0:3,0:0:0:0:
5,217,25935,5,0,0:0:0:0:
70,118,26109,1,2,0:3:0:0:
197,248,26283,1,0,0:0:0:0:
273,207,26458,6,0,P|312:209|351:220,2,80,2|0|2,0:3|0:0|0:3,0:0:0:0:
470,320,26981,2,0,L|477:240,1,80,0|2,0:0|0:3,0:0:0:0:
392,61,27330,2,0,L|399:140,1,80,0|2,0:0|0:3,0:0:0:0:
481,331,27679,2,0,L|488:251,1,80,0|2,0:0|0:3,0:0:0:0:
389,48,28028,1,0,0:0:0:0:
512,136,28202,6,0,P|507:160|490:130,1,80,2|0,0:3|0:0,0:0:0:0:
512,50,28551,2,0,B|449:73|466:13|399:33,1,120,2|0,0:3|0:0,0:0:0:0:
299,72,28900,2,0,P|270:34|258:2,1,80,2|2,0:3|0:3,0:0:0:0:
275,242,29248,5,2,0:3:0:0:
170,42,29423,1,0,0:0:0:0:
111,124,29597,1,2,0:3:0:0:
111,124,29771,2,0,P|52:121|1:28,1,160
181,56,30295,1,2,0:3:0:0:
77,219,30469,2,0,P|86:257|103:294,1,80,0|2,0:0|0:3,0:0:0:0:
119,130,30818,1,0,0:0:0:0:
13,343,30992,1,2,0:3:0:0:
117,384,31167,2,0,L|112:304,1,80,0|2,0:0|0:3,0:0:0:0:
226,334,31516,5,0,0:0:0:0:
69,216,31690,1,2,0:3:0:0:
283,252,31864,1,0,0:0:0:0:
370,197,32039,6,0,P|409:199|448:210,2,80,2|0|2,0:3|0:0|0:3,0:0:0:0:
287,158,32562,2,0,L|264:0,2,160
512,192,33435,5,2,0:2:0:0:
512,192,33783,1,2,0:2:0:0:
512,192,34132,1,2,0:2:0:0:
399,130,34307,5,2,0:3:0:0:
399,130,34394,1,2,0:3:0:0:
399,130,34481,2,0,B|368:105|368:105|379:184,1,120,12|0,0:0|0:0,0:0:0:0:
448,277,34830,5,6,3:2:0:0:
243,166,35004,1,2,0:0:0:0:
314,37,35179,1,10,0:2:0:0:
292,248,35353,2,0,B|198:304|290:331|190:385,1,179.999994506836,2|2,0:0|0:0,0:0:0:0:
39,182,35876,1,8,0:2:0:0:
129,231,36051,2,0,P|132:275|114:316,1,89.9999972534181,2|0,0:0|3:2,0:0:0:0:
108,34,36400,1,2,0:0:0:0:
48,173,36574,1,8,0:2:0:0:
208,66,36748,2,0,L|296:50,1,89.9999972534181,2|0,0:0|3:2,0:0:0:0:
322,146,37097,5,2,0:0:0:0:
193,70,37272,1,10,0:2:0:0:
448,31,37446,1,2,0:0:0:0:
374,229,37621,5,2,3:2:0:0:
339,141,37795,1,2,0:0:0:0:
339,141,37969,1,8,0:2:0:0:
452,338,38144,6,0,L|284:311,1,89.9999972534181,2|0,0:0|3:2,0:0:0:0:
118,217,38493,2,0,L|6:236,1,89.9999972534181,2|8,0:0|0:2,0:0:0:0:
481,217,38842,6,0,L|348:236,1,89.9999972534181,2|0,0:0|3:2,0:0:0:0:
182,268,39190,2,0,L|63:246,1,89.9999972534181,2|8,0:0|0:2,0:0:0:0:
281,383,39539,6,0,L|301:249,1,89.9999972534181,2|0,0:0|3:2,0:0:0:0:
340,185,39888,1,2,0:0:0:0:
196,53,40062,1,10,0:2:0:0:
226,154,40237,1,2,0:0:0:0:
114,128,40411,5,2,3:2:0:0:
349,188,40585,1,2,0:0:0:0:
293,21,40760,1,10,0:2:0:0:
306,284,40934,2,0,B|362:377|389:285|443:385,1,179.999994506836,2|2,0:0|0:0,0:0:0:0:
149,318,41457,1,8,0:2:0:0:
68,339,41632,2,0,P|27:319|1:283,1,89.9999972534181,2|0,0:0|3:2,0:0:0:0:
295,282,41981,1,2,0:0:0:0:
151,104,42155,1,8,0:2:0:0:
228,152,42329,2,0,L|212:240,1,89.9999972534181,2|0,0:0|3:2,0:0:0:0:
240,57,42678,5,2,0:0:0:0:
105,203,42853,1,10,0:2:0:0:
34,22,43027,1,2,0:0:0:0:
167,115,43202,5,2,3:2:0:0:
202,203,43376,1,0,0:0:0:0:
202,203,43550,1,8,0:2:0:0:
340,59,43725,5,0,0:0:0:0:
340,59,43812,1,2,0:0:0:0:
340,59,43900,1,2,3:2:0:0:
320,145,44074,1,2,0:0:0:0:
512,329,44248,1,10,0:2:0:0:
458,186,44423,1,2,0:0:0:0:
260,348,44597,6,0,L|321:330,1,44.999998626709,4|0,3:2|0:0,0:0:0:0:
385,268,44771,2,0,L|338:250,1,44.999998626709
231,186,44946,1,8,0:0:0:0:
231,186,45033,2,0,L|222:269,1,44.999998626709,0|2,0:0|0:0,0:0:0:0:
197,307,45208,2,0,L|188:390,1,44.999998626709,2|2,3:2|0:0,0:0:0:0:
303,208,45382,1,8,0:0:0:0:
303,208,45469,2,0,L|254:216,1,44.999998626709,0|0,3:2|0:0,0:0:0:0:
347,350,45644,2,0,L|300:306,1,44.999998626709,8|0,0:0|0:0,0:0:0:0:
162,213,45818,2,0,L|170:262,1,44.999998626709,2|2,0:0|0:0,0:0:0:0:
402,244,45993,6,0,L|384:98,1,100,6|0,3:2|0:0,0:0:0:0:
102,58,46342,2,0,L|89:157,1,100,0|0,3:2|0:0,0:0:0:0:
402,244,46690,2,0,L|384:98,1,100,0|0,3:2|0:0,0:0:0:0:
102,58,47039,1,0,3:2:0:0:
44,197,47214,1,2,0:0:0:0:
44,197,47388,1,2,3:2:0:0:
164,156,47562,1,2,0:0:0:0:
132,374,47737,1,2,3:2:0:0:
0,300,47911,1,2,0:0:0:0:
0,300,48086,2,0,L|100:282,1,100,0|0,3:2|0:0,0:0:0:0:
318,335,48435,2,0,L|219:317,1,100,0|0,3:2|0:0,0:0:0:0:
389,144,48783,6,0,L|402:244,1,100,2|0,3:2|0:0,0:0:0:0:
89,157,49132,2,0,L|102:58,1,100,0|0,3:2|0:0,0:0:0:0:
389,144,49481,2,0,L|402:244,1,100,0|0,3:2|0:0,0:0:0:0:
89,157,49830,1,0,3:2:0:0:
92,42,50004,1,2,0:0:0:0:
170,172,50179,1,2,3:2:0:0:
20,90,50353,1,2,0:0:0:0:
66,234,50528,1,2,3:2:0:0:
200,91,50702,1,2,0:0:0:0:
132,326,50876,2,0,L|80:227,1,100,2|0,3:2|0:0,0:0:0:0:
287,70,51225,2,0,L|430:42,1,100,2|0,3:2|0:0,0:0:0:0:
300,217,51574,5,6,3:2:0:0:
216,195,51748,1,8,0:2:0:0:
313,198,51923,1,0,3:2:0:0:
198,215,52097,1,8,0:2:0:0:
330,214,52272,1,2,3:2:0:0:
189,179,52446,1,10,0:2:0:0:
353,183,52621,1,2,3:2:0:0:
163,238,52795,1,10,0:2:0:0:
343,134,52969,5,4,3:2:0:0:
211,254,53144,1,8,0:2:0:0:
344,110,53318,1,0,3:2:0:0:
281,254,53493,1,8,0:2:0:0:
413,75,53667,1,2,3:2:0:0:
329,221,53842,1,8,0:2:0:0:
478,60,54016,1,2,3:2:0:0:
249,146,54190,1,8,0:2:0:0:
512,138,54365,5,6,3:2:0:0:
481,106,54452,1,0,0:0:0:0:
446,80,54539,1,0,3:2:0:0:
408,59,54626,1,8,0:2:0:0:
366,45,54713,1,0,3:2:0:0:
323,37,54801,1,0,0:0:0:0:
280,35,54888,1,8,0:2:0:0:
236,40,54975,1,0,0:0:0:0:
194,52,55062,1,6,3:2:0:0:
155,70,55149,1,0,0:0:0:0:
118,94,55237,1,0,3:2:0:0:
86,124,55324,1,8,0:2:0:0:
58,157,55411,1,0,3:2:0:0:
36,195,55498,1,0,3:2:0:0:
20,236,55585,1,8,0:2:0:0:
10,279,55673,1,8,0:2:0:0:
7,322,55760,5,6,3:2:0:0:
79,354,56109,1,2,3:2:0:0:
79,354,56458,6,0,L|140:336,1,50,2|0,0:2|0:0,0:0:0:0:
226,236,56632,2,0,L|299:263,1,50,2|2,0:3|0:3,0:0:0:0:
445,206,56807,1,12,0:0:0:0:
445,206,56894,1,0,0:0:0:0:
445,206,56981,2,0,L|436:283,1,50
512,317,57155,6,0,L|342:352,1,150.000005722046,6|0,3:2|0:0,0:0:0:0:
263,384,57417,1,0,0:0:0:0:
263,384,57504,2,0,L|145:293,1,150.000005722046,10|0,0:2|0:0,0:0:0:0:
134,78,57853,2,0,L|86:247,1,150.000005722046,2|0,3:2|0:0,0:0:0:0:
42,372,58115,1,0,0:0:0:0:
42,372,58202,2,0,L|-9:193,1,150.000005722046,10|0,0:2|0:0,0:0:0:0:
239,93,58551,6,0,L|434:109,1,150.000005722046,2|0,3:2|0:0,0:0:0:0:
196,0,58812,1,0,0:0:0:0:
196,0,58900,2,0,L|-2:35,1,150.000005722046,10|0,0:2|0:0,0:0:0:0:
497,10,59248,2,0,L|478:191,1,150.000005722046,2|0,3:2|0:0,0:0:0:0:
402,266,59510,1,0,0:0:0:0:
402,266,59597,2,0,L|359:172,1,75.0000028610231,10|0,0:2|0:0,0:0:0:0:
232,107,59772,2,0,L|209:235,1,75.0000028610231
42,384,59946,6,0,L|182:253,1,150.000005722046,2|0,3:2|0:0,0:0:0:0:
139,182,60208,1,0,0:0:0:0:
139,182,60295,2,0,L|318:262,1,150.000005722046,10|0,0:2|0:0,0:0:0:0:
304,348,60557,1,0,0:0:0:0:
304,348,60644,2,0,L|155:282,1,150.000005722046,2|0,3:2|0:0,0:0:0:0:
0,218,60905,1,0,0:0:0:0:
0,218,60993,2,0,L|179:146,1,150.000005722046,10|0,0:2|0:0,0:0:0:0:
372,0,61342,6,0,L|208:53,1,150.000005722046,0|0,3:2|0:0,0:0:0:0:
366,99,61603,1,0,0:0:0:0:
366,99,61690,2,0,L|524:132,1,150.000005722046,10|0,0:2|0:0,0:0:0:0:
451,237,61952,1,0,0:0:0:0:
451,237,62039,2,0,L|401:161,1,75.0000028610231,2|0,3:2|0:0,0:0:0:0:
261,105,62214,2,0,L|218:194,1,75.0000028610231,2|0,0:0|0:0,0:0:0:0:
18,179,62388,2,0,L|124:223,1,75.0000028610231,10|0,0:2|0:0,0:0:0:0:
172,63,62562,2,0,L|100:3,1,75.0000028610231,2|0,0:0|0:0,0:0:0:0:
281,364,62737,6,0,L|292:192,1,150.000005722046,2|0,3:2|0:0,0:0:0:0:
212,20,62998,1,0,0:0:0:0:
212,20,63086,2,0,L|232:210,1,150.000005722046,10|0,0:2|0:0,0:0:0:0:
314,305,63435,2,0,L|356:111,1,150.000005722046,2|0,3:2|0:0,0:0:0:0:
105,86,63696,1,0,0:0:0:0:
105,86,63783,2,0,L|151:260,1,150.000005722046,10|0,0:2|0:0,0:0:0:0:
402,178,64132,6,0,L|261:44,1,150.000005722046,2|0,3:2|0:0,0:0:0:0:
315,318,64394,1,0,0:0:0:0:
315,318,64481,2,0,L|506:269,1,150.000005722046,10|0,0:2|0:0,0:0:0:0:
105,19,64830,2,0,L|22:165,1,150.000005722046,2|0,3:2|0:0,0:0:0:0:
31,175,65179,2,0,L|111:34,1,150.000005722046,10|0,0:2|0:0,0:0:0:0:
276,266,65528,6,0,L|129:378,1,150.000005722046,2|0,3:2|0:0,0:0:0:0:
201,156,65789,1,0,0:0:0:0:
201,156,65876,2,0,L|406:167,1,150.000005722046,10|0,0:2|0:0,0:0:0:0:
182,231,66138,1,0,0:0:0:0:
182,231,66225,2,0,L|68:100,1,150.000005722046,2|0,3:2|0:0,0:0:0:0:
291,65,66487,1,0,0:0:0:0:
291,65,66574,2,0,L|295:256,1,150.000005722046,10|0,0:2|0:0,0:0:0:0:
72,343,66836,1,0,0:0:0:0:
72,343,66923,6,0,L|28:171,1,150.000005722046,2|0,3:2|0:0,0:0:0:0:
195,240,67185,1,0,0:0:0:0:
195,240,67272,2,0,L|170:44,1,150.000005722046,8|2,0:2|0:0,0:0:0:0:
371,193,67533,1,0,0:0:0:0:
371,193,67621,2,0,L|382:-3,1,150.000005722046,2|0,3:2|0:0,0:0:0:0:
486,345,67969,1,8,0:2:0:0:
486,345,68318,6,0,L|314:321,1,150.000005722046,6|0,3:2|0:0,0:0:0:0:
252,237,68580,1,0,0:0:0:0:
252,237,68667,2,0,L|417:192,1,150.000005722046,10|0,0:2|0:0,0:0:0:0:
197,341,69016,2,0,L|44:257,1,150.000005722046,2|0,3:2|0:0,0:0:0:0:
304,213,69278,1,0,0:0:0:0:
304,213,69365,2,0,L|298:394,1,150.000005722046,10|0,0:2|0:0,0:0:0:0:
62,181,69714,6,0,L|23:8,1,150.000005722046,2|0,3:2|0:0,0:0:0:0:
186,242,69975,1,0,0:0:0:0:
186,242,70062,2,0,L|77:370,1,150.000005722046,10|0,0:2|0:0,0:0:0:0:
450,19,70411,2,0,L|481:183,1,150.000005722046,2|0,3:2|0:0,0:0:0:0:
473,188,70760,2,0,L|442:29,1,150.000005722046,10|0,0:2|0:0,0:0:0:0:
111,316,71109,6,0,L|292:342,1,150.000005722046,2|0,3:2|0:0,0:0:0:0:
122,298,71371,1,0,0:0:0:0:
122,298,71458,2,0,L|303:323,1,150.000005722046,8|0,0:2|0:0,0:0:0:0:
261,116,71719,1,0,0:0:0:0:
261,116,71807,6,0,L|79:141,1,150.000005722046,2|0,3:2|0:0,0:0:0:0:
183,75,72068,1,0,0:0:0:0:
183,75,72156,2,0,L|2:100,1,150.000005722046,8|2,0:2|0:0,0:0:0:0:
288,364,72417,1,2,0:0:0:0:
288,364,72504,6,0,L|326:184,1,150.000005722046,2|0,3:2|0:0,0:0:0:0:
452,258,72766,1,0,0:0:0:0:
452,258,72853,2,0,L|490:78,1,150.000005722046,8|0,0:2|0:0,0:0:0:0:
157,74,73115,1,0,0:0:0:0:
157,74,73202,2,0,L|41:210,1,150.000005722046,2|0,3:2|0:0,0:0:0:0:
384,326,73464,1,0,0:0:0:0:
384,326,73551,2,0,L|258:177,1,150.000005722046,10|0,0:2|0:0,0:0:0:0:
256,134,73900,6,0,L|256:307,1,150.000005722046,6|0,3:2|0:0,0:0:0:0:
152,196,74248,2,0,L|192:355,1,150.000005722046,10|0,0:2|0:0,0:0:0:0:
65,282,74597,2,0,L|229:356,1,150.000005722046,2|0,3:2|0:0,0:0:0:0:
159,257,74946,2,0,L|350:172,1,150.000005722046,10|0,0:2|0:0,0:0:0:0:
328,330,75295,2,0,L|301:141,1,150.000005722046,6|0,3:2|0:0,0:0:0:0:
469,174,75644,2,0,L|282:149,1,150.000005722046,10|0,0:2|0:0,0:0:0:0:
73,90,75993,2,0,L|125:275,1,150.000005722046,2|0,3:2|0:0,0:0:0:0:
502,336,76342,2,0,L|410:185,1,150.000005722046,10|0,0:2|0:0,0:0:0:0:
19,0,76690,6,0,L|-5:181,1,150.000005722046,6|0,3:2|0:0,0:0:0:0:
19,0,77039,6,0,L|-5:181,1,150.000005722046,10|0,0:2|0:0,0:0:0:0:
19,0,77388,6,0,L|-5:181,1,150.000005722046,2|0,3:2|0:0,0:0:0:0:
19,0,77737,6,0,L|-5:181,1,150.000005722046,10|0,0:2|0:0,0:0:0:0:
19,0,78086,6,0,L|8:79,1,75.0000028610231,2|0,3:2|0:0,0:0:0:0:
19,0,78260,2,0,L|8:79,1,75.0000028610231,0|0,3:2|0:0,0:0:0:0:
0,165,78435,1,10,0:2:0:0:
0,165,78522,1,0,0:0:0:0:
0,165,78609,1,0,0:0:0:0:
19,0,78783,6,0,L|11:59,1,59.9999981689454,2|0,3:2|0:0,0:0:0:0:
120,153,78958,2,0,L|83:200,1,59.9999981689454,0|0,3:2|0:0,0:0:0:0:
52,365,79132,1,8,0:2:0:0:
52,365,79219,1,0,0:0:0:0:
52,365,79307,2,0,L|107:342,1,59.9999981689454
382,265,79481,6,0,B|399:251|407:225|407:225|423:297|387:336,1,165.000005035401,4|0,3:2|0:0,0:0:0:0:
236,260,79830,1,10,0:2:0:0:
205,115,80004,1,0,0:0:0:0:
394,60,80179,1,2,3:2:0:0:
476,82,80353,1,0,0:0:0:0:
200,12,80528,1,10,0:2:0:0:
106,69,80702,1,0,0:0:0:0:
50,319,80876,5,2,3:2:0:0:
4,134,81051,1,0,0:0:0:0:
130,271,81225,1,10,0:2:0:0:
142,152,81400,1,0,0:0:0:0:
226,251,81574,1,2,3:2:0:0:
304,202,81748,1,0,0:0:0:0:
357,288,81923,1,10,0:2:0:0:
427,285,82097,1,0,0:0:0:0:
481,363,82272,5,2,3:2:0:0:
512,241,82446,1,0,0:0:0:0:
512,241,82621,1,8,0:2:0:0:
481,363,82795,1,0,0:0:0:0:
300,48,82970,5,2,3:2:0:0:
346,231,83144,1,0,0:0:0:0:
346,231,83319,1,8,0:2:0:0:
300,48,83493,1,0,0:0:0:0:
198,210,83668,5,2,3:2:0:0:
78,184,83842,1,0,0:0:0:0:
5,170,84016,1,8,0:2:0:0:
198,210,84190,1,0,0:0:0:0:
101,367,84365,5,2,3:2:0:0:
221,341,84539,1,0,0:0:0:0:
316,337,84714,1,10,0:2:0:0:
316,337,84801,1,2,0:0:0:0:
316,337,84888,1,2,0:0:0:0:
316,337,84975,1,2,0:0:0:0:
316,337,85062,1,4,3:2:0:0:
486,120,85411,6,0,B|525:152|525:152|375:137,1,165.000005035401,8|0,0:2|0:0,0:0:0:0:
382,66,85760,2,0,L|290:81,1,55.0000016784668,0|0,3:2|0:0,0:0:0:0:
233,161,85935,5,0,0:0:0:0:
210,158,86022,1,0,0:0:0:0:
188,161,86109,1,8,0:2:0:0:
168,169,86196,1,0,0:0:0:0:
156,181,86283,1,0,0:0:0:0:
147,200,86371,1,0,0:0:0:0:
145,220,86458,6,0,P|121:171|125:136,1,55.0000016784668,0|0,3:2|0:0,0:0:0:0:
11,166,86632,2,0,P|25:137|50:116,1,55.0000016784668
19,31,86807,2,0,P|51:28|82:40,1,55.0000016784668,8|0,0:2|0:0,0:0:0:0:
231,7,86981,2,0,P|238:61|163:32,1,165.000005035401
154,46,87330,2,0,P|164:72|170:99,1,55.0000016784668
159,235,87504,5,8,0:2:0:0:
159,235,87592,1,0,0:0:0:0:
159,235,87679,1,0,0:0:0:0:
159,235,87766,1,0,0:0:0:0:
159,235,87853,6,0,P|184:244|211:250,1,55.0000016784668,0|0,3:2|0:0,0:0:0:0:
295,250,88028,2,0,P|269:240|242:234,1,55.0000016784668
82,357,88202,2,0,P|107:347|134:341,1,55.0000016784668,8|0,0:2|0:0,0:0:0:0:
219,341,88377,2,0,P|193:350|166:356,1,55.0000016784668
13,207,88551,2,0,P|38:216|65:222,1,55.0000016784668,0|0,3:2|0:0,0:0:0:0:
150,223,88726,2,0,P|124:213|97:207,1,55.0000016784668
305,252,88900,2,0,P|305:307|319:361,1,110.000003356934,8|0,0:2|0:0,0:0:0:0:
344,365,89161,1,0,0:0:0:0:
344,365,89248,6,0,P|348:337|361:314,1,55.0000016784668,4|0,3:2|0:0,0:0:0:0:
352,167,89423,2,0,P|373:184|387:207,1,55.0000016784668
447,369,89597,2,0,P|474:368|499:358,1,55.0000016784668,8|0,0:2|0:0,0:0:0:0:
286,256,89772,5,0,0:0:0:0:
286,256,89859,2,0,L|279:183,1,55.0000016784668,0|0,0:0|3:2,0:0:0:0:
464,287,90033,1,0,0:0:0:0:
464,287,90120,2,0,L|471:214,1,55.0000016784668
481,132,90295,2,0,L|507:138,7,27.5000008392334,8|0|0|0|0|0|0|0,0:2|0:0|0:0|0:0|0:0|0:0|0:0|0:0,0:0:0:0:
471,106,90644,6,0,P|394:23|262:16,4,239.999992675781,14|8|8|8|8,0:2|0:2|0:2|0:2|0:2,0:0:0:0:
269,127,92214,5,2,0:0:0:0:
144,31,92388,5,10,0:2:0:0:
106,43,92475,1,2,0:0:0:0:
78,71,92562,1,2,0:0:0:0:
66,108,92649,1,2,0:0:0:0:
38,99,92737,5,10,0:2:0:0:
32,117,92824,1,2,0:0:0:0:
38,136,92911,1,2,0:0:0:0:
51,150,92998,1,2,0:0:0:0:
66,179,93086,5,8,0:2:0:0:
57,181,93173,1,0,0:0:0:0:
47,179,93260,1,0,0:0:0:0:
41,172,93347,1,0,0:0:0:0:
106,179,93435,6,0,L|178:311,1,119.999996337891,8|2,0:2|0:0,0:0:0:0:
362,374,93783,2,0,L|210:317,1,119.999996337891,10|2,0:2|0:0,0:0:0:0:
0,280,94132,1,8,0:2:0:0:
0,280,94219,1,2,0:0:0:0:
0,280,94307,1,2,0:0:0:0:
0,280,94394,1,2,0:0:0:0:
0,280,94481,2,0,L|154:256,1,119.999996337891,10|0,0:2|0:0,0:0:0:0:
405,193,94830,5,10,0:2:0:0:
235,160,95004,1,2,0:0:0:0:
366,362,95179,1,10,0:2:0:0:
511,253,95353,2,0,L|394:281,1,119.999996337891,2|8,0:0|0:2,0:0:0:0:
221,152,95702,1,2,0:0:0:0:
420,189,95876,1,8,0:2:0:0:
447,178,95963,1,0,0:0:0:0:
472,161,96050,1,0,0:0:0:0:
491,138,96137,1,0,0:0:0:0:
505,112,96224,5,12,0:2:0:0:
297,14,96400,1,0,0:0:0:0:
303,238,96574,1,8,0:2:0:0:
211,146,96748,2,0,L|92:128,2,119.999996337891,0|8|0,0:0|0:2|0:0,0:0:0:0:
10,207,97272,1,8,0:2:0:0:
165,59,97446,1,0,0:0:0:0:
311,241,97621,6,0,L|429:223,1,119.999996337891,12|0,0:2|0:0,0:0:0:0:
491,106,97969,1,8,0:2:0:0:
211,146,98144,2,0,L|92:128,1,119.999996337891,0|8,0:0|0:2,0:0:0:0:
14,120,98493,1,0,0:0:0:0:
255,0,98667,1,8,0:2:0:0:
307,252,98842,1,0,0:0:0:0:
128,262,99016,6,0,P|101:235|139:254,1,119.999996337891,12|0,0:2|0:0,0:0:0:0:
84,362,99365,5,8,0:2:0:0:
123,354,99452,1,0,0:0:0:0:
162,346,99539,1,0,0:0:0:0:
201,338,99626,1,0,0:0:0:0:
220,365,99714,5,8,0:2:0:0:
239,368,99801,1,0,0:0:0:0:
259,372,99888,1,0,0:0:0:0:
278,376,99975,1,0,0:0:0:0:
322,354,100062,2,0,L|233:216,1,119.999996337891,8|0,0:2|0:0,0:0:0:0:
251,86,100411,5,0,3:2:0:0:
256,107,100499,1,0,3:2:0:0:
264,128,100586,1,0,3:2:0:0:
275,147,100673,1,0,3:2:0:0:
289,163,100760,1,0,3:2:0:0:
305,178,100847,1,0,3:2:0:0:
323,190,100935,1,0,3:2:0:0:
343,199,101022,1,0,3:2:0:0:
364,205,101109,1,0,3:2:0:0:
386,208,101196,1,0,3:2:0:0:
407,207,101283,1,0,3:2:0:0:
429,203,101371,1,0,3:2:0:0:
450,196,101458,1,0,3:2:0:0:
469,185,101545,1,0,3:2:0:0:
486,172,101632,1,0,3:2:0:0:
502,156,101719,1,0,3:2:0:0:
512,138,101807,5,4,3:2:0:0:
481,106,101894,1,0,3:2:0:0:
446,80,101981,1,0,3:2:0:0:
408,59,102068,1,0,3:2:0:0:
366,45,102155,1,0,3:2:0:0:
323,37,102243,1,0,3:2:0:0:
280,35,102330,1,0,3:2:0:0:
236,40,102417,1,0,3:2:0:0:
194,52,102504,1,0,3:2:0:0:
155,70,102591,1,0,3:2:0:0:
118,94,102679,1,0,3:2:0:0:
86,124,102766,1,0,3:2:0:0:
58,157,102853,1,0,3:2:0:0:
36,195,102940,1,0,3:2:0:0:
20,236,103027,1,0,3:2:0:0:
10,279,103115,1,0,3:2:0:0:
7,322,103202,6,0,L|55:315,7,29.9999990844727,0|0|0|0|0|0|0|0,3:2|3:2|3:2|3:2|3:2|3:2|3:2|3:2,0:0:0:0:
86,335,103551,2,0,L|134:328,7,29.9999990844727,0|0|0|0|0|0|0|0,3:2|3:2|3:2|3:2|0:0|0:0|0:0|0:0,0:0:0:0:
165,348,103900,2,0,L|213:341,7,29.9999990844727,0|0|0|0|8|0|0|0,0:0|0:0|0:0|0:0|0:2|0:0|0:0|0:0,0:0:0:0:
244,361,104248,6,0,L|259:316,1,29.9999990844727
282,357,104336,2,0,L|297:312,1,29.9999990844727
320,353,104423,2,0,L|335:308,1,29.9999990844727
358,349,104510,2,0,L|373:304,1,29.9999990844727
396,345,104597,6,0,L|414:276,1,50,4|0,3:2|0:0,0:0:0:0:
256,48,105121,6,0,L|256:128,1,50,0|0,3:2|0:0,0:0:0:0:
116,345,105295,6,0,L|98:276,1,50,0|0,3:2|0:0,0:0:0:0:
256,288,105644,6,0,L|256:138,1,150,4|0,3:2|0:0,0:0:0:0:
48,128,105993,5,8,0:2:0:0:
464,128,106342,5,8,0:2:0:0:
256,364,106690,5,8,0:2:0:0:
256,288,106865,1,0,3:2:0:0:
256,288,106952,1,0,3:2:0:0:
256,288,107039,2,0,L|256:256,8,25,12|0|0|0|0|0|0|0|0,0:2|0:0|0:0|0:0|0:0|0:0|0:0|0:0|0:0,0:0:0:0:
31,333,112969,6,0,B|109:325|109:325|130:341|130:341|216:332,1,160,0|8,3:2|0:2,0:0:0:0:
31,333,113667,1,0,3:2:0:0:
31,333,113842,1,0,3:2:0:0:
168,237,114016,2,0,L|265:257,1,80,8|0,0:2|0:0,0:0:0:0:
396,381,114365,6,0,P|356:349|342:303,1,80,0|0,3:2|0:0,0:0:0:0:
253,237,114714,2,0,P|300:218|347:229,1,80,8|0,0:2|3:2,0:0:0:0:
512,109,115062,2,0,P|504:159|471:194,1,80,0|0,0:0|3:2,0:0:0:0:
455,322,115411,1,8,0:2:0:0:
451,303,115498,1,0,0:0:0:0:
442,285,115585,1,0,0:0:0:0:
430,269,115672,1,0,0:0:0:0:
414,257,115760,6,0,L|243:302,1,160,2|2,0:0|0:0,0:0:0:0:
414,257,116458,6,0,L|243:302,1,160,2|2,0:0|0:0,0:0:0:0:
414,257,117155,6,0,L|284:276,1,120,2|0,0:2|0:0,0:0:0:0:
242,322,117504,2,0,P|184:308|127:289,1,120,2|0,0:2|0:0,0:0:0:0:
30,302,117853,2,0,P|21:283|14:265,1,40,2|0,0:2|0:0,0:0:0:0:
75,164,118028,2,0,P|76:143|79:123,1,40,2|2,0:3|0:3,0:0:0:0:
195,20,118202,2,0,L|192:46,4,20,12|0|0|0|0,0:0|0:0|0:0|0:0|0:0,0:0:0:0:
275,364,118551,6,0,P|240:297|186:245,1,150.000005722046,6|0,3:2|0:0,0:0:0:0:
336,118,118812,1,0,0:0:0:0:
336,118,118900,2,0,P|381:212|354:279,1,150.000005722046,10|0,0:2|0:0,0:0:0:0:
81,122,119248,2,0,P|148:153|221:166,1,150.000005722046,2|0,3:2|0:0,0:0:0:0:
455,167,119510,1,0,0:0:0:0:
455,167,119597,2,0,P|433:96|431:21,1,150.000005722046,10|0,0:2|0:0,0:0:0:0:
327,384,119946,6,0,P|268:377|202:289,1,150.000005722046,2|0,3:2|0:0,0:0:0:0:
0,273,120208,1,0,0:0:0:0:
0,273,120295,2,0,P|85:229|146:239,1,150.000005722046,10|0,0:2|0:0,0:0:0:0:
435,65,120644,2,0,P|496:176|539:209,1,150.000005722046,2|0,3:2|0:0,0:0:0:0:
503,206,120993,2,0,P|453:149|425:80,1,150.000005722046,10|0,0:2|0:0,0:0:0:0:
240,13,121342,6,0,P|173:58|143:124,1,150.000005722046,2|0,3:2|0:0,0:0:0:0:
105,20,121603,1,0,0:0:0:0:
105,20,121690,2,0,P|114:109|144:188,1,150.000005722046,8|0,0:2|0:0,0:0:0:0:
362,384,122039,2,0,P|352:284|324:199,1,150.000005722046,2|0,3:2|0:0,0:0:0:0:
432,267,122301,1,0,0:0:0:0:
432,267,122388,2,0,P|332:212|262:219,1,150.000005722046,8|2,0:2|0:0,0:0:0:0:
189,280,122650,1,2,0:0:0:0:
189,280,122737,6,0,P|287:195|306:133,1,150.000005722046,2|0,3:2|0:0,0:0:0:0:
382,149,122998,1,0,0:0:0:0:
382,149,123086,2,0,P|311:51|255:19,1,150.000005722046,8|0,0:2|0:0,0:0:0:0:
101,235,123347,1,0,0:0:0:0:
101,235,123435,2,0,P|99:319|115:388,1,150.000005722046,2|0,3:2|0:0,0:0:0:0:
322,0,123696,1,0,0:0:0:0:
322,0,123783,2,0,P|247:0|180:31,1,150.000005722046,10|0,0:2|0:0,0:0:0:0:
263,384,124132,6,0,P|257:330|228:218,1,150.000005722046,6|0,3:2|0:0,0:0:0:0:
257,329,124481,2,0,P|284:234|318:172,1,150.000005722046,10|0,0:2|0:0,0:0:0:0:
190,242,124830,2,0,P|138:174|53:146,1,150.000005722046,2|0,3:2|0:0,0:0:0:0:
329,252,125179,2,0,P|408:235|447:307,1,150.000005722046,10|0,0:2|0:0,0:0:0:0:
176,348,125528,2,0,P|91:354|9:323,1,150.000005722046,6|0,3:2|0:0,0:0:0:0:
369,108,125876,2,0,P|379:195|416:291,1,150.000005722046,10|0,0:2|0:0,0:0:0:0:
124,35,126225,2,0,P|53:30|17:129,1,150.000005722046,2|0,3:2|0:0,0:0:0:0:
483,277,126574,2,0,P|471:202|474:127,1,150.000005722046,10|0,0:2|0:0,0:0:0:0:
8,365,126923,6,0,P|49:381|102:388,3,75.0000028610231,6|0|0|0,3:2|3:2|3:2|3:2,0:0:0:0:
8,365,127272,2,0,P|49:381|102:388,3,75.0000028610231,0|0|0|0,3:2|3:2|3:2|3:2,0:0:0:0:
8,365,127621,2,0,P|49:381|102:388,3,75.0000028610231,0|0|0|0,3:2|3:2|3:2|3:2,0:0:0:0:
8,365,127969,2,0,P|49:381|102:388,3,75.0000028610231,0|0|0|0,3:2|3:2|3:2|3:2,0:0:0:0:
8,365,128318,5,10,0:2:0:0:
8,365,128405,1,8,0:0:0:0:
8,365,128492,2,0,P|49:381|102:388,1,75.0000028610231,8|8,0:0|0:0,0:0:0:0:
272,305,128667,1,10,0:2:0:0:
272,305,128754,1,8,0:0:0:0:
272,305,128841,2,0,P|231:289|178:282,1,75.0000028610231,8|8,0:0|0:0,0:0:0:0:
8,365,129016,1,10,0:2:0:0:
8,365,129103,1,8,0:0:0:0:
8,365,129190,2,0,P|49:381|102:388,1,75.0000028610231,2|2,0:3|0:3,0:0:0:0:
139,201,129365,1,12,0:0:0:0:
139,201,129452,1,0,0:0:0:0:
139,201,129539,2,0,P|149:156|148:112,1,75.0000028610231
0,0,129714,5,4,3:2:0:0:
512,384,130237,5,4,3:2:0:0:
512,0,130760,5,4,3:2:0:0:
225,115,131283,5,0,3:2:0:0:
284,233,131458,1,8,0:0:0:0:
258,155,131632,1,0,0:0:0:0:
255,183,131719,1,0,0:0:0:0:
252,208,131807,1,0,0:0:0:0:
290,116,131981,1,0,3:2:0:0:
267,266,132155,1,8,0:0:0:0:
220,172,132330,1,0,0:0:0:0:
0,384,132504,5,4,3:2:0:0:
512,0,133027,5,4,3:2:0:0:
0,0,133550,5,4,3:2:0:0:
324,170,133900,5,8,0:0:0:0:
241,225,134074,1,0,0:0:0:0:
213,213,134161,1,0,0:0:0:0:
187,202,134248,1,0,3:2:0:0:
261,128,134423,1,8,0:0:0:0:
267,150,134510,1,0,0:0:0:0:
271,168,134597,2,0,L|279:199,2,20,0|0|8,3:2|0:0|0:0,0:0:0:0:
200,165,134772,2,0,L|208:134,2,20,8|0|8,0:0|0:0|0:0,0:0:0:0:
277,178,134946,2,0,L|285:209,2,20,8|0|8,0:0|0:0|0:0,0:0:0:0:
206,175,135121,2,0,L|214:144,2,20,8|0|8,0:0|0:0|0:0,0:0:0:0:
0,0,135295,5,4,3:2:0:0:
512,384,135818,5,4,3:2:0:0:
0,384,136341,5,4,3:2:0:0:
0,0,137039,5,4,3:2:0:0:
512,0,137388,5,0,0:0:0:0:
0,384,137737,5,4,3:2:0:0:
256,192,137911,12,0,140876,0:0:0:0:
