osu file format v14

[General]
AudioFilename: audio.mp3
AudioLeadIn: 0
PreviewTime: 55760
Countdown: 0
SampleSet: Soft
StackLeniency: 0.7
Mode: 0
LetterboxInBreaks: 0
WidescreenStoryboard: 1

[Editor]
Bookmarks: 1342,12504,23667,34830,45993,57155,68318,79481,90644,101807,104597,107388,107475,107562,107650,107737,107824,107911,107998,108086,108173,108260,108347,108435,108522,108609,108696,108783,108871,108958,109045,109132,109219,109307,109394,109481,109568,109655,109743,109830,109917,110004,110092,110179,110266,110353,110440,110528,110615,110702,110789,110876,110964,111051,111138,111225,111312,111400,111487,111574,111661,111748,111836,111923,112010,112097,112185,112272,112359,112446,112533,112621,112708,112795,112882,112969,113057,113144,113231,113318,113405,113493,113580,113667,113754,113842,113929,114016,114103,114190,114278,114365,114452,114539,114626,114714,114801,114888,114975,115062,115150,115237,115324,115411,115498,115586,115673,115760,118551,129714,140876
DistanceSpacing: 0.4
BeatDivisor: 4
GridSize: 16
TimelineZoom: 1.7

[Metadata]
Title:Smiling
TitleUnicode:Smiling
Artist:Lime
ArtistUnicode:Lime
Creator:iRedi
Version:Hard
Source:大血戦 -THE BMS OF FIGHTERS ULTIMATE-
Tags:instrumental electronic chiptune kankitsu 櫟井唯 ichii yui kawaiicore bofu2015 岡野佳 出前 groundbreaking 2015 fa featured artist mindmaster107 aurorance simple- simple
BeatmapID:3776930
BeatmapSetID:1837955

[Difficulty]
HPDrainRate:4
CircleSize:3.7
OverallDifficulty:6
ApproachRate:8
SliderMultiplier:1.5
SliderTickRate:1

[Events]
//Background and Video events
0,0,"884986.jpg",0,0
//Break Periods
2,107588,115010
//Storyboard Layer 0 (Background)
//Storyboard Layer 1 (Fail)
//Storyboard Layer 2 (Pass)
//Storyboard Layer 3 (Foreground)
//Storyboard Layer 4 (Overlay)
//Storyboard Sound Samples

[TimingPoints]
1342,348.837209302326,4,2,1,30,1,0
9714,-133.333333333333,4,2,1,30,0,0
12504,-100,4,2,1,70,0,0
23667,-125,4,2,1,50,0,0
34481,-83.3333333333333,4,2,1,50,0,0
34830,-100,4,2,1,60,0,0
45993,-90.9090909090909,4,2,1,60,0,0
57155,-76.9230769230769,4,2,1,80,0,1
79481,-83.3333333333333,4,2,1,60,0,0
90644,-83.3333333333333,4,2,1,70,0,0
104597,-133.333333333333,4,2,1,50,0,0
112969,-100,4,2,2,50,0,0
115760,-90.9090909090909,4,2,1,70,0,0
118202,-71.4285714285714,4,2,1,70,0,0
118551,-76.9230769230769,4,2,1,80,0,1
125528,-66.6666666666667,4,2,1,80,0,1
126923,-71.4285714285714,4,2,1,80,0,1
129714,-100,4,2,1,70,0,1
137737,-133.333333333333,4,2,1,70,0,1
140876,-133.333333333333,4,2,1,20,0,0

[Colours]
Combo1 : 162,105,224
Combo2 : 253,217,72
Combo3 : 217,96,217
Combo4 : 235,147,70

[HitObjects]
254,230,1342,5,6,0:0:0:0:
256,192,1429,12,0,9365,0:0:0:0:
16,113,9714,6,0,P|0:176|84:201,2,168.750006437302,0|2|10,3:2|3:2|0:2,0:0:0:0:
155,82,11109,2,0,P|231:107|317:125,1,168.750006437302
394,74,11807,2,0,L|401:46,7,28.1250010728836
420,114,12504,6,0,B|447:161|447:161|395:200|412:273,1,150,6|0,3:2|0:0,0:0:0:0:
472,319,13028,2,0,B|429:306|396:341|413:342|379:377|334:364,1,150,6|0,3:2|0:0,0:0:0:0:
265,292,13551,6,0,P|165:379|239:211,1,525,6|0,3:2|3:2,0:0:0:0:
322,220,14946,2,0,L|334:173,3,37.5,8|0|0|0,0:0|0:0|0:0|0:0,0:0:0:0:
365,147,15295,6,0,P|288:113|277:52,1,150,6|0,3:2|0:0,0:0:0:0:
201,0,15818,2,0,P|127:24|56:38,1,150,6|0,3:2|0:0,0:0:0:0:
5,122,16342,6,0,B|33:182|13:237|-11:232|-26:282|4:381|100:350|168:276|47:190,1,375,6|8,3:2|0:0,0:0:0:0:
104,125,17388,2,0,L|150:112,3,37.5,0|8|8|8,3:2|0:0|0:0|0:0,0:0:0:0:
183,85,17737,2,0,L|244:101,1,37.5,8|8,0:0|0:0,0:0:0:0:
261,134,17911,2,0,L|322:151,1,37.5,8|8,0:0|0:0,0:0:0:0:
339,105,18086,6,0,P|374:115|400:145,2,75,6|0|0,3:2|0:0|0:0,0:0:0:0:
251,71,18609,2,0,P|243:35|255:0,2,75,6|0|0,3:2|0:0|0:0,0:0:0:0:
267,165,19132,2,0,P|241:190|204:197,3,75,6|0|0|0,3:2|0:0|0:0|0:0,0:0:0:0:
170,113,19830,2,0,P|144:88|107:81,1,75,6|0,3:2|0:0,0:0:0:0:
20,107,20179,2,0,P|13:143|-12:170,1,75,2|0,0:0|0:0,0:0:0:0:
8,252,20528,6,0,B|64:245|101:287|101:287|114:355|172:377|172:377|122:311|139:227|207:178|285:176|341:211|388:287|333:371,1,675,6|0,3:2|0:0,0:0:0:0:
270,314,22272,6,0,L|223:301,3,37.5,8|0|0|0,0:2|0:0|0:0|0:0,0:0:0:0:
204,268,22621,2,0,L|157:280,3,37.5,8|0|0|0,0:2|0:0|0:0|0:0,0:0:0:0:
139,318,22969,2,0,L|92:305,1,37.5,8|0,0:2|0:0,0:0:0:0:
73,272,23144,2,0,L|26:284,1,37.5,0|0,3:2|3:2,0:0:0:0:
4,325,23318,1,12,0:2:0:0:
123,196,23667,6,0,P|118:164|107:138,2,60,2|0|2,0:3|0:0|0:3,0:0:0:0:
196,247,24190,2,0,P|234:199|303:200,1,120
445,204,24888,2,0,P|407:252|338:251,1,120
348,126,25586,2,0,P|338:97|332:68,1,60,0|2,0:0|0:3,0:0:0:0:
257,119,25935,1,0,0:0:0:0:
257,119,26109,2,0,P|227:123|200:135,1,60,2|0,0:3|0:0,0:0:0:0:
130,87,26458,5,2,0:3:0:0:
122,79,26632,1,0,0:0:0:0:
0,181,26981,6,0,P|17:157|44:143,1,60,0|2,0:0|0:3,0:0:0:0:
126,173,27330,1,0,0:0:0:0:
69,242,27504,1,2,0:3:0:0:
61,250,27679,2,0,P|79:309|92:365,1,120
258,312,28376,2,0,P|189:310|156:231,1,120
207,200,28900,2,0,P|194:172|190:143,1,60,2|2,0:3|0:3,0:0:0:0:
246,72,29248,6,0,P|275:66|302:54,2,60,2|0|2,0:3|0:0|0:3,0:0:0:0:
281,153,29772,2,0,P|348:152|393:216,1,120
476,309,30469,2,0,P|409:310|364:246,1,120
249,339,31167,2,0,P|236:280|217:223,1,120
227,132,31690,2,0,P|198:141|169:147,1,60,2|0,0:3|0:0,0:0:0:0:
126,222,32039,5,2,0:3:0:0:
134,230,32214,1,0,0:0:0:0:
79,70,32562,2,0,P|66:128|47:185,1,120
0,262,33085,2,0,P|28:268|56:278,1,60,2|0,0:3|0:0,0:0:0:0:
138,232,33435,5,2,0:2:0:0:
256,324,33783,5,2,0:2:0:0:
374,232,34132,6,0,P|402:241|431:247,1,60,2|2,0:2|0:3,0:0:0:0:
476,222,34394,1,2,0:3:0:0:
475,222,34481,2,0,P|449:184|471:144,1,89.9999972534181,12|0,0:0|0:0,0:0:0:0:
512,40,34830,6,0,P|469:56|439:59,1,75,6|2,3:2|0:0,0:0:0:0:
378,119,35179,1,10,0:2:0:0:
370,127,35353,2,0,P|335:112|298:107,1,75,2|0,0:0|3:2,0:0:0:0:
226,45,35702,1,2,0:0:0:0:
163,207,36051,6,0,P|135:173|96:170,1,75,2|0,0:0|3:2,0:0:0:0:
29,126,36400,2,0,P|13:167|30:202,1,75,2|8,0:0|0:2,0:0:0:0:
25,282,36748,2,0,B|60:294|89:253|89:253|81:303|113:324,1,150,2|2,0:0|0:0,0:0:0:0:
171,384,37272,1,10,0:2:0:0:
179,376,37446,1,2,0:0:0:0:
191,288,37621,5,2,3:2:0:0:
199,296,37795,2,0,P|233:310|270:315,1,75,2|8,0:0|0:2,0:0:0:0:
352,375,38144,2,0,P|357:337|371:303,1,75,2|0,0:0|3:2,0:0:0:0:
462,296,38493,2,0,P|456:258|442:224,1,75,2|8,0:0|0:2,0:0:0:0:
352,217,38842,2,0,P|357:179|371:145,1,75,2|0,0:0|3:2,0:0:0:0:
461,137,39190,1,2,0:0:0:0:
324,10,39539,6,0,P|318:47|304:81,1,75,2|0,0:0|3:2,0:0:0:0:
204,92,39888,1,2,0:0:0:0:
212,100,40062,2,0,P|197:134|192:171,1,75,10|2,0:2|0:0,0:0:0:0:
125,231,40411,6,0,P|90:216|53:211,1,75,2|2,3:2|0:0,0:0:0:0:
8,149,40760,1,10,0:2:0:0:
0,141,40935,2,0,P|14:106|19:69,1,75,2|0,0:0|3:2,0:0:0:0:
93,19,41283,1,2,0:0:0:0:
212,100,41632,6,0,P|240:66|279:63,1,75,2|0,0:0|3:2,0:0:0:0:
346,19,41981,2,0,P|361:60|344:95,1,75,2|8,0:0|0:2,0:0:0:0:
349,175,42329,2,0,B|314:186|285:145|285:145|293:195|261:216,1,150,2|2,0:0|0:0,0:0:0:0:
209,276,42853,1,10,0:2:0:0:
217,284,43028,1,2,0:0:0:0:
181,206,43202,6,0,B|122:185|66:208|41:269|41:269|59:305|45:346,1,225,2|0,3:2|0:0,0:0:0:0:
11,353,43812,1,2,0:0:0:0:
11,353,43900,2,0,P|48:358|82:372,1,75,2|2,3:2|0:0,0:0:0:0:
140,300,44248,1,10,0:2:0:0:
148,308,44423,1,2,0:0:0:0:
241,294,44597,6,0,P|234:311|233:330,6,37.5,4|0|0|0|0|0|2,0:2|0:0|0:0|0:0|0:0|0:0|0:0,0:0:0:0:
282,259,45208,1,2,0:0:0:0:
282,259,45295,6,0,P|300:256|317:248,6,37.5,2|0|0|0|0|0|2,0:0|0:0|0:0|0:0|0:0|0:0|0:0,0:0:0:0:
257,212,45905,1,2,0:0:0:0:
257,212,45993,6,0,L|303:42,2,165.000005035401,6|0|0,3:2|3:2|3:2,0:0:0:0:
130,103,47039,6,0,P|91:118|51:124,1,82.5000025177003,0|2,3:2|0:0,0:0:0:0:
89,210,47388,1,2,3:2:0:0:
97,218,47562,1,2,0:0:0:0:
0,205,47737,2,0,P|14:243|21:284,1,82.5000025177003,2|2,3:2|0:0,0:0:0:0:
0,384,48086,2,0,L|170:338,1,165.000005035401,0|0,3:2|3:2,0:0:0:0:
311,225,48783,6,0,L|356:395,2,165.000005035401,2|0|0,3:2|3:2|3:2,0:0:0:0:
116,243,49830,6,0,P|158:249|195:264,1,82.5000025177003,0|2,3:2|0:0,0:0:0:0:
231,185,50179,1,2,3:2:0:0:
239,177,50353,1,2,0:0:0:0:
311,225,50528,2,0,P|353:218|390:203,1,82.5000025177003,2|2,3:2|0:0,0:0:0:0:
494,163,50876,2,0,P|434:107|452:23,1,165.000005035401,2|2,3:2|3:2,0:0:0:0:
345,126,51574,6,0,P|306:111|265:104,1,82.5000025177003,6|8,3:2|0:2,0:0:0:0:
170,132,51923,2,0,P|184:93|191:52,2,82.5000025177003,0|8|2,3:2|0:2|3:2,0:0:0:0:
87,161,52446,1,10,0:2:0:0:
79,153,52621,2,0,P|64:191|57:232,1,82.5000025177003,2|10,3:2|0:2,0:0:0:0:
79,329,52969,6,0,P|40:314|0:308,2,82.5000025177003,4|8|0,3:2|0:2|3:2,0:0:0:0:
164,366,53493,1,8,0:2:0:0:
172,358,53667,2,0,P|210:343|251:336,1,82.5000025177003,2|8,3:2|0:2,0:0:0:0:
226,245,54016,2,0,P|187:259|146:266,1,82.5000025177003,2|8,3:2|0:2,0:0:0:0:
78,209,54365,6,0,P|84:188|88:169,3,41.2500012588501,6|0|0|8,3:2|0:0|3:2|0:2,0:0:0:0:
71,122,54714,2,0,P|50:117|31:111,3,41.2500012588501,0|0|8|0,3:2|0:0|0:2|0:0,0:0:0:0:
0,72,55062,6,0,P|4:50|10:32,3,41.2500012588501,6|0|0|8,3:2|0:0|3:2|0:2,0:0:0:0:
49,0,55411,2,0,P|68:6|88:10,3,41.2500012588501,0|0|8|8,3:2|3:2|0:2|0:2,0:0:0:0:
114,50,55760,6,0,P|171:37|233:17,1,123.75000377655,6|8,3:2|0:2,0:0:0:0:
278,17,56109,6,0,P|336:35|398:50,1,123.75000377655,2|8,3:2|0:2,0:0:0:0:
424,10,56458,5,2,0:2:0:0:
496,83,56632,1,2,0:3:0:0:
496,83,56719,1,2,0:3:0:0:
496,83,56807,2,0,P|489:102|485:122,3,41.2500012588501,12|0|0|0,0:0|0:0|0:0|0:0,0:0:0:0:
485,169,57155,6,0,P|415:146|343:131,1,146.249993305207,6|0,3:2|0:0,0:0:0:0:
304,160,57504,2,0,P|318:206|298:261,1,97.4999955368044,10|0,0:2|0:0,0:0:0:0:
213,341,57853,2,0,P|204:265|132:304,1,146.249993305207,2|0,3:2|0:0,0:0:0:0:
124,311,58202,2,0,P|77:330|29:336,1,97.4999955368044,10|0,0:2|0:0,0:0:0:0:
0,203,58551,6,0,B|69:238|69:238|59:155,1,146.249993305207,2|0,3:2|0:0,0:0:0:0:
36,125,58900,2,0,P|10:86|24:29,1,97.4999955368044,10|0,0:2|0:0,0:0:0:0:
151,0,59248,2,0,P|218:26|291:37,1,146.249993305207,2|0,3:2|0:0,0:0:0:0:
320,73,59597,2,0,P|256:102|232:140,1,97.4999955368044,10|0,0:2|0:0,0:0:0:0:
226,245,59946,6,0,P|153:193|83:262,2,194.999991073609,2|10|2,3:2|0:2|3:2,0:0:0:0:
137,71,60993,2,0,P|160:66|178:47,3,48.7499977684022,10|0|0|0,0:2|0:0|0:0|0:0,0:0:0:0:
220,22,61342,6,0,P|258:91|361:103,1,146.249993305207,0|0,3:2|0:0,0:0:0:0:
338,148,61690,2,0,P|406:110|419:7,1,146.249993305207,10|0,0:2|0:0,0:0:0:0:
465,20,62039,5,2,3:2:0:0:
457,12,62214,1,2,0:0:0:0:
512,111,62388,5,10,0:2:0:0:
504,103,62563,1,2,0:0:0:0:
413,153,62737,6,0,P|472:207|477:296,1,146.249993305207,2|0,3:2|0:0,0:0:0:0:
458,306,63086,2,0,P|442:347|489:387,1,97.4999955368044,10|0,0:2|0:0,0:0:0:0:
383,251,63435,2,0,P|295:263|255:358,1,194.999991073609,2|10,3:2|0:2,0:0:0:0:
5,346,64132,6,0,P|57:282|140:278,1,146.249993305207,2|0,3:2|0:0,0:0:0:0:
146,230,64481,2,0,P|94:166|11:162,1,146.249993305207,10|0,0:2|0:0,0:0:0:0:
5,114,64830,2,0,P|57:50|140:46,1,146.249993305207,2|0,3:2|0:0,0:0:0:0:
158,71,65179,2,0,P|159:89|175:60,1,97.4999955368044,10|0,0:2|0:0,0:0:0:0:
279,11,65528,6,0,P|292:63|372:101,1,146.249993305207,2|0,3:2|0:0,0:0:0:0:
410,119,65876,2,0,P|379:137|372:196,1,97.4999955368044,10|0,0:2|0:0,0:0:0:0:
359,308,66225,2,0,P|317:273|230:289,1,146.249993305207,2|0,3:2|0:0,0:0:0:0:
190,296,66573,2,0,P|203:262|175:211,1,97.4999955368044,10|0,0:2|0:0,0:0:0:0:
95,123,66923,6,0,P|148:126|218:14,1,194.999991073609,2|8,3:2|0:2,0:0:0:0:
311,57,67446,1,2,0:0:0:0:
417,20,67621,2,0,P|387:109|366:208,1,194.999991073609,2|8,3:2|0:2,0:0:0:0:
289,261,68144,1,0,0:0:0:0:
297,269,68318,6,0,P|374:313|402:384,1,146.249993305207,6|0,3:2|0:0,0:0:0:0:
442,380,68667,2,0,P|441:320|473:281,1,97.4999955368044,10|0,0:2|0:0,0:0:0:0:
507,164,69016,2,0,P|432:188|365:201,1,146.249993305207,2|0,3:2|0:0,0:0:0:0:
326,163,69365,2,0,P|261:165|236:198,1,97.4999955368044,10|0,0:2|0:0,0:0:0:0:
239,337,69714,6,0,P|164:312|97:299,1,146.249993305207,2|0,3:2|0:0,0:0:0:0:
63,333,70062,2,0,P|11:298|7:225,1,97.4999955368044,10|0,0:2|0:0,0:0:0:0:
23,118,70411,2,0,B|74:62|74:62|87:131,1,146.249993305207,2|0,3:2|0:0,0:0:0:0:
126,164,70760,2,0,P|171:148|220:138,1,97.4999955368044,10|0,0:2|0:0,0:0:0:0:
261,8,71109,6,0,P|263:32|273:54,3,48.7499977684022,2|0|0|0,3:2|0:0|0:0|0:0,0:0:0:0:
307,86,71458,2,0,P|371:105|423:180,1,146.249993305207,8|0,0:2|0:0,0:0:0:0:
467,192,71807,6,0,P|464:216|454:238,3,48.7499977684022,2|0|0|0,3:2|0:0|0:0|0:0,0:0:0:0:
424,273,72156,2,0,P|381:285|348:333,1,97.4999955368044,8|2,0:2|0:0,0:0:0:0:
349,379,72417,1,2,0:0:0:0:
349,379,72504,6,0,P|300:325|211:334,1,146.249993305207,2|0,3:2|0:0,0:0:0:0:
223,308,72853,2,0,P|256:245|238:192,1,97.4999955368044,8|0,0:2|0:0,0:0:0:0:
182,124,73202,6,0,P|159:134|135:137,3,48.7499977684022,2|0|0|0,3:2|0:0|0:0|0:0,0:0:0:0:
93,167,73551,2,0,P|68:163|46:153,3,48.7499977684022,10|0|0|0,0:2|0:0|0:0|0:0,0:0:0:0:
2,178,73900,6,0,P|-8:113|50:48,1,146.249993305207,6|0,3:2|0:0,0:0:0:0:
56,9,74248,2,0,P|102:24|150:34,1,97.4999955368044,10|0,0:2|0:0,0:0:0:0:
293,0,74597,2,0,P|308:71|331:140,1,146.249993305207,2|0,3:2|0:0,0:0:0:0:
311,188,74946,2,0,P|383:192|414:240,1,97.4999955368044,10|0,0:2|0:0,0:0:0:0:
512,323,75295,6,0,P|472:368|384:364,1,146.249993305207,6|0,3:2|0:0,0:0:0:0:
369,326,75644,2,0,P|322:341|274:351,1,97.4999955368044,10|0,0:2|0:0,0:0:0:0:
122,384,75993,2,0,P|145:314|160:243,1,146.249993305207,2|0,3:2|0:0,0:0:0:0:
149,194,76342,2,0,P|110:165|62:166,1,97.4999955368044,10|0,0:2|0:0,0:0:0:0:
0,34,76690,5,6,3:2:0:0:
256,192,76778,12,2,78086,3:2:0:0:
345,131,78435,6,0,P|330:194|400:158,1,146.249993305207,10|0,0:2|3:2,0:0:0:0:
437,164,78783,2,0,P|455:175|483:176,3,48.7499977684022,2|0|0|0,3:2|0:0|3:2|0:0,0:0:0:0:
512,220,79132,2,0,P|500:238|499:266,3,48.7499977684022,8|0|0|0,0:2|0:0|0:0|0:0,0:0:0:0:
512,313,79481,6,0,P|461:322|425:336,1,89.9999972534181,4|0,3:2|0:0,0:0:0:0:
309,384,79830,2,0,P|298:330|334:296,1,89.9999972534181,10|0,0:2|0:0,0:0:0:0:
312,189,80179,2,0,P|364:206|375:254,1,89.9999972534181,2|0,3:2|0:0,0:0:0:0:
479,289,80528,2,0,P|437:325|390:311,1,89.9999972534181,10|0,0:2|0:0,0:0:0:0:
297,282,80876,6,0,P|248:292|204:306,1,89.9999972534181,2|0,3:2|0:0,0:0:0:0:
119,374,81225,2,0,P|108:325|94:281,1,89.9999972534181,10|0,0:2|0:0,0:0:0:0:
27,196,81574,2,0,P|75:185|119:171,1,89.9999972534181,2|0,3:2|0:0,0:0:0:0:
205,104,81923,2,0,P|215:152|229:196,1,89.9999972534181,10|0,0:2|0:0,0:0:0:0:
304,290,82272,6,0,P|375:340|472:316,1,179.999994506836,2|8,3:2|0:2,0:0:0:0:
327,207,82969,2,0,P|406:169|433:74,1,179.999994506836,2|8,3:2|0:2,0:0:0:0:
266,145,83667,6,0,P|273:57|204:-13,1,179.999994506836,2|8,3:2|0:2,0:0:0:0:
181,166,84365,2,0,P|119:123|38:144,1,134.999995880127,2|0,3:2|0:0,0:0:0:0:
27,155,84714,2,0,P|24:180|15:198,3,44.999998626709,10|2|2|2,0:2|0:0|0:0|0:0,0:0:0:0:
24,241,85062,6,0,P|86:284|167:263,1,134.999995880127,4|0,3:2|0:0,0:0:0:0:
184,251,85411,2,0,P|195:317|218:380,1,134.999995880127,8|0,0:2|0:0,0:0:0:0:
265,376,85760,5,0,3:2:0:0:
286,277,85935,2,0,P|305:284|329:288,1,44.999998626709
371,261,86109,2,0,P|373:238|382:216,3,44.999998626709,8|0|0|0,0:2|0:0|0:0|0:0,0:0:0:0:
426,190,86458,6,0,P|469:195|512:212,1,89.9999972534181,0|0,3:2|0:0,0:0:0:0:
510,107,86807,1,8,0:2:0:0:
440,30,86981,2,0,P|396:24|353:6,1,89.9999972534181,0|0,0:0|3:2,0:0:0:0:
376,120,87330,1,0,0:0:0:0:
285,167,87504,2,0,P|281:144|273:123,3,44.999998626709,8|0|0|0,0:2|0:0|0:0|0:0,0:0:0:0:
247,81,87853,6,0,P|200:88|157:132,1,89.9999972534181,0|0,3:2|0:0,0:0:0:0:
89,61,88202,2,0,P|72:104|89:164,1,89.9999972534181,8|0,0:2|0:0,0:0:0:0:
0,227,88551,2,0,P|46:234|89:278,1,89.9999972534181,0|0,3:2|0:0,0:0:0:0:
158,207,88900,2,0,P|174:250|158:310,1,89.9999972534181,8|0,0:2|0:0,0:0:0:0:
143,336,89161,1,0,0:0:0:0:
143,336,89248,6,0,P|184:353|228:359,1,89.9999972534181,4|0,3:2|0:0,0:0:0:0:
277,266,89597,2,0,P|318:308|365:309,1,89.9999972534181,8|0,0:2|0:0,0:0:0:0:
385,346,89859,1,0,0:0:0:0:
439,259,90033,1,0,0:0:0:0:
439,259,90121,1,0,0:0:0:0:
511,333,90295,2,0,P|475:293|489:208,1,134.999995880127,8|0,0:2|0:0,0:0:0:0:
512,178,90644,6,0,L|311:124,4,179.999994506836,14|8|8|8|8,0:2|0:2|0:2|0:2|0:2,0:0:0:0:
475,78,92214,5,2,0:0:0:0:
467,70,92388,2,0,P|463:47|455:26,3,44.999998626709,10|2|2|2,0:2|0:0|0:0|0:0,0:0:0:0:
410,6,92737,2,0,P|387:10|366:18,3,44.999998626709,10|2|2|2,0:2|0:0|0:0|0:0,0:0:0:0:
328,47,93086,2,0,P|305:43|284:35,3,44.999998626709,8|0|0|0,0:2|0:0|0:0|0:0,0:0:0:0:
249,0,93435,6,0,P|195:25|180:79,1,89.9999972534181,8|2,0:2|0:0,0:0:0:0:
134,44,93696,1,2,0:0:0:0:
134,44,93783,2,0,P|149:86|157:130,1,89.9999972534181,10|2,0:2|0:0,0:0:0:0:
105,224,94132,2,0,P|83:216|61:212,3,44.999998626709,8|2|2|2,0:2|0:0|0:0|0:0,0:0:0:0:
43,159,94481,6,0,P|5:217|35:301,1,134.999995880127,10|0,0:2|0:0,0:0:0:0:
11,326,94830,2,0,P|55:320|96:302,1,89.9999972534181,10|2,0:2|0:0,0:0:0:0:
163,376,95179,1,10,0:2:0:0:
171,384,95353,2,0,P|212:367|256:361,1,89.9999972534181,2|8,0:0|0:2,0:0:0:0:
345,313,95702,1,2,0:0:0:0:
261,265,95876,2,0,P|257:242|249:221,3,44.999998626709,8|0|0|0,0:2|0:0|0:0|0:0,0:0:0:0:
209,197,96225,6,0,P|231:155|276:139,1,89.9999972534181,12|0,0:2|0:0,0:0:0:0:
297,50,96574,1,8,0:2:0:0:
366,117,96748,2,0,B|363:170|401:202|404:180|445:218|442:271,1,179.999994506836
400,354,97272,1,8,0:2:0:0:
346,274,97446,1,0,0:0:0:0:
278,361,97621,6,0,P|234:345|191:337,1,89.9999972534181,12|0,0:2|0:0,0:0:0:0:
123,271,97969,1,8,0:2:0:0:
34,307,98144,2,0,P|57:344|97:365,1,89.9999972534181,0|8,0:0|0:2,0:0:0:0:
191,337,98493,1,0,0:0:0:0:
123,271,98667,2,0,P|138:227|146:184,1,89.9999972534181,8|0,0:2|0:0,0:0:0:0:
34,131,99016,6,0,P|87:119|126:45,1,134.999995880127,12|0,0:2|0:0,0:0:0:0:
155,12,99365,1,8,0:2:0:0:
155,12,99452,1,0,0:0:0:0:
155,12,99539,2,0,P|176:19|198:23,1,44.999998626709
219,74,99714,2,0,P|240:66|262:62,3,44.999998626709,8|0|0|0,0:2|0:0|0:0|0:0,0:0:0:0:
298,23,100062,2,0,P|306:78|334:104,1,89.9999972534181,8|0,0:2|0:0,0:0:0:0:
435,54,100411,6,0,P|432:112|494:168,1,134.999995880127,0|0,3:2|3:2,0:0:0:0:
511,209,100760,1,0,3:2:0:0:
465,294,100935,2,0,P|398:308|347:325,1,89.9999972534181,0|0,3:2|3:2,0:0:0:0:
296,261,101283,1,0,3:2:0:0:
290,359,101458,2,0,P|225:338|159:325,1,134.999995880127,0|0,3:2|3:2,0:0:0:0:
117,348,101807,6,0,P|112:325|105:304,3,44.999998626709,4|0|0|0,3:2|3:2|3:2|3:2,0:0:0:0:
57,288,102155,2,0,P|64:266|68:244,3,44.999998626709,0|0|0|0,3:2|3:2|3:2|3:2,0:0:0:0:
116,211,102504,5,0,3:2:0:0:
116,211,102592,1,0,3:2:0:0:
116,211,102679,2,0,P|111:188|104:167,1,44.999998626709,0|0,3:2|3:2,0:0:0:0:
58,145,102853,1,0,3:2:0:0:
58,145,102940,1,0,3:2:0:0:
58,145,103028,2,0,P|65:123|69:101,1,44.999998626709,0|0,3:2|3:2,0:0:0:0:
42,56,103202,6,0,L|11:64,10,22.4999993133545,0|0|0|0|0|0|0|0|0|0|0,3:2|3:2|3:2|3:2|3:2|3:2|3:2|3:2|3:2|3:2|3:2,0:0:0:0:
85,31,103725,2,0,P|123:88|225:84,1,179.999994506836,0|8,0:0|0:2,0:0:0:0:
326,125,104248,2,0,P|326:145|337:168,3,44.999998626709
378,197,104597,6,0,L|344:320,1,112.500004291535,4|0,3:2|0:0,0:0:0:0:
266,354,105121,1,0,3:2:0:0:
274,362,105295,1,0,3:2:0:0:
152,326,105644,1,4,3:2:0:0:
30,290,105993,5,8,0:2:0:0:
66,168,106342,5,8,0:2:0:0:
102,46,106690,6,0,P|126:51|155:57,1,56.2500021457673,8|0,0:2|3:2,0:0:0:0:
194,101,106952,1,0,3:2:0:0:
194,101,107039,2,0,L|201:128,3,28.1250010728836,12|0|0|0,0:2|0:0|0:0|0:0,0:0:0:0:
244,166,107388,5,0,0:0:0:0:
175,119,115760,6,0,P|236:109|294:86,1,123.75000377655,2|0,0:0|0:0,0:0:0:0:
329,113,116109,2,0,P|338:174|361:232,1,123.75000377655,2|0,0:0|0:0,0:0:0:0:
335,268,116458,2,0,P|273:277|215:300,1,123.75000377655,2|0,0:0|0:0,0:0:0:0:
180,273,116807,2,0,P|170:211|147:153,1,123.75000377655,2|0,0:0|0:0,0:0:0:0:
175,119,117155,5,2,0:2:0:0:
256,0,117504,5,2,0:2:0:0:
337,119,117853,6,0,P|375:104|416:97,1,82.5000025177003,2|2,0:2|0:3,0:0:0:0:
463,72,118115,1,2,0:3:0:0:
463,71,118202,2,0,P|434:114|439:166,1,104.999996795654,12|0,0:0|0:0,0:0:0:0:
512,253,118551,6,0,P|440:267|370:289,1,146.249993305207,6|0,3:2|0:0,0:0:0:0:
341,331,118900,2,0,P|306:297|260:283,1,97.4999955368044,10|0,0:2|0:0,0:0:0:0:
150,381,119248,2,0,P|160:281|106:249,1,146.249993305207,2|0,3:2|0:0,0:0:0:0:
93,283,119597,2,0,P|45:265|-1:257,1,97.4999955368044,10|0,0:2|0:0,0:0:0:0:
8,106,119946,6,0,P|87:135|165:148,1,146.249993305207,2|0,3:2|0:0,0:0:0:0:
182,180,120295,2,0,P|229:142|228:91,1,97.4999955368044,10|0,0:2|0:0,0:0:0:0:
358,0,120644,2,0,B|302:51|302:51|371:64,1,146.249993305207,2|0,3:2|0:0,0:0:0:0:
412,85,120993,2,0,P|457:67|505:59,1,97.4999955368044,10|0,0:2|0:0,0:0:0:0:
512,178,121342,6,0,P|488:180|466:190,3,48.7499977684022,2|0|0|0,3:2|0:0|0:0|0:0,0:0:0:0:
431,224,121691,2,0,P|412:288|337:340,1,146.249993305207,8|0,0:2|0:0,0:0:0:0:
325,384,122040,6,0,P|301:381|279:371,3,48.7499977684022,2|0|0|0,3:2|0:0|0:0|0:0,0:0:0:0:
244,341,122389,2,0,P|232:298|184:265,1,97.4999955368044,8|2,0:2|0:0,0:0:0:0:
187,223,122650,1,2,0:0:0:0:
187,223,122737,6,0,P|115:238|79:320,1,146.249993305207,2|0,3:2|0:0,0:0:0:0:
56,292,123086,2,0,P|72:222|38:174,1,97.4999955368044,8|0,0:2|0:0,0:0:0:0:
1,105,123435,6,0,P|25:101|47:91,3,48.7499977684022,2|0|0|0,3:2|0:0|0:0|0:0,0:0:0:0:
88,59,123783,2,0,P|110:68|134:72,3,48.7499977684022,10|0|0|0,0:2|0:0|0:0|0:0,0:0:0:0:
152,126,124132,6,0,P|183:67|256:43,1,146.249993305207,6|0,3:2|0:0,0:0:0:0:
296,13,124481,2,0,P|302:61|321:106,1,97.4999955368044,10|0,0:2|0:0,0:0:0:0:
431,213,124830,2,0,P|354:223|284:252,1,146.249993305207,2|0,3:2|0:0,0:0:0:0:
273,294,125179,2,0,P|252:254|203:238,1,97.4999955368044,10|0,0:2|0:0,0:0:0:0:
59,224,125528,6,0,P|58:261|76:289,3,56.2500021457673,6|0|0|0,3:2|0:0|0:0|0:0,0:0:0:0:
47,311,125876,2,0,P|78:329|112:328,3,56.2500021457673,10|0|0|0,0:2|0:0|0:0|0:0,0:0:0:0:
125,375,126225,2,0,P|157:356|172:327,3,56.2500021457673,2|0|0|0,3:2|0:0|0:0|0:0,0:0:0:0:
228,329,126574,2,0,P|235:276|256:220,1,112.500004291535,10|0,0:2|0:0,0:0:0:0:
376,174,126923,6,0,L|283:149,3,52.4999983978272,6|0|0|0,3:2|3:2|3:2|3:2,0:0:0:0:
299,105,127272,2,0,L|367:37,3,52.4999983978272,0|0|0|0,3:2|3:2|3:2|3:2,0:0:0:0:
397,72,127621,2,0,L|422:165,3,52.4999983978272,0|0|0|0,3:2|3:2|3:2|3:2,0:0:0:0:
376,174,127969,2,0,L|283:149,3,52.4999983978272,0|0|0|0,3:2|3:2|3:2|3:2,0:0:0:0:
299,105,128318,6,0,P|270:60|205:59,1,104.999996795654,10|8,0:2|0:0,0:0:0:0:
190,7,128580,1,8,0:0:0:0:
190,7,128667,2,0,P|136:9|104:65,1,104.999996795654,10|8,0:2|0:0,0:0:0:0:
51,52,128929,1,8,0:0:0:0:
51,52,129016,2,0,P|26:99|58:155,1,104.999996795654,10|2,0:2|0:3,0:0:0:0:
98,175,129278,1,2,0:3:0:0:
98,175,129365,2,0,L|30:243,3,52.4999983978272,12|0|0|0,0:0|0:0|0:0|0:0,0:0:0:0:
14,230,129714,6,0,B|52:268|52:268|11:325|47:386,1,150,4|0,3:2|0:0,0:0:0:0:
135,332,130238,2,0,B|178:319|211:354|194:355|228:390|273:377,1,150,4|0,3:2|0:0,0:0:0:0:
355,330,130760,2,0,B|422:382|422:382|387:251|387:251|320:199|320:199|285:68|285:68|351:120,1,525,4|0,3:2|3:2,0:0:0:0:
427,170,132155,2,0,L|474:158,3,37.5,8|0|0|0,0:0|0:0|0:0|0:0,0:0:0:0:
512,182,132504,6,0,P|488:108|474:37,1,150,4|0,3:2|0:0,0:0:0:0:
390,83,133028,2,0,P|332:39|261:54,1,150,4|0,3:2|0:0,0:0:0:0:
172,4,133552,6,0,B|144:64|164:119|188:114|203:164|173:263|77:232|9:158|130:72,1,375,4|8,3:2|0:0,0:0:0:0:
78,10,134598,2,0,L|32:-3,3,37.5,0|8|8|8,3:2|0:0|0:0|0:0,0:0:0:0:
0,33,134947,2,0,L|-10:69,1,37.5,8|8,0:0|0:0,0:0:0:0:
28,108,135121,2,0,L|18:144,1,37.5,8|8,0:0|0:0,0:0:0:0:
62,182,135296,6,0,P|26:192|2:220,2,75,4|0|0,3:2|0:0|0:0,0:0:0:0:
150,148,135819,2,0,P|158:112|146:77,2,75,4|0|0,3:2|0:0|0:0,0:0:0:0:
134,242,136342,2,0,P|161:267|197:274,3,75,4|0|0|0,3:2|0:0|0:0|0:0,0:0:0:0:
220,360,137039,2,0,P|255:349|279:321,1,75,4|0,3:2|0:0,0:0:0:0:
365,344,137388,2,0,P|374:308|361:273,1,75
280,229,137737,5,4,3:2:0:0:
256,192,137824,12,0,140876,0:0:0:0:
