osu file format v14

[General]
AudioFilename: audio.mp3
AudioLeadIn: 0
PreviewTime: 64975
Countdown: 0
SampleSet: Soft
StackLeniency: 0.7
Mode: 3
LetterboxInBreaks: 0
SpecialStyle: 0
WidescreenStoryboard: 1

[Editor]
DistanceSpacing: 1.3
BeatDivisor: 16
GridSize: 32
TimelineZoom: 2.3

[Metadata]
Title:Smiling
TitleUnicode:Smiling
Artist:Lime
ArtistUnicode:Lime
Creator:c36098651
Version::)
Source:
Tags:
BeatmapID:1119436
BeatmapSetID:527670

[Difficulty]
HPDrainRate:8
CircleSize:7
OverallDifficulty:0
ApproachRate:10
SliderMultiplier:1.4
SliderTickRate:1

[Events]
//Background and Video events
0,0,"240469-15011Z9235987.jpg",0,0
//Break Periods
//Storyboard Layer 0 (Background)
//Storyboard Layer 1 (Fail)
//Storyboard Layer 2 (Pass)
//Storyboard Layer 3 (Foreground)
//Storyboard Sound Samples

[TimingPoints]
9132,348.837209302326,4,2,0,0,1,0
126341,-100,4,2,0,0,0,0

[HitObjects]
109,192,9131,5,0,0:0:0:0:
329,192,9131,1,0,0:0:0:0:
109,192,9480,1,0,0:0:0:0:
256,192,9655,1,0,0:0:0:0:
182,192,9829,1,0,0:0:0:0:
329,192,10004,1,0,0:0:0:0:
256,192,10178,1,0,0:0:0:0:
402,192,10352,1,0,0:0:0:0:
36,192,10527,1,0,0:0:0:0:
256,192,10527,1,0,0:0:0:0:
109,192,10876,1,0,0:0:0:0:
329,192,11050,1,0,0:0:0:0:
182,192,11225,1,0,0:0:0:0:
402,192,11399,1,0,0:0:0:0:
256,192,11573,1,0,0:0:0:0:
329,192,11748,1,0,0:0:0:0:
109,192,11922,1,0,0:0:0:0:
402,192,11922,1,0,0:0:0:0:
36,192,12271,1,0,0:0:0:0:
182,192,12445,1,0,0:0:0:0:
402,192,12620,1,0,0:0:0:0:
256,192,12794,1,0,0:0:0:0:
329,192,12969,1,0,0:0:0:0:
182,192,13143,1,0,0:0:0:0:
109,192,13318,1,0,0:0:0:0:
402,192,13318,1,0,0:0:0:0:
109,192,13666,1,0,0:0:0:0:
256,192,13841,1,0,0:0:0:0:
475,192,14015,1,0,0:0:0:0:
329,192,14190,1,0,0:0:0:0:
182,192,14364,1,0,0:0:0:0:
36,192,14538,1,0,0:0:0:0:
109,192,14713,1,0,0:0:0:0:
256,192,14713,1,0,0:0:0:0:
402,192,14713,1,0,0:0:0:0:
109,192,15149,1,0,0:0:0:0:
182,192,15236,1,0,0:0:0:0:
256,192,15323,1,0,0:0:0:0:
329,192,15411,1,0,0:0:0:0:
402,192,15411,1,0,0:0:0:0:
36,192,15411,1,0,0:0:0:0:
109,192,15759,1,0,0:0:0:0:
329,192,15759,1,0,0:0:0:0:
36,192,16108,1,0,0:0:0:0:
256,192,16108,1,0,0:0:0:0:
329,192,16632,1,0,0:0:0:0:
475,192,16632,1,0,0:0:0:0:
329,192,16806,1,0,0:0:0:0:
475,192,16806,1,0,0:0:0:0:
109,192,17329,1,0,0:0:0:0:
182,192,17416,1,0,0:0:0:0:
256,192,17504,1,0,0:0:0:0:
402,192,17504,1,0,0:0:0:0:
182,192,18027,1,0,0:0:0:0:
329,192,18027,1,0,0:0:0:0:
109,192,18550,1,0,0:0:0:0:
256,192,18550,1,0,0:0:0:0:
109,192,19597,1,0,0:0:0:0:
256,192,19640,1,0,0:0:0:0:
402,192,19684,1,0,0:0:0:0:
36,192,19727,1,0,0:0:0:0:
182,192,19771,1,0,0:0:0:0:
329,192,19815,1,0,0:0:0:0:
475,192,19858,1,0,0:0:0:0:
109,192,19858,1,0,0:0:0:0:
256,192,19902,1,0,0:0:0:0:
402,192,19945,1,0,0:0:0:0:
36,192,19989,1,0,0:0:0:0:
182,192,20033,1,0,0:0:0:0:
329,192,20076,1,0,0:0:0:0:
475,192,20120,1,0,0:0:0:0:
109,192,20120,1,0,0:0:0:0:
402,192,20163,1,0,0:0:0:0:
36,192,20163,1,0,0:0:0:0:
182,192,20207,1,0,0:0:0:0:
329,192,20251,1,0,0:0:0:0:
475,192,20294,1,0,0:0:0:0:
402,192,20294,128,0,20731:0:0:0:0:
36,192,20294,128,0,20731:0:0:0:0:
256,192,20295,128,0,20731:0:0:0:0:
109,192,20295,128,0,20731:0:0:0:0:
36,192,20818,128,0,21254:0:0:0:0:
109,192,20818,128,0,21254:0:0:0:0:
256,192,20818,128,0,21254:0:0:0:0:
329,192,20818,128,0,21254:0:0:0:0:
402,192,20818,1,0,0:0:0:0:
475,192,20818,1,0,0:0:0:0:
182,192,20818,1,0,0:0:0:0:
182,192,21341,128,0,22736:0:0:0:0:
256,192,21341,128,0,22736:0:0:0:0:
329,192,21341,128,0,22736:0:0:0:0:
475,192,21341,128,0,22736:0:0:0:0:
36,192,21341,128,0,22736:0:0:0:0:
109,192,21341,1,0,0:0:0:0:
402,192,21341,1,0,0:0:0:0:
109,192,21864,1,0,0:0:0:0:
402,192,22039,1,0,0:0:0:0:
402,192,22388,1,0,0:0:0:0:
109,192,22475,1,0,0:0:0:0:
402,192,22562,1,0,0:0:0:0:
109,192,22649,1,0,0:0:0:0:
402,192,22736,1,0,0:0:0:0:
109,192,22780,1,0,0:0:0:0:
182,192,22824,1,0,0:0:0:0:
256,192,22867,1,0,0:0:0:0:
329,192,22911,1,0,0:0:0:0:
402,192,22954,1,0,0:0:0:0:
475,192,22998,1,0,0:0:0:0:
109,192,23042,1,0,0:0:0:0:
182,192,23085,128,0,23521:0:0:0:0:
256,192,23085,128,0,23521:0:0:0:0:
402,192,23085,128,0,23521:0:0:0:0:
36,192,23085,128,0,23521:0:0:0:0:
329,192,23085,1,0,0:0:0:0:
109,192,23608,128,0,24045:0:0:0:0:
182,192,23608,128,0,24045:0:0:0:0:
329,192,23608,128,0,24045:0:0:0:0:
475,192,23608,128,0,24045:0:0:0:0:
402,192,23608,1,0,0:0:0:0:
256,192,23608,1,0,0:0:0:0:
36,192,23608,1,0,0:0:0:0:
109,192,24132,128,0,25265:0:0:0:0:
36,192,24132,128,0,25309:0:0:0:0:
256,192,24132,128,0,25178:0:0:0:0:
402,192,24132,128,0,25222:0:0:0:0:
475,192,24132,128,0,25178:0:0:0:0:
182,192,24132,1,0,0:0:0:0:
329,192,24132,1,0,0:0:0:0:
329,192,24481,1,0,0:0:0:0:
182,192,24655,1,0,0:0:0:0:
329,192,24829,1,0,0:0:0:0:
182,192,24917,1,0,0:0:0:0:
329,192,25004,1,0,0:0:0:0:
182,192,25091,1,0,0:0:0:0:
329,192,25178,1,0,0:0:0:0:
475,192,25222,1,0,0:0:0:0:
402,192,25265,1,0,0:0:0:0:
109,192,25309,1,0,0:0:0:0:
36,192,25353,1,0,0:0:0:0:
475,192,25374,1,0,0:0:0:0:
402,192,25396,1,0,0:0:0:0:
329,192,25418,1,0,0:0:0:0:
256,192,25440,1,0,0:0:0:0:
182,192,25462,1,0,0:0:0:0:
109,192,25483,1,0,0:0:0:0:
36,192,25505,1,0,0:0:0:0:
402,192,25527,1,0,0:0:0:0:
182,192,25614,1,0,0:0:0:0:
329,192,25701,1,0,0:0:0:0:
256,192,25789,1,0,0:0:0:0:
109,192,25876,1,0,0:0:0:0:
36,192,25876,1,0,0:0:0:0:
182,192,25876,128,0,26312:0:0:0:0:
329,192,25876,128,0,26312:0:0:0:0:
475,192,25876,128,0,26312:0:0:0:0:
402,192,25876,1,0,0:0:0:0:
36,192,26050,1,0,0:0:0:0:
109,192,26050,1,0,0:0:0:0:
36,192,26225,1,0,0:0:0:0:
109,192,26225,1,0,0:0:0:0:
329,192,26399,1,0,0:0:0:0:
402,192,26399,1,0,0:0:0:0:
182,192,26399,128,0,26835:0:0:0:0:
36,192,26399,128,0,26835:0:0:0:0:
475,192,26399,128,0,26835:0:0:0:0:
109,192,26399,1,0,0:0:0:0:
256,192,26399,1,0,0:0:0:0:
329,192,26574,1,0,0:0:0:0:
402,192,26574,1,0,0:0:0:0:
329,192,26748,1,0,0:0:0:0:
402,192,26748,1,0,0:0:0:0:
182,192,26922,1,0,0:0:0:0:
256,192,26922,1,0,0:0:0:0:
329,192,26922,128,0,27533:0:0:0:0:
475,192,26922,128,0,27533:0:0:0:0:
109,192,26922,128,0,27533:0:0:0:0:
36,192,26922,128,0,27533:0:0:0:0:
402,192,26922,1,0,0:0:0:0:
182,192,27097,1,0,0:0:0:0:
256,192,27097,1,0,0:0:0:0:
182,192,27271,1,0,0:0:0:0:
256,192,27271,1,0,0:0:0:0:
182,192,27446,1,0,0:0:0:0:
256,192,27446,1,0,0:0:0:0:
182,192,27533,1,0,0:0:0:0:
256,192,27533,1,0,0:0:0:0:
36,192,27620,128,0,27882:0:0:0:0:
182,192,27620,128,0,27882:0:0:0:0:
329,192,27620,1,0,0:0:0:0:
402,192,27620,1,0,0:0:0:0:
109,192,27620,1,0,0:0:0:0:
475,192,27620,1,0,0:0:0:0:
256,192,27795,1,0,0:0:0:0:
475,192,27795,1,0,0:0:0:0:
329,192,27882,1,0,0:0:0:0:
402,192,27882,1,0,0:0:0:0:
475,192,27969,128,0,28231:0:0:0:0:
256,192,27969,128,0,28231:0:0:0:0:
109,192,27969,1,0,0:0:0:0:
182,192,27969,1,0,0:0:0:0:
329,192,28143,1,0,0:0:0:0:
402,192,28143,1,0,0:0:0:0:
36,192,28231,1,0,0:0:0:0:
109,192,28231,1,0,0:0:0:0:
182,192,28318,128,0,30062:0:0:0:0:
402,192,28318,1,0,0:0:0:0:
475,192,28318,1,0,0:0:0:0:
329,192,28318,128,0,30062:0:0:0:0:
36,192,28405,1,0,0:0:0:0:
109,192,28405,1,0,0:0:0:0:
402,192,28492,1,0,0:0:0:0:
475,192,28492,1,0,0:0:0:0:
36,192,28579,1,0,0:0:0:0:
109,192,28579,1,0,0:0:0:0:
256,192,28667,1,0,0:0:0:0:
475,192,28667,1,0,0:0:0:0:
402,192,28754,1,0,0:0:0:0:
36,192,28754,1,0,0:0:0:0:
109,192,28841,1,0,0:0:0:0:
475,192,28841,1,0,0:0:0:0:
256,192,28928,1,0,0:0:0:0:
402,192,28928,1,0,0:0:0:0:
36,192,29015,1,0,0:0:0:0:
109,192,29015,1,0,0:0:0:0:
256,192,29103,1,0,0:0:0:0:
475,192,29103,1,0,0:0:0:0:
36,192,29190,1,0,0:0:0:0:
109,192,29190,1,0,0:0:0:0:
256,192,29277,1,0,0:0:0:0:
475,192,29277,1,0,0:0:0:0:
402,192,29364,1,0,0:0:0:0:
109,192,29364,1,0,0:0:0:0:
36,192,29451,1,0,0:0:0:0:
475,192,29451,1,0,0:0:0:0:
402,192,29539,1,0,0:0:0:0:
109,192,29539,1,0,0:0:0:0:
256,192,29626,1,0,0:0:0:0:
36,192,29626,1,0,0:0:0:0:
402,192,29713,1,0,0:0:0:0:
475,192,29713,1,0,0:0:0:0:
36,192,29800,1,0,0:0:0:0:
109,192,29800,1,0,0:0:0:0:
402,192,29888,1,0,0:0:0:0:
475,192,29888,1,0,0:0:0:0:
36,192,29975,1,0,0:0:0:0:
109,192,29975,1,0,0:0:0:0:
475,192,30062,1,0,0:0:0:0:
402,192,30062,1,0,0:0:0:0:
256,192,30062,128,0,30106:0:0:0:0:
256,192,30411,128,0,30454:0:0:0:0:
256,192,30760,128,0,30803:0:0:0:0:
36,192,30934,1,0,0:0:0:0:
256,192,30934,1,0,0:0:0:0:
475,192,30934,1,0,0:0:0:0:
402,192,30934,1,0,0:0:0:0:
109,192,31021,1,0,0:0:0:0:
182,192,31021,1,0,0:0:0:0:
329,192,31021,1,0,0:0:0:0:
475,192,31087,128,0,31217:0:0:0:0:
402,192,31108,128,0,31239:0:0:0:0:
329,192,31130,128,0,31261:0:0:0:0:
256,192,31152,128,0,31283:0:0:0:0:
182,192,31174,128,0,31283:0:0:0:0:
109,192,31196,128,0,31283:0:0:0:0:
36,192,31217,128,0,31283:0:0:0:0:
109,192,31457,1,0,0:0:0:0:
329,192,31457,1,0,0:0:0:0:
182,192,31632,1,0,0:0:0:0:
402,192,31632,1,0,0:0:0:0:
256,192,31806,1,0,0:0:0:0:
36,192,31806,1,0,0:0:0:0:
329,192,31981,1,0,0:0:0:0:
109,192,31981,1,0,0:0:0:0:
475,192,32155,1,0,0:0:0:0:
182,192,32329,1,0,0:0:0:0:
402,192,32329,1,0,0:0:0:0:
36,192,32504,1,0,0:0:0:0:
256,192,32678,1,0,0:0:0:0:
475,192,32678,1,0,0:0:0:0:
109,192,32853,1,0,0:0:0:0:
329,192,33027,1,0,0:0:0:0:
36,192,33027,1,0,0:0:0:0:
182,192,33201,1,0,0:0:0:0:
256,192,33376,1,0,0:0:0:0:
402,192,33376,1,0,0:0:0:0:
36,192,33550,1,0,0:0:0:0:
182,192,33725,1,0,0:0:0:0:
475,192,33725,1,0,0:0:0:0:
329,192,33899,1,0,0:0:0:0:
109,192,33899,1,0,0:0:0:0:
475,192,34074,1,0,0:0:0:0:
182,192,34074,1,0,0:0:0:0:
256,192,34248,1,0,0:0:0:0:
402,192,34248,1,0,0:0:0:0:
109,192,34422,1,0,0:0:0:0:
329,192,34422,1,0,0:0:0:0:
182,192,34597,1,0,0:0:0:0:
329,192,34771,1,0,0:0:0:0:
36,192,34771,1,0,0:0:0:0:
109,192,34946,1,0,0:0:0:0:
256,192,35120,1,0,0:0:0:0:
475,192,35120,1,0,0:0:0:0:
329,192,35295,1,0,0:0:0:0:
182,192,35469,1,0,0:0:0:0:
402,192,35469,1,0,0:0:0:0:
256,192,35643,1,0,0:0:0:0:
109,192,35818,1,0,0:0:0:0:
329,192,35818,1,0,0:0:0:0:
182,192,35992,128,0,36341:0:0:0:0:
36,192,35992,1,0,0:0:0:0:
402,192,36167,1,0,0:0:0:0:
256,192,36167,1,0,0:0:0:0:
329,192,36341,128,0,36690:0:0:0:0:
109,192,36341,1,0,0:0:0:0:
256,192,36515,1,0,0:0:0:0:
475,192,36515,1,0,0:0:0:0:
475,192,36690,128,0,37039:0:0:0:0:
182,192,36690,1,0,0:0:0:0:
36,192,36690,1,0,0:0:0:0:
109,192,36864,1,0,0:0:0:0:
256,192,36864,1,0,0:0:0:0:
402,192,37039,128,0,39829:0:0:0:0:
36,192,37039,1,0,0:0:0:0:
182,192,37039,1,0,0:0:0:0:
109,192,37213,1,0,0:0:0:0:
256,192,37213,1,0,0:0:0:0:
182,192,37388,1,0,0:0:0:0:
475,192,37388,1,0,0:0:0:0:
256,192,37562,1,0,0:0:0:0:
36,192,37562,1,0,0:0:0:0:
182,192,37736,1,0,0:0:0:0:
109,192,37911,1,0,0:0:0:0:
329,192,37911,1,0,0:0:0:0:
182,192,38085,1,0,0:0:0:0:
256,192,38260,1,0,0:0:0:0:
475,192,38260,1,0,0:0:0:0:
36,192,38434,1,0,0:0:0:0:
475,192,38608,1,0,0:0:0:0:
182,192,38608,1,0,0:0:0:0:
109,192,38783,1,0,0:0:0:0:
329,192,38957,1,0,0:0:0:0:
36,192,38957,1,0,0:0:0:0:
256,192,39132,1,0,0:0:0:0:
36,192,39306,1,0,0:0:0:0:
329,192,39306,1,0,0:0:0:0:
182,192,39481,1,0,0:0:0:0:
475,192,39481,1,0,0:0:0:0:
109,192,39655,1,0,0:0:0:0:
329,192,39655,1,0,0:0:0:0:
256,192,39829,1,0,0:0:0:0:
36,192,39829,1,0,0:0:0:0:
182,192,40004,1,0,0:0:0:0:
329,192,40004,1,0,0:0:0:0:
109,192,40178,1,0,0:0:0:0:
475,192,40353,1,0,0:0:0:0:
256,192,40353,1,0,0:0:0:0:
36,192,40527,1,0,0:0:0:0:
402,192,40701,1,0,0:0:0:0:
182,192,40701,1,0,0:0:0:0:
329,192,40876,1,0,0:0:0:0:
256,192,41050,1,0,0:0:0:0:
475,192,41050,1,0,0:0:0:0:
182,192,41225,128,0,41268:0:0:0:0:
475,192,41399,1,0,0:0:0:0:
402,192,41574,1,0,0:0:0:0:
182,192,41574,128,0,41617:0:0:0:0:
329,192,41748,5,0,0:0:0:0:
182,192,41922,128,0,41966:0:0:0:0:
402,192,42097,5,0,0:0:0:0:
256,192,42097,1,0,0:0:0:0:
475,192,42097,1,0,0:0:0:0:
36,192,42097,1,0,0:0:0:0:
182,192,42184,5,0,0:0:0:0:
329,192,42184,1,0,0:0:0:0:
109,192,42184,1,0,0:0:0:0:
475,192,42249,128,0,42380:0:0:0:0:
402,192,42271,128,0,42402:0:0:0:0:
329,192,42293,128,0,42424:0:0:0:0:
256,192,42315,128,0,42446:0:0:0:0:
182,192,42337,128,0,42446:0:0:0:0:
109,192,42358,128,0,42446:0:0:0:0:
36,192,42380,128,0,42446:0:0:0:0:
36,192,42620,5,0,0:0:0:0:
109,192,42620,1,0,0:0:0:0:
329,192,42620,1,0,0:0:0:0:
475,192,42620,1,0,0:0:0:0:
182,192,42707,1,0,0:0:0:0:
402,192,42707,1,0,0:0:0:0:
256,192,42795,1,0,0:0:0:0:
36,192,42795,1,0,0:0:0:0:
475,192,42795,1,0,0:0:0:0:
109,192,42882,1,0,0:0:0:0:
329,192,42882,1,0,0:0:0:0:
182,192,42969,1,0,0:0:0:0:
256,192,42969,1,0,0:0:0:0:
475,192,42969,1,0,0:0:0:0:
36,192,42969,1,0,0:0:0:0:
402,192,43056,1,0,0:0:0:0:
109,192,43056,1,0,0:0:0:0:
256,192,43143,1,0,0:0:0:0:
475,192,43143,1,0,0:0:0:0:
36,192,43143,1,0,0:0:0:0:
182,192,43231,1,0,0:0:0:0:
402,192,43231,1,0,0:0:0:0:
109,192,43318,1,0,0:0:0:0:
329,192,43318,1,0,0:0:0:0:
475,192,43318,1,0,0:0:0:0:
36,192,43318,1,0,0:0:0:0:
256,192,43405,1,0,0:0:0:0:
402,192,43405,1,0,0:0:0:0:
329,192,43492,1,0,0:0:0:0:
475,192,43492,1,0,0:0:0:0:
109,192,43492,1,0,0:0:0:0:
182,192,43579,1,0,0:0:0:0:
402,192,43579,1,0,0:0:0:0:
109,192,43667,1,0,0:0:0:0:
256,192,43667,1,0,0:0:0:0:
475,192,43667,1,0,0:0:0:0:
36,192,43667,1,0,0:0:0:0:
329,192,43754,1,0,0:0:0:0:
402,192,43754,1,0,0:0:0:0:
36,192,43841,1,0,0:0:0:0:
182,192,43841,1,0,0:0:0:0:
109,192,43841,1,0,0:0:0:0:
256,192,43928,1,0,0:0:0:0:
475,192,43928,1,0,0:0:0:0:
109,192,44015,1,0,0:0:0:0:
182,192,44015,1,0,0:0:0:0:
329,192,44015,1,0,0:0:0:0:
402,192,44015,1,0,0:0:0:0:
36,192,44103,1,0,0:0:0:0:
475,192,44103,1,0,0:0:0:0:
256,192,44190,1,0,0:0:0:0:
109,192,44190,1,0,0:0:0:0:
402,192,44190,1,0,0:0:0:0:
329,192,44277,1,0,0:0:0:0:
182,192,44277,1,0,0:0:0:0:
402,192,44364,1,0,0:0:0:0:
475,192,44364,1,0,0:0:0:0:
36,192,44364,1,0,0:0:0:0:
256,192,44364,1,0,0:0:0:0:
109,192,44451,1,0,0:0:0:0:
329,192,44451,1,0,0:0:0:0:
182,192,44539,1,0,0:0:0:0:
402,192,44539,1,0,0:0:0:0:
36,192,44539,1,0,0:0:0:0:
256,192,44626,1,0,0:0:0:0:
475,192,44626,1,0,0:0:0:0:
402,192,44713,1,0,0:0:0:0:
329,192,44713,1,0,0:0:0:0:
36,192,44713,1,0,0:0:0:0:
182,192,44713,1,0,0:0:0:0:
109,192,44800,1,0,0:0:0:0:
256,192,44800,1,0,0:0:0:0:
475,192,44888,1,0,0:0:0:0:
182,192,44888,1,0,0:0:0:0:
36,192,44888,1,0,0:0:0:0:
256,192,44975,1,0,0:0:0:0:
402,192,44975,1,0,0:0:0:0:
36,192,45062,1,0,0:0:0:0:
109,192,45062,1,0,0:0:0:0:
329,192,45062,1,0,0:0:0:0:
475,192,45062,1,0,0:0:0:0:
182,192,45149,1,0,0:0:0:0:
402,192,45149,1,0,0:0:0:0:
256,192,45236,1,0,0:0:0:0:
475,192,45236,1,0,0:0:0:0:
36,192,45236,1,0,0:0:0:0:
109,192,45324,1,0,0:0:0:0:
329,192,45324,1,0,0:0:0:0:
402,192,45411,1,0,0:0:0:0:
182,192,45411,1,0,0:0:0:0:
36,192,45411,1,0,0:0:0:0:
256,192,45411,1,0,0:0:0:0:
329,192,45498,1,0,0:0:0:0:
109,192,45498,1,0,0:0:0:0:
182,192,45585,1,0,0:0:0:0:
475,192,45585,1,0,0:0:0:0:
256,192,45585,1,0,0:0:0:0:
329,192,45672,1,0,0:0:0:0:
36,192,45672,1,0,0:0:0:0:
109,192,45760,1,0,0:0:0:0:
182,192,45760,1,0,0:0:0:0:
402,192,45760,1,0,0:0:0:0:
475,192,45760,1,0,0:0:0:0:
36,192,45847,1,0,0:0:0:0:
329,192,45847,1,0,0:0:0:0:
182,192,45934,1,0,0:0:0:0:
402,192,45934,1,0,0:0:0:0:
256,192,45934,1,0,0:0:0:0:
109,192,46021,1,0,0:0:0:0:
475,192,46021,1,0,0:0:0:0:
36,192,46108,1,0,0:0:0:0:
182,192,46108,1,0,0:0:0:0:
329,192,46108,1,0,0:0:0:0:
402,192,46108,1,0,0:0:0:0:
256,192,46196,1,0,0:0:0:0:
475,192,46196,1,0,0:0:0:0:
36,192,46283,1,0,0:0:0:0:
109,192,46283,1,0,0:0:0:0:
329,192,46283,1,0,0:0:0:0:
182,192,46370,1,0,0:0:0:0:
475,192,46370,1,0,0:0:0:0:
36,192,46457,1,0,0:0:0:0:
256,192,46457,1,0,0:0:0:0:
329,192,46457,1,0,0:0:0:0:
402,192,46457,1,0,0:0:0:0:
109,192,46545,1,0,0:0:0:0:
475,192,46545,1,0,0:0:0:0:
182,192,46632,1,0,0:0:0:0:
402,192,46632,1,0,0:0:0:0:
329,192,46632,1,0,0:0:0:0:
36,192,46719,1,0,0:0:0:0:
256,192,46719,1,0,0:0:0:0:
109,192,46806,1,0,0:0:0:0:
329,192,46806,1,0,0:0:0:0:
475,192,46806,1,0,0:0:0:0:
402,192,46806,1,0,0:0:0:0:
256,192,46893,1,0,0:0:0:0:
182,192,46893,1,0,0:0:0:0:
109,192,46981,1,0,0:0:0:0:
329,192,46981,1,0,0:0:0:0:
402,192,46981,1,0,0:0:0:0:
256,192,47068,1,0,0:0:0:0:
36,192,47068,1,0,0:0:0:0:
475,192,47155,128,0,47504:0:0:0:0:
182,192,47155,1,0,0:0:0:0:
402,192,47155,1,0,0:0:0:0:
109,192,47155,1,0,0:0:0:0:
329,192,47242,1,0,0:0:0:0:
36,192,47242,1,0,0:0:0:0:
182,192,47329,1,0,0:0:0:0:
256,192,47329,1,0,0:0:0:0:
402,192,47329,1,0,0:0:0:0:
109,192,47417,1,0,0:0:0:0:
329,192,47417,1,0,0:0:0:0:
402,192,47504,128,0,47853:0:0:0:0:
182,192,47504,1,0,0:0:0:0:
256,192,47504,1,0,0:0:0:0:
36,192,47504,1,0,0:0:0:0:
109,192,47591,1,0,0:0:0:0:
329,192,47591,1,0,0:0:0:0:
475,192,47678,1,0,0:0:0:0:
36,192,47678,1,0,0:0:0:0:
256,192,47678,1,0,0:0:0:0:
109,192,47765,1,0,0:0:0:0:
182,192,47765,1,0,0:0:0:0:
475,192,47853,1,0,0:0:0:0:
36,192,47853,1,0,0:0:0:0:
256,192,47853,1,0,0:0:0:0:
329,192,47853,128,0,48201:0:0:0:0:
182,192,47940,1,0,0:0:0:0:
256,192,48027,1,0,0:0:0:0:
109,192,48027,1,0,0:0:0:0:
475,192,48027,1,0,0:0:0:0:
402,192,48114,1,0,0:0:0:0:
36,192,48114,1,0,0:0:0:0:
256,192,48201,128,0,49597:0:0:0:0:
109,192,48201,1,0,0:0:0:0:
182,192,48201,1,0,0:0:0:0:
475,192,48201,1,0,0:0:0:0:
402,192,48289,1,0,0:0:0:0:
36,192,48376,1,0,0:0:0:0:
109,192,48376,1,0,0:0:0:0:
329,192,48376,1,0,0:0:0:0:
475,192,48463,1,0,0:0:0:0:
182,192,48463,1,0,0:0:0:0:
402,192,48550,1,0,0:0:0:0:
329,192,48550,1,0,0:0:0:0:
36,192,48550,1,0,0:0:0:0:
109,192,48550,1,0,0:0:0:0:
182,192,48638,1,0,0:0:0:0:
329,192,48725,1,0,0:0:0:0:
475,192,48725,1,0,0:0:0:0:
109,192,48725,1,0,0:0:0:0:
36,192,48812,1,0,0:0:0:0:
402,192,48812,1,0,0:0:0:0:
329,192,48899,1,0,0:0:0:0:
475,192,48899,1,0,0:0:0:0:
182,192,48899,1,0,0:0:0:0:
109,192,48899,1,0,0:0:0:0:
402,192,48986,1,0,0:0:0:0:
36,192,49074,1,0,0:0:0:0:
329,192,49074,1,0,0:0:0:0:
182,192,49074,1,0,0:0:0:0:
109,192,49161,1,0,0:0:0:0:
402,192,49248,1,0,0:0:0:0:
475,192,49248,1,0,0:0:0:0:
182,192,49248,1,0,0:0:0:0:
36,192,49248,1,0,0:0:0:0:
329,192,49335,1,0,0:0:0:0:
402,192,49422,1,0,0:0:0:0:
36,192,49422,1,0,0:0:0:0:
109,192,49422,1,0,0:0:0:0:
182,192,49510,1,0,0:0:0:0:
329,192,49597,1,0,0:0:0:0:
475,192,49597,1,0,0:0:0:0:
109,192,49597,1,0,0:0:0:0:
182,192,49684,1,0,0:0:0:0:
36,192,49684,1,0,0:0:0:0:
402,192,49771,1,0,0:0:0:0:
256,192,49771,1,0,0:0:0:0:
329,192,49771,1,0,0:0:0:0:
109,192,49858,1,0,0:0:0:0:
475,192,49858,1,0,0:0:0:0:
182,192,49946,1,0,0:0:0:0:
256,192,49946,1,0,0:0:0:0:
402,192,49946,1,0,0:0:0:0:
36,192,49946,1,0,0:0:0:0:
329,192,50033,1,0,0:0:0:0:
475,192,50033,1,0,0:0:0:0:
36,192,50120,1,0,0:0:0:0:
109,192,50120,1,0,0:0:0:0:
256,192,50120,1,0,0:0:0:0:
402,192,50207,1,0,0:0:0:0:
182,192,50207,1,0,0:0:0:0:
256,192,50295,1,0,0:0:0:0:
329,192,50295,1,0,0:0:0:0:
475,192,50295,1,0,0:0:0:0:
36,192,50295,1,0,0:0:0:0:
109,192,50382,1,0,0:0:0:0:
182,192,50469,1,0,0:0:0:0:
256,192,50469,1,0,0:0:0:0:
402,192,50469,1,0,0:0:0:0:
36,192,50556,1,0,0:0:0:0:
182,192,50643,1,0,0:0:0:0:
109,192,50643,1,0,0:0:0:0:
329,192,50643,1,0,0:0:0:0:
475,192,50643,1,0,0:0:0:0:
402,192,50731,1,0,0:0:0:0:
36,192,50818,1,0,0:0:0:0:
109,192,50818,1,0,0:0:0:0:
329,192,50818,1,0,0:0:0:0:
475,192,50905,1,0,0:0:0:0:
182,192,50905,1,0,0:0:0:0:
256,192,50992,1,0,0:0:0:0:
402,192,50992,1,0,0:0:0:0:
36,192,50992,1,0,0:0:0:0:
109,192,51079,1,0,0:0:0:0:
182,192,51167,1,0,0:0:0:0:
475,192,51167,1,0,0:0:0:0:
329,192,51254,1,0,0:0:0:0:
36,192,51341,1,0,0:0:0:0:
256,192,51341,1,0,0:0:0:0:
402,192,51341,1,0,0:0:0:0:
182,192,51428,1,0,0:0:0:0:
109,192,51515,1,0,0:0:0:0:
256,192,51515,1,0,0:0:0:0:
329,192,51603,1,0,0:0:0:0:
475,192,51603,1,0,0:0:0:0:
329,192,51690,1,0,0:0:0:0:
36,192,51690,1,0,0:0:0:0:
182,192,51690,1,0,0:0:0:0:
402,192,51777,1,0,0:0:0:0:
475,192,51864,1,0,0:0:0:0:
109,192,51864,1,0,0:0:0:0:
256,192,51951,1,0,0:0:0:0:
36,192,52039,1,0,0:0:0:0:
182,192,52039,1,0,0:0:0:0:
329,192,52039,1,0,0:0:0:0:
109,192,52126,1,0,0:0:0:0:
256,192,52213,1,0,0:0:0:0:
402,192,52213,1,0,0:0:0:0:
475,192,52300,1,0,0:0:0:0:
329,192,52388,1,0,0:0:0:0:
182,192,52388,1,0,0:0:0:0:
402,192,52388,1,0,0:0:0:0:
109,192,52475,1,0,0:0:0:0:
36,192,52475,1,0,0:0:0:0:
402,192,52562,1,0,0:0:0:0:
475,192,52562,1,0,0:0:0:0:
182,192,52649,1,0,0:0:0:0:
109,192,52649,1,0,0:0:0:0:
329,192,52736,1,0,0:0:0:0:
402,192,52736,1,0,0:0:0:0:
36,192,52824,1,0,0:0:0:0:
109,192,52824,1,0,0:0:0:0:
475,192,52911,1,0,0:0:0:0:
402,192,52911,1,0,0:0:0:0:
109,192,52998,1,0,0:0:0:0:
182,192,52998,1,0,0:0:0:0:
475,192,53085,1,0,0:0:0:0:
402,192,53085,1,0,0:0:0:0:
256,192,53129,1,0,0:0:0:0:
36,192,53172,1,0,0:0:0:0:
109,192,53172,1,0,0:0:0:0:
402,192,53260,1,0,0:0:0:0:
475,192,53260,1,0,0:0:0:0:
182,192,53347,1,0,0:0:0:0:
36,192,53347,1,0,0:0:0:0:
329,192,53434,1,0,0:0:0:0:
475,192,53434,1,0,0:0:0:0:
109,192,53521,1,0,0:0:0:0:
36,192,53521,1,0,0:0:0:0:
402,192,53608,1,0,0:0:0:0:
475,192,53608,1,0,0:0:0:0:
256,192,53696,1,0,0:0:0:0:
109,192,53783,1,0,0:0:0:0:
182,192,53783,1,0,0:0:0:0:
329,192,53783,1,0,0:0:0:0:
475,192,53783,1,0,0:0:0:0:
36,192,53783,1,0,0:0:0:0:
36,192,54132,1,0,0:0:0:0:
256,192,54132,1,0,0:0:0:0:
182,192,54132,1,0,0:0:0:0:
402,192,54132,1,0,0:0:0:0:
36,192,54481,1,0,0:0:0:0:
182,192,54481,1,0,0:0:0:0:
329,192,54481,1,0,0:0:0:0:
402,192,54481,1,0,0:0:0:0:
329,192,54829,1,0,0:0:0:0:
402,192,54829,1,0,0:0:0:0:
36,192,54829,1,0,0:0:0:0:
109,192,54829,1,0,0:0:0:0:
329,192,55004,1,0,0:0:0:0:
475,192,55004,1,0,0:0:0:0:
475,192,55178,1,0,0:0:0:0:
329,192,55178,1,0,0:0:0:0:
36,192,55178,1,0,0:0:0:0:
109,192,55178,1,0,0:0:0:0:
182,192,55178,1,0,0:0:0:0:
402,192,55353,1,0,0:0:0:0:
256,192,55353,1,0,0:0:0:0:
36,192,55527,1,0,0:0:0:0:
182,192,55527,1,0,0:0:0:0:
329,192,55527,1,0,0:0:0:0:
402,192,55527,1,0,0:0:0:0:
109,192,55701,1,0,0:0:0:0:
256,192,55701,1,0,0:0:0:0:
402,192,55876,1,0,0:0:0:0:
475,192,55876,1,0,0:0:0:0:
182,192,55876,1,0,0:0:0:0:
36,192,55876,1,0,0:0:0:0:
109,192,56225,1,0,0:0:0:0:
182,192,56225,1,0,0:0:0:0:
329,192,56225,1,0,0:0:0:0:
475,192,56225,1,0,0:0:0:0:
36,192,56574,1,0,0:0:0:0:
109,192,56574,1,0,0:0:0:0:
256,192,56574,1,0,0:0:0:0:
329,192,56574,1,0,0:0:0:0:
475,192,56574,1,0,0:0:0:0:
109,192,56922,1,0,0:0:0:0:
182,192,56922,1,0,0:0:0:0:
329,192,56922,1,0,0:0:0:0:
475,192,56922,1,0,0:0:0:0:
36,192,57271,1,0,0:0:0:0:
109,192,57271,1,0,0:0:0:0:
256,192,57271,1,0,0:0:0:0:
402,192,57271,1,0,0:0:0:0:
256,192,57620,1,0,0:0:0:0:
182,192,57620,1,0,0:0:0:0:
475,192,57620,1,0,0:0:0:0:
36,192,57620,1,0,0:0:0:0:
329,192,57795,1,0,0:0:0:0:
402,192,57795,1,0,0:0:0:0:
329,192,57969,1,0,0:0:0:0:
402,192,57969,1,0,0:0:0:0:
109,192,57969,1,0,0:0:0:0:
256,192,57969,1,0,0:0:0:0:
475,192,57969,1,0,0:0:0:0:
36,192,58143,1,0,0:0:0:0:
182,192,58143,1,0,0:0:0:0:
256,192,58318,1,0,0:0:0:0:
475,192,58318,1,0,0:0:0:0:
109,192,58318,1,0,0:0:0:0:
402,192,58318,1,0,0:0:0:0:
36,192,58318,1,0,0:0:0:0:
182,192,58492,1,0,0:0:0:0:
329,192,58492,1,0,0:0:0:0:
36,192,58667,1,0,0:0:0:0:
182,192,58667,1,0,0:0:0:0:
256,192,58667,1,0,0:0:0:0:
402,192,58667,1,0,0:0:0:0:
475,192,58667,1,0,0:0:0:0:
36,192,59015,1,0,0:0:0:0:
109,192,59015,1,0,0:0:0:0:
329,192,59015,1,0,0:0:0:0:
256,192,59015,1,0,0:0:0:0:
475,192,59015,1,0,0:0:0:0:
36,192,59364,1,0,0:0:0:0:
182,192,59364,1,0,0:0:0:0:
256,192,59364,1,0,0:0:0:0:
402,192,59364,1,0,0:0:0:0:
475,192,59364,1,0,0:0:0:0:
36,192,59539,1,0,0:0:0:0:
109,192,59539,1,0,0:0:0:0:
256,192,59539,1,0,0:0:0:0:
329,192,59539,1,0,0:0:0:0:
475,192,59539,1,0,0:0:0:0:
329,192,59713,1,0,0:0:0:0:
256,192,59713,1,0,0:0:0:0:
182,192,59713,1,0,0:0:0:0:
36,192,59713,1,0,0:0:0:0:
109,192,59713,1,0,0:0:0:0:
182,192,59888,1,0,0:0:0:0:
256,192,59888,1,0,0:0:0:0:
329,192,59888,1,0,0:0:0:0:
475,192,59888,1,0,0:0:0:0:
402,192,59888,1,0,0:0:0:0:
329,192,60062,1,0,0:0:0:0:
475,192,60062,1,0,0:0:0:0:
256,192,60062,1,0,0:0:0:0:
182,192,60062,1,0,0:0:0:0:
109,192,60062,1,0,0:0:0:0:
182,192,60236,1,0,0:0:0:0:
329,192,60236,1,0,0:0:0:0:
36,192,60236,1,0,0:0:0:0:
402,192,60236,1,0,0:0:0:0:
475,192,60236,1,0,0:0:0:0:
36,192,60411,1,0,0:0:0:0:
109,192,60411,1,0,0:0:0:0:
256,192,60411,1,0,0:0:0:0:
402,192,60411,1,0,0:0:0:0:
475,192,60411,1,0,0:0:0:0:
36,192,60585,1,0,0:0:0:0:
182,192,60585,1,0,0:0:0:0:
256,192,60585,1,0,0:0:0:0:
329,192,60585,1,0,0:0:0:0:
475,192,60585,1,0,0:0:0:0:
36,192,60760,128,0,60781:0:0:0:0:
109,192,60760,128,0,60781:0:0:0:0:
182,192,60760,128,0,60781:0:0:0:0:
256,192,60760,128,0,60781:0:0:0:0:
329,192,60760,128,0,60781:0:0:0:0:
402,192,60760,128,0,60781:0:0:0:0:
475,192,60760,128,0,60781:0:0:0:0:
36,192,60934,128,0,60978:0:0:0:0:
182,192,60934,128,0,60978:0:0:0:0:
109,192,60934,128,0,60978:0:0:0:0:
256,192,60934,128,0,60978:0:0:0:0:
329,192,60934,128,0,60978:0:0:0:0:
402,192,60934,128,0,60978:0:0:0:0:
475,192,60934,128,0,60978:0:0:0:0:
36,192,61108,128,0,61174:0:0:0:0:
182,192,61108,128,0,61174:0:0:0:0:
109,192,61108,128,0,61174:0:0:0:0:
256,192,61108,128,0,61174:0:0:0:0:
329,192,61108,128,0,61174:0:0:0:0:
402,192,61108,128,0,61174:0:0:0:0:
475,192,61108,128,0,61174:0:0:0:0:
36,192,61283,128,0,61370:0:0:0:0:
109,192,61283,128,0,61370:0:0:0:0:
182,192,61283,128,0,61370:0:0:0:0:
256,192,61283,128,0,61370:0:0:0:0:
329,192,61283,128,0,61370:0:0:0:0:
475,192,61283,128,0,61370:0:0:0:0:
402,192,61283,128,0,61370:0:0:0:0:
36,192,61457,128,0,61566:0:0:0:0:
109,192,61457,128,0,61566:0:0:0:0:
182,192,61457,128,0,61566:0:0:0:0:
256,192,61457,128,0,61566:0:0:0:0:
329,192,61457,128,0,61566:0:0:0:0:
402,192,61457,128,0,61566:0:0:0:0:
475,192,61457,128,0,61566:0:0:0:0:
36,192,61632,128,0,61763:0:0:0:0:
109,192,61632,128,0,61763:0:0:0:0:
182,192,61632,128,0,61763:0:0:0:0:
329,192,61632,128,0,61763:0:0:0:0:
256,192,61632,128,0,61763:0:0:0:0:
402,192,61632,128,0,61763:0:0:0:0:
475,192,61632,128,0,61763:0:0:0:0:
36,192,61806,128,0,61937:0:0:0:0:
109,192,61806,128,0,61937:0:0:0:0:
182,192,61806,128,0,61937:0:0:0:0:
256,192,61806,128,0,61937:0:0:0:0:
329,192,61806,128,0,61937:0:0:0:0:
475,192,61806,128,0,61937:0:0:0:0:
402,192,61806,128,0,61937:0:0:0:0:
36,192,61981,128,0,62133:0:0:0:0:
109,192,61981,128,0,62133:0:0:0:0:
182,192,61981,128,0,62133:0:0:0:0:
256,192,61981,128,0,62133:0:0:0:0:
329,192,61981,128,0,62133:0:0:0:0:
402,192,61981,128,0,62133:0:0:0:0:
475,192,61981,128,0,62133:0:0:0:0:
329,192,62155,1,0,0:0:0:0:
402,192,62155,1,0,0:0:0:0:
475,192,62155,1,0,0:0:0:0:
36,192,62155,1,0,0:0:0:0:
109,192,62242,1,0,0:0:0:0:
182,192,62242,1,0,0:0:0:0:
256,192,62242,1,0,0:0:0:0:
402,192,62329,1,0,0:0:0:0:
475,192,62329,1,0,0:0:0:0:
36,192,62329,1,0,0:0:0:0:
182,192,62417,1,0,0:0:0:0:
256,192,62417,1,0,0:0:0:0:
329,192,62417,1,0,0:0:0:0:
36,192,62504,1,0,0:0:0:0:
109,192,62504,1,0,0:0:0:0:
475,192,62504,1,0,0:0:0:0:
256,192,62591,1,0,0:0:0:0:
329,192,62591,1,0,0:0:0:0:
402,192,62591,1,0,0:0:0:0:
109,192,62678,1,0,0:0:0:0:
182,192,62678,1,0,0:0:0:0:
475,192,62678,1,0,0:0:0:0:
36,192,62765,1,0,0:0:0:0:
329,192,62765,1,0,0:0:0:0:
402,192,62765,1,0,0:0:0:0:
182,192,62853,1,0,0:0:0:0:
256,192,62853,1,0,0:0:0:0:
475,192,62853,1,0,0:0:0:0:
36,192,62940,1,0,0:0:0:0:
109,192,62940,1,0,0:0:0:0:
402,192,62940,1,0,0:0:0:0:
256,192,63027,1,0,0:0:0:0:
329,192,63027,1,0,0:0:0:0:
475,192,63027,1,0,0:0:0:0:
36,192,63114,5,0,0:0:0:0:
109,192,63114,1,0,0:0:0:0:
182,192,63114,1,0,0:0:0:0:
475,192,63201,1,0,0:0:0:0:
402,192,63201,1,0,0:0:0:0:
256,192,63201,1,0,0:0:0:0:
329,192,63289,1,0,0:0:0:0:
182,192,63289,1,0,0:0:0:0:
109,192,63289,1,0,0:0:0:0:
36,192,63376,1,0,0:0:0:0:
256,192,63376,1,0,0:0:0:0:
475,192,63376,1,0,0:0:0:0:
402,192,63463,1,0,0:0:0:0:
329,192,63463,1,0,0:0:0:0:
109,192,63463,1,0,0:0:0:0:
182,192,63550,128,0,63594:0:0:0:0:
36,192,63550,1,0,0:0:0:0:
256,192,63550,1,0,0:0:0:0:
475,192,63550,1,0,0:0:0:0:
182,192,63899,128,0,63943:0:0:0:0:
182,192,64248,128,0,64292:0:0:0:0:
36,192,64422,1,0,0:0:0:0:
109,192,64422,1,0,0:0:0:0:
256,192,64422,1,0,0:0:0:0:
475,192,64422,1,0,0:0:0:0:
402,192,64510,5,0,0:0:0:0:
329,192,64510,1,0,0:0:0:0:
182,192,64510,1,0,0:0:0:0:
475,192,64575,128,0,64706:0:0:0:0:
402,192,64597,128,0,64728:0:0:0:0:
329,192,64619,128,0,64749:0:0:0:0:
256,192,64640,128,0,64771:0:0:0:0:
182,192,64662,128,0,64771:0:0:0:0:
109,192,64684,128,0,64771:0:0:0:0:
36,192,64706,128,0,64771:0:0:0:0:
36,192,64946,128,0,65207:0:0:0:0:
109,192,64946,128,0,65556:0:0:0:0:
182,192,64946,128,0,65185:0:0:0:0:
256,192,64946,128,0,65207:0:0:0:0:
329,192,64946,128,0,65229:0:0:0:0:
475,192,64946,128,0,65185:0:0:0:0:
402,192,64946,128,0,65207:0:0:0:0:
475,192,65273,128,0,65556:0:0:0:0:
182,192,65273,128,0,65534:0:0:0:0:
256,192,65295,128,0,65927:0:0:0:0:
36,192,65295,128,0,65578:0:0:0:0:
402,192,65295,128,0,65578:0:0:0:0:
329,192,65316,128,0,65556:0:0:0:0:
182,192,65622,128,0,65905:0:0:0:0:
329,192,65643,128,0,65905:0:0:0:0:
475,192,65643,128,0,65927:0:0:0:0:
109,192,65643,128,0,65905:0:0:0:0:
402,192,65665,128,0,66276:0:0:0:0:
36,192,65665,128,0,65883:0:0:0:0:
36,192,65970,128,0,66276:0:0:0:0:
329,192,65992,128,0,66254:0:0:0:0:
182,192,65992,128,0,66603:0:0:0:0:
109,192,65992,128,0,66254:0:0:0:0:
475,192,66014,128,0,66254:0:0:0:0:
256,192,66014,128,0,66232:0:0:0:0:
256,192,66319,128,0,66581:0:0:0:0:
109,192,66341,128,0,66624:0:0:0:0:
475,192,66341,128,0,66624:0:0:0:0:
329,192,66341,128,0,66973:0:0:0:0:
36,192,66363,128,0,66603:0:0:0:0:
402,192,66363,128,0,66603:0:0:0:0:
256,192,66668,128,0,66930:0:0:0:0:
402,192,66690,128,0,66951:0:0:0:0:
182,192,66690,128,0,66951:0:0:0:0:
36,192,66690,128,0,66930:0:0:0:0:
475,192,66712,128,0,67279:0:0:0:0:
109,192,66712,128,0,66973:0:0:0:0:
256,192,67017,128,0,67279:0:0:0:0:
36,192,67017,128,0,67279:0:0:0:0:
182,192,67039,128,0,67300:0:0:0:0:
402,192,67039,128,0,67300:0:0:0:0:
109,192,67060,128,0,68434:0:0:0:0:
329,192,67060,128,0,67257:0:0:0:0:
329,192,67344,128,0,67671:0:0:0:0:
256,192,67366,128,0,67649:0:0:0:0:
475,192,67366,128,0,67627:0:0:0:0:
36,192,67366,128,0,68434:0:0:0:0:
182,192,67388,128,0,67627:0:0:0:0:
402,192,67388,128,0,67649:0:0:0:0:
182,192,67736,128,0,67824:0:0:0:0:
402,192,67736,128,0,67824:0:0:0:0:
475,192,67736,128,0,67824:0:0:0:0:
256,192,67824,128,0,67911:0:0:0:0:
475,192,67911,128,0,67998:0:0:0:0:
329,192,67911,128,0,67998:0:0:0:0:
182,192,67998,128,0,68085:0:0:0:0:
256,192,68085,128,0,68172:0:0:0:0:
402,192,68085,128,0,68172:0:0:0:0:
475,192,68085,128,0,68172:0:0:0:0:
329,192,68172,128,0,68260:0:0:0:0:
182,192,68260,128,0,68347:0:0:0:0:
475,192,68260,128,0,68347:0:0:0:0:
329,192,68347,128,0,68434:0:0:0:0:
256,192,68434,128,0,68783:0:0:0:0:
402,192,68434,128,0,68783:0:0:0:0:
182,192,68434,128,0,68521:0:0:0:0:
475,192,68434,128,0,68521:0:0:0:0:
36,192,68521,128,0,68608:0:0:0:0:
109,192,68608,128,0,68696:0:0:0:0:
329,192,68608,128,0,68696:0:0:0:0:
475,192,68696,128,0,68783:0:0:0:0:
329,192,68783,128,0,69742:0:0:0:0:
182,192,68783,128,0,69742:0:0:0:0:
36,192,68783,128,0,68870:0:0:0:0:
109,192,68783,128,0,68870:0:0:0:0:
402,192,68870,128,0,68957:0:0:0:0:
475,192,68957,128,0,69045:0:0:0:0:
256,192,68957,128,0,69045:0:0:0:0:
109,192,69045,128,0,69132:0:0:0:0:
36,192,69132,128,0,69219:0:0:0:0:
402,192,69132,128,0,69219:0:0:0:0:
256,192,69219,128,0,69306:0:0:0:0:
475,192,69306,128,0,69393:0:0:0:0:
109,192,69306,128,0,69393:0:0:0:0:
36,192,69393,128,0,69481:0:0:0:0:
256,192,69481,128,0,69568:0:0:0:0:
402,192,69481,128,0,69568:0:0:0:0:
475,192,69568,128,0,69655:0:0:0:0:
109,192,69655,128,0,69742:0:0:0:0:
36,192,69655,128,0,69742:0:0:0:0:
475,192,69808,128,0,70483:0:0:0:0:
182,192,69808,128,0,70004:0:0:0:0:
402,192,69829,128,0,69938:0:0:0:0:
109,192,69829,128,0,69982:0:0:0:0:
329,192,69851,128,0,69960:0:0:0:0:
36,192,69851,128,0,69960:0:0:0:0:
256,192,69873,128,0,69982:0:0:0:0:
402,192,69982,128,0,70483:0:0:0:0:
329,192,70004,128,0,70113:0:0:0:0:
36,192,70004,128,0,70113:0:0:0:0:
109,192,70026,128,0,70135:0:0:0:0:
256,192,70026,128,0,70135:0:0:0:0:
182,192,70047,128,0,70156:0:0:0:0:
329,192,70156,128,0,70483:0:0:0:0:
36,192,70156,128,0,70353:0:0:0:0:
256,192,70178,128,0,70287:0:0:0:0:
109,192,70178,128,0,70331:0:0:0:0:
182,192,70200,128,0,70309:0:0:0:0:
256,192,70331,128,0,70483:0:0:0:0:
182,192,70353,128,0,70483:0:0:0:0:
109,192,70374,128,0,70483:0:0:0:0:
36,192,70396,128,0,70483:0:0:0:0:
109,192,70527,128,0,70767:0:0:0:0:
256,192,70527,128,0,70789:0:0:0:0:
329,192,70527,128,0,70810:0:0:0:0:
402,192,70527,128,0,70789:0:0:0:0:
475,192,70527,128,0,70767:0:0:0:0:
36,192,70527,128,0,71138:0:0:0:0:
182,192,70527,128,0,71116:0:0:0:0:
475,192,70854,128,0,71138:0:0:0:0:
109,192,70854,128,0,71508:0:0:0:0:
402,192,70876,128,0,71159:0:0:0:0:
256,192,70876,128,0,71486:0:0:0:0:
329,192,70898,128,0,71138:0:0:0:0:
182,192,71203,128,0,71813:0:0:0:0:
329,192,71225,128,0,71813:0:0:0:0:
475,192,71225,128,0,71486:0:0:0:0:
36,192,71225,128,0,71486:0:0:0:0:
402,192,71247,128,0,71465:0:0:0:0:
402,192,71552,128,0,71835:0:0:0:0:
36,192,71574,128,0,71857:0:0:0:0:
256,192,71574,128,0,71835:0:0:0:0:
475,192,71574,128,0,71857:0:0:0:0:
109,192,71595,128,0,71835:0:0:0:0:
182,192,71901,128,0,72206:0:0:0:0:
329,192,71901,128,0,72184:0:0:0:0:
256,192,71922,128,0,72533:0:0:0:0:
402,192,71922,128,0,72533:0:0:0:0:
109,192,71922,128,0,72184:0:0:0:0:
475,192,71944,128,0,72206:0:0:0:0:
36,192,71944,128,0,72162:0:0:0:0:
36,192,72249,128,0,72533:0:0:0:0:
109,192,72271,128,0,72882:0:0:0:0:
329,192,72271,128,0,72882:0:0:0:0:
475,192,72293,128,0,72555:0:0:0:0:
182,192,72293,128,0,72555:0:0:0:0:
36,192,72620,128,0,72860:0:0:0:0:
256,192,72620,128,0,72904:0:0:0:0:
402,192,72620,128,0,72860:0:0:0:0:
475,192,72642,128,0,72882:0:0:0:0:
182,192,72642,128,0,72904:0:0:0:0:
402,192,72947,128,0,73231:0:0:0:0:
475,192,72969,128,0,73209:0:0:0:0:
329,192,73100,128,0,73252:0:0:0:0:
256,192,73122,128,0,73274:0:0:0:0:
182,192,73143,128,0,73274:0:0:0:0:
109,192,73165,128,0,73274:0:0:0:0:
36,192,73187,128,0,73274:0:0:0:0:
475,192,73296,128,0,73667:0:0:0:0:
402,192,73318,128,0,73405:0:0:0:0:
182,192,73318,128,0,73405:0:0:0:0:
256,192,73318,128,0,73405:0:0:0:0:
329,192,73340,128,0,73667:0:0:0:0:
36,192,73405,128,0,73492:0:0:0:0:
109,192,73492,128,0,73579:0:0:0:0:
182,192,73492,128,0,73579:0:0:0:0:
36,192,73579,128,0,73667:0:0:0:0:
402,192,73667,128,0,73928:0:0:0:0:
256,192,73667,128,0,73928:0:0:0:0:
182,192,73667,128,0,73754:0:0:0:0:
109,192,73667,128,0,73754:0:0:0:0:
329,192,73754,128,0,73841:0:0:0:0:
475,192,73841,128,0,73928:0:0:0:0:
182,192,73841,128,0,73928:0:0:0:0:
36,192,73928,128,0,74015:0:0:0:0:
256,192,74015,128,0,74364:0:0:0:0:
402,192,74015,128,0,74364:0:0:0:0:
109,192,74015,128,0,74103:0:0:0:0:
329,192,74015,128,0,74103:0:0:0:0:
475,192,74015,128,0,74103:0:0:0:0:
182,192,74103,128,0,74190:0:0:0:0:
36,192,74190,128,0,74277:0:0:0:0:
475,192,74190,128,0,74277:0:0:0:0:
109,192,74277,128,0,74364:0:0:0:0:
182,192,74364,128,0,74713:0:0:0:0:
475,192,74364,128,0,74451:0:0:0:0:
36,192,74364,128,0,74451:0:0:0:0:
329,192,74364,128,0,74713:0:0:0:0:
402,192,74451,128,0,74539:0:0:0:0:
109,192,74539,128,0,74626:0:0:0:0:
475,192,74539,128,0,74626:0:0:0:0:
402,192,74626,128,0,74713:0:0:0:0:
36,192,74713,128,0,75236:0:0:0:0:
256,192,74713,128,0,75236:0:0:0:0:
475,192,74713,128,0,74800:0:0:0:0:
109,192,74713,128,0,74800:0:0:0:0:
329,192,74800,128,0,74888:0:0:0:0:
402,192,74888,128,0,74975:0:0:0:0:
182,192,74888,128,0,74975:0:0:0:0:
475,192,74975,128,0,75062:0:0:0:0:
402,192,75062,128,0,75149:0:0:0:0:
329,192,75062,128,0,75149:0:0:0:0:
109,192,75062,128,0,75149:0:0:0:0:
182,192,75149,128,0,75236:0:0:0:0:
329,192,75236,128,0,75324:0:0:0:0:
475,192,75236,128,0,75324:0:0:0:0:
109,192,75236,128,0,75324:0:0:0:0:
182,192,75324,128,0,75411:0:0:0:0:
36,192,75324,128,0,75411:0:0:0:0:
475,192,75411,128,0,76021:0:0:0:0:
329,192,75411,128,0,76021:0:0:0:0:
256,192,75411,128,0,75498:0:0:0:0:
402,192,75411,128,0,75498:0:0:0:0:
109,192,75498,128,0,75585:0:0:0:0:
182,192,75585,128,0,75672:0:0:0:0:
36,192,75585,128,0,75672:0:0:0:0:
256,192,75672,128,0,75760:0:0:0:0:
402,192,75760,128,0,75847:0:0:0:0:
109,192,75760,128,0,75847:0:0:0:0:
36,192,75760,128,0,75847:0:0:0:0:
182,192,75847,128,0,75934:0:0:0:0:
256,192,75934,128,0,76021:0:0:0:0:
109,192,75934,128,0,76021:0:0:0:0:
475,192,76087,128,0,76348:0:0:0:0:
182,192,76087,128,0,76348:0:0:0:0:
402,192,76108,128,0,76370:0:0:0:0:
109,192,76108,128,0,76719:0:0:0:0:
256,192,76108,128,0,76370:0:0:0:0:
36,192,76130,128,0,76392:0:0:0:0:
329,192,76130,128,0,76392:0:0:0:0:
475,192,76435,128,0,76741:0:0:0:0:
182,192,76435,128,0,76741:0:0:0:0:
256,192,76457,128,0,77068:0:0:0:0:
402,192,76457,128,0,76719:0:0:0:0:
36,192,76479,128,0,76697:0:0:0:0:
329,192,76479,128,0,76697:0:0:0:0:
36,192,76784,128,0,77046:0:0:0:0:
329,192,76784,128,0,77046:0:0:0:0:
402,192,76806,128,0,77417:0:0:0:0:
109,192,76806,128,0,77068:0:0:0:0:
475,192,76828,128,0,77068:0:0:0:0:
182,192,76828,128,0,77090:0:0:0:0:
36,192,77133,128,0,77395:0:0:0:0:
329,192,77133,128,0,77395:0:0:0:0:
475,192,77155,128,0,77438:0:0:0:0:
256,192,77155,128,0,77417:0:0:0:0:
109,192,77155,128,0,77417:0:0:0:0:
182,192,77177,128,0,77438:0:0:0:0:
36,192,77482,128,0,78114:0:0:0:0:
329,192,77482,128,0,77744:0:0:0:0:
109,192,77504,128,0,77765:0:0:0:0:
256,192,77504,128,0,77722:0:0:0:0:
402,192,77504,128,0,77765:0:0:0:0:
475,192,77526,128,0,77787:0:0:0:0:
182,192,77526,128,0,77744:0:0:0:0:
256,192,77809,128,0,78114:0:0:0:0:
182,192,77831,128,0,78136:0:0:0:0:
329,192,77831,128,0,78092:0:0:0:0:
402,192,77853,128,0,78114:0:0:0:0:
109,192,77853,128,0,78441:0:0:0:0:
475,192,77874,128,0,78136:0:0:0:0:
329,192,78180,128,0,78485:0:0:0:0:
36,192,78201,128,0,78463:0:0:0:0:
256,192,78201,128,0,78463:0:0:0:0:
402,192,78201,128,0,78463:0:0:0:0:
475,192,78223,128,0,78485:0:0:0:0:
182,192,78223,128,0,78659:0:0:0:0:
109,192,78529,128,0,78616:0:0:0:0:
36,192,78550,128,0,78812:0:0:0:0:
402,192,78550,128,0,78812:0:0:0:0:
256,192,78550,128,0,78703:0:0:0:0:
475,192,78572,128,0,78812:0:0:0:0:
329,192,78572,128,0,78747:0:0:0:0:
109,192,78725,128,0,78812:0:0:0:0:
182,192,78768,128,0,78856:0:0:0:0:
256,192,78812,128,0,78899:0:0:0:0:
329,192,78856,128,0,78943:0:0:0:0:
402,192,78899,128,0,79510:0:0:0:0:
475,192,78899,128,0,79510:0:0:0:0:
36,192,78899,128,0,79510:0:0:0:0:
109,192,78899,128,0,78986:0:0:0:0:
182,192,78986,128,0,79074:0:0:0:0:
329,192,79074,128,0,79161:0:0:0:0:
256,192,79074,128,0,79161:0:0:0:0:
109,192,79161,128,0,79248:0:0:0:0:
182,192,79248,128,0,79335:0:0:0:0:
329,192,79248,128,0,79335:0:0:0:0:
256,192,79335,128,0,79422:0:0:0:0:
109,192,79422,128,0,79510:0:0:0:0:
329,192,79422,128,0,79510:0:0:0:0:
256,192,79510,128,0,79597:0:0:0:0:
182,192,79597,128,0,80207:0:0:0:0:
36,192,79597,128,0,80207:0:0:0:0:
109,192,79597,128,0,79684:0:0:0:0:
475,192,79597,128,0,79684:0:0:0:0:
402,192,79597,128,0,80207:0:0:0:0:
329,192,79684,128,0,79771:0:0:0:0:
256,192,79771,128,0,79858:0:0:0:0:
475,192,79771,128,0,79858:0:0:0:0:
109,192,79858,128,0,79946:0:0:0:0:
329,192,79946,128,0,80033:0:0:0:0:
256,192,79946,128,0,80033:0:0:0:0:
475,192,80033,128,0,80120:0:0:0:0:
109,192,80120,128,0,80207:0:0:0:0:
256,192,80120,128,0,80207:0:0:0:0:
329,192,80207,128,0,80295:0:0:0:0:
475,192,80207,128,0,80295:0:0:0:0:
36,192,80295,128,0,80905:0:0:0:0:
256,192,80295,128,0,80905:0:0:0:0:
182,192,80295,128,0,80905:0:0:0:0:
109,192,80295,128,0,80382:0:0:0:0:
402,192,80382,128,0,80469:0:0:0:0:
329,192,80469,128,0,80556:0:0:0:0:
475,192,80469,128,0,80556:0:0:0:0:
109,192,80556,128,0,80643:0:0:0:0:
329,192,80643,128,0,80731:0:0:0:0:
402,192,80643,128,0,80731:0:0:0:0:
475,192,80731,128,0,80818:0:0:0:0:
402,192,80818,128,0,80905:0:0:0:0:
109,192,80818,128,0,80905:0:0:0:0:
329,192,80905,128,0,80992:0:0:0:0:
256,192,80992,128,0,81254:0:0:0:0:
475,192,80992,128,0,81254:0:0:0:0:
402,192,80992,128,0,81079:0:0:0:0:
182,192,80992,128,0,81079:0:0:0:0:
109,192,81079,128,0,81167:0:0:0:0:
36,192,81167,128,0,81254:0:0:0:0:
402,192,81167,128,0,81254:0:0:0:0:
182,192,81254,128,0,81341:0:0:0:0:
109,192,81341,128,0,81603:0:0:0:0:
329,192,81341,128,0,81603:0:0:0:0:
256,192,81341,128,0,81428:0:0:0:0:
475,192,81341,128,0,81428:0:0:0:0:
402,192,81428,128,0,81515:0:0:0:0:
36,192,81515,128,0,81603:0:0:0:0:
182,192,81515,128,0,81603:0:0:0:0:
182,192,81668,128,0,81930:0:0:0:0:
475,192,81668,128,0,81755:0:0:0:0:
109,192,81690,128,0,81777:0:0:0:0:
256,192,81690,128,0,81777:0:0:0:0:
402,192,81690,128,0,81777:0:0:0:0:
329,192,81712,128,0,81799:0:0:0:0:
36,192,81712,128,0,81973:0:0:0:0:
475,192,81842,128,0,81930:0:0:0:0:
109,192,81864,128,0,81951:0:0:0:0:
402,192,81864,128,0,81951:0:0:0:0:
256,192,81864,128,0,81951:0:0:0:0:
329,192,81886,128,0,81973:0:0:0:0:
182,192,82017,128,0,82126:0:0:0:0:
475,192,82017,128,0,82148:0:0:0:0:
109,192,82039,128,0,82300:0:0:0:0:
256,192,82039,128,0,82300:0:0:0:0:
402,192,82039,128,0,82126:0:0:0:0:
329,192,82060,128,0,82104:0:0:0:0:
36,192,82060,128,0,82148:0:0:0:0:
329,192,82191,128,0,82279:0:0:0:0:
402,192,82213,128,0,82300:0:0:0:0:
182,192,82213,128,0,82300:0:0:0:0:
36,192,82235,128,0,82322:0:0:0:0:
475,192,82235,128,0,82322:0:0:0:0:
329,192,82366,128,0,82671:0:0:0:0:
182,192,82388,128,0,82671:0:0:0:0:
109,192,82388,128,0,82475:0:0:0:0:
256,192,82388,128,0,82475:0:0:0:0:
402,192,82388,128,0,82475:0:0:0:0:
36,192,82409,128,0,82497:0:0:0:0:
475,192,82409,128,0,82497:0:0:0:0:
402,192,82562,128,0,82649:0:0:0:0:
256,192,82562,128,0,82649:0:0:0:0:
109,192,82562,128,0,82649:0:0:0:0:
36,192,82584,128,0,82627:0:0:0:0:
475,192,82584,128,0,82627:0:0:0:0:
36,192,82715,128,0,82802:0:0:0:0:
475,192,82715,128,0,82802:0:0:0:0:
256,192,82736,128,0,82998:0:0:0:0:
402,192,82736,128,0,82998:0:0:0:0:
109,192,82736,128,0,82824:0:0:0:0:
329,192,82758,128,0,82845:0:0:0:0:
182,192,82758,128,0,82845:0:0:0:0:
36,192,82889,128,0,82976:0:0:0:0:
475,192,82889,128,0,82976:0:0:0:0:
109,192,82911,128,0,82998:0:0:0:0:
329,192,82933,128,0,83020:0:0:0:0:
182,192,82933,128,0,83020:0:0:0:0:
109,192,83085,128,0,83347:0:0:0:0:
256,192,83085,128,0,83347:0:0:0:0:
36,192,83085,128,0,83172:0:0:0:0:
182,192,83085,128,0,83151:0:0:0:0:
329,192,83085,128,0,83172:0:0:0:0:
402,192,83085,128,0,83194:0:0:0:0:
475,192,83085,128,0,83172:0:0:0:0:
182,192,83238,128,0,83347:0:0:0:0:
475,192,83260,128,0,83347:0:0:0:0:
329,192,83260,128,0,83347:0:0:0:0:
36,192,83260,128,0,83347:0:0:0:0:
402,192,83281,128,0,83347:0:0:0:0:
182,192,83434,128,0,83696:0:0:0:0:
329,192,83434,128,0,83696:0:0:0:0:
36,192,83434,128,0,83499:0:0:0:0:
109,192,83434,128,0,83521:0:0:0:0:
256,192,83434,128,0,83543:0:0:0:0:
475,192,83434,128,0,83499:0:0:0:0:
402,192,83434,128,0,83521:0:0:0:0:
475,192,83587,128,0,83696:0:0:0:0:
36,192,83587,128,0,83696:0:0:0:0:
402,192,83608,128,0,83696:0:0:0:0:
109,192,83608,128,0,83696:0:0:0:0:
256,192,83630,128,0,83696:0:0:0:0:
256,192,83783,128,0,84045:0:0:0:0:
402,192,83783,128,0,84045:0:0:0:0:
36,192,83783,128,0,83892:0:0:0:0:
109,192,83783,128,0,83870:0:0:0:0:
182,192,83783,128,0,83848:0:0:0:0:
329,192,83783,128,0,83870:0:0:0:0:
475,192,83783,128,0,83870:0:0:0:0:
182,192,83935,128,0,84045:0:0:0:0:
109,192,83957,128,0,84045:0:0:0:0:
329,192,83957,128,0,84045:0:0:0:0:
475,192,83957,128,0,84045:0:0:0:0:
36,192,83979,128,0,84045:0:0:0:0:
329,192,84132,128,0,84393:0:0:0:0:
475,192,84132,128,0,84393:0:0:0:0:
256,192,84132,128,0,84197:0:0:0:0:
402,192,84132,128,0,84219:0:0:0:0:
109,192,84132,128,0,84197:0:0:0:0:
182,192,84132,128,0,84241:0:0:0:0:
36,192,84132,128,0,84241:0:0:0:0:
109,192,84263,128,0,84393:0:0:0:0:
256,192,84263,128,0,84393:0:0:0:0:
402,192,84306,128,0,84393:0:0:0:0:
182,192,84306,128,0,84393:0:0:0:0:
36,192,84306,128,0,84393:0:0:0:0:
109,192,84481,128,0,84568:0:0:0:0:
182,192,84568,128,0,84655:0:0:0:0:
256,192,84655,128,0,84742:0:0:0:0:
329,192,84742,128,0,84829:0:0:0:0:
256,192,84829,128,0,84917:0:0:0:0:
182,192,84917,128,0,85004:0:0:0:0:
256,192,85004,128,0,85091:0:0:0:0:
329,192,85091,128,0,85178:0:0:0:0:
402,192,85178,128,0,85265:0:0:0:0:
329,192,85265,128,0,85353:0:0:0:0:
256,192,85353,128,0,85440:0:0:0:0:
182,192,85440,128,0,85527:0:0:0:0:
109,192,85527,128,0,85614:0:0:0:0:
36,192,85614,128,0,85701:0:0:0:0:
109,192,85701,128,0,85789:0:0:0:0:
182,192,85789,128,0,85876:0:0:0:0:
402,192,85876,128,0,85963:0:0:0:0:
329,192,85963,128,0,86050:0:0:0:0:
256,192,86050,128,0,86138:0:0:0:0:
329,192,86138,128,0,86225:0:0:0:0:
402,192,86225,128,0,86312:0:0:0:0:
329,192,86312,128,0,86399:0:0:0:0:
256,192,86399,128,0,86486:0:0:0:0:
475,192,86574,1,0,0:0:0:0:
402,192,86603,1,0,0:0:0:0:
329,192,86632,1,0,0:0:0:0:
256,192,86661,1,0,0:0:0:0:
182,192,86690,1,0,0:0:0:0:
109,192,86719,1,0,0:0:0:0:
36,192,86748,1,0,0:0:0:0:
475,192,86748,1,0,0:0:0:0:
402,192,86777,1,0,0:0:0:0:
329,192,86806,1,0,0:0:0:0:
256,192,86835,1,0,0:0:0:0:
182,192,86864,1,0,0:0:0:0:
109,192,86893,1,0,0:0:0:0:
36,192,86922,1,0,0:0:0:0:
402,192,86922,128,0,87010:0:0:0:0:
329,192,87010,128,0,87097:0:0:0:0:
256,192,87097,128,0,87184:0:0:0:0:
182,192,87184,128,0,87271:0:0:0:0:
109,192,87271,128,0,87620:0:0:0:0:
475,192,87271,128,0,87446:0:0:0:0:
329,192,87271,1,0,0:0:0:0:
256,192,87446,128,0,87620:0:0:0:0:
36,192,87446,1,0,0:0:0:0:
402,192,87620,128,0,87969:0:0:0:0:
329,192,87620,128,0,87795:0:0:0:0:
475,192,87620,1,0,0:0:0:0:
109,192,87795,128,0,87969:0:0:0:0:
36,192,87795,1,0,0:0:0:0:
182,192,87969,128,0,88318:0:0:0:0:
256,192,87969,128,0,88143:0:0:0:0:
475,192,87969,1,0,0:0:0:0:
329,192,88143,128,0,88318:0:0:0:0:
36,192,88143,1,0,0:0:0:0:
256,192,88318,128,0,88667:0:0:0:0:
475,192,88318,128,0,88492:0:0:0:0:
402,192,88318,1,0,0:0:0:0:
109,192,88492,128,0,88667:0:0:0:0:
329,192,88492,1,0,0:0:0:0:
402,192,88667,128,0,89015:0:0:0:0:
182,192,88667,128,0,88841:0:0:0:0:
475,192,88667,1,0,0:0:0:0:
36,192,88841,128,0,89015:0:0:0:0:
329,192,88841,1,0,0:0:0:0:
329,192,89015,128,0,89364:0:0:0:0:
182,192,89015,128,0,89190:0:0:0:0:
256,192,89015,1,0,0:0:0:0:
475,192,89190,128,0,89364:0:0:0:0:
36,192,89190,1,0,0:0:0:0:
256,192,89364,128,0,89713:0:0:0:0:
109,192,89364,128,0,89539:0:0:0:0:
402,192,89364,1,0,0:0:0:0:
329,192,89539,128,0,89713:0:0:0:0:
182,192,89539,1,0,0:0:0:0:
182,192,89713,128,0,90062:0:0:0:0:
36,192,89713,128,0,89888:0:0:0:0:
475,192,89713,1,0,0:0:0:0:
402,192,89888,128,0,90062:0:0:0:0:
329,192,89888,1,0,0:0:0:0:
109,192,90062,128,0,91414:0:0:0:0:
256,192,90062,128,0,90236:0:0:0:0:
475,192,90062,1,0,0:0:0:0:
329,192,90236,128,0,90411:0:0:0:0:
36,192,90236,1,0,0:0:0:0:
402,192,90411,128,0,90585:0:0:0:0:
182,192,90411,1,0,0:0:0:0:
475,192,90585,128,0,90760:0:0:0:0:
256,192,90585,1,0,0:0:0:0:
256,192,90760,128,0,91435:0:0:0:0:
36,192,90760,128,0,90934:0:0:0:0:
329,192,90760,1,0,0:0:0:0:
182,192,90934,128,0,91108:0:0:0:0:
402,192,90934,1,0,0:0:0:0:
329,192,91108,128,0,91283:0:0:0:0:
36,192,91108,1,0,0:0:0:0:
475,192,91283,128,0,91457:0:0:0:0:
182,192,91283,1,0,0:0:0:0:
109,192,91457,1,0,0:0:0:0:
402,192,91457,1,0,0:0:0:0:
329,192,91457,128,0,91632:0:0:0:0:
256,192,91479,1,0,0:0:0:0:
36,192,91632,128,0,91806:0:0:0:0:
182,192,91632,1,0,0:0:0:0:
256,192,91806,128,0,91981:0:0:0:0:
402,192,91806,1,0,0:0:0:0:
475,192,91981,128,0,92155:0:0:0:0:
329,192,91981,1,0,0:0:0:0:
109,192,92155,128,0,92329:0:0:0:0:
36,192,92155,1,0,0:0:0:0:
256,192,92155,1,0,0:0:0:0:
402,192,92177,1,0,0:0:0:0:
182,192,92329,128,0,92504:0:0:0:0:
475,192,92329,1,0,0:0:0:0:
329,192,92504,128,0,92678:0:0:0:0:
256,192,92504,1,0,0:0:0:0:
475,192,92504,1,0,0:0:0:0:
109,192,92591,1,0,0:0:0:0:
402,192,92678,128,0,92853:0:0:0:0:
36,192,92678,1,0,0:0:0:0:
256,192,92678,1,0,0:0:0:0:
182,192,92765,1,0,0:0:0:0:
329,192,92853,1,0,0:0:0:0:
109,192,92853,1,0,0:0:0:0:
475,192,92853,1,0,0:0:0:0:
256,192,93027,1,0,0:0:0:0:
329,192,93201,128,0,93550:0:0:0:0:
109,192,93201,128,0,93550:0:0:0:0:
36,192,93201,1,0,0:0:0:0:
402,192,93201,1,0,0:0:0:0:
475,192,93376,1,0,0:0:0:0:
36,192,93550,128,0,93638:0:0:0:0:
256,192,93550,128,0,93638:0:0:0:0:
182,192,93550,1,0,0:0:0:0:
329,192,93638,128,0,93725:0:0:0:0:
109,192,93638,128,0,93725:0:0:0:0:
402,192,93725,128,0,93812:0:0:0:0:
182,192,93725,128,0,93812:0:0:0:0:
475,192,93812,128,0,93899:0:0:0:0:
256,192,93812,128,0,93899:0:0:0:0:
329,192,93899,128,0,93986:0:0:0:0:
36,192,93899,128,0,93986:0:0:0:0:
109,192,93899,1,0,0:0:0:0:
182,192,93986,128,0,94074:0:0:0:0:
402,192,93986,128,0,94074:0:0:0:0:
109,192,94074,128,0,94161:0:0:0:0:
256,192,94074,128,0,94161:0:0:0:0:
329,192,94161,128,0,94248:0:0:0:0:
475,192,94161,128,0,94248:0:0:0:0:
182,192,94248,128,0,94422:0:0:0:0:
402,192,94248,128,0,94422:0:0:0:0:
36,192,94248,1,0,0:0:0:0:
256,192,94422,128,0,94597:0:0:0:0:
36,192,94422,128,0,94597:0:0:0:0:
329,192,94422,1,0,0:0:0:0:
109,192,94597,128,0,94771:0:0:0:0:
475,192,94597,128,0,94771:0:0:0:0:
402,192,94597,1,0,0:0:0:0:
329,192,94771,128,0,95469:0:0:0:0:
182,192,94771,128,0,95643:0:0:0:0:
256,192,94771,1,0,0:0:0:0:
402,192,94946,1,0,0:0:0:0:
109,192,95120,128,0,95469:0:0:0:0:
36,192,95120,1,0,0:0:0:0:
475,192,95295,128,0,95818:0:0:0:0:
402,192,95295,1,0,0:0:0:0:
36,192,95469,128,0,95992:0:0:0:0:
256,192,95469,1,0,0:0:0:0:
256,192,95643,128,0,95818:0:0:0:0:
329,192,95643,128,0,96167:0:0:0:0:
402,192,95643,1,0,0:0:0:0:
109,192,95818,128,0,95992:0:0:0:0:
182,192,95818,1,0,0:0:0:0:
402,192,95992,128,0,96167:0:0:0:0:
475,192,95992,128,0,96515:0:0:0:0:
256,192,95992,1,0,0:0:0:0:
182,192,96167,128,0,96341:0:0:0:0:
109,192,96167,128,0,96515:0:0:0:0:
36,192,96167,1,0,0:0:0:0:
329,192,96341,128,0,96515:0:0:0:0:
256,192,96341,128,0,96690:0:0:0:0:
402,192,96341,1,0,0:0:0:0:
36,192,96515,128,0,96690:0:0:0:0:
182,192,96515,1,0,0:0:0:0:
402,192,96690,128,0,96864:0:0:0:0:
329,192,96690,128,0,97213:0:0:0:0:
475,192,96690,1,0,0:0:0:0:
182,192,96690,128,0,97562:0:0:0:0:
109,192,96864,1,0,0:0:0:0:
36,192,97039,1,0,0:0:0:0:
402,192,97213,128,0,97388:0:0:0:0:
256,192,97213,1,0,0:0:0:0:
36,192,97388,128,0,97736:0:0:0:0:
475,192,97388,1,0,0:0:0:0:
109,192,97388,1,0,0:0:0:0:
256,192,97562,128,0,97736:0:0:0:0:
475,192,97562,1,0,0:0:0:0:
329,192,97649,1,0,0:0:0:0:
402,192,97649,1,0,0:0:0:0:
109,192,97736,1,0,0:0:0:0:
329,192,97824,1,0,0:0:0:0:
402,192,97824,1,0,0:0:0:0:
329,192,97911,1,0,0:0:0:0:
402,192,97911,1,0,0:0:0:0:
109,192,97911,1,0,0:0:0:0:
475,192,98085,1,0,0:0:0:0:
402,192,98114,1,0,0:0:0:0:
329,192,98143,1,0,0:0:0:0:
256,192,98172,1,0,0:0:0:0:
182,192,98201,1,0,0:0:0:0:
109,192,98231,1,0,0:0:0:0:
475,192,98260,1,0,0:0:0:0:
36,192,98260,1,0,0:0:0:0:
402,192,98289,1,0,0:0:0:0:
329,192,98318,1,0,0:0:0:0:
256,192,98347,1,0,0:0:0:0:
182,192,98376,1,0,0:0:0:0:
109,192,98405,1,0,0:0:0:0:
36,192,98434,1,0,0:0:0:0:
475,192,98434,1,0,0:0:0:0:
329,192,98434,1,0,0:0:0:0:
36,192,98783,1,0,0:0:0:0:
182,192,98783,1,0,0:0:0:0:
256,192,98783,1,0,0:0:0:0:
402,192,98783,1,0,0:0:0:0:
329,192,99132,1,0,0:0:0:0:
475,192,99132,1,0,0:0:0:0:
109,192,99132,1,0,0:0:0:0:
36,192,99132,1,0,0:0:0:0:
182,192,99481,1,0,0:0:0:0:
402,192,99481,1,0,0:0:0:0:
36,192,99481,1,0,0:0:0:0:
256,192,99481,1,0,0:0:0:0:
329,192,99829,1,0,0:0:0:0:
36,192,99829,1,0,0:0:0:0:
182,192,99829,1,0,0:0:0:0:
475,192,99829,1,0,0:0:0:0:
256,192,100004,128,0,100178:0:0:0:0:
402,192,100004,128,0,100178:0:0:0:0:
182,192,100178,128,0,100265:0:0:0:0:
329,192,100178,128,0,100265:0:0:0:0:
36,192,100178,1,0,0:0:0:0:
109,192,100265,128,0,100353:0:0:0:0:
475,192,100265,128,0,100353:0:0:0:0:
256,192,100353,128,0,100440:0:0:0:0:
36,192,100353,128,0,100440:0:0:0:0:
182,192,100440,128,0,100527:0:0:0:0:
402,192,100440,128,0,100527:0:0:0:0:
329,192,100527,1,0,0:0:0:0:
109,192,100527,128,0,100614:0:0:0:0:
475,192,100527,128,0,100614:0:0:0:0:
256,192,100614,128,0,100701:0:0:0:0:
36,192,100614,128,0,100701:0:0:0:0:
182,192,100701,128,0,100789:0:0:0:0:
402,192,100701,128,0,100789:0:0:0:0:
329,192,100789,128,0,100876:0:0:0:0:
475,192,100789,128,0,100876:0:0:0:0:
256,192,100876,1,0,0:0:0:0:
109,192,100876,128,0,100963:0:0:0:0:
402,192,100876,128,0,100963:0:0:0:0:
182,192,100963,128,0,101050:0:0:0:0:
475,192,100963,128,0,101050:0:0:0:0:
256,192,101050,128,0,101138:0:0:0:0:
36,192,101050,128,0,101138:0:0:0:0:
329,192,101138,128,0,101225:0:0:0:0:
109,192,101138,128,0,101225:0:0:0:0:
402,192,101225,1,0,0:0:0:0:
182,192,101225,1,0,0:0:0:0:
475,192,101225,1,0,0:0:0:0:
475,192,101399,128,0,101690:0:0:0:0:
402,192,101428,128,0,101719:0:0:0:0:
329,192,101457,128,0,101748:0:0:0:0:
256,192,101486,128,0,101777:0:0:0:0:
182,192,101515,128,0,101806:0:0:0:0:
109,192,101545,128,0,101835:0:0:0:0:
36,192,101574,128,0,101864:0:0:0:0:
475,192,101748,1,0,0:0:0:0:
402,192,101777,1,0,0:0:0:0:
329,192,101806,1,0,0:0:0:0:
256,192,101835,1,0,0:0:0:0:
182,192,101864,1,0,0:0:0:0:
109,192,101893,1,0,0:0:0:0:
36,192,101922,1,0,0:0:0:0:
329,192,101922,128,0,102010:0:0:0:0:
475,192,101922,128,0,102010:0:0:0:0:
182,192,102010,128,0,102097:0:0:0:0:
402,192,102010,128,0,102097:0:0:0:0:
109,192,102097,128,0,102184:0:0:0:0:
256,192,102097,128,0,102184:0:0:0:0:
329,192,102184,128,0,102271:0:0:0:0:
36,192,102184,128,0,102271:0:0:0:0:
182,192,102271,128,0,102620:0:0:0:0:
475,192,102271,128,0,102620:0:0:0:0:
402,192,102271,1,0,0:0:0:0:
256,192,102271,128,0,102620:0:0:0:0:
402,192,102620,128,0,102969:0:0:0:0:
109,192,102620,128,0,102969:0:0:0:0:
36,192,102795,128,0,103143:0:0:0:0:
256,192,102795,128,0,103143:0:0:0:0:
182,192,102969,128,0,103318:0:0:0:0:
475,192,102969,128,0,103608:0:0:0:0:
402,192,103143,128,0,103638:0:0:0:0:
109,192,103143,128,0,103754:0:0:0:0:
256,192,103318,128,0,103492:0:0:0:0:
36,192,103318,128,0,103783:0:0:0:0:
182,192,103492,128,0,103725:0:0:0:0:
329,192,103492,128,0,103667:0:0:0:0:
475,192,103667,1,0,0:0:0:0:
402,192,103696,1,0,0:0:0:0:
329,192,103725,1,0,0:0:0:0:
256,192,103754,1,0,0:0:0:0:
182,192,103783,1,0,0:0:0:0:
109,192,103812,1,0,0:0:0:0:
36,192,103841,1,0,0:0:0:0:
475,192,103841,1,0,0:0:0:0:
402,192,103870,1,0,0:0:0:0:
329,192,103899,1,0,0:0:0:0:
256,192,103928,1,0,0:0:0:0:
182,192,103957,1,0,0:0:0:0:
109,192,103986,1,0,0:0:0:0:
36,192,104015,1,0,0:0:0:0:
475,192,104015,128,0,105062:0:0:0:0:
329,192,104015,128,0,104364:0:0:0:0:
256,192,104190,128,0,104539:0:0:0:0:
109,192,104190,128,0,104888:0:0:0:0:
402,192,104364,128,0,104713:0:0:0:0:
182,192,104364,128,0,105062:0:0:0:0:
36,192,104539,128,0,105236:0:0:0:0:
329,192,104539,128,0,104888:0:0:0:0:
256,192,104713,128,0,105411:0:0:0:0:
402,192,104888,128,0,105236:0:0:0:0:
109,192,105062,128,0,105585:0:0:0:0:
329,192,105062,128,0,105760:0:0:0:0:
182,192,105236,128,0,105760:0:0:0:0:
475,192,105236,128,0,105585:0:0:0:0:
36,192,105411,128,0,105934:0:0:0:0:
402,192,105411,128,0,106108:0:0:0:0:
256,192,105585,128,0,106108:0:0:0:0:
109,192,105760,128,0,106457:0:0:0:0:
475,192,105760,128,0,106283:0:0:0:0:
182,192,105934,128,0,106806:0:0:0:0:
329,192,105934,128,0,106283:0:0:0:0:
36,192,106108,128,0,106719:0:0:0:0:
256,192,106283,128,0,106457:0:0:0:0:
402,192,106283,128,0,106719:0:0:0:0:
329,192,106457,128,0,106806:0:0:0:0:
475,192,106457,128,0,106719:0:0:0:0:
109,192,106632,128,0,106719:0:0:0:0:
256,192,106632,128,0,106719:0:0:0:0:
36,192,106806,1,0,0:0:0:0:
109,192,106806,1,0,0:0:0:0:
256,192,106806,1,0,0:0:0:0:
402,192,106806,1,0,0:0:0:0:
475,192,106806,1,0,0:0:0:0:
329,192,106893,1,0,0:0:0:0:
182,192,106893,1,0,0:0:0:0:
36,192,106981,1,0,0:0:0:0:
402,192,106981,1,0,0:0:0:0:
256,192,107068,1,0,0:0:0:0:
475,192,107068,1,0,0:0:0:0:
329,192,107155,1,0,0:0:0:0:
402,192,107155,1,0,0:0:0:0:
36,192,107155,1,0,0:0:0:0:
109,192,107155,1,0,0:0:0:0:
182,192,107242,1,0,0:0:0:0:
475,192,107242,1,0,0:0:0:0:
402,192,107329,1,0,0:0:0:0:
36,192,107329,1,0,0:0:0:0:
109,192,107417,1,0,0:0:0:0:
329,192,107417,1,0,0:0:0:0:
402,192,107504,1,0,0:0:0:0:
475,192,107504,1,0,0:0:0:0:
36,192,107504,1,0,0:0:0:0:
256,192,107504,1,0,0:0:0:0:
182,192,107591,1,0,0:0:0:0:
329,192,107591,1,0,0:0:0:0:
109,192,107678,1,0,0:0:0:0:
475,192,107678,1,0,0:0:0:0:
256,192,107765,1,0,0:0:0:0:
36,192,107765,1,0,0:0:0:0:
182,192,107853,1,0,0:0:0:0:
329,192,107853,1,0,0:0:0:0:
402,192,107853,1,0,0:0:0:0:
109,192,107853,1,0,0:0:0:0:
475,192,107940,1,0,0:0:0:0:
256,192,107940,1,0,0:0:0:0:
36,192,108027,1,0,0:0:0:0:
182,192,108027,1,0,0:0:0:0:
109,192,108114,1,0,0:0:0:0:
402,192,108114,1,0,0:0:0:0:
182,192,108201,1,0,0:0:0:0:
36,192,108201,1,0,0:0:0:0:
256,192,108201,1,0,0:0:0:0:
329,192,108201,1,0,0:0:0:0:
475,192,108289,1,0,0:0:0:0:
402,192,108289,1,0,0:0:0:0:
36,192,108376,1,0,0:0:0:0:
109,192,108376,1,0,0:0:0:0:
329,192,108463,1,0,0:0:0:0:
402,192,108463,1,0,0:0:0:0:
256,192,108550,1,0,0:0:0:0:
182,192,108550,1,0,0:0:0:0:
36,192,108550,1,0,0:0:0:0:
109,192,108550,1,0,0:0:0:0:
402,192,108638,1,0,0:0:0:0:
475,192,108638,1,0,0:0:0:0:
36,192,108725,1,0,0:0:0:0:
109,192,108725,1,0,0:0:0:0:
182,192,108812,1,0,0:0:0:0:
256,192,108812,1,0,0:0:0:0:
329,192,108899,1,0,0:0:0:0:
402,192,108899,1,0,0:0:0:0:
475,192,108899,1,0,0:0:0:0:
36,192,108899,1,0,0:0:0:0:
109,192,108986,1,0,0:0:0:0:
182,192,108986,1,0,0:0:0:0:
402,192,109074,1,0,0:0:0:0:
475,192,109074,1,0,0:0:0:0:
329,192,109161,1,0,0:0:0:0:
256,192,109161,1,0,0:0:0:0:
36,192,109248,1,0,0:0:0:0:
109,192,109248,1,0,0:0:0:0:
182,192,109248,1,0,0:0:0:0:
475,192,109248,1,0,0:0:0:0:
329,192,109335,1,0,0:0:0:0:
402,192,109335,1,0,0:0:0:0:
109,192,109422,1,0,0:0:0:0:
182,192,109422,1,0,0:0:0:0:
256,192,109510,1,0,0:0:0:0:
329,192,109510,1,0,0:0:0:0:
475,192,109597,1,0,0:0:0:0:
402,192,109597,1,0,0:0:0:0:
36,192,109597,1,0,0:0:0:0:
109,192,109597,1,0,0:0:0:0:
182,192,109684,1,0,0:0:0:0:
256,192,109684,1,0,0:0:0:0:
329,192,109684,1,0,0:0:0:0:
475,192,109771,1,0,0:0:0:0:
36,192,109771,1,0,0:0:0:0:
109,192,109771,1,0,0:0:0:0:
256,192,109858,1,0,0:0:0:0:
329,192,109858,1,0,0:0:0:0:
402,192,109858,1,0,0:0:0:0:
36,192,109946,1,0,0:0:0:0:
109,192,109946,1,0,0:0:0:0:
182,192,109946,1,0,0:0:0:0:
475,192,110033,1,0,0:0:0:0:
402,192,110033,1,0,0:0:0:0:
329,192,110033,1,0,0:0:0:0:
256,192,110120,1,0,0:0:0:0:
182,192,110120,1,0,0:0:0:0:
109,192,110120,1,0,0:0:0:0:
36,192,110207,1,0,0:0:0:0:
329,192,110207,1,0,0:0:0:0:
402,192,110207,1,0,0:0:0:0:
475,192,110295,1,0,0:0:0:0:
256,192,110295,1,0,0:0:0:0:
182,192,110295,1,0,0:0:0:0:
36,192,110382,1,0,0:0:0:0:
109,192,110382,1,0,0:0:0:0:
402,192,110382,1,0,0:0:0:0:
256,192,110469,1,0,0:0:0:0:
329,192,110469,1,0,0:0:0:0:
475,192,110469,1,0,0:0:0:0:
109,192,110556,1,0,0:0:0:0:
182,192,110556,1,0,0:0:0:0:
402,192,110556,1,0,0:0:0:0:
36,192,110643,1,0,0:0:0:0:
256,192,110643,1,0,0:0:0:0:
329,192,110643,1,0,0:0:0:0:
402,192,110731,1,0,0:0:0:0:
475,192,110731,1,0,0:0:0:0:
109,192,110731,1,0,0:0:0:0:
256,192,110818,1,0,0:0:0:0:
182,192,110818,1,0,0:0:0:0:
36,192,110818,1,0,0:0:0:0:
329,192,110905,1,0,0:0:0:0:
402,192,110905,1,0,0:0:0:0:
475,192,110905,1,0,0:0:0:0:
36,192,110992,1,0,0:0:0:0:
109,192,110992,1,0,0:0:0:0:
182,192,110992,1,0,0:0:0:0:
256,192,111036,1,0,0:0:0:0:
329,192,111079,1,0,0:0:0:0:
402,192,111123,1,0,0:0:0:0:
36,192,111123,1,0,0:0:0:0:
475,192,111167,1,0,0:0:0:0:
109,192,111167,1,0,0:0:0:0:
182,192,111210,1,0,0:0:0:0:
256,192,111254,1,0,0:0:0:0:
329,192,111297,1,0,0:0:0:0:
36,192,111297,1,0,0:0:0:0:
402,192,111341,1,0,0:0:0:0:
109,192,111341,1,0,0:0:0:0:
475,192,111385,1,0,0:0:0:0:
182,192,111385,1,0,0:0:0:0:
256,192,111428,1,0,0:0:0:0:
329,192,111472,1,0,0:0:0:0:
402,192,111515,1,0,0:0:0:0:
36,192,111515,1,0,0:0:0:0:
475,192,111559,1,0,0:0:0:0:
109,192,111559,1,0,0:0:0:0:
182,192,111603,1,0,0:0:0:0:
256,192,111646,1,0,0:0:0:0:
329,192,111690,128,0,112039:0:0:0:0:
256,192,112039,128,0,112388:0:0:0:0:
475,192,112039,1,0,0:0:0:0:
402,192,112126,1,0,0:0:0:0:
109,192,112300,1,0,0:0:0:0:
36,192,112388,1,0,0:0:0:0:
182,192,112388,1,0,0:0:0:0:
329,192,112388,1,0,0:0:0:0:
475,192,112388,1,0,0:0:0:0:
182,192,112911,1,0,0:0:0:0:
329,192,112911,1,0,0:0:0:0:
36,192,112911,1,0,0:0:0:0:
475,192,112911,1,0,0:0:0:0:
256,192,113085,1,0,0:0:0:0:
475,192,113085,1,0,0:0:0:0:
402,192,113085,1,0,0:0:0:0:
36,192,113085,1,0,0:0:0:0:
109,192,113085,1,0,0:0:0:0:
256,192,113434,1,0,0:0:0:0:
329,192,113434,1,0,0:0:0:0:
182,192,113434,1,0,0:0:0:0:
36,192,113434,1,0,0:0:0:0:
475,192,113434,1,0,0:0:0:0:
329,192,113783,1,0,0:0:0:0:
475,192,113783,1,0,0:0:0:0:
182,192,113783,128,0,113826:0:0:0:0:
109,192,113783,128,0,113848:0:0:0:0:
36,192,113783,128,0,113870:0:0:0:0:
36,192,114132,1,0,0:0:0:0:
475,192,114132,1,0,0:0:0:0:
182,192,114132,128,0,114197:0:0:0:0:
256,192,114132,128,0,114175:0:0:0:0:
329,192,114132,128,0,114197:0:0:0:0:
36,192,114481,1,0,0:0:0:0:
182,192,114481,1,0,0:0:0:0:
475,192,114481,128,0,114568:0:0:0:0:
402,192,114481,128,0,114546:0:0:0:0:
329,192,114481,128,0,114524:0:0:0:0:
36,192,114655,1,0,0:0:0:0:
256,192,114655,1,0,0:0:0:0:
109,192,114655,1,0,0:0:0:0:
475,192,114655,1,0,0:0:0:0:
402,192,114742,5,0,0:0:0:0:
329,192,114742,1,0,0:0:0:0:
182,192,114742,1,0,0:0:0:0:
475,192,114808,128,0,114938:0:0:0:0:
402,192,114829,128,0,114960:0:0:0:0:
329,192,114851,128,0,114982:0:0:0:0:
256,192,114873,128,0,115004:0:0:0:0:
182,192,114895,128,0,115004:0:0:0:0:
109,192,114917,128,0,115004:0:0:0:0:
36,192,114938,128,0,115004:0:0:0:0:
109,192,115178,128,0,115222:0:0:0:0:
182,192,115527,128,0,115571:0:0:0:0:
256,192,115876,128,0,115920:0:0:0:0:
329,192,116225,128,0,116268:0:0:0:0:
256,192,116922,128,0,116966:0:0:0:0:
402,192,117271,128,0,117315:0:0:0:0:
182,192,117620,128,0,117664:0:0:0:0:
109,192,118667,128,0,118710:0:0:0:0:
329,192,119015,128,0,119059:0:0:0:0:
402,192,120062,128,0,120106:0:0:0:0:
329,192,120236,128,0,120280:0:0:0:0:
256,192,120411,128,0,120454:0:0:0:0:
182,192,120585,128,0,120629:0:0:0:0:
109,192,120760,128,0,120803:0:0:0:0:
256,192,120760,128,0,120803:0:0:0:0:
329,192,120760,128,0,120803:0:0:0:0:
402,192,121108,128,0,121152:0:0:0:0:
182,192,121108,128,0,121152:0:0:0:0:
256,192,121457,128,0,121501:0:0:0:0:
109,192,121457,128,0,121501:0:0:0:0:
329,192,121457,128,0,121501:0:0:0:0:
109,192,121632,128,0,121675:0:0:0:0:
256,192,121632,128,0,121675:0:0:0:0:
402,192,121806,128,0,121850:0:0:0:0:
182,192,121806,128,0,121850:0:0:0:0:
109,192,122155,128,0,122199:0:0:0:0:
256,192,122155,128,0,122199:0:0:0:0:
402,192,122155,128,0,122199:0:0:0:0:
329,192,122504,128,0,122547:0:0:0:0:
475,192,122504,128,0,122547:0:0:0:0:
109,192,122678,128,0,122722:0:0:0:0:
256,192,122678,128,0,122722:0:0:0:0:
402,192,122853,128,0,122896:0:0:0:0:
256,192,123027,128,0,123071:0:0:0:0:
109,192,123027,128,0,123071:0:0:0:0:
329,192,123201,128,0,123245:0:0:0:0:
109,192,123289,128,0,123507:0:0:0:0:
182,192,123332,128,0,123507:0:0:0:0:
256,192,123376,128,0,123507:0:0:0:0:
329,192,123420,128,0,123507:0:0:0:0:
402,192,123463,128,0,123812:0:0:0:0:
475,192,123507,128,0,124161:0:0:0:0:
109,192,123550,128,0,124161:0:0:0:0:
182,192,123550,128,0,123812:0:0:0:0:
256,192,123550,128,0,123812:0:0:0:0:
329,192,123550,128,0,124161:0:0:0:0:
36,192,123550,128,0,123812:0:0:0:0:
182,192,123899,128,0,124161:0:0:0:0:
256,192,123899,128,0,124510:0:0:0:0:
402,192,123899,128,0,124510:0:0:0:0:
36,192,123899,128,0,124510:0:0:0:0:
109,192,124248,128,0,124510:0:0:0:0:
182,192,124248,128,0,125382:0:0:0:0:
329,192,124248,128,0,125382:0:0:0:0:
475,192,124248,128,0,124858:0:0:0:0:
402,192,124597,128,0,124858:0:0:0:0:
256,192,124597,128,0,124858:0:0:0:0:
109,192,124597,128,0,124858:0:0:0:0:
36,192,124597,128,0,124858:0:0:0:0:
109,192,124946,128,0,125382:0:0:0:0:
36,192,124946,128,0,125556:0:0:0:0:
256,192,124946,128,0,125207:0:0:0:0:
402,192,124946,128,0,125556:0:0:0:0:
475,192,124946,128,0,125382:0:0:0:0:
256,192,125295,128,0,125556:0:0:0:0:
182,192,125469,128,0,125556:0:0:0:0:
109,192,125469,128,0,125556:0:0:0:0:
329,192,125469,128,0,125556:0:0:0:0:
475,192,125469,128,0,125556:0:0:0:0:
475,192,125643,128,0,125672:0:0:0:0:
36,192,125643,128,0,125672:0:0:0:0:
109,192,125643,128,0,125672:0:0:0:0:
182,192,125643,128,0,125672:0:0:0:0:
402,192,125672,128,0,125701:0:0:0:0:
329,192,125701,128,0,125731:0:0:0:0:
256,192,125731,128,0,125760:0:0:0:0:
182,192,125760,128,0,125789:0:0:0:0:
109,192,125789,128,0,125818:0:0:0:0:
36,192,125818,128,0,125847:0:0:0:0:
475,192,125818,128,0,125847:0:0:0:0:
402,192,125847,128,0,125876:0:0:0:0:
329,192,125876,128,0,125905:0:0:0:0:
256,192,125905,128,0,125934:0:0:0:0:
182,192,125934,128,0,125963:0:0:0:0:
109,192,125963,128,0,125992:0:0:0:0:
475,192,125970,128,0,126101:0:0:0:0:
402,192,125992,128,0,126123:0:0:0:0:
36,192,125992,128,0,126021:0:0:0:0:
329,192,126014,128,0,126145:0:0:0:0:
256,192,126036,128,0,126167:0:0:0:0:
182,192,126058,128,0,126167:0:0:0:0:
109,192,126079,128,0,126167:0:0:0:0:
36,192,126101,128,0,126167:0:0:0:0:
36,192,126319,128,0,126581:0:0:0:0:
329,192,126319,128,0,126581:0:0:0:0:
109,192,126341,128,0,126603:0:0:0:0:
402,192,126341,128,0,126951:0:0:0:0:
256,192,126341,128,0,126603:0:0:0:0:
182,192,126363,128,0,126624:0:0:0:0:
475,192,126363,128,0,126624:0:0:0:0:
36,192,126668,128,0,126973:0:0:0:0:
329,192,126668,128,0,126973:0:0:0:0:
256,192,126690,128,0,127300:0:0:0:0:
109,192,126690,128,0,126951:0:0:0:0:
475,192,126712,128,0,126930:0:0:0:0:
182,192,126712,128,0,126930:0:0:0:0:
182,192,127017,128,0,127279:0:0:0:0:
475,192,127017,128,0,127279:0:0:0:0:
109,192,127039,128,0,127649:0:0:0:0:
402,192,127039,128,0,127300:0:0:0:0:
36,192,127060,128,0,127300:0:0:0:0:
329,192,127060,128,0,127322:0:0:0:0:
475,192,127366,128,0,127627:0:0:0:0:
182,192,127366,128,0,127627:0:0:0:0:
402,192,127388,128,0,127649:0:0:0:0:
36,192,127388,128,0,127671:0:0:0:0:
256,192,127388,128,0,127649:0:0:0:0:
329,192,127409,128,0,127671:0:0:0:0:
182,192,127715,128,0,127976:0:0:0:0:
475,192,127715,128,0,128347:0:0:0:0:
402,192,127736,128,0,127998:0:0:0:0:
256,192,127736,128,0,127954:0:0:0:0:
109,192,127736,128,0,127998:0:0:0:0:
36,192,127758,128,0,128020:0:0:0:0:
329,192,127758,128,0,127976:0:0:0:0:
256,192,128042,128,0,128347:0:0:0:0:
329,192,128063,128,0,128369:0:0:0:0:
182,192,128063,128,0,128325:0:0:0:0:
109,192,128085,128,0,128347:0:0:0:0:
402,192,128085,128,0,128674:0:0:0:0:
36,192,128107,128,0,128369:0:0:0:0:
182,192,128412,128,0,128674:0:0:0:0:
475,192,128434,128,0,128696:0:0:0:0:
109,192,128434,128,0,128696:0:0:0:0:
256,192,128434,128,0,128696:0:0:0:0:
329,192,128456,128,0,128892:0:0:0:0:
36,192,128456,128,0,128717:0:0:0:0:
402,192,128761,128,0,128848:0:0:0:0:
475,192,128783,128,0,129045:0:0:0:0:
109,192,128783,128,0,129045:0:0:0:0:
256,192,128783,128,0,128935:0:0:0:0:
36,192,128805,128,0,129045:0:0:0:0:
182,192,128805,128,0,128979:0:0:0:0:
402,192,128957,128,0,129045:0:0:0:0:
329,192,129001,128,0,129088:0:0:0:0:
256,192,129045,128,0,129132:0:0:0:0:
182,192,129088,128,0,129175:0:0:0:0:
402,192,129132,128,0,129219:0:0:0:0:
36,192,129132,128,0,129742:0:0:0:0:
475,192,129132,128,0,129742:0:0:0:0:
109,192,129132,128,0,129742:0:0:0:0:
329,192,129219,128,0,129306:0:0:0:0:
256,192,129306,128,0,129393:0:0:0:0:
182,192,129306,128,0,129393:0:0:0:0:
402,192,129393,128,0,129481:0:0:0:0:
329,192,129481,128,0,129568:0:0:0:0:
182,192,129481,128,0,129568:0:0:0:0:
256,192,129568,128,0,129655:0:0:0:0:
182,192,129655,128,0,129742:0:0:0:0:
402,192,129655,128,0,129742:0:0:0:0:
256,192,129742,128,0,129829:0:0:0:0:
36,192,129829,128,0,129917:0:0:0:0:
402,192,129829,128,0,129917:0:0:0:0:
329,192,129829,128,0,130440:0:0:0:0:
475,192,129829,128,0,130440:0:0:0:0:
109,192,129829,128,0,130440:0:0:0:0:
182,192,129917,128,0,130004:0:0:0:0:
36,192,130004,128,0,130091:0:0:0:0:
256,192,130004,128,0,130091:0:0:0:0:
402,192,130091,128,0,130178:0:0:0:0:
182,192,130178,128,0,130265:0:0:0:0:
256,192,130178,128,0,130265:0:0:0:0:
36,192,130265,128,0,130353:0:0:0:0:
256,192,130353,128,0,130440:0:0:0:0:
402,192,130353,128,0,130440:0:0:0:0:
36,192,130440,128,0,130527:0:0:0:0:
182,192,130440,128,0,130527:0:0:0:0:
402,192,130527,128,0,130614:0:0:0:0:
329,192,130527,128,0,131138:0:0:0:0:
256,192,130527,128,0,131138:0:0:0:0:
475,192,130527,128,0,131138:0:0:0:0:
109,192,130614,128,0,130701:0:0:0:0:
182,192,130701,128,0,130789:0:0:0:0:
36,192,130701,128,0,130789:0:0:0:0:
402,192,130789,128,0,130876:0:0:0:0:
182,192,130876,128,0,130963:0:0:0:0:
109,192,130876,128,0,130963:0:0:0:0:
36,192,130963,128,0,131050:0:0:0:0:
402,192,131050,128,0,131138:0:0:0:0:
109,192,131050,128,0,131138:0:0:0:0:
182,192,131138,128,0,131225:0:0:0:0:
329,192,131225,128,0,131312:0:0:0:0:
109,192,131225,128,0,131312:0:0:0:0:
256,192,131225,128,0,131486:0:0:0:0:
36,192,131225,128,0,131486:0:0:0:0:
402,192,131312,128,0,131399:0:0:0:0:
475,192,131399,128,0,131486:0:0:0:0:
109,192,131399,128,0,131486:0:0:0:0:
329,192,131486,128,0,131574:0:0:0:0:
402,192,131574,128,0,131835:0:0:0:0:
36,192,131574,128,0,131661:0:0:0:0:
256,192,131574,128,0,131661:0:0:0:0:
182,192,131574,128,0,131835:0:0:0:0:
109,192,131661,128,0,131748:0:0:0:0:
475,192,131748,128,0,131835:0:0:0:0:
329,192,131748,128,0,131835:0:0:0:0:
36,192,131901,128,0,131988:0:0:0:0:
329,192,131901,128,0,132162:0:0:0:0:
402,192,131922,128,0,132010:0:0:0:0:
109,192,131922,128,0,132010:0:0:0:0:
256,192,131922,128,0,132010:0:0:0:0:
182,192,131944,128,0,132031:0:0:0:0:
475,192,131944,128,0,132206:0:0:0:0:
36,192,132075,128,0,132162:0:0:0:0:
402,192,132097,128,0,132184:0:0:0:0:
256,192,132097,128,0,132184:0:0:0:0:
109,192,132097,128,0,132184:0:0:0:0:
182,192,132119,128,0,132206:0:0:0:0:
329,192,132249,128,0,132358:0:0:0:0:
36,192,132249,128,0,132380:0:0:0:0:
402,192,132271,128,0,132533:0:0:0:0:
109,192,132271,128,0,132358:0:0:0:0:
256,192,132271,128,0,132533:0:0:0:0:
182,192,132293,128,0,132337:0:0:0:0:
475,192,132293,128,0,132380:0:0:0:0:
182,192,132424,128,0,132511:0:0:0:0:
329,192,132446,128,0,132533:0:0:0:0:
109,192,132446,128,0,132533:0:0:0:0:
36,192,132467,128,0,132555:0:0:0:0:
475,192,132467,128,0,132555:0:0:0:0:
182,192,132598,128,0,132904:0:0:0:0:
256,192,132620,128,0,132707:0:0:0:0:
329,192,132620,128,0,132904:0:0:0:0:
402,192,132620,128,0,132707:0:0:0:0:
109,192,132620,128,0,132707:0:0:0:0:
36,192,132642,128,0,132729:0:0:0:0:
475,192,132642,128,0,132729:0:0:0:0:
402,192,132795,128,0,132882:0:0:0:0:
256,192,132795,128,0,132882:0:0:0:0:
109,192,132795,128,0,132882:0:0:0:0:
36,192,132816,128,0,132860:0:0:0:0:
475,192,132816,128,0,132860:0:0:0:0:
36,192,132947,128,0,133034:0:0:0:0:
475,192,132947,128,0,133034:0:0:0:0:
256,192,132969,128,0,133231:0:0:0:0:
402,192,132969,128,0,133056:0:0:0:0:
109,192,132969,128,0,133231:0:0:0:0:
182,192,132991,128,0,133078:0:0:0:0:
329,192,132991,128,0,133078:0:0:0:0:
36,192,133122,128,0,133209:0:0:0:0:
475,192,133122,128,0,133209:0:0:0:0:
402,192,133143,128,0,133231:0:0:0:0:
182,192,133165,128,0,133252:0:0:0:0:
329,192,133165,128,0,133252:0:0:0:0:
182,192,133318,128,0,133405:0:0:0:0:
402,192,133318,128,0,133579:0:0:0:0:
475,192,133318,128,0,133405:0:0:0:0:
36,192,133318,128,0,133405:0:0:0:0:
329,192,133318,128,0,133383:0:0:0:0:
256,192,133318,128,0,133579:0:0:0:0:
109,192,133318,128,0,133427:0:0:0:0:
329,192,133470,128,0,133579:0:0:0:0:
182,192,133492,128,0,133579:0:0:0:0:
475,192,133492,128,0,133579:0:0:0:0:
36,192,133492,128,0,133579:0:0:0:0:
109,192,133514,128,0,133579:0:0:0:0:
256,192,133667,128,0,133776:0:0:0:0:
329,192,133667,128,0,133928:0:0:0:0:
475,192,133667,128,0,133732:0:0:0:0:
36,192,133667,128,0,133732:0:0:0:0:
109,192,133667,128,0,133754:0:0:0:0:
402,192,133667,128,0,133754:0:0:0:0:
182,192,133667,128,0,133928:0:0:0:0:
36,192,133819,128,0,133928:0:0:0:0:
475,192,133819,128,0,133928:0:0:0:0:
402,192,133841,128,0,133928:0:0:0:0:
109,192,133841,128,0,133928:0:0:0:0:
256,192,133863,128,0,133928:0:0:0:0:
36,192,134015,128,0,134103:0:0:0:0:
182,192,134015,128,0,134103:0:0:0:0:
329,192,134015,128,0,134081:0:0:0:0:
256,192,134015,128,0,134277:0:0:0:0:
109,192,134015,128,0,134277:0:0:0:0:
475,192,134015,128,0,134124:0:0:0:0:
402,192,134015,128,0,134103:0:0:0:0:
329,192,134168,128,0,134277:0:0:0:0:
402,192,134190,128,0,134277:0:0:0:0:
182,192,134190,128,0,134277:0:0:0:0:
36,192,134190,128,0,134277:0:0:0:0:
475,192,134212,128,0,134277:0:0:0:0:
256,192,134364,128,0,134430:0:0:0:0:
109,192,134364,128,0,134451:0:0:0:0:
182,192,134364,128,0,134626:0:0:0:0:
36,192,134364,128,0,134626:0:0:0:0:
329,192,134364,128,0,134473:0:0:0:0:
475,192,134364,128,0,134473:0:0:0:0:
402,192,134364,128,0,134430:0:0:0:0:
256,192,134495,128,0,134626:0:0:0:0:
402,192,134495,128,0,134626:0:0:0:0:
475,192,134539,128,0,134626:0:0:0:0:
109,192,134539,128,0,134626:0:0:0:0:
329,192,134539,128,0,134626:0:0:0:0:
402,192,134713,128,0,134800:0:0:0:0:
329,192,134800,128,0,134888:0:0:0:0:
256,192,134888,128,0,134975:0:0:0:0:
329,192,134975,128,0,135062:0:0:0:0:
256,192,135062,128,0,135149:0:0:0:0:
182,192,135149,128,0,135236:0:0:0:0:
109,192,135236,128,0,135324:0:0:0:0:
36,192,135324,128,0,135411:0:0:0:0:
109,192,135411,128,0,135498:0:0:0:0:
182,192,135498,128,0,135585:0:0:0:0:
256,192,135585,128,0,135672:0:0:0:0:
329,192,135672,128,0,135760:0:0:0:0:
256,192,135760,128,0,135847:0:0:0:0:
182,192,135847,128,0,135934:0:0:0:0:
109,192,135934,128,0,136021:0:0:0:0:
182,192,136021,128,0,136108:0:0:0:0:
329,192,136108,128,0,136196:0:0:0:0:
402,192,136196,128,0,136283:0:0:0:0:
329,192,136283,128,0,136370:0:0:0:0:
256,192,136370,128,0,136457:0:0:0:0:
109,192,136457,128,0,136545:0:0:0:0:
182,192,136545,128,0,136632:0:0:0:0:
256,192,136632,128,0,136719:0:0:0:0:
329,192,136719,128,0,136806:0:0:0:0:
475,192,136806,128,0,136893:0:0:0:0:
402,192,136893,128,0,136981:0:0:0:0:
329,192,136981,128,0,137068:0:0:0:0:
256,192,137068,128,0,137155:0:0:0:0:
36,192,137155,1,0,0:0:0:0:
109,192,137184,1,0,0:0:0:0:
182,192,137213,1,0,0:0:0:0:
256,192,137242,1,0,0:0:0:0:
329,192,137271,1,0,0:0:0:0:
402,192,137300,1,0,0:0:0:0:
475,192,137329,1,0,0:0:0:0:
36,192,137329,1,0,0:0:0:0:
109,192,137358,1,0,0:0:0:0:
182,192,137388,1,0,0:0:0:0:
256,192,137417,1,0,0:0:0:0:
329,192,137446,1,0,0:0:0:0:
402,192,137475,1,0,0:0:0:0:
475,192,137504,1,0,0:0:0:0:
109,192,137504,128,0,137940:0:0:0:0:
182,192,137504,128,0,137940:0:0:0:0:
36,192,137504,128,0,137940:0:0:0:0:
329,192,138027,128,0,138463:0:0:0:0:
402,192,138027,128,0,138463:0:0:0:0:
182,192,138027,128,0,138463:0:0:0:0:
109,192,138027,128,0,138463:0:0:0:0:
475,192,138027,1,0,0:0:0:0:
256,192,138027,1,0,0:0:0:0:
36,192,138027,1,0,0:0:0:0:
256,192,138550,128,0,140062:0:0:0:0:
475,192,138550,128,0,140178:0:0:0:0:
36,192,138550,128,0,139946:0:0:0:0:
182,192,138550,128,0,140004:0:0:0:0:
402,192,138550,128,0,140120:0:0:0:0:
109,192,138550,1,0,0:0:0:0:
329,192,138550,1,0,0:0:0:0:
329,192,139074,1,0,0:0:0:0:
109,192,139248,1,0,0:0:0:0:
109,192,139597,1,0,0:0:0:0:
329,192,139684,1,0,0:0:0:0:
109,192,139771,1,0,0:0:0:0:
329,192,139858,1,0,0:0:0:0:
109,192,139946,1,0,0:0:0:0:
36,192,140004,128,0,140062:0:0:0:0:
182,192,140062,128,0,140120:0:0:0:0:
256,192,140120,128,0,140178:0:0:0:0:
402,192,140178,128,0,140236:0:0:0:0:
475,192,140236,128,0,140295:0:0:0:0:
182,192,140295,128,0,140731:0:0:0:0:
36,192,140295,128,0,140731:0:0:0:0:
329,192,140295,128,0,140731:0:0:0:0:
256,192,140295,128,0,140731:0:0:0:0:
109,192,140295,1,0,0:0:0:0:
109,192,140818,128,0,141254:0:0:0:0:
182,192,140818,128,0,141254:0:0:0:0:
475,192,140818,128,0,141254:0:0:0:0:
329,192,140818,128,0,141254:0:0:0:0:
256,192,140818,1,0,0:0:0:0:
402,192,140818,1,0,0:0:0:0:
36,192,140818,1,0,0:0:0:0:
256,192,141341,128,0,142388:0:0:0:0:
36,192,141341,128,0,142518:0:0:0:0:
182,192,141341,128,0,142431:0:0:0:0:
109,192,141341,128,0,142475:0:0:0:0:
402,192,141341,128,0,142344:0:0:0:0:
329,192,141341,1,0,0:0:0:0:
475,192,141341,1,0,0:0:0:0:
475,192,141690,1,0,0:0:0:0:
329,192,141864,1,0,0:0:0:0:
475,192,142039,1,0,0:0:0:0:
329,192,142126,1,0,0:0:0:0:
475,192,142213,1,0,0:0:0:0:
329,192,142300,1,0,0:0:0:0:
475,192,142388,1,0,0:0:0:0:
402,192,142388,1,0,0:0:0:0:
256,192,142431,1,0,0:0:0:0:
182,192,142475,1,0,0:0:0:0:
109,192,142518,1,0,0:0:0:0:
36,192,142562,1,0,0:0:0:0:
109,192,142584,1,0,0:0:0:0:
182,192,142606,1,0,0:0:0:0:
256,192,142627,1,0,0:0:0:0:
329,192,142649,1,0,0:0:0:0:
402,192,142671,1,0,0:0:0:0:
475,192,142693,1,0,0:0:0:0:
36,192,142693,1,0,0:0:0:0:
109,192,142715,1,0,0:0:0:0:
182,192,142736,1,0,0:0:0:0:
256,192,142824,1,0,0:0:0:0:
402,192,142824,1,0,0:0:0:0:
36,192,142911,1,0,0:0:0:0:
329,192,142911,1,0,0:0:0:0:
182,192,142911,1,0,0:0:0:0:
475,192,142998,1,0,0:0:0:0:
109,192,142998,1,0,0:0:0:0:
329,192,143085,128,0,143521:0:0:0:0:
402,192,143085,128,0,143521:0:0:0:0:
182,192,143085,128,0,143521:0:0:0:0:
36,192,143085,128,0,143521:0:0:0:0:
256,192,143085,1,0,0:0:0:0:
109,192,143608,128,0,144045:0:0:0:0:
256,192,143608,128,0,144045:0:0:0:0:
475,192,143608,128,0,144045:0:0:0:0:
329,192,143608,128,0,144045:0:0:0:0:
402,192,143608,1,0,0:0:0:0:
182,192,143608,1,0,0:0:0:0:
36,192,143608,1,0,0:0:0:0:
329,192,144132,128,0,144742:0:0:0:0:
182,192,144132,128,0,144742:0:0:0:0:
256,192,144132,128,0,144742:0:0:0:0:
475,192,144132,128,0,144742:0:0:0:0:
402,192,144132,1,0,0:0:0:0:
109,192,144132,1,0,0:0:0:0:
36,192,144132,128,0,144742:0:0:0:0:
109,192,144829,128,0,145440:0:0:0:0:
256,192,144829,128,0,145440:0:0:0:0:
36,192,144829,1,0,0:0:0:0:
182,192,144829,1,0,0:0:0:0:
402,192,144829,1,0,0:0:0:0:
329,192,144829,128,0,145440:0:0:0:0:
475,192,144829,128,0,145440:0:0:0:0:
182,192,145178,128,0,145440:0:0:0:0:
402,192,145178,128,0,145440:0:0:0:0:
36,192,145178,128,0,145440:0:0:0:0:
475,192,145527,128,0,147271:0:0:0:0:
402,192,145527,128,0,147213:0:0:0:0:
329,192,145527,128,0,147155:0:0:0:0:
256,192,145527,128,0,147097:0:0:0:0:
182,192,145527,128,0,147039:0:0:0:0:
109,192,145527,128,0,146981:0:0:0:0:
36,192,145527,128,0,146922:0:0:0:0:
36,192,146981,128,0,148667:0:0:0:0:
109,192,147039,128,0,148638:0:0:0:0:
182,192,147097,128,0,148608:0:0:0:0:
256,192,147155,128,0,148579:0:0:0:0:
329,192,147213,128,0,148550:0:0:0:0:
402,192,147271,128,0,148521:0:0:0:0:
475,192,147329,128,0,148492:0:0:0:0:
