osu file format v14

[General]
AudioFilename: audio.mp3
AudioLeadIn: 0
PreviewTime: 136324
Countdown: 1
SampleSet: None
StackLeniency: 0.7
Mode: 0
LetterboxInBreaks: 0
WidescreenStoryboard: 1

[Editor]
Bookmarks: 46627,47233,47839,49051,116930,136324,196930
DistanceSpacing: 0.9
BeatDivisor: 4
GridSize: 4
TimelineZoom: 1.5

[Metadata]
Title:Smiling
TitleUnicode:Smiling
Artist:Lime
ArtistUnicode:Lime
Creator:Zyholia
Version:AR9.5 CS3.5
Source:
Tags:
BeatmapID:1796285
BeatmapSetID:694861

[Difficulty]
HPDrainRate:4
CircleSize:3.5
OverallDifficulty:8
ApproachRate:9.5
SliderMultiplier:2
SliderTickRate:1

[Events]
//Background and Video events
0,0,"Stardust.(VOCALOID).full.2049253.jpg",0,0
//Break Periods
2,20160,29132
2,78342,97011
2,201979,220648
2,245615,252163
//Storyboard Layer 0 (Background)
//Storyboard Layer 1 (Fail)
//Storyboard Layer 2 (Pass)
//Storyboard Layer 3 (Foreground)
//Storyboard Sound Samples

[TimingPoints]
567,303.030303030303,4,1,0,100,1,0
10263,-100,4,3,0,100,0,0
13597,-153.846153846153,4,3,0,100,0,0
15112,-100,4,3,0,100,0,0
15566,-76.9230769230769,4,3,0,100,0,0
16021,-133.333333333333,4,3,0,100,0,0
16627,-133.333333333333,4,3,0,100,0,0
18748,-133.333333333333,4,2,0,100,0,0
18824,-133.333333333333,4,3,0,100,0,0
19051,-133.333333333333,4,2,0,100,0,0
19127,-133.333333333333,4,3,0,100,0,0
19354,-133.333333333333,4,2,0,100,0,0
19430,-133.333333333333,4,3,0,100,0,0
19657,-133.333333333333,4,2,0,100,0,0
19960,-133.333333333333,4,3,0,100,0,0
29657,-100,4,2,0,100,0,0
49051,-100,4,1,0,100,0,1
68445,-76.9230769230769,4,3,0,100,0,0
68900,-95.2380952380951,4,3,0,100,0,0
69354,-125,4,3,0,100,0,0
70870,-100,4,3,0,100,0,0
71324,-133.333333333333,4,3,0,100,0,0
71779,-105.263157894737,4,3,0,100,0,0
73294,-133.333333333333,4,3,0,100,0,0
73748,-76.9230769230769,4,3,0,100,0,0
74203,-125,4,3,0,100,0,0
74809,-100,4,3,0,100,0,0
76930,-100,4,1,0,100,0,0
77006,-100,4,3,0,100,0,0
77233,-100,4,1,0,100,0,0
77309,-100,4,3,0,100,0,0
77536,-100,4,1,0,100,0,0
77612,-100,4,3,0,100,0,0
77839,-100,4,1,0,100,0,0
78142,-100,4,3,0,100,0,0
97536,-100,4,2,0,100,0,0
116930,-76.9230769230769,4,1,0,100,0,0
126021,-100,4,2,0,100,0,0
136021,-66.6666666666667,4,2,0,100,0,0
136324,-66.6666666666667,4,1,0,100,0,1
139960,-100,4,3,0,100,0,0
140491,-100,4,3,0,100,0,0
140567,-100,4,3,0,100,0,0
141173,-100,4,1,0,100,0,1
144809,-100,4,2,0,100,0,0
146021,-100,4,1,0,100,0,1
153294,-83.3333333333333,4,1,0,100,0,1
155718,-83.3333333333333,4,1,0,100,0,0
173900,-133.333333333333,4,2,0,100,0,0
174506,-95.2380952380951,4,2,0,100,0,0
175112,-83.3333333333333,4,2,0,100,0,1
196930,-83.3333333333333,4,2,0,100,0,0
197385,-100,4,2,0,100,0,0
221173,-200,4,3,0,100,0,0
238142,1212.12121212121,4,1,0,100,1,0
238142,-200,4,1,0,100,0,0
239354,-100,4,1,0,100,0,0
240566,303.030303030303,4,1,0,100,1,0
240566,-100,4,2,0,100,0,0
264506,-100,4,1,0,100,0,0
264808,-100,4,1,0,100,0,1
274051,-100,4,1,0,100,0,0
274506,-83.3333333333333,4,1,0,100,0,1
278142,-66.6666666666667,4,1,0,100,0,1
279354,-66.6666666666667,4,1,0,100,0,1
281779,-66.6666666666667,4,1,0,100,0,1
282385,-50,4,1,0,100,0,1
282688,-83.3333333333333,4,1,0,100,0,1
287839,-100,4,1,0,100,0,1
291476,-100,4,1,0,100,0,1
293900,-100,4,1,0,100,0,1
296324,-100,4,1,0,100,0,1
300870,-66.6666666666667,4,2,0,100,0,0
301173,-76.9230769230769,4,3,0,100,0,0
301627,-100,4,3,0,100,0,0
302082,-125,4,3,0,100,0,0
304051,-66.6666666666667,4,3,0,100,0,0
304506,-100,4,3,0,100,0,0
306021,-117.647058823529,4,3,0,100,0,0
306476,-66.6666666666667,4,3,0,100,0,0
306930,-133.333333333333,4,3,0,100,0,0
307536,-100,4,3,0,100,0,0
308142,-133.333333333333,4,1,0,100,0,0

[HitObjects]
136,272,9657,5,0,0:0:0:0:
160,288,9733,1,0,0:0:0:0:
188,296,9809,1,0,0:0:0:0:
220,296,9885,1,0,0:0:0:0:
256,296,9960,1,0,0:0:0:0:
292,288,10036,1,0,0:0:0:0:
328,264,10112,1,0,0:0:0:0:
360,224,10188,1,0,0:0:0:0:
384,172,10263,6,0,P|348:60|216:64,1,250
144,116,10718,2,0,B|72:212|72:212|212:268,1,250,2|0,0:0|0:0,0:0:0:0:
300,116,11173,2,0,B|416:164|416:164|296:312|192:304,1,400,2|0,0:0|0:0,0:0:0:0:
140,92,11930,1,0,0:0:0:0:
140,92,12006,1,0,0:0:0:0:
140,92,12082,1,0,0:0:0:0:
76,288,12233,5,0,0:0:0:0:
132,312,12309,1,0,0:0:0:0:
192,320,12385,1,0,0:0:0:0:
248,316,12460,1,0,0:0:0:0:
304,304,12536,1,0,0:0:0:0:
360,284,12612,1,0,0:0:0:0:
404,244,12688,2,0,B|460:156|460:156|304:84,1,250,2|0,0:0|0:0,0:0:0:0:
296,208,13142,2,0,B|156:224|156:224|92:180|152:92,1,250,2|0,0:0|0:0,0:0:0:0:
192,48,13597,2,0,B|336:20|336:20|424:104,1,259.999988098145,2|0,0:0|0:0,0:0:0:0:
336,300,14506,5,0,0:0:0:0:
310,320,14582,1,0,0:0:0:0:
282,336,14657,1,0,0:0:0:0:
252,348,14733,1,0,0:0:0:0:
220,356,14809,1,0,0:0:0:0:
188,359,14885,1,0,0:0:0:0:
155,357,14960,1,0,0:0:0:0:
124,351,15036,1,0,0:0:0:0:
100,336,15112,6,0,B|44:264|44:264|152:136,1,250,2|0,0:0|0:0,0:0:0:0:
328,192,15566,2,0,P|448:124|328:44,1,324.999985122681,2|0,0:0|0:0,0:0:0:0:
184,120,16021,2,0,B|156:260|156:260|212:304|280:300,1,262.500010013581,2|0,0:0|0:0,0:0:0:0:
380,132,16627,6,0,P|444:164|448:204,1,112.500004291535
364,272,16930,2,0,P|304:272|240:208,1,150.000005722046,2|0,0:0|0:0,0:0:0:0:
256,192,17385,12,0,18597,0:0:0:0:
128,64,18748,5,4,0:0:0:0:
96,83,18824,1,0,0:0:0:0:
64,103,18900,1,0,0:0:0:0:
32,123,18976,1,0,0:0:0:0:
32,156,19051,5,4,0:0:0:0:
56,184,19127,1,0,0:0:0:0:
81,212,19203,1,0,0:0:0:0:
105,241,19279,1,0,0:0:0:0:
152,296,19354,5,4,0:0:0:0:
220,320,19430,1,0,0:0:0:0:
292,328,19506,1,0,0:0:0:0:
364,320,19582,1,0,0:0:0:0:
432,304,19657,2,0,P|460:240|400:152,1,150.000005722046
120,32,29657,6,0,B|60:48|60:48|32:108,1,100,4|0,0:0|0:0,0:0:0:0:
416,352,29960,2,0,B|464:320|464:320|464:272,1,100,2|0,0:0|0:0,0:0:0:0:
220,48,30263,1,0,0:0:0:0:
112,352,30415,1,0,0:0:0:0:
312,356,30567,1,2,0:0:0:0:
416,80,30718,1,0,0:0:0:0:
416,80,30794,1,0,0:0:0:0:
416,80,30870,2,0,B|368:52|368:52|312:48,1,100
80,100,31173,5,2,0:0:0:0:
200,324,31324,1,0,0:0:0:0:
200,324,31400,1,0,0:0:0:0:
200,324,31476,2,0,P|248:348|332:348,1,100
224,60,31779,1,2,0:0:0:0:
392,348,31930,1,0,0:0:0:0:
440,88,32082,5,4,0:0:0:0:
60,260,32233,1,0,0:0:0:0:
388,184,32385,1,2,0:0:0:0:
120,180,32536,1,0,0:0:0:0:
440,256,32688,1,0,0:0:0:0:
64,88,32839,1,0,0:0:0:0:
384,176,32991,1,2,0:0:0:0:
120,180,33142,5,0,0:0:0:0:
120,180,33218,1,0,0:0:0:0:
120,180,33294,1,8,0:0:0:0:
424,288,33445,5,0,0:0:0:0:
424,288,33521,1,0,0:0:0:0:
424,288,33597,1,10,0:0:0:0:
160,328,33748,5,0,0:0:0:0:
160,328,33824,1,0,0:0:0:0:
160,328,33900,1,8,0:0:0:0:
160,328,33976,1,0,0:0:0:0:
209,336,34051,1,0,0:0:0:0:
258,330,34127,1,0,0:0:0:0:
304,308,34203,2,0,P|340:292|360:228,1,100,2|0,0:0|0:0,0:0:0:0:
116,60,34506,5,4,0:0:0:0:
228,340,34657,1,0,0:0:0:0:
468,152,34809,1,2,0:0:0:0:
232,20,34960,1,0,0:0:0:0:
84,344,35112,1,0,0:0:0:0:
436,288,35263,1,0,0:0:0:0:
76,144,35415,1,2,0:0:0:0:
424,68,35566,5,0,0:0:0:0:
424,68,35642,1,0,0:0:0:0:
424,68,35718,2,0,P|400:120|344:140,1,100
56,280,36021,1,2,0:0:0:0:
376,332,36173,1,0,0:0:0:0:
380,336,36248,1,0,0:0:0:0:
380,336,36324,1,0,0:0:0:0:
404,36,36476,5,0,0:0:0:0:
192,340,36627,1,2,0:0:0:0:
72,60,36779,1,0,0:0:0:0:
304,332,36930,1,0,0:0:0:0:
204,24,37082,1,0,0:0:0:0:
88,332,37233,1,2,0:0:0:0:
328,112,37385,5,0,0:0:0:0:
328,112,37460,1,0,0:0:0:0:
328,112,37536,1,8,0:0:0:0:
112,168,37688,1,0,0:0:0:0:
360,276,37839,1,2,0:0:0:0:
208,44,37991,1,0,0:0:0:0:
104,216,38142,5,4,0:0:0:0:
132,252,38218,1,0,0:0:0:0:
172,276,38294,1,0,0:0:0:0:
216,280,38370,1,0,0:0:0:0:
264,268,38445,1,8,0:0:0:0:
296,236,38521,1,0,0:0:0:0:
312,192,38597,1,0,0:0:0:0:
292,148,38673,1,0,0:0:0:0:
272,104,38748,1,8,0:0:0:0:
300,64,38824,1,0,0:0:0:0:
344,48,38900,1,0,0:0:0:0:
392,60,38976,1,0,0:0:0:0:
432,96,39051,1,8,0:0:0:0:
452,140,39127,1,0,0:0:0:0:
448,188,39203,1,0,0:0:0:0:
428,232,39279,1,0,0:0:0:0:
392,264,39354,6,0,P|344:292|280:288,1,100,4|0,0:0|0:0,0:0:0:0:
152,32,39657,2,0,P|96:48|48:96,1,100,2|0,0:0|0:0,0:0:0:0:
32,308,39960,2,0,P|84:352|136:344,1,100,2|0,0:0|0:0,0:0:0:0:
216,332,40263,2,0,B|264:308|272:232,1,100,2|0,0:0|0:0,0:0:0:0:
340,20,40566,1,8,0:0:0:0:
344,312,40718,1,0,0:0:0:0:
424,80,40870,1,8,0:0:0:0:
272,252,41021,1,0,0:0:0:0:
480,152,41173,5,12,0:0:0:0:
468,192,41248,1,0,0:0:0:0:
432,224,41324,1,0,0:0:0:0:
384,228,41400,1,0,0:0:0:0:
348,192,41476,1,2,0:0:0:0:
328,152,41551,1,0,0:0:0:0:
300,112,41627,1,0,0:0:0:0:
264,80,41703,1,0,0:0:0:0:
220,68,41779,2,0,B|168:84|168:84|140:124,1,100,2|0,0:0|0:0,0:0:0:0:
232,320,42082,6,0,B|184:352|184:352|128:344,1,100
256,32,42385,2,0,B|316:16|316:16|360:28,1,100,2|0,0:0|0:0,0:0:0:0:
464,292,42688,1,0,0:0:0:0:
388,100,42839,1,0,0:0:0:0:
328,288,42991,1,10,0:0:0:0:
468,176,43142,1,0,0:0:0:0:
308,180,43294,1,8,0:0:0:0:
204,340,43445,1,0,0:0:0:0:
204,340,43521,1,0,0:0:0:0:
204,340,43597,2,0,B|140:352|140:352|92:344,1,100,10|0,0:0|0:0,0:0:0:0:
48,68,43900,2,0,B|100:52|100:52|152:52,1,100
296,48,44203,5,2,0:0:0:0:
424,96,44354,1,0,0:0:0:0:
476,232,44506,1,2,0:0:0:0:
376,336,44657,1,0,0:0:0:0:
260,236,44809,1,2,0:0:0:0:
392,132,44960,1,0,0:0:0:0:
268,32,45112,1,2,0:0:0:0:
120,80,45263,1,0,0:0:0:0:
84,336,45415,5,2,0:0:0:0:
248,288,45566,1,0,0:0:0:0:
104,192,45718,1,2,0:0:0:0:
236,176,45870,1,0,0:0:0:0:
124,72,46021,1,2,0:0:0:0:
244,24,46173,1,0,0:0:0:0:
424,36,46324,1,2,0:0:0:0:
292,120,46476,1,0,0:0:0:0:
432,164,46627,5,4,0:0:0:0:
437,213,46703,1,0,0:0:0:0:
433,263,46779,1,2,0:0:0:0:
416,310,46854,1,0,0:0:0:0:
381,344,46930,1,2,0:0:0:0:
332,353,47006,1,0,0:0:0:0:
286,335,47082,1,2,0:0:0:0:
251,300,47157,1,0,0:0:0:0:
212,332,47233,5,4,0:0:0:0:
168,340,47309,1,0,0:0:0:0:
124,328,47385,1,2,0:0:0:0:
88,296,47460,1,0,0:0:0:0:
64,252,47536,1,2,0:0:0:0:
68,204,47612,1,0,0:0:0:0:
96,164,47688,1,2,0:0:0:0:
132,132,47763,1,0,0:0:0:0:
168,108,47839,2,0,B|224:80|224:80|284:80,1,100,12|0,0:0|0:0,0:0:0:0:
380,120,48066,1,0,0:0:0:0:
392,136,48142,2,0,L|392:248,1,100,8|0,0:0|0:0,0:0:0:0:
288,236,48445,6,0,L|204:160,1,100,8|0,0:0|0:0,0:0:0:0:
44,244,48748,1,2,0:0:0:0:
54,292,48824,1,2,0:0:0:0:
84,332,48900,1,2,0:0:0:0:
127,356,48976,1,2,0:0:0:0:
177,361,49051,1,2,0:0:0:0:
456,52,49203,6,0,B|392:32|392:32|344:32,1,100
248,348,49506,1,0,0:0:0:0:
132,32,49657,1,0,0:0:0:0:
132,32,49809,2,0,B|76:60|76:60|60:108,1,100
392,324,50112,2,0,B|428:280|428:280|408:240,1,100
60,248,50415,5,0,0:0:0:0:
260,36,50566,1,0,0:0:0:0:
184,348,50718,1,0,0:0:0:0:
136,52,50870,1,0,0:0:0:0:
300,340,51021,1,0,0:0:0:0:
56,164,51173,1,0,0:0:0:0:
444,60,51324,1,0,0:0:0:0:
444,60,51400,1,0,0:0:0:0:
444,60,51476,1,0,0:0:0:0:
148,312,51627,5,0,0:0:0:0:
148,312,51779,2,0,B|208:336|208:336|264:336,1,100
348,112,52082,2,0,B|300:84|300:84|248:84,1,100
116,136,52385,2,0,B|104:196|104:196|144:224,1,100
400,296,52688,2,0,B|364:348|364:348|320:348,1,100
80,204,52991,2,0,B|96:144|96:144|128:116,1,100
256,40,53294,5,0,0:0:0:0:
172,336,53445,1,0,0:0:0:0:
384,156,53597,1,0,0:0:0:0:
128,156,53748,1,0,0:0:0:0:
340,340,53900,1,0,0:0:0:0:
336,44,54051,5,0,0:0:0:0:
56,44,54203,1,0,0:0:0:0:
200,324,54354,1,0,0:0:0:0:
444,320,54506,1,0,0:0:0:0:
420,80,54657,2,0,B|368:52|368:52|304:52,1,100
156,336,54960,2,0,B|84:336|84:336|56:312,1,100
160,36,55263,2,0,B|224:28|224:28|264:40,1,100
440,268,55566,1,0,0:0:0:0:
440,268,55642,1,0,0:0:0:0:
440,268,55718,2,0,P|408:300|332:304,1,100
152,24,56021,5,0,0:0:0:0:
88,76,56097,1,0,0:0:0:0:
56,152,56173,1,0,0:0:0:0:
48,232,56248,1,0,0:0:0:0:
68,316,56324,2,0,B|96:364|96:364|156:372,1,100
400,276,56627,1,0,0:0:0:0:
272,152,56779,1,0,0:0:0:0:
464,96,56930,1,0,0:0:0:0:
356,308,57082,1,0,0:0:0:0:
264,112,57233,1,0,0:0:0:0:
464,192,57385,1,0,0:0:0:0:
236,344,57536,6,0,P|160:336|128:296,1,100
60,76,57839,2,0,B|100:52|176:64,1,100
484,240,58142,1,0,0:0:0:0:
444,308,58218,1,0,0:0:0:0:
376,352,58294,1,0,0:0:0:0:
300,356,58370,1,0,0:0:0:0:
224,344,58445,1,0,0:0:0:0:
148,316,58521,1,0,0:0:0:0:
80,280,58597,1,0,0:0:0:0:
32,216,58673,1,0,0:0:0:0:
32,144,58748,6,0,B|64:96|64:96|108:96,1,100
408,188,59051,1,0,0:0:0:0:
172,320,59203,1,0,0:0:0:0:
172,320,59279,1,0,0:0:0:0:
172,320,59354,1,0,0:0:0:0:
360,56,59506,2,0,B|404:92|404:92|388:140,1,100
52,172,59809,2,0,B|48:116|48:116|84:88,1,100
408,48,60112,1,0,0:0:0:0:
144,264,60263,1,0,0:0:0:0:
464,192,60415,1,0,0:0:0:0:
160,104,60566,1,0,0:0:0:0:
392,320,60718,5,0,0:0:0:0:
332,344,60794,1,0,0:0:0:0:
272,352,60870,1,0,0:0:0:0:
212,332,60945,1,0,0:0:0:0:
180,280,61021,1,0,0:0:0:0:
192,220,61097,1,0,0:0:0:0:
244,188,61173,2,0,P|272:152|264:92,1,100
60,64,61476,2,0,P|32:112|48:160,1,100
424,272,61779,2,0,P|456:240|460:176,1,100
40,140,62082,2,0,P|32:192|60:240,1,100
440,88,62385,5,0,0:0:0:0:
392,44,62460,1,0,0:0:0:0:
332,28,62536,1,0,0:0:0:0:
268,36,62612,1,0,0:0:0:0:
216,68,62688,1,0,0:0:0:0:
200,132,62763,1,0,0:0:0:0:
252,168,62839,1,0,0:0:0:0:
288,224,62915,1,0,0:0:0:0:
264,280,62991,1,0,0:0:0:0:
208,312,63066,1,0,0:0:0:0:
140,308,63142,1,0,0:0:0:0:
88,272,63218,1,0,0:0:0:0:
39,236,63294,2,0,P|27:192|39:140,1,100
276,24,63597,5,0,0:0:0:0:
220,340,63748,1,0,0:0:0:0:
356,48,63900,1,0,0:0:0:0:
156,292,64051,1,0,0:0:0:0:
404,116,64203,1,0,0:0:0:0:
120,216,64354,1,0,0:0:0:0:
420,196,64506,1,0,0:0:0:0:
112,136,64657,1,0,0:0:0:0:
320,316,64809,5,0,0:0:0:0:
256,52,64960,1,0,0:0:0:0:
196,320,65112,1,0,0:0:0:0:
356,152,65263,1,0,0:0:0:0:
160,152,65415,1,0,0:0:0:0:
328,320,65566,1,0,0:0:0:0:
256,52,65718,1,0,0:0:0:0:
196,320,65870,1,0,0:0:0:0:
424,88,66021,5,0,0:0:0:0:
352,52,66097,1,0,0:0:0:0:
276,32,66173,1,0,0:0:0:0:
200,28,66248,1,0,0:0:0:0:
128,40,66324,1,0,0:0:0:0:
64,76,66400,1,0,0:0:0:0:
28,144,66476,1,0,0:0:0:0:
56,224,66551,1,0,0:0:0:0:
136,252,66627,5,0,0:0:0:0:
212,224,66703,1,0,0:0:0:0:
280,260,66779,1,0,0:0:0:0:
324,324,66854,1,0,0:0:0:0:
396,352,66930,1,0,0:0:0:0:
456,304,67006,1,0,0:0:0:0:
456,224,67082,1,0,0:0:0:0:
424,152,67157,1,0,0:0:0:0:
344,116,67233,5,0,0:0:0:0:
268,132,67309,1,0,0:0:0:0:
220,192,67385,1,0,0:0:0:0:
168,244,67460,1,0,0:0:0:0:
96,248,67536,1,0,0:0:0:0:
56,192,67612,1,0,0:0:0:0:
56,120,67688,1,0,0:0:0:0:
96,60,67763,1,0,0:0:0:0:
160,24,67839,5,0,0:0:0:0:
232,16,67915,1,0,0:0:0:0:
304,32,67991,1,0,0:0:0:0:
368,76,68066,1,0,0:0:0:0:
412,140,68142,1,0,0:0:0:0:
440,216,68218,1,0,0:0:0:0:
416,292,68294,1,0,0:0:0:0:
360,344,68370,1,0,0:0:0:0:
292,356,68445,6,0,B|208:336|208:336|252:180|252:180|196:88,1,324.999985122681
76,80,68900,2,0,B|-120:128|80:132|40:204|40:204|92:208,1,262.499991989136
332,288,69354,2,0,B|492:228|492:228|392:184|392:184|476:144|464:32|348:20|268:56,1,560
96,64,70566,1,0,0:0:0:0:
64,132,70642,1,0,0:0:0:0:
72,204,70718,1,0,0:0:0:0:
124,256,70794,1,0,0:0:0:0:
200,260,70870,6,0,B|260:188|260:188|372:104|288:64,1,250
184,68,71324,2,0,P|120:88|160:196,1,187.500007152558
328,244,71779,2,0,B|308:312|308:312|176:348|80:280|80:280|184:184|84:168|144:96,1,474.999987316132
160,32,72688,5,0,0:0:0:0:
220,48,72763,1,0,0:0:0:0:
256,96,72839,1,0,0:0:0:0:
276,156,72915,1,0,0:0:0:0:
288,208,72991,1,0,0:0:0:0:
308,240,73066,1,0,0:0:0:0:
320,252,73142,1,0,0:0:0:0:
328,264,73218,1,0,0:0:0:0:
336,272,73294,6,0,B|380:276|380:276|388:344|248:348,1,187.500007152558
176,344,73748,2,0,B|112:320|124:252|124:252|124:252|124:252|124:252|124:252|124:252|124:252|128:252|128:252|128:252|128:252|128:252|128:252|128:252|128:252|128:252|128:252|128:252|128:252|124:252|124:252|128:252|128:252|124:252|124:252|128:252|128:252|124:252|124:252|212:224|64:148|200:124,1,324.999985122681
312,220,74203,2,0,P|400:244|364:104,1,280
212,188,74809,2,0,B|160:232|160:232|120:144,1,150
164,64,75112,2,0,B|260:12|260:12|320:80,1,200
256,192,75491,12,0,76779,0:0:0:0:
352,164,76930,5,0,0:0:0:0:
376,240,77006,1,0,0:0:0:0:
352,312,77082,1,0,0:0:0:0:
276,344,77157,1,0,0:0:0:0:
196,344,77233,5,0,0:0:0:0:
128,304,77309,1,0,0:0:0:0:
80,244,77385,1,0,0:0:0:0:
76,172,77460,1,0,0:0:0:0:
120,104,77536,5,0,0:0:0:0:
196,88,77612,1,0,0:0:0:0:
268,116,77688,1,0,0:0:0:0:
312,180,77763,1,0,0:0:0:0:
304,256,77839,2,0,P|204:268|168:184,1,200
464,60,97536,5,12,0:0:0:0:
176,124,97688,1,0,0:0:0:0:
344,360,97839,1,2,0:0:0:0:
428,140,97991,5,0,0:0:0:0:
392,128,98066,1,0,0:0:0:0:
352,124,98142,1,0,0:0:0:0:
312,136,98218,1,0,0:0:0:0:
280,168,98294,1,0,0:0:0:0:
248,200,98370,1,0,0:0:0:0:
208,210,98445,1,2,0:0:0:0:
52,140,98597,6,0,P|80:92|128:72,1,100
324,304,98900,1,0,0:0:0:0:
436,64,99051,1,2,0:0:0:0:
188,55,99203,1,0,0:0:0:0:
188,55,99279,1,0,0:0:0:0:
188,55,99354,1,0,0:0:0:0:
118,233,99506,2,0,B|114:298|173:313,1,100
342,331,99809,1,0,0:0:0:0:
342,331,99885,1,0,0:0:0:0:
342,331,99960,1,0,0:0:0:0:
88,192,100112,5,0,0:0:0:0:
444,112,100263,1,2,0:0:0:0:
212,40,100415,1,0,0:0:0:0:
172,52,100491,1,0,0:0:0:0:
136,80,100566,1,0,0:0:0:0:
116,120,100642,1,0,0:0:0:0:
120,160,100718,1,0,0:0:0:0:
136,196,100794,1,0,0:0:0:0:
168,220,100870,1,2,0:0:0:0:
384,172,101021,5,0,0:0:0:0:
504,280,101173,1,0,0:0:0:0:
236,352,101324,1,0,0:0:0:0:
432,200,101476,1,2,0:0:0:0:
292,204,101627,5,0,0:0:0:0:
260,240,101703,1,0,0:0:0:0:
224,264,101779,1,0,0:0:0:0:
188,268,101854,1,0,0:0:0:0:
148,252,101930,1,0,0:0:0:0:
112,224,102006,1,0,0:0:0:0:
100,184,102082,1,2,0:0:0:0:
156,40,102233,6,0,B|216:60|216:60|244:104,1,100
128,344,102536,1,0,0:0:0:0:
277,196,102688,1,2,0:0:0:0:
397,326,102839,6,0,B|428:270|428:270|416:210,1,100
397,88,103142,1,0,0:0:0:0:
397,88,103218,1,0,0:0:0:0:
397,88,103294,1,2,0:0:0:0:
252,96,103445,5,0,0:0:0:0:
104,316,103597,1,0,0:0:0:0:
56,120,103748,1,0,0:0:0:0:
252,292,103900,1,2,0:0:0:0:
147,83,104051,5,0,0:0:0:0:
183,60,104127,1,0,0:0:0:0:
219,44,104203,1,0,0:0:0:0:
251,43,104279,1,0,0:0:0:0:
283,49,104354,1,0,0:0:0:0:
315,63,104430,1,0,0:0:0:0:
349,68,104506,1,2,0:0:0:0:
291,295,104657,1,0,0:0:0:0:
443,241,104809,5,0,0:0:0:0:
210,188,104960,1,0,0:0:0:0:
327,312,105112,1,2,0:0:0:0:
472,136,105263,1,0,0:0:0:0:
456,104,105339,1,0,0:0:0:0:
428,72,105415,1,0,0:0:0:0:
392,48,105491,1,0,0:0:0:0:
356,36,105566,1,0,0:0:0:0:
316,36,105642,1,0,0:0:0:0:
276,40,105718,1,2,0:0:0:0:
304,240,105870,1,0,0:0:0:0:
164,56,106021,5,0,0:0:0:0:
24,176,106173,1,0,0:0:0:0:
160,312,106324,1,2,0:0:0:0:
68,72,106476,1,0,0:0:0:0:
112,52,106551,1,0,0:0:0:0:
160,44,106627,1,0,0:0:0:0:
216,56,106703,1,0,0:0:0:0:
244,100,106779,1,0,0:0:0:0:
280,140,106854,1,0,0:0:0:0:
328,156,106930,1,2,0:0:0:0:
440,336,107082,1,0,0:0:0:0:
200,276,107233,5,0,0:0:0:0:
464,144,107385,1,0,0:0:0:0:
288,48,107536,1,0,0:0:0:0:
280,256,107688,2,0,L|256:308,1,50
136,296,107839,2,0,L|104:252,1,50
100,244,107991,1,0,0:0:0:0:
136,64,108142,1,2,0:0:0:0:
380,40,108294,1,0,0:0:0:0:
440,208,108445,5,0,0:0:0:0:
440,208,108597,2,0,P|396:284|352:292,1,100,0|2,0:0|0:0,0:0:0:0:
156,44,108900,1,0,0:0:0:0:
136,56,108976,2,0,P|100:88|92:100,1,50
52,220,109203,2,0,B|72:264|72:264|128:268,1,100,0|2,0:0|0:0,0:0:0:0:
336,80,109506,5,0,0:0:0:0:
344,88,109582,2,0,L|364:140,1,50
156,320,109809,1,0,0:0:0:0:
456,192,109960,1,2,0:0:0:0:
200,104,110112,1,0,0:0:0:0:
44,200,110263,1,0,0:0:0:0:
72,248,110339,1,0,0:0:0:0:
116,280,110415,1,0,0:0:0:0:
168,296,110491,1,0,0:0:0:0:
220,284,110566,2,0,B|264:252|264:252|288:204,1,100,2|0,0:0|0:0,0:0:0:0:
256,32,110870,5,0,0:0:0:0:
148,204,111021,1,0,0:0:0:0:
148,204,111097,2,0,L|184:256,1,50,0|2,0:0|0:0,0:0:0:0:
408,236,111324,1,0,0:0:0:0:
408,236,111400,1,0,0:0:0:0:
396,248,111476,1,0,0:0:0:0:
384,264,111551,1,0,0:0:0:0:
372,280,111627,1,0,0:0:0:0:
360,296,111703,1,0,0:0:0:0:
352,308,111779,2,0,B|304:348|304:348|172:344,1,150,2|0,0:0|0:0,0:0:0:0:
120,272,112082,6,0,P|64:228|72:176,1,100,8|0,0:0|0:0,0:0:0:0:
120,52,112385,1,2,0:0:0:0:
256,244,112536,1,0,0:0:0:0:
352,92,112688,1,0,0:0:0:0:
320,80,112763,1,0,0:0:0:0:
280,68,112839,1,0,0:0:0:0:
240,64,112915,1,0,0:0:0:0:
200,76,112991,1,2,0:0:0:0:
444,268,113142,1,0,0:0:0:0:
444,268,113218,1,0,0:0:0:0:
444,268,113294,1,0,0:0:0:0:
40,300,113445,6,0,P|80:352|120:356,1,100,0|2,0:0|0:0,0:0:0:0:
480,284,113748,1,0,0:0:0:0:
472,268,113824,2,0,L|452:220,1,50
344,32,114051,1,0,0:0:0:0:
340,48,114127,2,0,L|320:96,1,50,0|2,0:0|0:0,0:0:0:0:
192,280,114354,1,0,0:0:0:0:
192,280,114430,1,0,0:0:0:0:
192,280,114506,1,8,0:0:0:0:
388,156,114657,5,0,0:0:0:0:
176,64,114809,1,2,0:0:0:0:
256,340,114960,1,0,0:0:0:0:
344,80,115112,1,0,0:0:0:0:
104,140,115263,1,0,0:0:0:0:
336,276,115415,1,2,0:0:0:0:
272,24,115566,5,0,0:0:0:0:
200,40,115642,1,0,0:0:0:0:
132,68,115718,1,4,0:0:0:0:
88,128,115794,1,0,0:0:0:0:
76,200,115870,1,0,0:0:0:0:
104,268,115945,1,0,0:0:0:0:
160,316,116021,1,2,0:0:0:0:
232,336,116097,1,0,0:0:0:0:
304,320,116173,1,0,0:0:0:0:
356,268,116248,1,0,0:0:0:0:
376,196,116324,5,2,0:0:0:0:
344,128,116400,1,0,0:0:0:0:
288,80,116476,1,0,0:0:0:0:
216,88,116551,1,0,0:0:0:0:
160,136,116627,1,2,0:0:0:0:
144,208,116703,1,0,0:0:0:0:
180,272,116779,1,0,0:0:0:0:
252,288,116854,1,0,0:0:0:0:
320,256,116930,6,0,B|356:212|356:212|352:112,1,129.999994049073,4|0,0:0|0:0,0:0:0:0:
136,48,117233,2,0,B|136:140|136:140|184:168,1,129.999994049073,2|0,0:0|0:0,0:0:0:0:
464,224,117536,1,0,0:0:0:0:
296,40,117688,1,0,0:0:0:0:
208,320,117839,1,2,0:0:0:0:
440,116,117991,1,0,0:0:0:0:
188,92,118142,1,0,0:0:0:0:
240,284,118294,1,0,0:0:0:0:
336,72,118445,1,2,0:0:0:0:
96,152,118597,5,0,0:0:0:0:
96,152,118673,1,0,0:0:0:0:
96,152,118748,2,0,B|128:196|128:196|224:212,1,129.999994049073,8|0,0:0|0:0,0:0:0:0:
312,28,119051,1,2,0:0:0:0:
164,356,119203,1,0,0:0:0:0:
220,16,119354,5,4,0:0:0:0:
256,360,119506,1,0,0:0:0:0:
140,48,119657,1,2,0:0:0:0:
328,320,119809,1,0,0:0:0:0:
84,120,119960,5,0,0:0:0:0:
360,244,120112,1,0,0:0:0:0:
56,208,120263,1,2,0:0:0:0:
352,156,120415,1,0,0:0:0:0:
100,284,120566,5,0,0:0:0:0:
288,100,120718,1,0,0:0:0:0:
188,328,120870,1,2,0:0:0:0:
204,76,121021,1,0,0:0:0:0:
280,316,121173,5,0,0:0:0:0:
120,124,121324,1,0,0:0:0:0:
340,96,121476,1,2,0:0:0:0:
340,96,121551,1,0,0:0:0:0:
340,96,121627,1,0,0:0:0:0:
340,96,121703,1,0,0:0:0:0:
340,96,121779,2,0,B|376:168|376:168|308:208,1,129.999994049073,4|0,0:0|0:0,0:0:0:0:
136,280,122082,5,2,0:0:0:0:
272,152,122233,1,0,0:0:0:0:
284,328,122385,5,0,0:0:0:0:
172,120,122536,1,0,0:0:0:0:
356,284,122688,5,2,0:0:0:0:
116,196,122839,1,0,0:0:0:0:
372,200,122991,5,0,0:0:0:0:
136,280,123142,1,0,0:0:0:0:
324,128,123294,5,2,0:0:0:0:
220,320,123445,1,0,0:0:0:0:
168,116,123597,5,8,0:0:0:0:
168,116,123673,1,0,0:0:0:0:
168,116,123748,1,0,0:0:0:0:
336,288,123900,1,2,0:0:0:0:
336,288,123976,1,0,0:0:0:0:
336,288,124051,1,0,0:0:0:0:
84,248,124203,1,8,0:0:0:0:
84,248,124279,1,0,0:0:0:0:
84,248,124354,1,0,0:0:0:0:
84,248,124430,1,0,0:0:0:0:
84,248,124506,6,0,B|160:280|160:280|224:264,1,129.999994049073,2|0,0:0|0:0,0:0:0:0:
344,88,124809,1,0,0:0:0:0:
344,88,124885,1,0,0:0:0:0:
344,88,124960,1,0,0:0:0:0:
112,152,125112,1,0,0:0:0:0:
376,308,125263,1,0,0:0:0:0:
280,96,125415,5,4,0:0:0:0:
124,304,125566,1,0,0:0:0:0:
340,152,125718,1,2,0:0:0:0:
192,332,125870,1,0,0:0:0:0:
228,116,126021,6,0,L|264:172,1,50,4|0,0:0|0:0,0:0:0:0:
352,296,126173,2,0,L|312:244,1,50
176,176,126324,2,0,L|224:208,1,50
404,272,126476,2,0,L|348:228,1,50
160,272,126627,5,4,0:0:0:0:
344,88,126779,1,0,0:0:0:0:
284,324,126930,1,2,0:0:0:0:
168,80,127082,1,0,0:0:0:0:
348,296,127233,1,0,0:0:0:0:
260,56,127385,1,0,0:0:0:0:
172,304,127536,1,2,0:0:0:0:
368,144,127688,1,0,0:0:0:0:
160,148,127839,1,0,0:0:0:0:
320,292,127991,5,0,0:0:0:0:
204,64,128142,1,2,0:0:0:0:
380,192,128294,1,0,0:0:0:0:
128,192,128445,1,0,0:0:0:0:
328,100,128597,1,0,0:0:0:0:
192,296,128748,1,2,0:0:0:0:
204,64,128900,1,0,0:0:0:0:
328,288,129051,1,4,0:0:0:0:
112,24,129203,5,0,0:0:0:0:
40,108,129354,1,2,0:0:0:0:
40,256,129506,1,0,0:0:0:0:
108,352,129657,1,0,0:0:0:0:
180,256,129809,1,0,0:0:0:0:
184,108,129960,1,2,0:0:0:0:
120,32,130112,1,0,0:0:0:0:
404,340,130263,5,0,0:0:0:0:
472,252,130415,1,0,0:0:0:0:
472,136,130566,1,2,0:0:0:0:
400,52,130718,1,0,0:0:0:0:
328,140,130870,1,0,0:0:0:0:
332,256,131021,1,0,0:0:0:0:
404,340,131173,1,2,0:0:0:0:
456,124,131324,5,0,0:0:0:0:
456,124,131400,1,0,0:0:0:0:
456,124,131476,2,0,B|408:88|408:88|340:88,1,100,4|0,0:0|0:0,0:0:0:0:
92,288,131779,2,0,B|136:316|136:316|196:320,1,100,2|0,0:0|0:0,0:0:0:0:
332,28,132082,2,0,B|272:8|272:8|224:16,1,100
300,344,132385,2,0,B|352:336|352:336|420:296,1,100,2|0,0:0|0:0,0:0:0:0:
144,60,132688,5,4,0:0:0:0:
404,256,132839,1,0,0:0:0:0:
88,212,132991,1,2,0:0:0:0:
392,96,133142,1,0,0:0:0:0:
200,328,133294,1,0,0:0:0:0:
264,52,133445,1,0,0:0:0:0:
328,312,133597,1,2,0:0:0:0:
140,116,133748,1,0,0:0:0:0:
436,104,133900,5,4,0:0:0:0:
380,56,133976,1,0,0:0:0:0:
308,36,134051,1,0,0:0:0:0:
236,32,134127,1,0,0:0:0:0:
172,68,134203,1,2,0:0:0:0:
116,112,134279,1,0,0:0:0:0:
80,176,134354,1,0,0:0:0:0:
72,252,134430,1,0,0:0:0:0:
100,320,134506,5,2,0:0:0:0:
164,352,134582,1,0,0:0:0:0:
232,316,134657,1,0,0:0:0:0:
248,244,134733,1,0,0:0:0:0:
284,308,134809,1,2,0:0:0:0:
348,344,134885,1,0,0:0:0:0:
420,340,134960,1,0,0:0:0:0:
456,276,135036,1,0,0:0:0:0:
472,204,135112,5,2,0:0:0:0:
456,132,135188,1,0,0:0:0:0:
420,68,135263,1,0,0:0:0:0:
360,28,135339,1,0,0:0:0:0:
288,20,135415,1,2,0:0:0:0:
220,52,135491,1,0,0:0:0:0:
284,88,135567,1,0,0:0:0:0:
336,140,135642,1,0,0:0:0:0:
360,208,135718,1,2,0:0:0:0:
344,284,135794,1,0,0:0:0:0:
280,324,135870,1,0,0:0:0:0:
208,296,135945,1,0,0:0:0:0:
144,264,136021,2,0,B|68:224|40:116|116:60,1,225.000008583069,2|0,0:0|0:0,0:0:0:0:
112,68,136324,5,4,0:0:0:0:
400,132,136476,1,0,0:0:0:0:
48,352,136627,1,2,0:0:0:0:
232,20,136779,1,0,0:0:0:0:
344,352,136930,1,0,0:0:0:0:
40,88,137082,1,0,0:0:0:0:
460,180,137233,1,2,0:0:0:0:
460,180,137385,2,0,B|440:288|440:288|364:296,1,150.000005722046
240,16,137688,5,0,0:0:0:0:
240,16,137763,1,0,0:0:0:0:
240,16,137839,2,0,B|344:28|344:28|356:92,1,150.000005722046,2|0,0:0|0:0,0:0:0:0:
152,336,138142,2,0,P|68:312|52:248,1,150.000005722046
448,40,138445,1,2,0:0:0:0:
472,88,138521,1,0,0:0:0:0:
456,136,138597,1,0,0:0:0:0:
416,176,138673,1,0,0:0:0:0:
364,188,138748,2,0,B|312:156|372:88|244:80,1,150.000005722046
32,152,139051,2,0,P|36:200|112:284,1,150.000005722046,2|0,0:0|0:0,0:0:0:0:
472,108,139354,5,0,0:0:0:0:
432,72,139430,1,0,0:0:0:0:
376,48,139506,1,0,0:0:0:0:
320,64,139582,1,0,0:0:0:0:
288,112,139657,1,2,0:0:0:0:
284,168,139733,1,0,0:0:0:0:
320,212,139809,1,0,0:0:0:0:
376,224,139885,1,0,0:0:0:0:
424,256,139960,2,0,P|404:304|284:336,1,150,4|0,0:0|0:0,0:0:0:0:
168,304,140263,6,0,B|136:288|136:288|104:232,1,100,2|0,0:0|0:0,0:0:0:0:
72,140,140491,1,0,0:0:0:0:
72,140,140567,2,0,B|100:72|160:96,1,100,8|0,0:0|0:0,0:0:0:0:
276,252,140870,1,2,0:0:0:0:
316,312,140945,1,0,0:0:0:0:
372,348,141021,1,0,0:0:0:0:
440,336,141097,1,0,0:0:0:0:
484,284,141173,2,0,B|512:216|512:216|484:156,1,100,4|0,0:0|0:0,0:0:0:0:
180,40,141476,5,2,0:0:0:0:
128,336,141627,1,0,0:0:0:0:
88,60,141779,1,0,0:0:0:0:
264,312,141930,1,0,0:0:0:0:
32,136,142082,1,2,0:0:0:0:
308,220,142233,1,0,0:0:0:0:
308,220,142309,1,0,0:0:0:0:
308,220,142385,2,0,B|348:176|348:176|308:132,1,100
88,244,142688,6,2,L|56:300,1,50,2|0,0:0|0:0,0:0:0:0:
144,156,142839,2,0,L|136:92,1,50
176,220,142991,1,0,0:0:0:0:
236,260,143066,1,0,0:0:0:0:
304,276,143142,1,0,0:0:0:0:
372,272,143218,1,0,0:0:0:0:
428,224,143294,2,0,B|456:180|456:180|432:128,1,100,2|0,0:0|0:0,0:0:0:0:
140,20,143597,2,0,B|80:44|80:44|48:88,1,100
220,328,143900,5,2,0:0:0:0:
220,328,144051,2,0,P|288:316|320:284,1,100
92,88,144354,1,0,0:0:0:0:
92,88,144430,1,0,0:0:0:0:
92,88,144506,2,0,P|132:52|184:40,1,100,2|0,0:0|0:0,0:0:0:0:
432,64,144809,1,4,0:0:0:0:
468,136,144885,1,0,0:0:0:0:
476,216,144960,1,0,0:0:0:0:
424,272,145036,1,0,0:0:0:0:
348,288,145112,2,0,L|348:344,1,50,2|0,0:0|0:0,0:0:0:0:
300,220,145263,2,0,L|300:160,1,50
240,296,145415,5,0,0:0:0:0:
190,291,145491,1,0,0:0:0:0:
142,275,145566,1,0,0:0:0:0:
101,248,145642,1,0,0:0:0:0:
70,209,145718,1,2,0:0:0:0:
56,161,145794,1,0,0:0:0:0:
76,120,145870,1,0,0:0:0:0:
108,84,145945,1,0,0:0:0:0:
152,64,146021,2,0,B|216:40|216:40|260:40,1,100,4|0,0:0|0:0,0:0:0:0:
436,336,146324,5,2,0:0:0:0:
496,72,146476,1,0,0:0:0:0:
320,308,146627,1,0,0:0:0:0:
336,64,146779,1,0,0:0:0:0:
464,304,146930,1,2,0:0:0:0:
280,140,147082,1,0,0:0:0:0:
380,328,147233,6,0,P|332:360|276:356,1,100,4|0,0:0|0:0,0:0:0:0:
20,116,147536,2,0,P|48:64|96:44,1,100,2|0,0:0|0:0,0:0:0:0:
388,84,147839,1,0,0:0:0:0:
388,84,147991,2,0,P|416:136|396:180,1,100,0|2,0:0|0:0,0:0:0:0:
68,168,148294,1,0,0:0:0:0:
68,168,148370,1,0,0:0:0:0:
68,168,148445,2,0,P|52:228|88:272,1,100,4|0,0:0|0:0,0:0:0:0:
464,220,148748,5,2,0:0:0:0:
464,220,148824,1,0,0:0:0:0:
464,220,148900,1,0,0:0:0:0:
464,220,148976,1,0,0:0:0:0:
464,220,149051,2,0,P|440:152|400:136,1,100
124,348,149354,2,0,P|176:368|228:360,1,100,2|0,0:0|0:0,0:0:0:0:
128,40,149657,5,4,0:0:0:0:
88,68,149733,1,0,0:0:0:0:
64,120,149809,1,0,0:0:0:0:
76,172,149885,1,0,0:0:0:0:
120,200,149960,1,2,0:0:0:0:
172,192,150036,1,0,0:0:0:0:
216,164,150112,1,0,0:0:0:0:
248,124,150188,1,0,0:0:0:0:
300,100,150263,5,4,0:0:0:0:
488,288,150415,1,0,0:0:0:0:
416,100,150566,1,0,0:0:0:0:
384,272,150718,1,0,0:0:0:0:
368,300,150794,1,0,0:0:0:0:
356,316,150870,2,0,P|308:356|244:352,1,100,6|0,0:0|0:0,0:0:0:0:
80,48,151173,2,0,P|140:28|184:36,1,100
128,336,151476,5,2,0:0:0:0:
332,56,151627,1,0,0:0:0:0:
80,248,151779,1,0,0:0:0:0:
392,120,151930,1,0,0:0:0:0:
392,120,152006,1,0,0:0:0:0:
392,120,152082,1,6,0:0:0:0:
108,56,152233,1,0,0:0:0:0:
380,172,152385,1,0,0:0:0:0:
96,272,152536,1,0,0:0:0:0:
432,264,152688,5,2,0:0:0:0:
408,308,152763,1,0,0:0:0:0:
364,336,152839,1,0,0:0:0:0:
312,344,152915,1,0,0:0:0:0:
260,344,152991,1,0,0:0:0:0:
208,328,153066,1,0,0:0:0:0:
168,292,153142,1,0,0:0:0:0:
140,248,153218,1,0,0:0:0:0:
112,204,153294,2,4,B|88:144|88:144|112:92,1,119.999996337891,4|0,0:0|0:0,0:0:0:0:
472,64,153597,2,0,B|500:120|500:120|472:176,1,119.999996337891,2|0,0:0|0:0,0:0:0:0:
312,344,153900,2,0,B|240:372|240:372|176:344,1,119.999996337891
104,48,154203,5,2,0:0:0:0:
104,48,154279,1,0,0:0:0:0:
104,48,154354,2,0,B|160:16|160:16|224:16,1,119.999996337891,0|2,0:0|0:0,0:0:0:0:
324,48,154582,5,0,0:0:0:0:
384,84,154657,1,0,0:0:0:0:
424,140,154733,1,0,0:0:0:0:
440,208,154809,1,2,0:0:0:0:
432,276,154885,1,0,0:0:0:0:
388,328,154960,1,0,0:0:0:0:
320,336,155036,1,0,0:0:0:0:
268,292,155112,1,2,0:0:0:0:
264,224,155188,1,0,0:0:0:0:
304,168,155263,1,0,0:0:0:0:
296,100,155339,1,0,0:0:0:0:
248,52,155415,5,2,0:0:0:0:
180,44,155491,1,0,0:0:0:0:
116,64,155566,1,0,0:0:0:0:
64,108,155642,1,0,0:0:0:0:
64,176,155718,2,0,P|96:232|152:240,1,119.999996337891,4|0,0:0|0:0,0:0:0:0:
424,48,156021,2,0,P|368:20|308:24,1,119.999996337891,2|0,0:0|0:0,0:0:0:0:
80,336,156324,2,0,P|136:368|200:364,1,119.999996337891
468,204,156627,2,0,P|488:136|448:76,1,119.999996337891,2|0,0:0|0:0,0:0:0:0:
156,40,156930,2,0,P|100:72|88:136,1,119.999996337891
320,340,157233,6,0,B|384:300|384:300|396:228,1,119.999996337891,2|0,0:0|0:0,0:0:0:0:
40,184,157536,2,0,B|80:252|80:252|164:248,1,119.999996337891
368,44,157839,2,0,B|440:64|440:64|448:120,1,119.999996337891,2|0,0:0|0:0,0:0:0:0:
168,364,158142,2,0,P|108:348|84:284,1,119.999996337891
120,36,158445,2,0,P|188:8|240:20,1,119.999996337891,2|0,0:0|0:0,0:0:0:0:
432,336,158748,2,0,P|372:368|312:364,1,119.999996337891
8,212,159051,2,0,P|0:136|24:96,1,119.999996337891,2|0,0:0|0:0,0:0:0:0:
368,304,159354,5,4,0:0:0:0:
176,60,159506,1,0,0:0:0:0:
248,332,159657,1,2,0:0:0:0:
280,60,159809,1,0,0:0:0:0:
148,284,159960,1,0,0:0:0:0:
360,112,160112,1,0,0:0:0:0:
108,180,160263,1,2,0:0:0:0:
372,216,160415,1,0,0:0:0:0:
160,80,160566,5,0,0:0:0:0:
320,296,160718,1,0,0:0:0:0:
256,64,160870,1,2,0:0:0:0:
208,304,161021,1,0,0:0:0:0:
344,104,161173,1,0,0:0:0:0:
128,240,161324,1,0,0:0:0:0:
364,240,161476,1,2,0:0:0:0:
156,100,161627,1,0,0:0:0:0:
308,312,161779,5,4,0:0:0:0:
256,68,161930,1,0,0:0:0:0:
200,316,162082,1,2,0:0:0:0:
352,168,162233,1,0,0:0:0:0:
168,168,162385,1,0,0:0:0:0:
308,312,162536,1,0,0:0:0:0:
256,68,162688,1,2,0:0:0:0:
200,316,162839,1,0,0:0:0:0:
344,120,162991,5,4,0:0:0:0:
164,116,163142,1,0,0:0:0:0:
164,288,163294,1,2,0:0:0:0:
344,288,163445,1,0,0:0:0:0:
344,120,163597,1,0,0:0:0:0:
164,116,163748,1,0,0:0:0:0:
164,288,163900,1,2,0:0:0:0:
344,288,164051,1,0,0:0:0:0:
288,68,164203,5,4,0:0:0:0:
104,72,164354,1,0,0:0:0:0:
256,160,164506,1,2,0:0:0:0:
76,156,164657,1,0,0:0:0:0:
292,232,164809,1,0,0:0:0:0:
72,232,164960,1,0,0:0:0:0:
256,308,165112,1,2,0:0:0:0:
60,308,165263,1,0,0:0:0:0:
292,136,165415,6,0,P|360:120|412:140,1,119.999996337891,4|0,0:0|0:0,0:0:0:0:
368,328,165718,2,0,P|284:336|248:312,1,119.999996337891,2|0,0:0|0:0,0:0:0:0:
192,128,166021,2,0,L|240:84,1,59.9999981689454
120,200,166173,2,0,L|72:248,1,59.9999981689454
192,200,166324,2,0,L|240:240,1,59.9999981689454,2|0,0:0|0:0,0:0:0:0:
120,124,166476,2,0,L|72:80,1,59.9999981689454
348,288,166627,6,0,P|412:280|456:236,1,119.999996337891
460,64,166930,2,0,P|392:40|324:56,1,119.999996337891,2|0,0:0|0:0,0:0:0:0:
48,248,167233,1,0,0:0:0:0:
80,276,167309,1,0,0:0:0:0:
120,296,167385,1,0,0:0:0:0:
164,312,167460,1,0,0:0:0:0:
208,308,167536,1,2,0:0:0:0:
252,280,167612,1,0,0:0:0:0:
284,244,167688,1,0,0:0:0:0:
304,200,167763,1,0,0:0:0:0:
312,152,167839,6,0,B|304:84|304:84|236:60,1,119.999996337891
52,28,168142,2,0,B|12:88|12:88|28:156,1,119.999996337891,2|0,0:0|0:0,0:0:0:0:
192,280,168445,2,0,L|192:204,1,59.9999981689454
256,320,168597,2,0,L|256:388,1,59.9999981689454
332,256,168748,2,0,L|332:336,1,59.9999981689454,2|0,0:0|0:0,0:0:0:0:
396,200,168900,2,0,L|396:136,1,59.9999981689454
372,36,169051,6,0,B|300:8|300:8|232:24,1,119.999996337891
88,296,169354,2,0,B|144:344|144:344|204:348,1,119.999996337891,2|0,0:0|0:0,0:0:0:0:
452,236,169657,1,0,0:0:0:0:
488,196,169733,1,0,0:0:0:0:
500,144,169809,1,0,0:0:0:0:
488,92,169885,1,0,0:0:0:0:
460,48,169960,1,2,0:0:0:0:
408,32,170036,1,0,0:0:0:0:
356,24,170112,2,0,P|320:32|284:52,1,59.9999981689454
264,76,170263,5,4,0:0:0:0:
112,156,170415,1,0,0:0:0:0:
192,304,170566,1,2,0:0:0:0:
416,224,170718,1,0,0:0:0:0:
244,40,170870,1,0,0:0:0:0:
116,320,171021,1,0,0:0:0:0:
424,160,171173,1,2,0:0:0:0:
172,72,171324,1,0,0:0:0:0:
200,324,171476,5,4,0:0:0:0:
380,92,171627,1,0,0:0:0:0:
128,140,171779,1,2,0:0:0:0:
288,320,171930,1,0,0:0:0:0:
304,32,172082,1,0,0:0:0:0:
112,252,172233,1,0,0:0:0:0:
408,296,172385,1,2,0:0:0:0:
200,36,172536,1,0,0:0:0:0:
196,336,172688,5,4,0:0:0:0:
444,308,172839,1,0,0:0:0:0:
48,236,172991,1,2,0:0:0:0:
480,236,173142,1,0,0:0:0:0:
24,156,173294,1,0,0:0:0:0:
496,160,173445,1,0,0:0:0:0:
28,80,173597,1,2,0:0:0:0:
496,88,173748,1,0,0:0:0:0:
108,48,173900,1,0,0:0:0:0:
116,67,173976,1,0,0:0:0:0:
125,86,174051,1,0,0:0:0:0:
134,106,174127,1,0,0:0:0:0:
143,125,174203,1,2,0:0:0:0:
152,145,174279,1,0,0:0:0:0:
161,164,174354,1,0,0:0:0:0:
170,184,174430,1,0,0:0:0:0:
176,200,174506,5,2,0:0:0:0:
212,236,174582,1,0,0:0:0:0:
263,251,174657,1,0,0:0:0:0:
314,242,174733,1,0,0:0:0:0:
355,211,174809,1,2,0:0:0:0:
378,164,174885,1,0,0:0:0:0:
377,112,174960,1,0,0:0:0:0:
353,66,175036,1,0,0:0:0:0:
320,32,175112,6,0,B|236:12|236:12|176:16,1,119.999996337891,4|0,0:0|0:0,0:0:0:0:
20,176,175415,2,0,P|36:260|56:288,1,119.999996337891,2|0,0:0|0:0,0:0:0:0:
340,48,175718,1,0,0:0:0:0:
184,252,175870,1,0,0:0:0:0:
156,56,176021,1,2,0:0:0:0:
328,308,176173,1,0,0:0:0:0:
296,324,176248,1,0,0:0:0:0:
248,336,176324,2,0,P|192:336|136:308,1,119.999996337891
260,28,176627,2,0,P|348:40|368:68,1,119.999996337891,2|0,0:0|0:0,0:0:0:0:
456,320,176930,2,0,P|388:372|328:368,1,119.999996337891
224,344,177157,5,0,0:0:0:0:
224,344,177233,2,0,B|164:300|164:300|160:232,1,119.999996337891,2|0,0:0|0:0,0:0:0:0:
184,28,177536,1,0,0:0:0:0:
60,324,177688,1,0,0:0:0:0:
292,104,177839,1,2,0:0:0:0:
272,288,177991,5,0,0:0:0:0:
272,288,178066,1,0,0:0:0:0:
272,288,178142,1,0,0:0:0:0:
32,144,178294,2,0,P|64:76|116:48,1,119.999996337891,0|2,0:0|0:0,0:0:0:0:
332,328,178597,1,0,0:0:0:0:
332,328,178673,1,0,0:0:0:0:
332,328,178748,2,0,P|392:308|432:264,1,119.999996337891
464,32,179051,2,0,P|400:8|328:16,1,119.999996337891,2|0,0:0|0:0,0:0:0:0:
136,272,179354,2,0,P|232:280|280:240,1,119.999996337891
320,112,179657,5,2,0:0:0:0:
284,88,179733,1,0,0:0:0:0:
240,88,179809,1,0,0:0:0:0:
196,96,179885,1,0,0:0:0:0:
164,120,179960,2,0,B|124:164|124:164|176:216,1,119.999996337891,4|0,0:0|0:0,0:0:0:0:
188,224,180188,2,0,L|268:228,1,59.9999981689454,0|2,0:0|0:0,0:0:0:0:
440,176,180415,1,0,0:0:0:0:
280,352,180566,1,0,0:0:0:0:
332,148,180718,1,0,0:0:0:0:
432,344,180870,1,2,0:0:0:0:
224,224,181021,1,0,0:0:0:0:
436,96,181173,5,0,0:0:0:0:
360,336,181324,1,0,0:0:0:0:
292,72,181476,1,2,0:0:0:0:
240,352,181627,1,0,0:0:0:0:
168,72,181779,1,0,0:0:0:0:
96,348,181930,1,0,0:0:0:0:
24,72,182082,1,2,0:0:0:0:
16,336,182233,2,0,P|104:360|144:352,1,119.999996337891
400,48,182536,5,0,0:0:0:0:
208,356,182688,1,2,0:0:0:0:
296,28,182839,1,0,0:0:0:0:
296,356,182991,1,0,0:0:0:0:
200,40,183142,1,0,0:0:0:0:
376,328,183294,1,2,0:0:0:0:
136,104,183445,1,0,0:0:0:0:
404,220,183597,6,0,L|324:220,1,59.9999981689454,4|0,0:0|0:0,0:0:0:0:
368,120,183748,2,0,L|316:164,1,59.9999981689454
256,76,183900,2,0,L|256:140,1,59.9999981689454,2|0,0:0|0:0,0:0:0:0:
160,96,184051,2,0,L|188:152,1,59.9999981689454
96,172,184203,2,0,L|152:216,1,59.9999981689454,2|0,0:0|0:0,0:0:0:0:
72,252,184354,1,0,0:0:0:0:
112,320,184430,1,0,0:0:0:0:
184,348,184506,1,2,0:0:0:0:
256,324,184582,1,0,0:0:0:0:
304,268,184657,1,0,0:0:0:0:
320,196,184733,1,0,0:0:0:0:
316,120,184809,6,0,P|288:60|240:40,1,119.999996337891,6|0,0:0|0:0,0:0:0:0:
128,200,185112,2,0,P|168:252|232:248,1,119.999996337891,2|0,0:0|0:0,0:0:0:0:
240,40,185415,2,0,P|176:64|144:116,1,119.999996337891
224,252,185718,2,0,P|296:208|312:152,1,119.999996337891,2|0,0:0|0:0,0:0:0:0:
88,112,186021,2,0,P|64:172|92:232,1,119.999996337891
128,256,186248,1,0,0:0:0:0:
184,272,186324,1,2,0:0:0:0:
240,272,186400,1,0,0:0:0:0:
292,244,186476,1,0,0:0:0:0:
316,192,186551,1,0,0:0:0:0:
320,136,186627,5,0,0:0:0:0:
292,88,186703,1,0,0:0:0:0:
240,64,186779,1,0,0:0:0:0:
180,72,186854,1,0,0:0:0:0:
140,112,186930,1,2,0:0:0:0:
136,168,187006,1,0,0:0:0:0:
180,200,187082,1,0,0:0:0:0:
232,224,187157,1,0,0:0:0:0:
260,272,187233,5,0,0:0:0:0:
248,328,187309,1,0,0:0:0:0:
196,356,187385,1,0,0:0:0:0:
140,336,187460,1,0,0:0:0:0:
112,288,187536,1,2,0:0:0:0:
120,232,187612,1,0,0:0:0:0:
156,188,187688,1,0,0:0:0:0:
208,176,187763,1,0,0:0:0:0:
264,192,187839,5,0,0:0:0:0:
308,224,187915,1,0,0:0:0:0:
360,248,187991,1,0,0:0:0:0:
416,240,188066,1,0,0:0:0:0:
456,200,188142,1,2,0:0:0:0:
480,152,188218,1,0,0:0:0:0:
468,96,188294,1,0,0:0:0:0:
432,52,188370,1,0,0:0:0:0:
384,20,188445,6,0,B|320:4|320:4|256:12,1,119.999996337891,4|0,0:0|0:0,0:0:0:0:
80,148,188748,2,0,B|56:212|56:212|96:256,1,119.999996337891,2|0,0:0|0:0,0:0:0:0:
420,128,189051,1,4,0:0:0:0:
456,172,189127,1,0,0:0:0:0:
468,228,189203,1,0,0:0:0:0:
448,280,189279,1,0,0:0:0:0:
412,324,189354,1,2,0:0:0:0:
360,348,189430,1,0,0:0:0:0:
308,328,189506,1,0,0:0:0:0:
272,284,189582,1,0,0:0:0:0:
256,232,189657,6,0,P|244:164|300:112,1,119.999996337891,4|0,0:0|0:0,0:0:0:0:
392,40,189960,2,0,P|340:0|248:12,1,119.999996337891,2|0,0:0|0:0,0:0:0:0:
100,92,190263,2,0,P|80:160|100:208,1,119.999996337891
340,296,190566,1,2,0:0:0:0:
388,276,190642,1,0,0:0:0:0:
432,240,190718,1,0,0:0:0:0:
460,196,190794,1,0,0:0:0:0:
488,152,190870,6,0,P|492:88|448:40,1,119.999996337891,4|0,0:0|0:0,0:0:0:0:
276,56,191173,2,0,P|252:128|288:168,1,119.999996337891,2|0,0:0|0:0,0:0:0:0:
400,216,191400,1,0,0:0:0:0:
412,232,191476,2,0,P|372:284|296:292,1,119.999996337891
200,44,191779,1,2,0:0:0:0:
32,216,191930,1,0,0:0:0:0:
244,336,192082,5,4,0:0:0:0:
440,144,192233,1,0,0:0:0:0:
120,48,192385,1,2,0:0:0:0:
320,328,192536,1,0,0:0:0:0:
388,72,192688,1,0,0:0:0:0:
84,120,192839,1,0,0:0:0:0:
380,268,192991,1,2,0:0:0:0:
312,40,193142,1,0,0:0:0:0:
27,222,193294,5,4,0:0:0:0:
53,307,193370,1,0,0:0:0:0:
118,356,193445,1,0,0:0:0:0:
194,367,193521,1,0,0:0:0:0:
267,333,193597,1,2,0:0:0:0:
273,258,193673,5,0,0:0:0:0:
338,302,193748,1,0,0:0:0:0:
416,292,193824,1,0,0:0:0:0:
456,228,193900,1,0,0:0:0:0:
476,152,193976,1,0,0:0:0:0:
460,76,194051,1,0,0:0:0:0:
400,32,194127,1,0,0:0:0:0:
328,16,194203,1,2,0:0:0:0:
256,24,194279,1,0,0:0:0:0:
184,40,194354,1,0,0:0:0:0:
120,76,194430,1,0,0:0:0:0:
76,136,194506,5,6,0:0:0:0:
60,216,194582,1,0,0:0:0:0:
76,296,194657,1,0,0:0:0:0:
156,312,194733,1,0,0:0:0:0:
228,272,194809,1,2,0:0:0:0:
232,184,194885,1,0,0:0:0:0:
192,112,194960,1,0,0:0:0:0:
224,36,195036,1,0,0:0:0:0:
304,20,195112,1,2,0:0:0:0:
376,60,195188,1,0,0:0:0:0:
408,136,195263,1,0,0:0:0:0:
384,216,195339,1,0,0:0:0:0:
320,268,195415,1,2,0:0:0:0:
244,232,195491,1,0,0:0:0:0:
208,156,195566,1,0,0:0:0:0:
160,88,195642,1,0,0:0:0:0:
80,72,195718,5,2,0:0:0:0:
20,128,195794,1,0,0:0:0:0:
16,212,195870,1,0,0:0:0:0:
76,268,195945,1,0,0:0:0:0:
160,276,196021,1,2,0:0:0:0:
220,220,196097,1,0,0:0:0:0:
256,144,196173,1,0,0:0:0:0:
328,96,196248,1,0,0:0:0:0:
412,108,196324,1,2,0:0:0:0:
464,172,196400,1,0,0:0:0:0:
448,256,196476,1,0,0:0:0:0:
380,304,196551,1,0,0:0:0:0:
304,272,196627,1,2,0:0:0:0:
280,192,196703,1,0,0:0:0:0:
240,120,196779,1,0,0:0:0:0:
164,84,196854,1,0,0:0:0:0:
88,116,196930,1,4,0:0:0:0:
184,328,197385,6,0,L|184:284,1,25,8|0,0:0|0:0,0:0:0:0:
248,188,197536,2,0,L|248:216,1,25,8|0,0:0|0:0,0:0:0:0:
384,296,197839,2,0,L|384:332,1,25,8|8,0:0|0:0,0:0:0:0:
400,56,198142,6,0,L|400:88,1,25,4|0,0:0|0:0,0:0:0:0:
136,144,198445,2,0,L|168:144,1,25
420,188,198748,2,0,L|448:188,1,25,4|0,0:0|0:0,0:0:0:0:
184,260,199051,1,0,0:0:0:0:
184,260,199127,1,0,0:0:0:0:
184,260,199203,1,0,0:0:0:0:
184,260,199279,1,0,0:0:0:0:
184,260,199354,2,0,P|88:204|148:92,1,250
228,96,199809,2,0,B|252:148|252:148|312:180,1,100,0|8,0:0|0:0,0:0:0:0:
392,268,200263,1,0,0:0:0:0:
144,260,200566,6,0,L|144:232,1,25,8|0,0:0|0:0,0:0:0:0:
372,156,200870,2,0,L|372:120,1,25,8|0,0:0|0:0,0:0:0:0:
256,280,201173,2,0,L|256:316,1,25
164,120,201476,1,0,0:0:0:0:
164,120,201551,1,0,0:0:0:0:
164,120,201627,1,0,0:0:0:0:
164,120,201703,1,0,0:0:0:0:
164,120,201779,1,4,0:0:0:0:
124,48,221173,6,0,B|316:48|316:48|396:136,1,300,2|0,0:0|0:0,0:0:0:0:
112,184,222385,2,0,B|64:292|64:292|252:332|252:332,1,300
500,152,223597,2,0,P|448:68|248:60,1,300,2|0,0:0|0:0,0:0:0:0:
380,260,224657,1,0,0:0:0:0:
380,260,224733,1,0,0:0:0:0:
380,260,224809,2,0,P|312:312|232:308,1,150
336,28,226021,6,0,B|424:80|424:80|312:128|440:192|376:248,1,300,2|0,0:0|0:0,0:0:0:0:
260,344,227082,1,0,0:0:0:0:
104,288,227233,2,0,B|56:264|64:192,1,100,2|0,0:0|0:0,0:0:0:0:
116,104,227839,2,0,L|220:88,1,100,2|0,0:0|0:0,0:0:0:0:
368,188,228294,1,0,0:0:0:0:
368,188,228370,1,0,0:0:0:0:
368,188,228445,2,0,L|300:280,1,100,2|0,0:0|0:0,0:0:0:0:
152,124,229051,2,0,L|240:68,1,100,2|0,0:0|0:0,0:0:0:0:
448,40,229657,2,0,L|452:168,1,125
448,176,230112,1,0,0:0:0:0:
360,232,230263,1,0,0:0:0:0:
504,256,230415,1,0,0:0:0:0:
424,348,230566,1,0,0:0:0:0:
284,356,230718,1,0,0:0:0:0:
132,304,230870,6,0,P|68:184|140:40,1,300,2|0,0:0|0:0,0:0:0:0:
456,56,232082,2,0,B|316:124|316:124|412:188|364:248,1,300,2|0,0:0|0:0,0:0:0:0:
56,304,233294,2,0,B|180:220|40:156|156:64|200:60,1,300,2|0,0:0|0:0,0:0:0:0:
304,280,234354,1,0,0:0:0:0:
304,280,234506,2,0,B|396:196|396:196|392:168|392:168,1,150,2|0,0:0|0:0,0:0:0:0:
136,40,235718,2,0,P|64:172|104:312,1,300,2|0,0:0|0:0,0:0:0:0:
368,256,236930,2,0,B|408:152|408:152|376:120|376:120|312:104,1,200,0|2,0:0|0:0,0:0:0:0:
72,244,237991,1,0,0:0:0:0:
72,244,238142,6,0,L|116:244,1,37.5
204,284,238748,2,0,L|244:284,1,37.5
276,168,239354,2,0,B|336:116,1,75
332,118,239960,1,0,0:0:0:0:
472,204,240566,6,0,L|448:212,1,25
24,44,241021,2,0,L|52:44,1,25,2|0,0:0|0:0,0:0:0:0:
296,104,241173,2,0,L|256:104,1,25,2|0,0:0|0:0,0:0:0:0:
56,316,241476,2,0,L|92:316,1,25
348,380,241779,1,8,0:0:0:0:
480,20,242082,1,0,0:0:0:0:
232,240,242385,1,8,0:0:0:0:
16,160,242688,5,0,0:0:0:0:
48,104,242763,1,0,0:0:0:0:
96,60,242839,1,0,0:0:0:0:
156,28,242915,1,0,0:0:0:0:
224,16,242991,1,4,0:0:0:0:
488,24,243445,6,0,L|456:24,1,25,2|0,0:0|0:0,0:0:0:0:
296,144,243597,2,0,L|332:144,1,25,2|0,0:0|0:0,0:0:0:0:
488,360,243900,2,0,L|460:360,1,25
88,344,244203,2,0,L|60:344,1,25,10|0,0:0|0:0,0:0:0:0:
0,156,244506,2,0,L|28:156,1,25,2|0,0:0|0:0,0:0:0:0:
176,28,244809,2,0,L|148:28,1,25,10|0,0:0|0:0,0:0:0:0:
455,187,245112,5,0,0:0:0:0:
436,245,245188,1,0,0:0:0:0:
406,292,245263,1,0,0:0:0:0:
358,321,245339,1,0,0:0:0:0:
321,329,245415,1,4,0:0:0:0:
120,100,252688,6,0,B|180:72|180:72|216:92,1,100
468,200,252991,2,0,B|416:232|416:232|356:208,1,100
36,164,253294,2,0,B|72:212|72:212|120:204,1,100
448,96,253597,2,0,B|416:64|416:64|352:68,1,100
320,304,253900,2,0,B|292:352|292:352|236:356,1,100
72,268,254203,2,0,B|48:216|48:216|76:172,1,100
196,132,254506,5,0,0:0:0:0:
212,184,254582,1,0,0:0:0:0:
252,224,254657,1,0,0:0:0:0:
304,252,254733,1,0,0:0:0:0:
360,264,254809,1,0,0:0:0:0:
412,248,254885,1,0,0:0:0:0:
456,216,254960,1,0,0:0:0:0:
480,168,255036,1,0,0:0:0:0:
480,112,255112,6,0,B|448:64|448:64|380:60,1,100,4|0,0:0|0:0,0:0:0:0:
240,256,255415,6,8,P|176:268|132:244,1,100,2|0,0:0|0:0,0:0:0:0:
40,92,255718,2,0,B|80:52|80:52|124:52,1,100
208,144,256021,2,0,B|168:184|168:184|120:188,1,100,2|0,0:0|0:0,0:0:0:0:
68,280,256248,1,0,0:0:0:0:
88,292,256324,2,0,B|140:316|140:316|188:316,1,100,4|0,0:0|0:0,0:0:0:0:
452,252,256627,6,0,B|480:212|480:212|464:164,1,100,2|0,0:0|0:0,0:0:0:0:
372,180,256930,2,0,B|324:188|324:188|288:240,1,100
56,156,257233,5,2,0:0:0:0:
56,156,257309,1,0,0:0:0:0:
56,156,257385,1,0,0:0:0:0:
56,156,257460,1,0,0:0:0:0:
56,156,257536,2,0,B|108:180|108:180|160:176,1,100,4|0,0:0|0:0,0:0:0:0:
280,44,257839,6,0,P|336:32|388:40,1,100,2|0,0:0|0:0,0:0:0:0:
464,88,258142,2,0,B|456:136|456:136|392:192,1,100
328,88,258445,2,0,B|292:140|292:140|312:188,1,100,2|0,0:0|0:0,0:0:0:0:
448,284,258673,1,0,0:0:0:0:
452,304,258748,2,0,P|420:340|360:348,1,100,4|0,0:0|0:0,0:0:0:0:
28,144,259051,1,2,0:0:0:0:
88,48,259203,1,0,0:0:0:0:
168,120,259354,1,0,0:0:0:0:
112,212,259506,1,0,0:0:0:0:
208,256,259657,1,2,0:0:0:0:
208,256,259809,1,0,0:0:0:0:
400,60,259960,5,4,0:0:0:0:
428,100,260036,1,0,0:0:0:0:
448,144,260112,1,0,0:0:0:0:
452,192,260188,1,0,0:0:0:0:
440,240,260263,1,2,0:0:0:0:
412,280,260339,1,0,0:0:0:0:
364,292,260415,1,0,0:0:0:0:
320,272,260491,1,0,0:0:0:0:
284,240,260566,1,2,0:0:0:0:
236,236,260642,1,0,0:0:0:0:
188,232,260718,1,0,0:0:0:0:
140,240,260794,1,0,0:0:0:0:
88,232,260870,1,2,0:0:0:0:
52,196,260945,1,0,0:0:0:0:
44,148,261021,1,0,0:0:0:0:
64,104,261097,1,0,0:0:0:0:
104,76,261173,6,0,L|152:52,3,50,4|0|0|0,0:0|0:0|0:0|0:0,0:0:0:0:
200,48,261476,2,0,L|248:68,3,50,2|0|0|0,0:0|0:0|0:0|0:0,0:0:0:0:
300,60,261779,2,0,L|352:44,7,50,2|0|0|0|2|0|0|0,0:0|0:0|0:0|0:0|0:0|0:0|0:0|0:0,0:0:0:0:
480,296,262385,6,0,L|456:340,1,50,4|0,0:0|0:0,0:0:0:0:
400,276,262536,2,0,L|368:224,1,50
320,296,262688,6,0,L|296:340,1,50,2|0,0:0|0:0,0:0:0:0:
240,276,262839,2,0,L|208:224,1,50
144,268,262991,2,0,L|104:312,7,50,2|0|0|0|2|0|0|0,0:0|0:0|0:0|0:0|0:0|0:0|0:0|0:0,0:0:0:0:
60,248,263597,6,0,L|60:216,20,25,2|0|0|0|0|0|0|2|0|0|0|0|0|0|0|2|0|0|0|0|0,0:0|0:0|0:0|0:0|0:0|0:0|0:0|0:0|0:0|0:0|0:0|0:0|0:0|0:0|0:0|0:0|0:0|0:0|0:0|0:0|0:0,0:0:0:0:
336,228,264506,5,0,0:0:0:0:
396,220,264582,1,0,0:0:0:0:
448,184,264657,1,0,0:0:0:0:
480,112,264733,1,0,0:0:0:0:
468,40,264809,5,4,0:0:0:0:
304,168,264960,1,0,0:0:0:0:
192,16,265112,1,2,0:0:0:0:
72,244,265263,1,0,0:0:0:0:
72,244,265339,1,0,0:0:0:0:
72,244,265415,1,0,0:0:0:0:
304,352,265567,5,0,0:0:0:0:
392,52,265718,1,2,0:0:0:0:
40,104,265870,1,0,0:0:0:0:
420,364,266021,1,0,0:0:0:0:
196,48,266173,1,0,0:0:0:0:
104,344,266324,1,2,0:0:0:0:
360,124,266475,1,0,0:0:0:0:
360,124,266550,1,0,0:0:0:0:
360,124,266626,1,0,0:0:0:0:
504,256,266778,1,0,0:0:0:0:
336,360,266929,1,0,0:0:0:0:
168,240,267081,1,0,0:0:0:0:
168,240,267156,1,0,0:0:0:0:
168,240,267233,2,0,B|136:196|136:196|144:144,1,100,4|0,0:0|0:0,0:0:0:0:
320,44,267536,5,2,0:0:0:0:
460,224,267688,2,0,P|448:280|376:296,1,100,0|4,0:0|0:0,0:0:0:0:
56,72,267991,2,0,P|24:124|44:168,1,100,0|2,0:0|0:0,0:0:0:0:
264,308,268294,1,0,0:0:0:0:
264,308,268370,1,0,0:0:0:0:
264,308,268445,1,0,0:0:0:0:
484,96,268597,2,0,B|464:48|464:48|392:44,1,100,0|2,0:0|0:0,0:0:0:0:
296,88,268900,1,0,0:0:0:0:
144,372,269051,5,8,0:0:0:0:
256,20,269203,1,0,0:0:0:0:
372,372,269354,1,8,0:0:0:0:
48,184,269506,1,0,0:0:0:0:
456,200,269657,1,4,0:0:0:0:
40,304,269809,6,0,P|84:332|140:332,1,100,0|2,0:0|0:0,0:0:0:0:
384,40,270112,1,0,0:0:0:0:
216,364,270263,1,0,0:0:0:0:
268,8,270415,1,0,0:0:0:0:
312,376,270567,1,2,0:0:0:0:
124,32,270718,1,0,0:0:0:0:
456,316,270870,1,0,0:0:0:0:
32,140,271021,1,0,0:0:0:0:
476,192,271173,1,2,0:0:0:0:
88,352,271324,6,0,B|36:316|36:316|16:244,1,100
36,56,271627,1,0,0:0:0:0:
96,96,271703,1,0,0:0:0:0:
168,96,271779,1,2,0:0:0:0:
236,72,271854,1,0,0:0:0:0:
304,48,271930,1,0,0:0:0:0:
376,48,272006,1,0,0:0:0:0:
444,76,272082,5,4,0:0:0:0:
72,272,272233,2,0,P|108:308|172:312,1,100,0|2,0:0|0:0,0:0:0:0:
436,160,272536,1,0,0:0:0:0:
428,148,272612,1,0,0:0:0:0:
420,136,272688,2,0,P|376:104|308:92,1,100
360,336,272991,2,0,P|280:348|240:336,1,100,2|0,0:0|0:0,0:0:0:0:
296,104,273294,2,0,P|264:56|216:40,1,100,8|0,0:0|0:0,0:0:0:0:
80,304,273597,2,0,P|28:272|24:228,1,100,10|0,0:0|0:0,0:0:0:0:
96,56,273900,2,0,P|140:32|192:36,1,100
312,344,274203,5,2,0:0:0:0:
388,356,274279,1,0,0:0:0:0:
460,336,274354,1,0,0:0:0:0:
488,268,274430,1,0,0:0:0:0:
460,200,274506,1,4,0:0:0:0:
176,24,274657,5,0,0:0:0:0:
208,372,274809,1,2,0:0:0:0:
392,20,274960,1,0,0:0:0:0:
120,320,275112,1,0,0:0:0:0:
448,68,275263,1,0,0:0:0:0:
88,212,275415,1,2,0:0:0:0:
456,168,275567,1,0,0:0:0:0:
92,96,275718,1,0,0:0:0:0:
432,268,275870,1,0,0:0:0:0:
220,36,276021,1,2,0:0:0:0:
288,372,276173,5,0,0:0:0:0:
288,372,276248,1,0,0:0:0:0:
288,372,276324,2,0,B|216:364|216:364|164:324,1,119.999996337891
84,36,276627,5,2,0:0:0:0:
480,188,276779,1,0,0:0:0:0:
436,216,276854,1,0,0:0:0:0:
392,232,276930,2,0,B|348:236|340:236|332:236|292:232|244:200,1,119.999996337891
268,48,277233,1,2,0:0:0:0:
52,344,277385,1,0,0:0:0:0:
428,212,277536,1,0,0:0:0:0:
12,84,277688,1,0,0:0:0:0:
200,380,277839,1,2,0:0:0:0:
356,32,277991,1,0,0:0:0:0:
356,32,278067,1,0,0:0:0:0:
356,32,278142,2,0,B|296:12|296:12|288:8|252:4|192:4,1,150.000005722046
212,380,278445,5,2,0:0:0:0:
504,204,278597,1,0,0:0:0:0:
116,64,278748,1,0,0:0:0:0:
336,376,278900,1,0,0:0:0:0:
0,160,279051,1,2,0:0:0:0:
304,0,279203,1,0,0:0:0:0:
436,96,279354,5,6,0:0:0:0:
476,160,279430,1,0,0:0:0:0:
484,232,279506,1,0,0:0:0:0:
448,296,279582,1,0,0:0:0:0:
376,312,279657,1,2,0:0:0:0:
320,268,279733,1,0,0:0:0:0:
256,232,279809,1,0,0:0:0:0:
184,220,279885,1,0,0:0:0:0:
112,224,279960,1,2,0:0:0:0:
44,264,280036,1,0,0:0:0:0:
52,336,280112,1,0,0:0:0:0:
96,276,280188,1,0,0:0:0:0:
100,200,280263,1,2,0:0:0:0:
116,128,280339,1,0,0:0:0:0:
148,60,280415,1,0,0:0:0:0:
216,24,280491,1,0,0:0:0:0:
288,8,280567,5,4,0:0:0:0:
368,24,280642,1,0,0:0:0:0:
436,64,280718,1,0,0:0:0:0:
468,132,280794,1,0,0:0:0:0:
448,208,280870,1,2,0:0:0:0:
376,236,280945,1,0,0:0:0:0:
320,184,281021,1,0,0:0:0:0:
276,120,281097,1,0,0:0:0:0:
208,88,281173,1,2,0:0:0:0:
132,92,281248,1,0,0:0:0:0:
64,132,281324,1,0,0:0:0:0:
52,208,281400,1,0,0:0:0:0:
88,280,281476,1,2,0:0:0:0:
160,304,281551,1,0,0:0:0:0:
232,284,281627,1,0,0:0:0:0:
292,236,281703,1,0,0:0:0:0:
340,176,281779,6,0,B|360:136|360:136|360:24,1,150.000005722046,4|0,0:0|0:0,0:0:0:0:
232,12,282082,2,0,B|232:112|232:112|280:144,1,150.000005722046,2|0,0:0|0:0,0:0:0:0:
428,240,282385,6,0,B|532:304|432:416|312:312,1,200
52,172,282688,1,2,0:0:0:0:
476,88,282839,1,0,0:0:0:0:
188,352,282991,1,0,0:0:0:0:
340,32,283142,1,0,0:0:0:0:
280,360,283294,1,2,0:0:0:0:
136,80,283445,1,0,0:0:0:0:
376,304,283597,1,0,0:0:0:0:
248,48,283748,1,0,0:0:0:0:
32,328,283900,5,2,0:0:0:0:
96,360,283976,1,0,0:0:0:0:
168,368,284051,1,0,0:0:0:0:
240,352,284127,1,0,0:0:0:0:
308,320,284203,2,0,B|352:288|352:288|360:216,1,119.999996337891
212,32,284506,2,0,B|212:108|212:108|252:144,1,119.999996337891,2|0,0:0|0:0,0:0:0:0:
476,288,284809,2,0,B|416:336|416:336|336:336,1,119.999996337891
8,100,285112,2,0,B|72:60|72:60|128:60,1,119.999996337891,2|0,0:0|0:0,0:0:0:0:
344,332,285415,2,0,B|400:356|400:356|464:356,1,119.999996337891
476,72,285718,2,0,B|408:52|408:52|336:56,1,119.999996337891,2|0,0:0|0:0,0:0:0:0:
64,264,286021,2,0,B|120:304|120:304|188:304,1,119.999996337891
308,60,286324,2,0,B|240:40|240:40|168:44,1,119.999996337891,2|0,0:0|0:0,0:0:0:0:
12,176,286627,5,4,0:0:0:0:
40,244,286703,1,0,0:0:0:0:
92,296,286779,1,0,0:0:0:0:
160,316,286854,1,0,0:0:0:0:
232,316,286930,1,2,0:0:0:0:
304,324,287006,1,0,0:0:0:0:
376,340,287082,1,0,0:0:0:0:
448,328,287157,1,0,0:0:0:0:
496,276,287233,5,0,0:0:0:0:
436,240,287309,1,0,0:0:0:0:
368,268,287385,1,0,0:0:0:0:
296,280,287460,1,0,0:0:0:0:
224,268,287536,1,2,0:0:0:0:
176,216,287612,1,0,0:0:0:0:
156,148,287688,1,0,0:0:0:0:
172,80,287763,1,0,0:0:0:0:
228,32,287839,2,0,B|280:16|280:16|344:16,1,100
416,344,288142,5,2,0:0:0:0:
48,276,288294,1,0,0:0:0:0:
452,228,288445,1,0,0:0:0:0:
28,188,288597,1,0,0:0:0:0:
492,96,288748,1,2,0:0:0:0:
4,36,288900,1,0,0:0:0:0:
408,320,289051,6,0,B|340:352|340:352|304:352,1,100
136,24,289354,1,2,0:0:0:0:
448,140,289506,1,0,0:0:0:0:
132,364,289657,1,0,0:0:0:0:
352,24,289809,5,0,0:0:0:0:
500,224,289960,1,2,0:0:0:0:
136,348,290112,1,0,0:0:0:0:
436,44,290263,5,0,0:0:0:0:
468,312,290415,1,0,0:0:0:0:
68,328,290567,1,2,0:0:0:0:
488,124,290718,5,0,0:0:0:0:
352,360,290870,1,0,0:0:0:0:
40,228,291021,1,0,0:0:0:0:
444,228,291173,5,2,0:0:0:0:
444,228,291248,1,0,0:0:0:0:
444,228,291324,1,0,0:0:0:0:
256,360,291476,5,4,0:0:0:0:
176,344,291551,1,0,0:0:0:0:
104,308,291627,1,0,0:0:0:0:
60,240,291703,1,0,0:0:0:0:
32,160,291779,1,2,0:0:0:0:
44,80,291854,1,0,0:0:0:0:
104,28,291930,1,0,0:0:0:0:
168,76,292006,1,0,0:0:0:0:
232,120,292082,5,2,0:0:0:0:
288,64,292157,1,0,0:0:0:0:
364,36,292233,1,0,0:0:0:0:
440,56,292309,1,0,0:0:0:0:
484,120,292385,1,2,0:0:0:0:
420,160,292460,1,0,0:0:0:0:
360,112,292536,1,0,0:0:0:0:
288,92,292612,1,0,0:0:0:0:
212,92,292688,5,2,0:0:0:0:
136,116,292763,1,0,0:0:0:0:
76,160,292839,1,0,0:0:0:0:
136,164,292915,1,0,0:0:0:0:
184,216,292991,1,2,0:0:0:0:
196,292,293067,1,0,0:0:0:0:
224,220,293142,1,0,0:0:0:0:
292,192,293218,1,0,0:0:0:0:
368,200,293294,5,2,0:0:0:0:
440,176,293370,1,0,0:0:0:0:
472,104,293445,1,0,0:0:0:0:
416,48,293521,1,0,0:0:0:0:
340,28,293597,1,2,0:0:0:0:
264,16,293673,1,0,0:0:0:0:
188,24,293748,1,0,0:0:0:0:
116,52,293824,1,0,0:0:0:0:
56,104,293900,6,0,B|40:156|40:156|40:212,1,100,2|0,0:0|0:0,0:0:0:0:
476,296,294203,1,2,0:0:0:0:
476,296,294354,2,0,B|444:348|444:348|388:352,1,100
148,48,294657,2,0,B|188:20|188:20|240:20,1,100,0|2,0:0|0:0,0:0:0:0:
380,348,294960,2,0,B|328:380|328:380|264:380,1,100
272,32,295263,5,0,0:0:0:0:
272,32,295415,1,2,0:0:0:0:
272,32,295567,2,0,B|344:32|344:32|376:56,1,100
132,368,295870,2,0,B|64:368|64:368|48:336,1,100,0|2,0:0|0:0,0:0:0:0:
468,96,296173,1,0,0:0:0:0:
40,160,296324,5,4,0:0:0:0:
84,96,296400,1,0,0:0:0:0:
144,48,296476,1,0,0:0:0:0:
220,32,296551,1,0,0:0:0:0:
300,44,296627,1,2,0:0:0:0:
364,96,296703,1,0,0:0:0:0:
368,180,296779,1,0,0:0:0:0:
308,232,296854,1,0,0:0:0:0:
356,276,296930,5,2,0:0:0:0:
332,348,297006,1,0,0:0:0:0:
256,364,297082,1,0,0:0:0:0:
176,352,297157,1,0,0:0:0:0:
108,304,297233,1,2,0:0:0:0:
80,224,297309,1,0,0:0:0:0:
116,144,297385,1,0,0:0:0:0:
176,88,297460,1,0,0:0:0:0:
184,36,297536,5,2,0:0:0:0:
192,92,297612,1,0,0:0:0:0:
232,152,297688,1,0,0:0:0:0:
304,184,297763,1,0,0:0:0:0:
380,192,297839,1,2,0:0:0:0:
436,248,297915,1,0,0:0:0:0:
428,324,297991,1,0,0:0:0:0:
356,336,298067,1,0,0:0:0:0:
284,304,298142,5,2,0:0:0:0:
256,236,298218,1,0,0:0:0:0:
300,172,298294,1,0,0:0:0:0:
308,92,298370,1,0,0:0:0:0:
244,52,298445,1,2,0:0:0:0:
168,64,298521,1,0,0:0:0:0:
104,112,298597,1,0,0:0:0:0:
100,184,298673,1,0,0:0:0:0:
164,220,298748,5,2,0:0:0:0:
232,204,298824,1,0,0:0:0:0:
284,156,298900,1,0,0:0:0:0:
340,112,298976,1,0,0:0:0:0:
412,112,299051,1,2,0:0:0:0:
452,168,299127,1,0,0:0:0:0:
424,232,299203,1,0,0:0:0:0:
356,232,299279,1,0,0:0:0:0:
304,192,299354,5,2,0:0:0:0:
256,144,299430,1,0,0:0:0:0:
200,104,299506,1,0,0:0:0:0:
132,100,299582,1,0,0:0:0:0:
80,144,299657,1,2,0:0:0:0:
100,208,299733,1,0,0:0:0:0:
160,244,299809,1,0,0:0:0:0:
220,216,299885,1,0,0:0:0:0:
268,176,299960,5,2,0:0:0:0:
324,140,300036,1,0,0:0:0:0:
376,128,300112,1,0,0:0:0:0:
432,144,300188,1,0,0:0:0:0:
464,192,300263,1,2,0:0:0:0:
464,248,300339,1,0,0:0:0:0:
420,284,300415,1,0,0:0:0:0:
372,284,300491,1,0,0:0:0:0:
336,260,300566,1,2,0:0:0:0:
316,232,300642,1,0,0:0:0:0:
300,208,300718,1,0,0:0:0:0:
284,184,300794,1,0,0:0:0:0:
272,160,300870,2,0,P|216:100|116:216,1,225.000008583069,6|0,0:0|0:0,0:0:0:0:
92,196,301173,6,4,B|56:368|56:368|220:312,1,324.999985122681,0|0,0:0|0:0,0:0:0:0:
240,184,301627,2,0,B|356:144|356:144|356:276,1,250
272,344,302082,2,0,B|136:248|136:248|288:144,1,320
88,88,302839,1,0,0:0:0:0:
88,88,302915,1,0,0:0:0:0:
88,88,302991,1,0,0:0:0:0:
284,68,303142,5,0,0:0:0:0:
356,60,303218,1,0,0:0:0:0:
428,72,303294,1,0,0:0:0:0:
476,124,303370,1,0,0:0:0:0:
488,196,303445,1,0,0:0:0:0:
460,264,303521,1,0,0:0:0:0:
392,288,303597,6,0,B|332:312|332:312|224:216,1,200
140,236,304051,2,0,B|116:56|116:56|296:144,1,375.000014305115
276,228,304506,2,0,P|196:300|244:88,1,600
240,88,305491,5,0,0:0:0:0:
260,104,305566,1,0,0:0:0:0:
284,120,305642,1,0,0:0:0:0:
304,136,305718,1,0,0:0:0:0:
328,152,305794,1,0,0:0:0:0:
348,168,305870,1,0,0:0:0:0:
368,188,305945,1,0,0:0:0:0:
384,204,306021,6,0,B|352:324|352:324|244:320,1,212.500004053116,4|0,0:0|0:0,0:0:0:0:
184,304,306476,2,0,P|128:320|152:116,1,375.000014305115,4|0,0:0|0:0,0:0:0:0:
220,148,306930,2,0,B|368:256|368:256|408:172,1,262.500010013581,4|0,0:0|0:0,0:0:0:0:
416,96,307536,2,0,P|392:52|332:124,1,150,4|0,0:0|0:0,0:0:0:0:
304,192,307839,2,0,P|276:240|220:192,1,150,0|12,0:0|0:0,0:0:0:0:
256,192,308142,12,0,309506,0:0:0:0:
424,64,309657,5,4,0:0:0:0:
384,116,309733,1,0,0:0:0:0:
324,140,309809,2,8,L|264:140,1,37.5000014305115,8|0,0:0|0:0,0:0:0:0:
152,56,309960,5,0,0:0:0:0:
96,84,310036,1,0,0:0:0:0:
56,128,310112,2,0,L|56:168,1,37.5000014305115,8|0,0:0|0:0,0:0:0:0:
204,280,310263,5,0,0:0:0:0:
268,284,310339,1,0,0:0:0:0:
328,272,310415,1,8,0:0:0:0:
368,240,310491,1,0,0:0:0:0:
388,208,310566,1,4,0:0:0:0:
392,168,310642,1,0,0:0:0:0:
376,124,310718,1,0,0:0:0:0:
356,100,310794,1,0,0:0:0:0:
340,84,310870,1,8,0:0:0:0:
