osu file format v14

[General]
AudioFilename: audio.mp3
AudioLeadIn: 0
PreviewTime:103711
Countdown: 0
SampleSet: Soft
StackLeniency: 0.7
Mode: 2
LetterboxInBreaks: 0
WidescreenStoryboard: 1

[Editor]
Bookmarks: 28290,38739,60649
DistanceSpacing: 1
BeatDivisor: 4
GridSize: 32
TimelineZoom: 2.3

[Metadata]
Title:Replica
TitleUnicode:Replica
Artist:Lime
ArtistUnicode:Lime
Creator:Spectator
Version:Jemzuu's Overdose
Source:
Tags:stardust prism verti jemzuu ajamez [ azu- ] [_azu-_] alexdemon- fayew skill issue lol electronic instrumental video game BMS g2r2018 featured artist fa mappers' guild mpg mg catch indonesia cup 2021 cic2021 semi finals hard rock hr2 劇的 会心 go back 2 your roots DEE2 Digital Emergency Exit
BeatmapID:4452983
BeatmapSetID:1524441

[Difficulty]
HPDrainRate:5
CircleSize:4
OverallDifficulty:9.5
ApproachRate:9.5
SliderMultiplier:2.2
SliderTickRate:2

[Events]
//Background and Video events
0,0,"replica.jpg",0,0
//Break Periods
2,28627,32315
//Storyboard Layer 0 (Background)
//Storyboard Layer 1 (Fail)
//Storyboard Layer 2 (Pass)
//Storyboard Layer 3 (Foreground)
//Storyboard Layer 4 (Overlay)
//Storyboard Sound Samples

[TimingPoints]
1324,337.078651685393,4,2,1,50,1,0
1661,-100,4,2,1,50,0,0
2335,-100,4,2,1,50,0,0
7054,-100,4,2,1,50,0,0
7391,-100,4,2,1,50,0,0
10425,-100,4,2,2,50,0,0
11604,-100,4,2,2,55,0,0
11773,-100,4,2,2,55,0,0
12110,-76.9230769230769,4,2,1,70,0,0
12447,-100,4,2,1,70,0,0
12784,-100,4,2,1,70,0,0
15312,-100,4,2,1,70,0,0
15481,-100,4,2,1,70,0,0
17840,-100,4,2,1,70,0,0
18177,-100,4,2,1,70,0,0
20706,-100,4,2,1,70,0,0
20874,-100,4,2,1,70,0,0
22391,-100,4,2,1,70,0,0
22559,-100,4,2,1,70,0,0
22897,-100,4,2,1,70,0,0
23402,-100,4,2,1,70,0,0
23908,-100,4,2,1,70,0,0
24413,-100,4,2,1,70,0,0
26941,-100,4,2,1,70,0,0
28290,-100,4,2,20,50,0,0
28458,-100,4,2,1,50,0,0
33009,-100,4,2,2,55,0,0
37728,-100,4,2,1,60,0,0
38908,-100,4,2,1,75,0,0
41773,-100,4,2,1,75,0,0
42279,-100,4,2,1,75,0,0
47672,-100,4,2,1,75,0,0
48177,-100,4,2,1,75,0,0
48683,-100,4,2,2,75,0,0
48767,-100,4,2,2,75,0,0
49863,-100,4,2,2,70,0,0
51717,-100,4,2,1,70,0,0
52559,-100,4,2,2,60,0,0
55256,-100,4,2,2,70,0,0
57110,-100,4,2,1,70,0,0
57953,-100,4,2,2,60,0,0
60649,-100,4,2,1,70,0,0
71941,-100,4,2,1,70,0,0
72784,-100,4,2,1,70,0,0
74132,-100,4,3,1,30,0,0
75481,-100,4,3,1,35,0,0
76492,-100,4,3,1,40,0,0
76829,-100,4,3,1,45,0,0
77503,-100,4,3,1,50,0,0
78852,-100,4,3,1,55,0,0
79526,-100,4,3,1,60,0,0
80200,-100,4,3,1,65,0,0
80874,-100,4,2,1,70,0,0
81548,-100,4,2,1,75,0,0
82391,-100,4,2,1,75,0,0
82559,-90.9090909090909,4,2,1,75,0,0
85930,-40,4,2,1,75,0,0
86183,-90.9090909090909,4,2,1,75,0,0
86267,-90.9090909090909,4,2,1,75,0,0
96717,-40,4,2,1,75,0,0
97054,-90.9090909090909,4,2,1,75,0,0
101099,-90.9090909090909,4,2,1,75,0,0
102447,-100,4,2,2,70,0,0
102953,-100,4,2,2,55,0,0
103121,-100,4,2,2,70,0,0
103795,-90.9090909090909,4,2,1,70,0,0
104132,-90.9090909090909,4,2,1,75,0,0
104470,-90.9090909090909,4,2,1,75,0,0
106998,-90.9090909090909,4,2,1,75,0,0
107166,-90.9090909090909,4,2,1,75,0,0
109526,-90.9090909090909,4,2,1,75,0,0
109863,-90.9090909090909,4,2,1,75,0,0
112391,-90.9090909090909,4,2,1,75,0,0
112559,-90.9090909090909,4,2,1,75,0,0
114835,-90.9090909090909,4,2,1,75,0,0
115256,-90.9090909090909,4,2,1,75,0,0
117784,-90.9090909090909,4,2,1,75,0,0
117953,-90.9090909090909,4,2,1,75,0,0
120312,-90.9090909090909,4,2,1,75,0,0
120649,-90.9090909090909,4,2,1,75,0,0
122166,-90.9090909090909,4,2,1,75,0,0
122335,-90.9090909090909,4,2,1,75,0,0
124020,-90.9090909090909,4,2,2,65,0,0
125368,-90.9090909090909,4,2,1,75,0,0
125873,-90.9090909090909,4,2,1,75,0,0
126379,-90.9090909090909,4,2,1,75,0,0
126884,-90.9090909090909,4,2,1,75,0,0
129412,-90.9090909090909,4,2,1,75,0,0
130761,-90.9090909090909,4,2,1,75,0,0

[Colours]
Combo1 : 200,111,184
Combo2 : 192,192,192

[HitObjects]
306,213,6380,6,0,L|373:204,1,55,2|0,0:0|0:0,0:0:0:0:
131,95,6548,2,0,L|56:96,1,55
272,42,6717,6,0,L|284:171,1,110,2|0,0:0|0:0,0:0:0:0:
343,169,6970,1,0,0:0:0:0:
412,200,7054,2,0,L|339:208,1,55,2|0,0:0|0:0,0:0:0:0:
442,250,7222,2,0,L|505:248,1,55
339,307,7391,6,0,L|325:188,1,110,2|0,0:0|0:0,0:0:0:0:
192,182,7728,1,0,0:0:0:0:
323,89,7897,2,0,L|95:64,1,220,2|0,0:0|0:0,0:0:0:0:
228,37,8402,1,0,0:0:0:0:
99,37,8571,6,0,P|140:84|40:198,1,220,2|0,0:0|0:0,0:0:0:0:
4,228,8992,1,0,0:0:0:0:
75,251,9076,1,2,0:0:0:0:
50,280,9161,1,0,0:0:0:0:
75,251,9245,1,0,0:0:0:0:
126,248,9329,1,0,0:0:0:0:
303,296,9413,5,2,0:0:0:0:
187,203,9582,2,0,L|160:164,2,36.6666666666667
227,207,9750,2,0,L|286:206,1,55
464,235,9919,6,0,P|476:181|340:80,1,220,2|0,0:0|0:0,0:0:0:0:
244,99,10425,2,0,L|234:162,3,55,2|0|8|0,0:0|0:0|0:0|0:0,0:0:0:0:
75,218,10762,5,8,0:0:0:0:
93,313,10930,2,0,L|126:321,1,27.5,2|0,0:0|0:0,0:0:0:0:
153,321,11015,1,2,0:0:0:0:
221,268,11099,2,0,L|144:266,1,55,8|0,0:0|0:0,0:0:0:0:
338,238,11267,5,8,0:0:0:0:
441,204,11436,2,0,L|360:195,1,55
189,134,11604,2,0,L|251:127,1,55,2|2,0:0|0:0,0:0:0:0:
451,104,11773,1,8,0:0:0:0:
381,104,11857,1,0,0:0:0:0:
451,104,11941,1,8,0:0:0:0:
296,55,12026,1,8,0:0:0:0:
134,68,12110,6,0,L|435:89,1,285.99998690796,4|10,0:0|0:0,0:0:0:0:
344,114,12531,1,2,0:0:0:0:
421,151,12616,1,2,0:0:0:0:
344,178,12700,1,2,0:0:0:0:
378,202,12784,1,0,0:0:0:0:
333,198,12868,1,0,0:0:0:0:
137,290,12953,2,0,L|208:297,1,55,0|0,3:0|0:0,0:0:0:0:
355,298,13121,1,8,0:0:0:0:
117,369,13290,5,0,3:0:0:0:
142,321,13374,1,0,0:0:0:0:
139,267,13458,1,0,0:0:0:0:
107,223,13542,1,0,0:0:0:0:
56,203,13627,1,0,0:0:0:0:
6,200,13711,1,0,0:0:0:0:
179,155,13795,2,0,L|255:151,1,55,8|0,0:0|0:0,0:0:0:0:
68,117,13964,6,0,L|32:66,2,55,0|0|0,3:0|0:0|0:0,0:0:0:0:
131,129,14217,1,0,0:0:0:0:
305,76,14301,2,0,L|224:76,1,55,0|0,3:0|2:0,2:0:0:0:
421,144,14470,2,0,L|476:177,1,55,10|2,0:0|0:0,0:0:0:0:
299,233,14638,2,0,L|284:295,1,55,2|2,0:0|0:0,0:0:0:0:
372,306,14807,6,0,L|225:335,1,110,0|0,3:0|0:0,0:0:0:0:
200,332,15059,1,0,0:0:0:0:
380,219,15144,1,8,0:0:0:0:
142,172,15312,5,2,0:0:0:0:
179,132,15396,1,0,0:0:0:0:
229,109,15480,1,0,0:0:0:0:
283,106,15564,1,0,0:0:0:0:
458,93,15649,2,0,L|392:84,1,55,0|0,3:0|0:0,0:0:0:0:
231,235,15818,2,0,L|152:236,1,55,8|0,0:0|0:0,0:0:0:0:
367,310,15986,6,0,L|236:317,1,110,0|0,3:0|0:0,0:0:0:0:
245,256,16239,1,0,0:0:0:0:
327,239,16323,2,0,L|261:239,1,55
83,251,16492,1,8,0:0:0:0:
320,135,16661,6,0,L|446:119,1,110,0|0,3:0|0:0,0:0:0:0:
377,86,16913,1,0,0:0:0:0:
197,76,16998,2,0,L|101:80,1,55,0|0,3:0|0:0,0:0:0:0:
321,166,17166,2,0,L|388:173,1,55,8|0,0:0|0:0,0:0:0:0:
293,206,17335,2,0,L|348:208,1,55
155,226,17503,6,0,P|70:242|45:375,1,220,0|10,3:0|0:0,0:0:0:0:
119,360,17925,1,2,0:0:0:0:
36,358,18009,1,2,0:0:0:0:
119,360,18093,1,2,0:0:0:0:
92,326,18177,1,0,0:0:0:0:
119,360,18262,1,0,0:0:0:0:
294,336,18346,2,0,L|357:328,1,55,0|0,3:0|0:0,0:0:0:0:
170,264,18515,1,8,0:0:0:0:
408,266,18683,5,0,3:0:0:0:
459,253,18767,1,0,0:0:0:0:
482,205,18851,1,0,0:0:0:0:
459,157,18935,1,0,0:0:0:0:
402,148,19020,1,0,0:0:0:0:
469,129,19104,1,0,0:0:0:0:
282,110,19189,2,0,L|200:108,1,55,8|0,0:0|0:0,0:0:0:0:
426,43,19357,6,0,L|302:43,1,110,0|0,3:0|0:0,0:0:0:0:
303,89,19610,1,0,0:0:0:0:
466,185,19694,2,0,L|379:187,1,55,0|0,3:0|0:0,0:0:0:0:
233,224,19863,2,0,L|208:284,1,55,8|0,0:0|0:0,0:0:0:0:
301,286,20031,2,0,L|315:344,1,55
126,351,20200,6,0,L|5:351,1,110,0|0,3:0|0:0,0:0:0:0:
283,218,20537,2,0,L|188:215,1,55,8|0,0:0|0:0,0:0:0:0:
45,213,20706,2,0,L|11:149,2,55,2|0|0,0:0|0:0|0:0,0:0:0:0:
108,220,20958,1,0,0:0:0:0:
279,305,21043,2,0,L|348:299,1,55,0|0,3:0|0:0,0:0:0:0:
151,355,21211,2,0,L|230:361,1,55,8|0,0:0|0:0,0:0:0:0:
410,265,21380,6,0,L|285:262,1,110,0|0,3:0|0:0,0:0:0:0:
328,223,21632,1,0,0:0:0:0:
373,198,21717,1,2,0:0:0:0:
436,191,21801,1,0,0:0:0:0:
263,142,21885,2,0,L|181:144,1,55,10|0,0:0|0:0,0:0:0:0:
392,70,22054,6,0,L|512:49,1,110,0|0,3:0|0:0,0:0:0:0:
441,42,22307,1,0,0:0:0:0:
234,49,22391,2,0,L|147:58,1,55,0|0,3:0|3:0,0:0:0:0:
372,141,22559,2,0,L|290:144,1,55,10|2,0:0|0:0,0:0:0:0:
172,171,22728,1,2,0:0:0:0:
28,202,22812,1,2,0:0:0:0:
207,250,22897,6,0,L|333:253,1,110,12|0,0:0|0:0,0:0:0:0:
165,334,23234,1,0,0:0:0:0:
425,216,23402,2,0,L|303:155,1,110,12|0,0:0|0:0,0:0:0:0:
166,159,23739,1,0,0:0:0:0:
448,64,23908,6,0,L|325:76,1,110,12|0,0:0|0:0,0:0:0:0:
486,144,24245,1,0,0:0:0:0:
230,260,24413,2,0,L|294:153,1,110,12|0,0:0|0:0,0:0:0:0:
152,139,24750,1,0,0:0:0:0:
414,326,24919,6,0,L|469:298,1,55,12|0,0:0|0:0,0:0:0:0:
272,278,25088,2,0,L|258:215,1,55,8|0,2:0|0:0,0:0:0:0:
70,228,25256,2,0,L|15:184,1,55,8|0,2:0|0:0,0:0:0:0:
256,192,25425,5,4,0:0:0:0:
256,192,25593,12,0,26773,0:0:0:0:
304,271,26941,6,0,L|319:202,1,55,0|0,3:0|3:0,3:0:0:0:
156,202,27110,2,0,L|135:136,1,55,0|0,3:0|3:0,3:0:0:0:
322,121,27279,2,0,L|366:81,1,55,0|0,3:0|3:0,3:0:0:0:
144,58,27447,2,0,L|87:22,1,55,0|0,3:0|3:0,3:0:0:0:
378,208,27616,2,0,L|455:207,1,55,0|0,3:0|3:0,3:0:0:0:
106,328,27784,2,0,L|35:335,1,55,0|0,3:0|3:0,3:0:0:0:
306,350,27953,2,0,L|493:327,1,165,8|0,3:2|0:0,0:0:0:0:
256,192,28290,5,4,0:0:0:0:
166,153,32840,5,2,0:0:0:0:
294,202,33009,2,0,L|212:215,1,55,0|8,0:0|0:0,0:0:0:0:
174,260,33177,2,0,L|255:277,1,55,0|8,0:0|0:0,0:0:0:0:
296,276,33346,1,0,0:0:0:0:
153,343,33515,1,8,0:0:0:0:
425,103,33683,6,0,L|195:148,1,220,2|8,0:0|0:0,0:0:0:0:
212,50,34189,1,0,0:0:0:0:
267,57,34273,1,0,0:0:0:0:
294,104,34357,1,0,0:0:0:0:
269,152,34441,1,0,0:0:0:0:
213,160,34526,1,2,0:0:0:0:
81,171,34694,5,8,0:0:0:0:
211,239,34863,2,0,L|172:288,1,55
211,239,35031,2,0,L|352:228,1,110,2|0,0:0|0:0,0:0:0:0:
470,220,35368,1,8,0:0:0:0:
215,110,35537,6,0,P|192:161|333:230,1,220,2|8,0:0|0:0,0:0:0:0:
292,348,36043,2,0,L|212:348,1,55,2|0,0:0|0:0,0:0:0:0:
314,314,36211,2,0,L|226:314,1,55
187,299,36380,6,0,L|160:132,1,165,2|0,0:0|0:0,0:0:0:0:
94,126,36717,1,8,0:0:0:0:
243,71,36885,1,0,0:0:0:0:
88,33,37054,2,0,L|162:22,1,55
336,88,37222,5,8,0:0:0:0:
353,138,37306,1,0,0:0:0:0:
330,186,37390,1,0,0:0:0:0:
279,203,37474,1,0,0:0:0:0:
208,222,37559,2,0,L|288:222,1,55
473,293,37728,5,4,0:0:0:0:
414,291,37812,1,0,0:0:0:0:
385,246,37896,1,0,0:0:0:0:
413,200,37980,1,0,0:0:0:0:
472,198,38065,1,2,0:0:0:0:
402,164,38149,1,0,0:0:0:0:
260,133,38234,1,2,0:0:0:0:
112,130,38318,1,0,0:0:0:0:
283,52,38402,6,0,L|350:39,1,55,8|0,0:0|0:0,0:0:0:0:
88,35,38571,2,0,L|17:38,1,55,8|0,0:0|0:0,0:0:0:0:
485,117,38908,6,0,L|251:140,1,220,4|0,0:0|0:0,0:0:0:0:
402,181,39413,2,0,L|327:185,1,55,8|0,0:0|0:0,0:0:0:0:
159,213,39582,2,0,L|143:281,1,55
61,292,39750,6,0,L|257:297,1,165,0|0,3:0|0:0,0:0:0:0:
419,307,40088,2,0,L|434:238,1,55,8|0,0:0|0:0,0:0:0:0:
341,238,40256,2,0,L|323:182,1,55
143,142,40425,2,0,L|73:142,1,55,0|0,3:0|0:0,0:0:0:0:
282,71,40593,6,0,L|95:66,1,165
48,35,40930,2,0,L|117:24,1,55
286,140,41099,2,0,L|308:202,1,55,0|0,3:0|0:0,0:0:0:0:
388,200,41267,2,0,L|434:235,1,55
270,269,41436,2,0,L|245:321,1,55,8|0,0:0|0:0,0:0:0:0:
87,347,41604,2,0,L|28:353,1,55
235,277,41773,5,0,3:0:0:0:
112,246,41941,2,0,L|148:193,2,55,0|0|8,0:0|0:0|0:0,0:0:0:0:
346,222,42279,2,0,P|333:161|181:99,1,220
257,70,42700,1,0,0:0:0:0:
431,35,42784,2,0,L|492:31,1,55,8|0,0:0|0:0,0:0:0:0:
290,177,42953,6,0,P|276:237|362:280,1,165
425,306,43290,2,0,L|359:320,1,55
210,341,43458,2,0,L|198:286,1,55,8|0,0:0|0:0,0:0:0:0:
35,248,43627,2,0,L|92:219,1,55
255,140,43795,6,0,L|174:136,2,55,0|8|0,3:0|0:0|0:0,0:0:0:0:
484,55,44132,2,0,L|420:48,1,55,8|0,0:0|0:0,0:0:0:0:
238,50,44301,2,0,L|167:64,1,55
384,172,44470,6,0,L|522:180,2,110,0|0|8,3:0|0:0|0:0,0:0:0:0:
139,181,44975,1,0,0:0:0:0:
155,233,45059,1,0,0:0:0:0:
190,275,45143,1,0,3:0:0:0:
238,301,45227,1,0,0:0:0:0:
310,323,45312,2,0,L|234:334,1,55
65,335,45481,1,8,0:0:0:0:
191,298,45649,5,0,0:0:0:0:
137,291,45733,1,0,0:0:0:0:
107,248,45817,1,0,3:0:0:0:
119,196,45901,1,0,0:0:0:0:
286,144,45986,6,0,L|200:144,1,55,2|0,0:0|0:0,0:0:0:0:
419,104,46155,2,0,L|491:94,1,55,8|0,0:0|0:0,0:0:0:0:
301,79,46323,2,0,L|276:18,1,55
192,51,46492,2,0,L|322:55,1,110,0|0,3:0|0:0,0:0:0:0:
71,116,46829,1,8,0:0:0:0:
312,177,46998,1,0,0:0:0:0:
57,237,47166,6,0,L|176:278,1,110,4|0,0:0|0:0,0:0:0:0:
397,280,47503,1,8,0:0:0:0:
146,356,47672,2,0,L|276:360,1,110,4|0,0:0|0:0,0:0:0:0:
97,287,48009,1,0,0:0:0:0:
409,331,48177,6,0,P|416:250|207:143,1,330,4|2,0:0|2:0,0:0:0:0:
283,104,48767,1,2,2:0:0:0:
480,86,48852,1,8,2:0:0:0:
357,49,49020,2,0,L|421:40,1,55,2|2,0:0|0:0,0:0:0:0:
210,246,49189,5,8,0:0:0:0:
192,194,49273,1,2,0:0:0:0:
207,143,49357,1,2,0:0:0:0:
249,109,49441,1,2,0:0:0:0:
327,98,49526,2,0,L|250:91,1,55,8|8,0:0|0:0,0:0:0:0:
73,37,49694,2,0,L|18:39,1,55,8|8,0:0|0:0,0:0:0:0:
236,105,49863,6,0,L|257:228,1,110,4|0,0:2|3:0,0:0:0:0:
388,164,50200,1,8,0:0:0:0:
147,235,50368,2,0,L|79:235,2,55,2|2|2,0:0|0:0|0:0,0:0:0:0:
286,242,50706,1,8,0:0:0:0:
57,340,50874,6,0,L|183:321,1,110,4|0,0:0|0:0,0:0:0:0:
23,246,51211,1,8,0:0:0:0:
278,222,51380,2,0,L|95:198,1,165,2|0,0:0|0:0,0:0:0:0:
285,148,51717,6,0,L|296:113,4,27.5,2|0|0|0|2,0:0|0:0|0:0|0:0|0:0,0:0:0:0:
365,97,51970,1,0,0:0:0:0:
303,53,52054,1,2,0:0:0:0:
226,44,52138,1,0,0:0:0:0:
295,39,52222,1,2,0:0:0:0:
359,80,52307,1,0,0:0:0:0:
322,141,52391,1,2,0:0:0:0:
362,208,52475,1,0,0:0:0:0:
172,238,52559,6,0,L|50:255,1,110,2|2,0:0|0:0,0:0:0:0:
204,294,52897,1,8,0:0:0:0:
225,243,52981,1,0,0:0:0:0:
266,206,53065,1,2,0:0:0:0:
317,188,53149,1,0,0:0:0:0:
372,192,53234,5,2,0:0:0:0:
305,166,53318,1,0,0:0:0:0:
371,136,53402,1,8,0:0:0:0:
445,131,53486,1,0,0:0:0:0:
268,86,53571,2,2,L|246:59,2,27.5,0|0|0,0:0|0:0|0:0,0:0:0:0:
343,88,53739,2,0,L|274:88,1,55,2|0,2:0|0:0,0:0:0:0:
115,171,53908,6,0,L|190:172,1,55,8|0,0:0|0:0,0:0:0:0:
90,141,54076,2,0,L|18:154,1,55,2|0,0:0|0:0,0:0:0:0:
210,254,54245,1,2,0:0:0:0:
143,240,54329,1,0,0:0:0:0:
188,185,54413,2,0,L|252:164,1,55,2|0,0:0|0:0,0:0:0:0:
318,151,54582,6,0,L|226:138,1,55,2|2,0:0|0:0,0:0:0:0:
430,155,54750,2,0,L|457:124,2,27.5,8|0|0,0:0|0:0|0:0,0:0:0:0:
267,73,54919,2,0,L|338:66,1,55,8|8,0:0|0:0,0:0:0:0:
149,76,55088,2,0,L|46:80,1,55,8|8,0:0|0:0,0:0:0:0:
356,192,55256,6,0,L|484:202,1,110,4|0,0:0|0:0,0:0:0:0:
324,280,55593,1,8,0:0:0:0:
78,294,55762,2,0,L|15:294,2,55,2|2|2,0:0|0:0|0:0,0:0:0:0:
207,309,56099,1,8,0:0:0:0:
455,215,56267,6,0,L|321:203,1,110,4|0,0:0|0:0,0:0:0:0:
107,213,56604,1,0,0:0:0:0:
375,166,56773,2,0,P|338:108|166:65,1,220,2|2,0:0|0:0,0:0:0:0:
261,40,57194,1,0,0:0:0:0:
448,63,57279,5,2,0:0:0:0:
380,72,57363,1,0,0:0:0:0:
350,120,57447,1,2,0:0:0:0:
382,167,57531,1,0,0:0:0:0:
452,179,57616,1,2,0:0:0:0:
421,224,57700,1,0,0:0:0:0:
455,254,57784,1,2,0:0:0:0:
379,284,57868,1,0,0:0:0:0:
191,313,57953,6,0,L|161:193,1,110,2|2,0:0|0:0,0:0:0:0:
23,187,58290,1,8,0:0:0:0:
164,206,58374,2,0,L|193:153,2,55,0|2|0,0:0|0:0|0:0,0:0:0:0:
95,142,58627,2,0,L|62:142,2,27.5,8|8|8,0:0|0:0|0:0,0:0:0:0:
272,184,58795,2,0,L|205:195,1,55,8|0,0:0|0:0,0:0:0:0:
294,211,58964,2,0,L|420:220,1,110,8|0,0:0|0:0,0:0:0:0:
158,317,59301,5,8,0:0:0:0:
227,313,59385,1,0,0:0:0:0:
266,288,59470,1,0,0:0:0:0:
250,230,59554,1,0,0:0:0:0:
272,184,59638,1,0,0:0:0:0:
342,164,59722,1,0,0:0:0:0:
497,147,59807,5,8,0:0:0:0:
342,164,59891,2,0,L|305:117,2,55
421,185,60144,2,0,L|347:189,1,55,2|2,0:0|0:0,0:0:0:0:
180,245,60312,2,0,L|133:242,2,27.5,8|0|8,0:0|0:0|0:0,0:0:0:0:
356,308,60481,2,0,L|274:321,1,55,8|8,0:0|0:0,0:0:0:0:
89,350,60649,6,0,L|47:232,1,110,4|0,0:0|0:0,0:0:0:0:
186,201,60986,1,8,0:0:0:0:
421,92,61155,2,0,L|165:56,1,220,0|0,0:0|3:0,0:0:0:0:
435,178,61661,5,8,0:0:0:0:
194,251,61829,1,0,3:0:0:0:
329,269,61998,1,0,0:0:0:0:
181,341,62166,2,0,L|63:348,1,110,0|8,3:0|0:0,0:0:0:0:
299,204,62503,6,0,L|225:206,1,55
328,191,62672,2,0,L|361:140,2,55,0|0|0,3:0|0:0|3:0,0:0:0:0:
267,209,62925,1,0,0:0:0:0:
80,210,63009,2,0,P|65:153|156:105,1,165,8|0,0:0|0:0,0:0:0:0:
344,76,63346,5,0,3:0:0:0:
219,40,63515,2,0,L|298:24,1,55
466,84,63683,2,0,L|481:155,1,55,8|0,0:0|0:0,0:0:0:0:
394,172,63852,1,0,0:0:0:0:
443,151,63936,1,0,0:0:0:0:
407,115,64020,1,0,0:0:0:0:
332,97,64104,1,0,0:0:0:0:
159,238,64189,6,0,L|243:226,1,55,0|0,3:0|0:0,0:0:0:0:
128,217,64357,1,8,0:0:0:0:
100,193,64441,1,0,0:0:0:0:
128,217,64526,1,0,3:0:0:0:
192,238,64610,1,0,0:0:0:0:
378,289,64694,6,0,L|299:301,1,55
404,305,64863,2,0,L|476:308,1,55
380,264,65031,2,0,L|364:208,1,55,8|0,0:0|0:0,0:0:0:0:
283,200,65200,2,0,L|215:200,1,55,0|0,3:0|0:0,0:0:0:0:
312,187,65368,6,0,L|342:136,2,55,0|0|0,0:0|0:0|3:0,0:0:0:0:
250,201,65621,1,0,0:0:0:0:
65,154,65706,2,0,L|137:144,1,55,10|2,0:0|0:0,0:0:0:0:
42,126,65874,2,0,L|128:113,1,55,2|2,0:0|0:0,0:0:0:0:
312,76,66043,6,0,L|459:80,2,110,4|0|8,0:0|0:0|0:0,0:0:0:0:
57,118,66548,2,0,P|39:185|167:233,1,220,0|0,0:0|3:0,0:0:0:0:
430,258,67054,1,8,0:0:0:0:
155,333,67222,1,0,3:0:0:0:
295,297,67391,1,0,0:0:0:0:
153,241,67559,6,0,L|32:230,1,110,0|8,0:0|0:0,0:0:0:0:
37,192,67812,1,0,0:0:0:0:
223,147,67897,2,0,L|305:142,1,55,0|0,3:0|0:0,0:0:0:0:
99,89,68065,2,0,L|188:79,1,55
77,56,68234,2,0,L|10:56,1,55,0|0,3:0|0:0,0:0:0:0:
210,24,68402,2,0,L|274:27,1,55,8|0,0:0|0:0,0:0:0:0:
470,146,68571,6,0,P|477:208|346:263,1,220,6|0,0:0|3:0,0:0:0:0:
296,262,68992,1,0,0:0:0:0:
121,269,69076,2,0,L|102:198,1,55,0|0,3:0|0:0,0:0:0:0:
187,198,69245,2,0,L|193:124,1,55,0|0,3:0|0:0,0:0:0:0:
286,131,69413,2,0,L|301:63,1,55,0|0,3:0|0:0,0:0:0:0:
207,73,69582,2,0,L|187:6,1,55,0|0,3:0|0:0,0:0:0:0:
388,202,69750,2,0,L|328:158,1,55,0|0,3:0|0:0,0:0:0:0:
147,160,69919,2,0,L|61:156,1,55,0|0,3:0|0:0,0:0:0:0:
279,270,70088,6,0,L|186:270,1,55,0|0,3:0|3:0,3:0:0:0:
298,238,70256,2,0,L|228:238,1,55,0|0,3:0|3:0,3:0:0:0:
424,168,70425,2,0,L|499:160,1,55,0|0,3:0|3:0,3:0:0:0:
300,111,70593,2,0,L|226:108,1,55,0|0,3:0|3:0,3:0:0:0:
62,71,70762,1,8,3:2:0:0:
203,42,70846,1,0,3:0:0:0:
346,33,70930,2,0,L|280:42,1,55,8|0,3:2|3:0,3:0:0:0:
100,213,71099,2,0,L|193:213,1,55,8|0,3:2|3:0,3:0:0:0:
81,181,71267,2,0,L|151:181,1,55,8|8,3:2|3:2,3:0:0:0:
370,298,71436,6,0,P|443:267|342:105,2,330,4|0|0,3:2|0:0|0:0,0:0:0:0:
197,316,72784,6,0,P|209:233|390:69,2,330
19,35,74132,6,0,P|91:56|3:225,2,330
243,49,75481,6,0,P|230:112|47:309,2,330,0|0|2,0:0|0:0|0:2,0:0:0:0:
168,45,76576,1,2,0:2:0:0:
243,49,76661,1,2,0:2:0:0:
168,45,76745,1,2,0:2:0:0:
385,67,76829,5,4,0:2:0:0:
443,74,76913,1,0,0:0:0:0:
469,121,76997,1,0,0:0:0:0:
441,167,77081,1,0,0:0:0:0:
383,173,77166,1,0,0:0:0:0:
310,173,77250,1,0,0:0:0:0:
383,173,77335,1,0,0:0:0:0:
310,173,77419,1,0,0:0:0:0:
121,271,77503,6,0,L|39:261,1,55
145,247,77672,2,0,L|163:177,1,55
248,193,77840,2,0,L|264:120,1,55
353,120,78009,2,0,L|365:59,1,55
158,37,78177,5,0,0:0:0:0:
100,44,78261,1,0,0:0:0:0:
74,91,78345,1,0,0:0:0:0:
102,137,78429,1,0,0:0:0:0:
160,143,78514,1,0,0:0:0:0:
233,144,78599,1,0,0:0:0:0:
54,311,78683,5,0,0:0:0:0:
123,310,78768,1,0,0:0:0:0:
185,304,78853,1,0,0:0:0:0:
213,258,78937,1,0,0:0:0:0:
187,211,79021,1,0,0:0:0:0:
129,204,79105,1,0,0:0:0:0:
315,212,79189,2,0,L|329:139,1,55
233,144,79357,2,0,L|224:83,1,55
421,78,79526,6,0,L|524:57,1,55
394,109,79694,2,0,L|369:42,1,55
187,211,79863,2,0,L|84:190,1,55
214,242,80031,2,0,L|239:175,1,55
432,313,80200,6,0,L|372:335,1,55
180,348,80368,2,0,L|110:348,1,55
329,264,80537,2,0,L|252:264,1,55
67,155,80706,2,0,L|-30:153,1,55
245,56,80874,5,4,3:2:0:0:
313,67,80958,1,0,0:0:0:0:
344,115,81042,1,2,0:0:0:0:
315,163,81126,1,0,0:0:0:0:
246,176,81211,1,2,0:0:0:0:
321,199,81295,1,2,0:0:0:0:
176,236,81380,1,2,0:0:0:0:
33,251,81464,1,2,0:0:0:0:
267,296,81548,6,0,L|348:298,1,55,8|0,0:0|0:0,0:0:0:0:
91,346,81717,2,0,L|28:347,1,55,8|0,0:0|0:0,0:0:0:0:
465,188,82054,6,0,L|203:188,1,220,4|0,0:0|3:0,0:0:0:0:
477,95,82559,2,0,L|406:93,1,60.5000018463135,8|0,0:0|0:0,0:0:0:0:
232,92,82728,2,0,L|188:31,2,60.5000018463135,0|0|0,0:0|0:0|3:0,0:0:0:0:
298,103,82981,1,0,0:0:0:0:
113,157,83065,2,0,L|48:170,1,60.5000018463135
263,303,83234,6,0,P|240:242|125:195,1,181.500005538941,8|0,0:0|0:0,0:0:0:0:
220,168,83571,2,0,L|154:166,1,60.5000018463135,0|0,3:0|0:0,0:0:0:0:
230,143,83739,2,0,L|303:129,1,60.5000018463135
103,98,83908,2,0,L|92:34,3,60.5000018463135,8|0|0|0,0:0|0:0|0:0|0:0,0:0:0:0:
283,48,84245,6,0,L|213:55,1,60.5000018463135,0|0,3:0|0:0,0:0:0:0:
304,70,84413,2,0,L|235:81,1,60.5000018463135
419,133,84582,2,0,L|495:144,1,60.5000018463135,8|0,0:0|0:0,0:0:0:0:
313,225,84750,2,0,L|392:233,1,60.5000018463135
205,308,84919,6,0,P|135:297|149:200,1,181.500005538941,0|0,3:0|0:0,0:0:0:0:
301,132,85256,2,0,L|220:131,1,60.5000018463135,8|0,0:0|0:0,0:0:0:0:
50,143,85425,1,0,0:0:0:0:
108,130,85509,1,0,0:0:0:0:
135,77,85593,1,0,3:0:0:0:
104,25,85677,1,0,0:0:0:0:
44,17,85762,1,0,0:0:0:0:
206,27,85846,1,0,0:0:0:0:
44,17,85930,6,0,B|319:26|319:26|322:174,1,412.5,8|0,0:0|0:0,0:0:0:0:
264,170,86267,1,0,3:0:0:0:
238,222,86351,1,0,0:0:0:0:
268,271,86435,1,0,0:0:0:0:
326,273,86520,1,0,0:0:0:0:
166,354,86604,2,0,L|250:348,1,60.5000018463135,8|0,0:0|0:0,0:0:0:0:
424,259,86773,2,0,L|351:258,1,60.5000018463135
190,199,86941,6,0,L|274:179,1,60.5000018463135,0|8,3:0|0:0,0:0:0:0:
170,162,87110,2,0,L|99:155,1,60.5000018463135
265,91,87279,2,0,L|206:40,1,60.5000018463135,8|0,0:0|0:0,0:0:0:0:
266,23,87447,2,0,L|332:-10,1,60.5000018463135
130,54,87616,6,0,L|6:78,2,121.000003692627,4|0|8,3:2|0:0|0:0,0:0:0:0:
359,176,88121,2,0,L|282:192,1,60.5000018463135
380,214,88290,2,0,L|515:229,1,121.000003692627,0|0,3:0|0:0,0:0:0:0:
438,258,88543,1,0,0:0:0:0:
221,349,88627,6,0,L|346:288,1,121.000003692627,8|0,0:0|0:0,0:0:0:0:
475,294,88964,1,0,3:0:0:0:
221,239,89132,2,0,P|296:204|208:121,1,242.000007385254
151,124,89554,1,0,0:0:0:0:
316,40,89638,6,0,L|213:38,1,60.5000018463135,0|0,3:0|0:0,0:0:0:0:
78,56,89807,2,0,L|-10:78,1,60.5000018463135
212,201,89975,2,0,L|287:204,1,60.5000018463135,8|0,0:0|0:0,0:0:0:0:
191,224,90144,2,0,L|274:227,1,60.5000018463135,2|2,0:0|0:0,0:0:0:0:
472,304,90312,6,0,L|244:307,1,181.500005538941,0|0,3:0|0:0,0:0:0:0:
359,273,90649,2,0,L|281:268,1,60.5000018463135,8|0,0:0|0:0,0:0:0:0:
121,235,90818,1,0,0:0:0:0:
152,183,90902,1,0,0:0:0:0:
202,152,90986,1,0,3:0:0:0:
262,146,91070,1,0,0:0:0:0:
82,81,91155,2,0,L|12:78,1,60.5000018463135
227,41,91323,2,0,P|187:113|88:138,1,181.500005538941,8|0,0:0|0:0,0:0:0:0:
315,176,91661,6,0,L|481:196,1,121.000003692627,4|0,3:2|0:0,0:0:0:0:
377,228,91913,1,0,0:0:0:0:
194,281,91998,2,0,L|117:281,1,60.5000018463135,8|0,0:0|0:0,0:0:0:0:
321,344,92166,5,4,3:2:0:0:
258,331,92250,1,0,0:0:0:0:
232,278,92334,1,0,0:0:0:0:
264,228,92418,1,0,0:0:0:0:
439,122,92503,2,0,L|506:108,1,60.5000018463135,8|0,0:0|0:0,0:0:0:0:
327,59,92672,2,0,L|430:42,1,60.5000018463135
209,107,92840,2,0,L|135:117,1,60.5000018463135,8|0,0:0|0:0,0:0:0:0:
224,139,93009,6,0,L|354:156,1,121.000003692627,0|0,3:0|2:0,0:0:0:0:
315,181,93220,1,0,2:0:0:0:
183,231,93262,2,0,L|148:231,1,30.2500009231568,0|0,2:0|0:0,0:0:0:0:
20,235,93346,1,8,0:0:0:0:
270,324,93515,2,0,P|241:260|73:198,1,242.000007385254
328,172,94020,5,8,0:0:0:0:
262,163,94104,1,0,0:0:0:0:
232,111,94188,1,0,0:0:0:0:
261,59,94272,1,0,0:0:0:0:
326,49,94357,2,0,L|397:55,1,60.5000018463135,0|0,3:0|0:0,0:0:0:0:
193,276,94526,5,0,0:0:0:0:
127,267,94610,1,0,0:0:0:0:
97,215,94694,1,8,0:0:0:0:
126,163,94778,1,0,0:0:0:0:
207,150,94863,2,0,L|124:143,1,60.5000018463135
310,94,95031,6,0,L|221:82,1,60.5000018463135,0|0,3:0|0:0,0:0:0:0:
412,159,95200,2,0,L|496:154,1,60.5000018463135
288,289,95368,2,0,L|210:282,1,60.5000018463135,8|0,0:0|0:0,0:0:0:0:
310,263,95537,2,0,L|237:256,1,60.5000018463135
51,256,95706,6,0,P|37:193|152:144,1,181.500005538941,0|0,3:0|0:0,0:0:0:0:
299,122,96043,2,0,L|372:133,1,60.5000018463135,8|0,0:0|0:0,0:0:0:0:
170,194,96211,5,0,0:0:0:0:
236,185,96295,1,0,0:0:0:0:
266,133,96379,1,0,3:0:0:0:
237,81,96463,1,0,0:0:0:0:
168,72,96548,1,0,0:0:0:0:
21,84,96632,1,0,0:0:0:0:
168,72,96717,6,0,B|432:149|432:149|383:296,1,412.5,8|0,0:0|0:0,0:0:0:0:
315,309,97054,2,0,L|386:313,1,60.5000018463135,0|0,3:0|0:0,0:0:0:0:
188,349,97222,2,0,L|141:273,2,60.5000018463135,0|0|8,0:0|0:0|0:0,0:0:0:0:
254,358,97475,1,0,0:0:0:0:
83,206,97559,2,0,L|4:205,1,60.5000018463135
176,152,97728,5,0,3:0:0:0:
328,147,97812,1,8,0:0:0:0:
165,65,97897,2,0,L|243:54,1,60.5000018463135
416,204,98065,2,0,L|325:221,1,60.5000018463135,8|0,0:0|0:0,0:0:0:0:
436,243,98234,2,0,L|501:262,1,60.5000018463135
295,318,98402,6,0,L|275:236,1,60.5000018463135,4|0,3:2|0:0,0:0:0:0:
190,251,98571,2,0,L|163:180,1,60.5000018463135,0|0,3:0|0:0,0:0:0:0:
360,137,98739,2,0,L|450:126,1,60.5000018463135,0|0,3:0|0:0,0:0:0:0:
226,116,98908,2,0,L|203:37,1,60.5000018463135,0|0,3:0|0:0,0:0:0:0:
116,57,99076,2,0,L|90:-25,1,60.5000018463135,0|0,3:0|0:0,0:0:0:0:
302,41,99245,2,0,L|232:55,1,60.5000018463135,0|0,3:0|3:0,3:0:0:0:
34,138,99413,6,0,L|21:213,1,60.5000018463135,0|0,3:2|0:0,3:0:0:0:
120,214,99582,2,0,L|138:295,1,60.5000018463135,0|0,3:0|0:0,0:0:0:0:
232,288,99750,2,0,L|262:369,1,60.5000018463135,4|0,3:2|0:0,0:0:0:0:
55,367,99919,2,0,L|125:366,1,60.5000018463135,0|0,3:0|0:0,0:0:0:0:
306,287,100088,6,0,L|221:288,1,60.5000018463135,0|0,3:0|0:0,0:0:0:0:
326,262,100256,2,0,L|405:257,1,60.5000018463135,0|0,3:0|0:0,0:0:0:0:
193,182,100425,2,0,L|110:178,1,60.5000018463135,0|0,3:0|0:0,0:0:0:0:
217,152,100593,2,0,L|144:153,1,60.5000018463135,0|0,3:0|0:0,0:0:0:0:
346,106,100762,2,0,L|423:93,1,60.5000018463135,0|0,3:0|0:0,0:0:0:0:
209,68,100930,2,0,L|165:61,1,30.2500009231568
306,30,101015,2,0,L|363:27,1,30.2500009231568
467,82,101099,5,8,0:0:0:0:
490,131,101183,1,0,0:0:0:0:
465,179,101267,1,0,3:0:0:0:
406,193,101351,1,0,0:0:0:0:
227,264,101436,2,0,L|325:263,1,60.5000018463135,8|0,0:0|0:0,0:0:0:0:
104,323,101604,6,0,L|27:323,1,60.5000018463135,0|0,3:0|0:0,0:0:0:0:
218,267,101773,2,0,L|232:181,1,60.5000018463135,8|0,0:0|0:0,0:0:0:0:
406,193,101941,2,0,L|422:110,1,60.5000018463135,0|0,3:0|0:0,0:0:0:0:
187,118,102110,2,0,L|99:118,1,60.5000018463135,8|0,0:0|0:0,0:0:0:0:
315,45,102279,2,0,L|223:47,1,60.5000018463135,0|0,3:0|0:0,0:0:0:0:
467,53,102447,5,4,0:2:0:0:
458,176,102616,2,0,L|396:196,1,55,8|0,0:0|0:0,0:0:0:0:
345,198,102784,1,0,0:0:0:0:
70,287,102953,6,8,L|27:287,4,27.5,0|0|0|0|8,0:0|0:0|0:0|0:0|0:0,0:0:0:0:
145,267,103206,1,0,0:0:0:0:
76,216,103290,1,8,0:0:0:0:
155,188,103374,1,0,0:0:0:0:
234,164,103458,2,0,L|135:147,1,55,8|8,0:0|0:0,0:0:0:0:
388,117,103627,2,0,L|450:115,1,55,8|8,0:0|0:0,0:0:0:0:
254,298,103795,6,0,P|240:233|360:209,1,181.500005538941,4|0,3:2|0:0,0:0:0:0:
159,146,104132,2,0,L|80:139,1,60.5000018463135,10|2,0:0|0:0,0:0:0:0:
284,118,104301,2,0,L|321:58,2,60.5000018463135,0|2|0,0:0|0:0|0:0,0:0:0:0:
219,129,104554,1,0,0:0:0:0:
48,257,104638,2,0,L|121:270,1,60.5000018463135,0|0,3:0|0:0,0:0:0:0:
294,278,104807,1,8,0:0:0:0:
52,346,104975,5,0,3:0:0:0:
33,288,105059,1,0,0:0:0:0:
54,231,105143,1,0,0:0:0:0:
98,191,105227,1,0,0:0:0:0:
173,182,105312,2,0,L|100:183,1,60.5000018463135
306,117,105481,2,0,L|381:117,1,60.5000018463135,8|0,0:0|0:0,0:0:0:0:
165,66,105649,6,0,L|316:58,1,121.000003692627,0|0,3:0|0:0,0:0:0:0:
228,37,105902,1,0,0:0:0:0:
37,132,105986,2,0,L|119:136,1,60.5000018463135,0|0,3:0|0:0,0:0:0:0:
279,233,106155,2,0,L|205:243,1,60.5000018463135,8|0,0:0|0:0,0:0:0:0:
301,260,106323,2,0,L|207:261,1,60.5000018463135
427,308,106492,6,0,L|503:302,1,60.5000018463135,0|0,3:0|0:0,0:0:0:0:
403,287,106661,2,0,L|388:227,1,60.5000018463135
200,168,106829,2,0,L|311:160,1,60.5000018463135,8|0,0:0|0:0,0:0:0:0:
452,162,106998,5,2,0:0:0:0:
475,108,107082,1,0,0:0:0:0:
447,57,107166,1,0,0:0:0:0:
389,48,107250,1,0,0:0:0:0:
315,58,107335,2,0,L|424:71,1,60.5000018463135,0|0,3:0|0:0,0:0:0:0:
197,137,107503,2,0,L|123:149,1,60.5000018463135,8|0,0:0|0:0,0:0:0:0:
336,191,107672,6,0,L|200:224,1,121.000003692627,0|0,3:0|0:0,0:0:0:0:
286,241,107925,1,0,0:0:0:0:
212,256,108009,2,0,L|125:260,1,60.5000018463135
337,326,108177,2,0,L|417:331,1,60.5000018463135,8|0,0:0|0:0,0:0:0:0:
210,366,108346,6,0,L|197:292,1,60.5000018463135,0|0,3:0|0:0,0:0:0:0:
286,292,108515,2,0,L|197:289,1,60.5000018463135,0|0,2:0|0:0,0:0:0:0:
37,209,108683,2,0,L|105:193,1,60.5000018463135,0|0,3:0|0:0,0:0:0:0:
272,102,108852,2,0,L|359:102,1,60.5000018463135,8|0,0:0|0:0,0:0:0:0:
173,62,109020,1,0,0:0:0:0:
321,33,109104,1,0,0:0:0:0:
475,63,109189,6,0,P|484:136|381:178,1,181.500005538941,0|0,3:0|0:0,0:0:0:0:
229,205,109526,2,0,L|156:206,1,60.5000018463135,10|2,0:0|0:0,0:0:0:0:
362,331,109694,1,2,0:0:0:0:
315,283,109779,1,2,0:0:0:0:
242,269,109863,2,0,L|341:257,1,60.5000018463135
116,223,110031,2,0,L|180:204,1,60.5000018463135,0|0,3:0|0:0,0:0:0:0:
351,177,110200,1,8,0:0:0:0:
76,118,110368,6,0,L|208:82,1,121.000003692627,0|0,3:0|0:0,0:0:0:0:
143,51,110621,1,0,0:0:0:0:
85,37,110705,1,0,0:0:0:0:
25,44,110789,1,0,0:0:0:0:
204,109,110874,2,0,L|277:109,1,60.5000018463135,8|0,0:0|0:0,0:0:0:0:
79,198,111043,6,0,L|41:262,2,60.5000018463135,0|0|0,3:0|0:0|0:0,0:0:0:0:
143,184,111295,1,0,0:0:0:0:
313,275,111380,2,0,L|239:282,1,60.5000018463135,0|0,3:0|0:0,0:0:0:0:
437,304,111548,2,0,L|513:289,1,60.5000018463135,8|0,0:0|0:0,0:0:0:0:
419,272,111717,2,0,L|401:206,1,60.5000018463135
231,192,111885,6,0,L|209:120,3,60.5000018463135,0|0|0|0,3:0|0:0|0:0|0:0,0:0:0:0:
36,86,112222,2,0,L|106:73,1,60.5000018463135,8|0,0:0|0:0,0:0:0:0:
299,51,112391,5,2,2:0:0:0:
233,59,112475,1,0,0:0:0:0:
202,117,112559,1,0,0:0:0:0:
233,175,112643,1,0,0:0:0:0:
306,205,112728,2,0,L|224:218,1,60.5000018463135,0|0,3:0|0:0,0:0:0:0:
429,272,112897,2,0,L|511:285,1,60.5000018463135,8|0,0:0|0:0,0:0:0:0:
285,347,113065,6,0,L|274:264,1,60.5000018463135,0|0,3:0|0:0,0:0:0:0:
198,277,113234,2,0,L|271:271,1,60.5000018463135,2|0,0:0|0:0,0:0:0:0:
93,226,113402,2,0,L|33:218,1,60.5000018463135,2|0,3:2|0:0,0:0:0:0:
197,161,113571,2,0,L|110:146,1,60.5000018463135,8|0,3:2|0:0,0:0:0:0:
312,119,113739,6,0,L|381:106,1,60.5000018463135,0|0,3:0|0:0,0:0:0:0:
287,92,113908,2,0,L|360:80,1,60.5000018463135,2|0,0:0|0:0,0:0:0:0:
200,49,114076,1,0,3:0:0:0:
51,50,114161,1,0,3:0:0:0:
209,154,114245,2,0,L|294:156,1,60.5000018463135,8|0,0:0|0:0,0:0:0:0:
53,236,114413,2,0,L|151:242,1,60.5000018463135,0|0,3:0|3:0,0:0:0:0:
328,316,114582,6,0,L|129:332,1,181.500005538941,4|0,2:2|0:0,0:0:0:0:
313,240,114919,2,0,L|400:225,1,60.5000018463135,10|2,0:0|0:0,0:0:0:0:
284,202,115088,1,2,0:0:0:0:
252,142,115172,1,2,0:0:0:0:
284,202,115256,1,0,0:0:0:0:
353,209,115340,1,0,0:0:0:0:
184,258,115425,2,0,L|97:282,1,60.5000018463135,0|0,3:0|0:0,0:0:0:0:
320,323,115593,1,8,0:0:0:0:
54,245,115762,5,0,3:0:0:0:
39,187,115846,1,0,0:0:0:0:
69,136,115930,1,0,0:0:0:0:
126,121,116014,1,0,0:0:0:0:
199,111,116099,2,0,L|99:114,1,60.5000018463135
330,66,116267,2,0,L|390:63,1,60.5000018463135,8|0,0:0|0:0,0:0:0:0:
196,156,116436,6,0,L|172:230,1,60.5000018463135,0|0,3:0|0:0,0:0:0:0:
268,221,116604,2,0,L|288:293,1,60.5000018463135
459,326,116773,2,0,L|368:330,1,60.5000018463135,0|0,3:0|0:0,0:0:0:0:
208,348,116941,1,8,0:0:0:0:
279,341,117026,2,0,L|312:283,2,60.5000018463135
85,345,117279,6,0,L|68:269,3,60.5000018463135,0|0|0|0,3:0|0:0|0:0|0:0,0:0:0:0:
255,194,117616,2,0,L|329:185,1,60.5000018463135,8|0,0:0|0:0,0:0:0:0:
112,141,117784,6,0,L|25:126,1,60.5000018463135,2|0,0:0|0:0,0:0:0:0:
141,103,117953,1,0,0:0:0:0:
173,43,118037,1,0,0:0:0:0:
141,103,118121,1,0,3:0:0:0:
72,110,118205,1,0,0:0:0:0:
261,204,118290,2,0,L|344:208,1,60.5000018463135,8|0,0:0|0:0,0:0:0:0:
123,328,118458,6,0,L|32:318,1,60.5000018463135,0|0,3:0|0:0,0:0:0:0:
152,308,118627,2,0,L|170:226,1,60.5000018463135
260,237,118795,2,0,L|151:233,1,60.5000018463135
387,181,118964,2,0,L|461:173,1,60.5000018463135,8|0,0:0|0:0,0:0:0:0:
254,117,119132,6,0,L|380:100,1,121.000003692627,0|0,3:0|0:0,0:0:0:0:
313,70,119385,1,0,0:0:0:0:
233,49,119470,2,0,L|321:31,1,60.5000018463135,0|0,3:0|0:0,0:0:0:0:
487,271,119638,2,0,L|376:277,1,60.5000018463135,8|0,0:0|0:0,0:0:0:0:
253,337,119807,2,0,L|185:337,1,60.5000018463135
396,357,119975,6,0,L|410:220,1,121.000003692627,0|0,3:0|0:0,0:0:0:0:
339,231,120228,1,0,0:0:0:0:
164,173,120312,2,0,L|231:164,1,60.5000018463135,10|2,0:0|0:0,0:0:0:0:
40,65,120481,2,0,L|123:55,1,60.5000018463135,2|2,0:0|0:0,0:0:0:0:
285,90,120649,2,0,L|214:106,1,60.5000018463135
296,133,120818,2,0,L|372:138,1,60.5000018463135,0|0,3:0|0:0,0:0:0:0:
177,255,120986,2,0,L|108:266,1,60.5000018463135,8|0,0:0|0:0,0:0:0:0:
317,322,121155,6,0,L|397:312,1,60.5000018463135,0|0,3:0|0:0,0:0:0:0:
296,302,121323,2,0,L|276:229,1,60.5000018463135
187,226,121492,2,0,L|268:211,1,60.5000018463135
55,168,121661,2,0,L|135:153,1,60.5000018463135,8|0,0:0|0:0,0:0:0:0:
297,107,121829,6,0,L|166:100,1,121.000003692627,0|0,3:0|0:0,0:0:0:0:
237,68,122082,1,0,0:0:0:0:
415,62,122166,2,0,L|523:63,1,60.5000018463135,0|0,3:0|0:0,0:0:0:0:
294,229,122335,2,0,L|214:234,1,60.5000018463135,8|0,0:0|0:0,0:0:0:0:
320,256,122503,2,0,L|249:268,1,60.5000018463135
44,297,122672,5,0,3:0:0:0:
11,195,122840,1,2,0:0:0:0:
110,115,123009,1,2,0:0:0:0:
265,84,123177,2,0,L|46:200,1,242.000007385254,2|0,0:0|0:0,0:0:0:0:
83,231,123599,1,0,0:0:0:0:
142,246,123683,1,2,0:0:0:0:
282,222,123852,2,0,L|185:218,1,60.5000018463135,2|0,0:0|0:0,0:0:0:0:
304,208,124020,6,0,L|335:152,2,60.5000018463135,8|0|2,0:0|0:0|0:0,0:0:0:0:
192,246,124357,1,2,0:0:0:0:
353,283,124526,2,0,P|431:269|431:119,1,242.000007385254,8|2,0:0|0:0,0:0:0:0:
379,111,124947,1,2,0:0:0:0:
190,67,125031,2,0,L|275:64,1,60.5000018463135,8|0,0:0|0:0,0:0:0:0:
92,155,125200,1,2,0:0:0:0:
248,173,125284,1,2,0:0:0:0:
415,193,125368,6,0,L|481:75,1,121.000003692627,12|0,0:0|0:0,0:0:0:0:
228,244,125706,1,0,0:0:0:0:
484,310,125874,2,0,L|345:343,1,121.000003692627,12|0,0:0|0:0,0:0:0:0:
114,349,126211,1,0,0:0:0:0:
358,213,126380,6,0,L|216:217,1,121.000003692627,12|0,0:0|0:0,0:0:0:0:
493,131,126717,1,0,0:0:0:0:
214,108,126885,2,0,L|333:57,1,121.000003692627,12|0,0:0|0:0,0:0:0:0:
166,29,127222,1,0,0:0:0:0:
465,184,127391,6,0,L|385:206,1,60.5000018463135,12|0,0:0|0:0,0:0:0:0:
218,263,127559,2,0,L|299:272,1,60.5000018463135,8|0,0:0|0:0,0:0:0:0:
89,328,127728,2,0,L|11:329,1,60.5000018463135,8|0,0:0|0:0,0:0:0:0:
252,356,127897,5,8,0:0:0:0:
256,192,128065,12,0,129245,0:0:0:0:
286,284,129413,6,0,L|361:275,1,60.5000018463135,0|0,3:0|3:0,3:0:0:0:
254,255,129582,2,0,L|336:240,1,60.5000018463135,0|0,3:0|3:0,3:0:0:0:
217,227,129750,2,0,L|296:211,1,60.5000018463135,0|0,3:0|3:0,3:0:0:0:
103,165,129919,2,0,L|-15:161,1,60.5000018463135,0|0,3:0|3:0,3:0:0:0:
226,111,130088,2,0,L|115:109,1,60.5000018463135,0|0,3:0|3:0,3:0:0:0:
348,66,130256,2,0,L|273:66,1,60.5000018463135,0|0,3:0|3:0,3:0:0:0:
463,115,130425,6,0,B|357:178|357:178|476:182,1,242.000007385254,8|0,3:2|0:0,0:0:0:0:
