osu file format v14

[General]
AudioFilename: audio.mp3
AudioLeadIn: 0
PreviewTime:103711
Countdown: 0
SampleSet: Soft
StackLeniency: 0.7
Mode: 2
LetterboxInBreaks: 0
WidescreenStoryboard: 1

[Editor]
Bookmarks: 28290,38739,60649
DistanceSpacing: 3.7
BeatDivisor: 4
GridSize: 8
TimelineZoom: 2.3

[Metadata]
Title:Replica
TitleUnicode:Replica
Artist:Lime
ArtistUnicode:Lime
Creator:Spectator
Version:AlexDemon's Rain
Source:
Tags:stardust prism verti jemzuu ajamez [ azu- ] [_azu-_] alexdemon- fayew skill issue lol electronic instrumental video game BMS g2r2018 featured artist fa mappers' guild mpg mg catch indonesia cup 2021 cic2021 semi finals hard rock hr2 劇的 会心 go back 2 your roots DEE2 Digital Emergency Exit
BeatmapID:4427423
BeatmapSetID:1524441

[Difficulty]
HPDrainRate:5
CircleSize:3.5
OverallDifficulty:9
ApproachRate:9
SliderMultiplier:1.7
SliderTickRate:2

[Events]
//Background and Video events
0,0,"replica.jpg",0,0
//Break Periods
2,71636,73532
//Storyboard Layer 0 (Background)
//Storyboard Layer 1 (Fail)
//Storyboard Layer 2 (Pass)
//Storyboard Layer 3 (Foreground)
//Storyboard Layer 4 (Overlay)
//Storyboard Sound Samples

[TimingPoints]
1324,337.078651685393,4,2,1,50,1,0
1661,-100,4,2,1,50,0,0
10425,-100,4,2,2,50,0,0
11604,-100,4,2,2,55,0,0
12110,-100,4,2,1,70,0,0
28290,-100,4,2,20,50,0,0
28458,-100,4,2,1,50,0,0
33009,-100,4,2,2,55,0,0
37728,-100,4,2,1,60,0,0
38908,-100,4,2,1,75,0,0
48683,-100,4,2,2,75,0,0
49863,-100,4,2,2,70,0,0
51717,-100,4,2,1,70,0,0
52559,-100,4,2,2,60,0,0
55256,-100,4,2,2,70,0,0
57110,-100,4,2,1,70,0,0
57953,-100,4,2,2,60,0,0
60649,-100,4,2,1,70,0,0
74132,-100,4,3,1,30,0,0
75481,-100,4,3,1,35,0,0
76492,-100,4,3,1,40,0,0
76829,-100,4,3,1,45,0,0
77503,-100,4,3,1,50,0,0
78852,-100,4,3,1,55,0,0
79526,-100,4,3,1,60,0,0
80200,-100,4,3,1,65,0,0
80874,-100,4,2,1,70,0,0
81548,-100,4,2,1,75,0,0
102447,-100,4,2,2,70,0,0
102953,-100,4,2,2,55,0,0
103121,-100,4,2,2,70,0,0
103795,-100,4,2,1,70,0,0
104132,-100,4,2,1,75,0,0
124020,-100,4,2,2,65,0,0
125368,-100,4,2,1,75,0,0

[Colours]
Combo1 : 200,111,184
Combo2 : 192,192,192

[HitObjects]
350,256,1324,6,0,P|385:215|336:164,1,127.5,2|0,0:0|0:0,0:0:0:0:
234,164,1661,1,2,0:0:0:0:
188,152,1745,1,0,0:0:0:0:
187,104,1829,1,0,0:0:0:0:
233,92,1913,1,0,0:0:0:0:
344,95,1998,1,2,0:0:0:0:
460,97,2166,2,0,L|496:96,4,21.25
349,100,2503,6,0,B|262:100|262:100|261:194,1,170,2|2,0:0|0:0,0:0:0:0:
347,184,3009,1,0,0:0:0:0:
432,184,3177,2,0,B|432:95|432:95|339:94,1,170,2|0,0:0|0:0,0:0:0:0:
295,97,3599,1,0,0:0:0:0:
185,100,3683,1,2,0:0:0:0:
147,112,3767,1,0,0:0:0:0:
145,152,3851,1,0,0:0:0:0:
182,168,3935,1,0,0:0:0:0:
294,172,4020,6,0,L|197:171,1,85,2|2,0:0|0:0,0:0:0:0:
153,171,4273,2,0,L|92:173,2,42.5
306,172,4526,2,0,P|365:201|292:248,1,170,2|0,0:0|0:0,0:0:0:0:
224,252,5031,1,0,0:0:0:0:
136,252,5200,6,0,P|77:196|145:176,1,170,2|0,0:0|0:0,0:0:0:0:
159,169,5579,1,0,0:0:0:0:
186,169,5621,1,0,0:0:0:0:
298,164,5706,2,0,L|297:232,1,42.5
188,160,5874,2,0,P|169:111|198:92,1,85,2|0,0:0|0:0,0:0:0:0:
299,91,6127,2,0,L|358:92,2,42.5
144,98,6380,2,0,L|143:168,1,42.5,2|0,0:0|0:0,0:0:0:0:
252,93,6548,2,0,L|297:93,1,42.5
140,99,6717,6,0,P|103:142|153:185,1,127.5,2|0,0:0|0:0,0:0:0:0:
255,192,7054,1,2,0:0:0:0:
297,192,7138,1,0,0:0:0:0:
340,189,7222,1,0,0:0:0:0:
297,192,7306,1,0,0:0:0:0:
186,192,7391,1,2,0:0:0:0:
296,187,7559,2,0,L|326:188,4,21.25
186,192,7897,6,0,B|294:192|294:192|292:278,1,170,2|0,0:0|0:0,0:0:0:0:
207,255,8402,1,0,0:0:0:0:
120,188,8571,2,0,L|316:188,1,170,2|0,0:0|0:0,0:0:0:0:
234,187,8992,1,0,0:0:0:0:
123,188,9076,1,2,0:0:0:0:
89,164,9160,1,0,0:0:0:0:
95,124,9244,1,0,0:0:0:0:
133,111,9328,1,0,0:0:0:0:
287,109,9413,6,0,L|373:109,1,85,2|0,0:0|0:0,0:0:0:0:
427,105,9666,2,0,L|484:108,2,42.5
270,105,9919,2,0,L|80:107,1,170,2|0,0:0|0:0,0:0:0:0:
184,98,10425,6,0,L|274:154,1,85,2|8,0:0|0:0,0:0:0:0:
105,112,10762,1,8,0:0:0:0:
254,100,10930,2,0,L|254:152,1,42.5,2|2,0:0|0:0,0:0:0:0:
142,144,11099,2,0,L|88:143,1,42.5,8|0,0:0|0:0,0:0:0:0:
210,128,11267,2,0,L|305:124,1,85,8|0,0:0|0:0,0:0:0:0:
252,124,11520,1,0,0:0:0:0:
86,129,11604,2,0,L|86:201,1,42.5,2|2,0:0|0:0,0:0:0:0:
253,175,11773,2,0,L|253:121,1,42.5,8|0,0:0|0:0,0:0:0:0:
189,126,11941,2,0,L|187:75,1,42.5,8|8,0:0|0:0,0:0:0:0:
354,85,12110,6,0,P|381:128|349:153,1,85,4|0,0:0|0:0,0:0:0:0:
278,155,12447,1,10,0:0:0:0:
194,172,12616,2,0,P|168:122|190:107,1,85,2|0,0:0|0:0,0:0:0:0:
342,104,12953,1,0,3:0:0:0:
181,100,13121,1,8,0:0:0:0:
411,102,13290,6,0,P|470:155|404:187,1,170,0|0,3:0|0:0,0:0:0:0:
251,198,13795,1,8,0:0:0:0:
482,207,13964,2,0,B|481:114|481:114|386:117,1,170,0|0,3:0|3:0,0:0:0:0:
242,114,14470,2,0,L|151:112,1,85,10|2,0:0|0:0,0:0:0:0:
388,115,14807,6,0,L|486:115,2,85,0|0|8,3:0|0:0|0:0,0:0:0:0:
159,182,15312,2,0,P|138:125|150:89,1,85,2|0,0:0|0:0,0:0:0:0:
303,113,15649,1,0,3:0:0:0:
141,122,15818,1,8,0:0:0:0:
372,115,15986,6,0,B|465:115|465:115|464:215,1,170,0|0,3:0|0:0,0:0:0:0:
302,194,16492,1,8,0:0:0:0:
71,201,16661,2,0,B|70:114|70:114|164:111,1,170,0|0,3:0|3:0,0:0:0:0:
313,121,17166,2,0,L|406:119,1,85,8|0,0:0|0:0,0:0:0:0:
167,125,17503,6,0,L|74:126,1,85,0|0,3:0|0:0,0:0:0:0:
243,122,17840,1,10,0:0:0:0:
276,145,17924,1,2,0:0:0:0:
277,185,18008,1,2,0:0:0:0:
243,209,18092,1,2,0:0:0:0:
132,211,18177,1,0,0:0:0:0:
293,214,18346,1,0,3:0:0:0:
132,211,18515,1,8,0:0:0:0:
362,218,18683,6,0,P|424:170|348:142,1,170,0|0,3:0|0:0,0:0:0:0:
207,126,19189,1,8,0:0:0:0:
436,122,19357,2,0,B|438:211|438:211|340:212,1,170,0|0,3:0|3:0,0:0:0:0:
195,217,19863,2,0,L|288:218,1,85,8|0,0:0|0:0,0:0:0:0:
50,225,20200,6,0,L|142:221,2,85,0|0|8,3:0|0:0|0:0,0:0:0:0:
282,216,20706,2,0,L|394:218,1,85,2|0,0:0|0:0,0:0:0:0:
205,212,21043,1,0,3:0:0:0:
365,208,21211,1,8,0:0:0:0:
134,212,21380,6,0,P|73:169|135:151,1,170,0|2,3:0|0:0,0:0:0:0:
290,132,21885,1,10,0:0:0:0:
59,137,22054,2,0,L|248:137,1,170,0|0,3:0|3:0,0:0:0:0:
272,135,22475,1,0,3:0:0:0:
437,135,22559,2,0,L|374:138,1,42.5,10|2,0:0|0:0,0:0:0:0:
226,138,22728,2,0,L|175:140,1,42.5,2|2,0:0|0:0,0:0:0:0:
357,138,22897,6,0,L|468:134,2,85,12|0|0,0:0|0:0|0:0,0:0:0:0:
196,144,23402,1,12,0:0:0:0:
111,143,23570,1,0,0:0:0:0:
26,142,23739,1,0,0:0:0:0:
187,144,23908,6,0,L|95:143,2,85,12|0|0,0:0|0:0|0:0,0:0:0:0:
347,140,24413,2,0,L|350:49,1,85,12|0,0:0|0:0,0:0:0:0:
264,57,24750,1,0,0:0:0:0:
425,49,24919,2,0,L|337:47,2,85,12|8|8,0:0|2:0|2:0,0:0:0:0:
193,62,25425,6,0,P|129:92|316:105,1,680,4|0,0:0|0:0,0:0:0:0:
100,117,26941,5,0,3:0:0:0:
63,102,27025,1,0,3:0:0:0:
71,59,27110,1,0,3:0:0:0:
112,60,27193,1,0,3:0:0:0:
272,61,27279,1,0,3:0:0:0:
314,61,27363,1,0,3:0:0:0:
315,103,27447,1,0,3:0:0:0:
274,110,27531,1,0,3:0:0:0:
115,112,27616,1,0,3:0:0:0:
72,111,27700,1,0,3:0:0:0:
29,110,27784,1,0,3:0:0:0:
72,111,27868,1,0,3:0:0:0:
242,127,27953,2,0,P|306:160|306:226,1,127.5,8|0,3:2|0:0,0:0:0:0:
142,128,28290,6,0,L|41:126,1,85,4|0,0:0|0:0,0:0:0:0:
219,53,28627,2,0,L|340:54,2,85,2|0|0,0:0|0:0|0:0,0:0:0:0:
379,49,29132,2,0,P|398:101|370:118,1,85,2|0,0:0|0:0,0:0:0:0:
218,113,29470,6,0,L|121:116,2,85,2|0|0,0:0|0:0|0:0,0:0:0:0:
378,111,29975,1,2,0:0:0:0:
216,111,30144,2,0,L|108:109,1,85,2|0,0:0|0:0,0:0:0:0:
216,109,30481,1,0,0:0:0:0:
300,109,30649,1,2,0:0:0:0:
385,109,30818,1,2,0:0:0:0:
224,106,30986,6,0,L|111:104,1,85,2|0,0:0|0:0,0:0:0:0:
300,106,31323,2,0,L|404:106,2,85,2|0|0,0:0|0:0|0:0,0:0:0:0:
138,104,31829,2,0,P|121:151|150:173,1,85,2|0,0:0|0:0,0:0:0:0:
303,181,32166,6,0,P|356:147|282:107,1,170,2|0,0:0|0:0,0:0:0:0:
129,98,32672,1,2,0:0:0:0:
289,96,32840,1,2,0:0:0:0:
129,98,33009,2,0,L|76:97,1,42.5,0|8,0:0|0:0,0:0:0:0:
200,101,33177,2,0,L|256:103,1,42.5,0|8,0:0|0:0,0:0:0:0:
126,100,33346,2,0,L|26:100,1,85,0|8,0:0|0:0,0:0:0:0:
296,98,33683,6,0,P|327:137|298:167,1,85,2|0,0:0|0:0,0:0:0:0:
150,170,34020,2,0,L|44:170,2,85,8|0|0,0:0|0:0|0:0,0:0:0:0:
311,169,34526,2,0,L|406:168,1,85,2|8,0:0|0:0,0:0:0:0:
234,174,34863,6,0,L|135:172,2,85,0|2|0,0:0|0:0|0:0,0:0:0:0:
394,169,35368,1,8,0:0:0:0:
232,179,35537,1,2,0:0:0:0:
146,178,35706,2,0,P|128:132|155:110,1,85,0|8,0:0|0:0,0:0:0:0:
310,181,36043,2,0,L|429:178,1,85,2|0,0:0|0:0,0:0:0:0:
233,181,36380,6,0,P|222:137|266:109,1,85,2|0,0:0|0:0,0:0:0:0:
408,103,36717,2,0,L|304:102,1,85,8|0,0:0|0:0,0:0:0:0:
207,102,36970,2,0,L|164:103,2,42.5
321,107,37222,2,0,L|215:108,1,85,8|0,0:0|0:0,0:0:0:0:
351,108,37475,2,0,L|397:105,2,42.5
179,121,37728,5,4,0:0:0:0:
137,114,37812,1,0,0:0:0:0:
99,130,37896,1,0,0:0:0:0:
75,164,37980,1,0,0:0:0:0:
73,206,38065,1,2,0:0:0:0:
94,242,38149,1,0,0:0:0:0:
131,262,38233,1,2,0:0:0:0:
173,258,38317,1,0,0:0:0:0:
331,251,38402,2,0,L|404:252,1,42.5,8|0,0:0|0:0,0:0:0:0:
214,248,38571,2,0,L|115:246,1,85,8|0,0:0|0:0,0:0:0:0:
359,246,38908,6,0,P|388:198|370:187,1,85,4|0,0:0|0:0,0:0:0:0:
216,104,39245,1,0,0:0:0:0:
376,103,39413,1,8,0:0:0:0:
216,104,39582,2,0,P|157:154|222:190,1,170
376,199,40088,6,0,L|479:197,2,85,8|0|0,0:0|0:0|3:0,0:0:0:0:
147,207,40593,2,0,P|132:159|236:134,1,170
384,119,41099,2,0,L|286:121,1,85,0|0,3:0|0:0,0:0:0:0:
137,126,41436,2,0,L|239:123,1,85,8|0,0:0|0:0,0:0:0:0:
453,124,41773,6,0,L|455:226,1,85,0|0,3:0|0:0,0:0:0:0:
292,213,42110,1,8,0:0:0:0:
130,217,42279,2,0,P|111:175|139:161,1,85,0|0,0:0|3:0,0:0:0:0:
299,157,42616,2,0,L|407:160,1,85,0|8,0:0|0:0,0:0:0:0:
222,156,42953,6,0,L|126:157,1,85,0|0,0:0|3:0,0:0:0:0:
298,154,43290,1,0,0:0:0:0:
458,155,43458,1,8,0:0:0:0:
220,157,43627,2,0,L|107:158,1,85,0|0,0:0|3:0,0:0:0:0:
296,159,43964,1,0,0:0:0:0:
135,160,44132,1,8,0:0:0:0:
296,156,44301,6,0,P|319:96|282:82,1,85,0|0,0:0|3:0,0:0:0:0:
151,94,44638,2,0,L|246:92,1,85,0|8,0:0|0:0,0:0:0:0:
397,91,44975,2,0,L|292:89,1,85,0|0,0:0|3:0,0:0:0:0:
160,90,45312,1,0,0:0:0:0:
313,90,45481,1,8,0:0:0:0:
148,89,45649,6,0,P|131:133|159:159,1,85,0|0,0:0|3:0,0:0:0:0:
386,88,45986,2,0,P|407:146|367:179,1,85,2|8,0:0|0:0,0:0:0:0:
238,183,46323,1,0,0:0:0:0:
157,186,46408,1,0,0:0:0:0:
77,187,46492,2,0,P|63:138|91:127,1,85,0|0,3:0|0:0,0:0:0:0:
249,133,46829,1,8,0:0:0:0:
87,139,46998,1,0,0:0:0:0:
316,134,47166,6,0,L|407:133,2,85,4|0|8,0:0|0:0|0:0,0:0:0:0:
85,137,47672,1,4,0:0:0:0:
169,137,47840,1,0,0:0:0:0:
254,138,48009,1,0,0:0:0:0:
483,137,48177,6,0,L|482:35,1,85,4|0,0:0|0:0,0:0:0:0:
397,54,48515,1,0,0:0:0:0:
168,53,48683,2,0,L|168:103,1,42.5,2|2,2:0|2:0,0:0:0:0:
326,94,48852,1,8,2:0:0:0:
326,94,49020,2,0,L|328:159,1,42.5,2|2,0:0|0:0,0:0:0:0:
168,144,49189,5,8,0:0:0:0:
127,157,49273,1,2,0:0:0:0:
142,171,49357,1,2,0:0:0:0:
184,174,49441,1,2,0:0:0:0:
343,263,49526,1,8,0:0:0:0:
385,263,49610,1,8,0:0:0:0:
427,263,49694,1,8,0:0:0:0:
385,263,49779,1,8,0:0:0:0:
220,240,49863,5,4,0:2:0:0:
135,238,50031,1,0,3:0:0:0:
50,237,50200,1,8,0:0:0:0:
211,236,50368,2,0,L|404:247,1,170,2|8,0:0|0:0,0:0:0:0:
218,240,50874,2,0,L|334:243,2,85,4|0|8,0:0|0:0|0:0,0:0:0:0:
379,240,51380,6,0,P|392:193|361:182,1,85,2|0,0:0|0:0,0:0:0:0:
205,179,51717,2,0,L|169:177,4,21.25,2|0|0|0|2,0:0|0:0|0:0|0:0|0:0,0:0:0:0:
290,174,52054,1,2,0:0:0:0:
374,170,52222,1,2,0:0:0:0:
459,170,52391,1,2,0:0:0:0:
298,174,52559,5,2,0:0:0:0:
459,174,52728,1,2,0:0:0:0:
297,172,52897,1,8,0:0:0:0:
212,170,53065,1,2,0:0:0:0:
126,169,53234,1,2,0:0:0:0:
287,174,53402,1,8,0:0:0:0:
372,177,53571,2,2,L|407:175,4,21.25,2|2|2|0|2,0:0|0:0|0:0|0:0|2:0,0:0:0:0:
207,189,53908,5,8,0:0:0:0:
169,175,53992,1,0,0:0:0:0:
167,136,54076,1,2,0:0:0:0:
203,119,54160,1,0,0:0:0:0:
319,120,54245,2,0,L|368:121,2,42.5,2|0|2,0:0|0:0|0:0,0:0:0:0:
203,119,54498,1,0,0:0:0:0:
160,118,54582,1,2,0:0:0:0:
118,117,54666,1,2,0:0:0:0:
232,114,54750,2,0,L|280:113,1,42.5,8|0,0:0|0:0,0:0:0:0:
116,119,54919,2,0,L|117:178,1,42.5,8|8,0:0|0:0,0:0:0:0:
275,160,55088,2,0,L|342:158,1,42.5,8|8,0:0|0:0,0:0:0:0:
148,164,55256,6,0,L|149:273,1,85,4|0,0:0|0:0,0:0:0:0:
320,200,55593,1,8,0:0:0:0:
89,205,55762,2,0,P|40:142|105:106,1,170,2|8,0:0|0:0,0:0:0:0:
261,111,56267,2,0,L|352:113,2,85,4|0|0,0:0|0:0|0:0,0:0:0:0:
99,112,56773,6,0,P|77:162|101:195,1,85,2|0,0:0|0:0,0:0:0:0:
251,189,57110,2,0,L|276:190,4,21.25,2|0|0|0|2,0:0|0:0|0:0|0:0|0:0,0:0:0:0:
165,194,57447,1,2,0:0:0:0:
165,194,57616,1,2,0:0:0:0:
251,189,57784,1,2,0:0:0:0:
336,189,57953,5,2,0:0:0:0:
251,189,58121,1,2,0:0:0:0:
80,110,58290,1,8,0:0:0:0:
164,110,58458,1,2,0:0:0:0:
325,146,58627,2,0,L|353:148,4,21.25,8|8|8|0|8,0:0|0:0|0:0|0:0|0:0,0:0:0:0:
239,150,58964,1,8,0:0:0:0:
154,154,59132,1,0,0:0:0:0:
319,152,59301,5,8,0:0:0:0:
404,147,59470,1,0,0:0:0:0:
319,150,59638,1,0,0:0:0:0:
154,154,59807,2,0,L|114:152,4,21.25,8|0|0|0|0,0:0|0:0|0:0|0:0|0:0,0:0:0:0:
319,150,60144,2,0,L|370:147,1,42.5,2|2,0:0|0:0,0:0:0:0:
203,96,60312,1,8,0:0:0:0:
167,114,60396,1,8,0:0:0:0:
166,154,60480,1,8,0:0:0:0:
201,173,60564,1,8,0:0:0:0:
369,103,60649,6,0,L|464:103,1,85,4|0,0:0|0:0,0:0:0:0:
292,103,60986,1,8,0:0:0:0:
62,104,61155,2,0,B|63:194|63:194|169:194,1,170,0|0,0:0|3:0,0:0:0:0:
378,182,61661,2,0,L|389:86,1,85,8|0,0:0|3:0,0:0:0:0:
302,95,61998,1,0,0:0:0:0:
140,188,62166,6,0,L|41:184,1,85,0|8,3:0|0:0,0:0:0:0:
216,187,62503,1,0,0:0:0:0:
304,184,62672,1,0,3:0:0:0:
140,187,62840,1,0,3:0:0:0:
225,183,63009,1,8,0:0:0:0:
309,187,63177,1,0,0:0:0:0:
142,237,63346,5,0,3:0:0:0:
56,234,63515,1,0,0:0:0:0:
218,238,63683,1,8,0:0:0:0:
303,243,63852,1,0,0:0:0:0:
218,238,64020,1,0,0:0:0:0:
56,234,64189,1,0,3:0:0:0:
225,238,64357,1,8,0:0:0:0:
225,238,64526,1,0,3:0:0:0:
386,230,64694,5,0,0:0:0:0:
471,230,64863,1,0,0:0:0:0:
310,236,65031,1,8,0:0:0:0:
225,238,65200,1,0,3:0:0:0:
140,236,65368,1,0,0:0:0:0:
305,239,65537,1,0,3:0:0:0:
390,236,65706,1,10,0:0:0:0:
305,239,65874,1,2,0:0:0:0:
262,238,65958,1,2,0:0:0:0:
103,231,66043,6,0,P|59:192|62:157,1,85,4|0,0:0|0:0,0:0:0:0:
219,226,66380,1,8,0:0:0:0:
448,225,66548,2,0,P|469:177|432:162,1,85
364,161,66885,1,0,3:0:0:0:
133,162,67054,6,0,L|49:161,2,85,8|0|0,0:0|3:0|0:0,0:0:0:0:
362,161,67559,2,0,L|456:160,1,85,0|8,0:0|0:0,0:0:0:0:
362,161,67897,1,0,3:0:0:0:
133,162,68065,1,0,0:0:0:0:
217,162,68234,2,0,L|111:161,1,85,0|8,3:0|0:0,0:0:0:0:
384,160,68571,6,0,P|402:123|372:76,1,85,6|0,0:0|0:0,0:0:0:0:
223,85,68908,2,0,L|133:87,2,85,0|0|0,3:0|3:0|3:0,0:0:0:0:
383,82,69413,2,0,L|292:81,1,85,0|0,3:0|3:0,0:0:0:0:
136,86,69750,2,0,L|46:90,1,85,0|0,3:0|3:0,0:0:0:0:
302,83,70088,5,0,3:0:0:0:
335,106,70172,1,0,3:0:0:0:
333,146,70256,1,0,3:0:0:0:
298,167,70340,1,0,3:0:0:0:
140,176,70425,2,0,L|139:126,1,42.5,0|0,3:0|3:0,3:0:0:0:
295,133,70593,2,0,L|301:84,1,42.5,0|0,3:0|3:0,3:0:0:0:
141,85,70762,2,0,L|80:85,1,42.5,8|0,3:2|3:0,3:0:0:0:
255,79,70930,2,0,L|308:80,1,42.5,8|0,3:2|3:0,3:0:0:0:
113,83,71099,2,0,P|88:120|118:141,1,85,8|8,3:2|3:2,3:0:0:0:
344,136,71436,1,4,3:2:0:0:
284,240,74132,5,0,0:0:0:0:
326,240,74217,1,0,0:0:0:0:
368,241,74301,1,0,0:0:0:0:
325,241,74385,1,0,0:0:0:0:
282,240,74470,1,0,0:0:0:0:
239,240,74554,1,0,0:0:0:0:
196,240,74638,1,0,0:0:0:0:
238,239,74722,1,0,0:0:0:0:
195,240,74807,5,0,0:0:0:0:
152,241,74891,1,0,0:0:0:0:
109,243,74975,1,0,0:0:0:0:
151,243,75059,1,0,0:0:0:0:
193,243,75144,1,0,0:0:0:0:
235,242,75228,1,0,0:0:0:0:
192,241,75312,1,0,0:0:0:0:
149,240,75397,1,0,0:0:0:0:
106,241,75481,5,0,0:0:0:0:
148,238,75565,1,0,0:0:0:0:
190,237,75649,1,0,0:0:0:0:
232,236,75734,1,0,0:0:0:0:
189,236,75818,1,0,0:0:0:0:
231,233,75902,1,0,0:0:0:0:
273,230,75986,1,0,0:0:0:0:
315,227,76071,1,0,0:0:0:0:
357,227,76155,5,0,0:0:0:0:
315,227,76239,1,0,0:0:0:0:
271,226,76323,1,0,0:0:0:0:
231,233,76408,1,0,0:0:0:0:
74,233,76492,2,2,L|72:180,1,42.5,2|2,0:2|0:2,0:2:0:0:
229,180,76661,2,2,L|285:177,1,42.5,2|2,0:2|0:2,0:2:0:0:
111,184,76829,6,0,P|89:146|124:114,1,85,4|0,0:2|0:0,0:0:0:0:
342,105,77166,1,0,0:0:0:0:
384,105,77250,1,0,0:0:0:0:
426,105,77334,1,0,0:0:0:0:
384,105,77418,1,0,0:0:0:0:
221,141,77503,6,0,L|177:141,1,42.5
179,141,77672,2,0,L|233:140,1,42.5
380,144,77840,1,0,0:0:0:0:
422,141,77924,1,0,0:0:0:0:
423,183,78008,1,0,0:0:0:0:
380,186,78092,1,0,0:0:0:0:
226,147,78177,6,0,L|176:146,1,42.5
226,147,78346,2,0,L|284:148,1,42.5
426,131,78515,1,0,0:0:0:0:
469,131,78599,1,0,0:0:0:0:
426,131,78683,1,0,0:0:0:0:
384,130,78767,1,0,0:0:0:0:
225,132,78852,6,0,L|275:131,1,42.5
309,129,79020,2,0,L|385:130,1,42.5
191,135,79189,1,0,0:0:0:0:
149,139,79273,1,0,0:0:0:0:
149,181,79357,1,0,0:0:0:0:
191,186,79441,1,0,0:0:0:0:
349,184,79526,6,0,L|409:184,1,42.5
434,183,79694,2,0,L|389:185,1,42.5
232,181,79863,2,0,L|180:179,1,42.5
232,181,80031,2,0,L|291:184,1,42.5
115,176,80200,6,0,L|66:176,1,42.5
114,176,80368,2,0,L|165:176,1,42.5
312,188,80537,2,0,L|369:190,1,42.5
354,189,80706,2,0,L|308:189,1,42.5
142,190,80874,6,0,L|98:189,1,42.5,4|0,3:2|0:0,0:0:0:0:
257,196,81043,2,0,L|304:195,1,42.5,2|0,0:0|0:0,0:0:0:0:
142,189,81211,2,0,L|92:188,1,42.5,2|2,0:0|0:0,0:0:0:0:
257,195,81380,2,0,L|322:190,1,42.5,2|2,0:0|0:0,0:0:0:0:
129,192,81548,1,8,0:0:0:0:
43,190,81717,2,0,L|43:93,1,85,8|0,0:0|0:0,0:0:0:0:
273,104,82054,6,0,P|327:132|246:178,1,170,4|0,0:0|3:0,0:0:0:0:
110,200,82559,2,0,P|100:154|130:132,1,85,8|0,0:0|0:0,0:0:0:0:
288,127,82897,2,0,L|380:123,1,85,0|0,3:0|0:0,0:0:0:0:
141,134,83234,6,0,L|41:132,1,85,8|0,0:0|0:0,0:0:0:0:
217,132,83571,2,0,L|314:132,1,85,0|0,3:0|0:0,0:0:0:0:
463,127,83908,2,0,P|467:66|438:60,1,85,8|0,0:0|0:0,0:0:0:0:
294,59,84245,6,0,L|235:59,1,42.5,0|0,3:0|0:0,0:0:0:0:
251,59,84413,2,0,L|309:57,1,42.5
452,54,84582,2,0,L|450:106,1,42.5,8|0,0:0|0:0,0:0:0:0:
293,104,84750,2,0,L|229:104,1,42.5
422,102,84919,6,0,P|447:141|420:164,1,85,0|0,3:0|0:0,0:0:0:0:
263,176,85256,1,8,0:0:0:0:
33,177,85425,2,0,P|27:133|71:118,1,85,0|0,0:0|3:0,0:0:0:0:
219,105,85762,1,0,0:0:0:0:
448,108,85930,6,0,P|471:154|439:171,1,85,8|0,0:0|0:0,0:0:0:0:
290,186,86267,2,0,L|204:186,2,85,0|0|8,3:0|0:0|0:0,0:0:0:0:
452,181,86773,6,0,L|451:132,1,42.5
294,135,86941,2,0,L|226:132,1,42.5,0|8,3:0|0:0,0:0:0:0:
410,127,87110,2,0,L|410:83,1,42.5
251,85,87279,2,0,L|202:83,1,42.5,8|0,0:0|0:0,0:0:0:0:
208,83,87447,2,0,L|257:84,1,42.5
424,79,87616,6,0,P|437:133|409:157,1,85,4|0,3:2|0:0,0:0:0:0:
258,151,87953,1,8,0:0:0:0:
418,152,88121,2,0,L|330:152,1,85,0|0,0:0|3:0,0:0:0:0:
171,154,88458,2,0,L|168:103,1,42.5
328,112,88627,6,0,L|418:111,1,85,8|0,0:0|0:0,0:0:0:0:
251,112,88964,1,0,3:0:0:0:
411,109,89132,2,0,P|445:147|411:167,1,85,0|8,0:0|0:0,0:0:0:0:
267,172,89470,6,0,L|225:172,1,42.5
267,172,89638,2,0,L|317:172,1,42.5,0|0,3:0|0:0,0:0:0:0:
426,172,89807,2,0,L|471:171,1,42.5
426,172,89975,2,0,L|376:174,1,42.5,8|0,0:0|0:0,0:0:0:0:
225,176,90144,2,0,L|167:173,1,42.5,2|2,0:0|0:0,0:0:0:0:
354,175,90312,6,0,L|450:172,2,85,0|0|8,3:0|0:0|0:0,0:0:0:0:
192,181,90818,2,0,L|94:180,2,85,0|0|0,0:0|3:0|0:0,0:0:0:0:
352,181,91323,2,0,P|372:125|351:107,1,85,8|0,0:0|0:0,0:0:0:0:
127,119,91661,6,0,P|104:165|130:195,1,85,4|0,3:2|0:0,0:0:0:0:
281,194,91998,2,0,L|331:194,1,42.5,8|0,0:0|0:0,0:0:0:0:
166,198,92166,2,0,L|121:200,1,42.5,4|0,3:2|0:0,0:0:0:0:
123,199,92335,2,0,L|180:198,1,42.5
322,198,92503,2,0,L|378:198,1,42.5,8|0,0:0|0:0,0:0:0:0:
406,197,92672,2,0,L|361:197,1,42.5
207,199,92840,2,0,L|206:145,1,42.5,8|0,0:0|0:0,0:0:0:0:
377,150,93009,5,0,3:0:0:0:
461,146,93177,2,0,L|499:146,2,21.25,0|0|0,2:0|2:0|2:0,2:0:0:0:
345,152,93346,2,0,L|236:146,1,85,8|0,0:0|0:0,0:0:0:0:
422,151,93683,2,0,P|454:113|412:95,1,85,0|0,3:0|0:0,0:0:0:0:
206,103,94020,6,0,L|97:101,1,85,8|0,0:0|0:0,0:0:0:0:
282,101,94357,2,0,P|304:149|270:161,1,85,0|0,3:0|0:0,0:0:0:0:
125,180,94694,2,0,P|107:135|134:113,1,85,8|0,0:0|0:0,0:0:0:0:
291,105,95031,6,0,L|345:103,1,42.5,0|0,3:0|0:0,0:0:0:0:
291,105,95200,2,0,L|232:109,1,42.5
91,110,95368,2,0,L|91:171,1,42.5,8|0,0:0|0:0,0:0:0:0:
251,160,95537,2,0,L|306:163,1,42.5
120,162,95706,6,0,L|20:165,1,85,0|0,3:0|0:0,0:0:0:0:
196,162,96043,1,8,0:0:0:0:
426,166,96211,2,0,P|462:128|416:102,1,85,0|0,0:0|3:0,0:0:0:0:
287,100,96548,1,0,0:0:0:0:
56,109,96717,6,0,P|33:166|63:178,1,85,8|0,0:0|0:0,0:0:0:0:
202,176,97054,2,0,L|301:175,2,85,0|0|8,3:0|0:0|0:0,0:0:0:0:
362,172,97559,6,0,L|361:125,1,42.5
202,127,97728,2,0,L|131:129,1,42.5,0|8,3:0|0:0,0:0:0:0:
318,125,97897,2,0,L|386:120,1,42.5
202,127,98065,2,0,L|156:126,1,42.5,8|0,0:0|0:0,0:0:0:0:
161,73,98234,2,0,L|206:73,1,42.5
375,73,98402,6,0,L|476:73,1,85,4|0,3:2|3:0,0:0:0:0:
298,75,98739,1,0,3:0:0:0:
66,71,98908,2,0,P|37:121|68:147,1,85,0|0,3:0|3:0,0:0:0:0:
209,141,99245,2,0,L|271:141,1,42.5,0|0,3:0|3:0,3:0:0:0:
90,145,99413,6,0,P|61:101|111:75,1,85,0|0,3:2|3:0,3:0:0:0:
237,75,99750,1,4,3:2:0:0:
75,80,99919,6,0,L|75:123,1,42.5,0|0,3:0|0:0,0:0:0:0:
233,120,100088,2,0,B|284:122|277:122,1,42.5,0|0,3:0|0:0,0:0:0:0:
275,121,100256,2,0,L|231:122,1,42.5,0|0,3:0|0:0,0:0:0:0:
74,140,100425,6,0,L|21:135,1,42.5,0|0,3:0|0:0,0:0:0:0:
145,140,100593,2,0,L|209:141,1,42.5,0|0,3:0|0:0,0:0:0:0:
71,143,100762,2,0,L|70:73,1,42.5,0|0,3:0|0:0,0:0:0:0:
228,103,100930,1,0,0:0:0:0:
249,103,100972,1,0,0:0:0:0:
270,103,101014,1,0,0:0:0:0:
111,105,101099,6,0,L|60:103,1,42.5,8|0,0:0|0:0,0:0:0:0:
68,103,101267,2,0,L|116:102,1,42.5,0|0,3:0|0:0,0:0:0:0:
154,105,101436,2,0,L|206:108,1,42.5,8|0,0:0|0:0,0:0:0:0:
354,104,101604,6,0,L|399:102,1,42.5,0|0,3:0|0:0,0:0:0:0:
354,104,101773,2,0,L|306:105,1,42.5,8|0,0:0|0:0,0:0:0:0:
354,104,101941,2,0,L|410:103,1,42.5,0|0,3:0|0:0,0:0:0:0:
238,105,102110,2,0,L|186:106,1,42.5,8|0,0:0|0:0,0:0:0:0:
152,105,102279,2,0,L|201:106,1,42.5,0|0,3:0|0:0,0:0:0:0:
363,105,102447,6,0,P|412:116|430:226,1,170,4|0,0:2|0:0,0:0:0:0:
200,219,102953,1,8,0:0:0:0:
157,217,103037,1,8,0:0:0:0:
314,217,103121,6,0,L|363:213,1,42.5,8|0,0:0|0:0,0:0:0:0:
197,220,103290,2,0,L|196:165,1,42.5,8|0,0:0|0:0,0:0:0:0:
351,158,103458,2,0,L|413:159,1,42.5,8|8,0:0|0:0,0:0:0:0:
232,160,103627,2,0,L|178:158,1,42.5,8|8,0:0|0:0,0:0:0:0:
358,157,103795,6,0,L|454:155,1,85,4|0,3:2|0:0,0:0:0:0:
281,156,104132,2,0,L|225:154,1,42.5,10|2,0:0|0:0,0:0:0:0:
238,154,104301,2,0,L|298:153,1,42.5,0|2,0:0|0:0,0:0:0:0:
398,156,104470,2,0,P|458:141|466:110,1,85,0|0,0:0|3:0,0:0:0:0:
305,97,104807,1,8,0:0:0:0:
73,108,104975,6,0,L|163:110,2,85,0|0|0,3:0|0:0|0:0,0:0:0:0:
234,111,105481,1,8,0:0:0:0:
463,113,105649,2,0,P|482:162|461:187,1,85,0|0,3:0|0:0,0:0:0:0:
303,192,105986,6,0,L|238:195,1,42.5,0|0,3:0|0:0,0:0:0:0:
377,190,106155,2,0,L|423:185,1,42.5,8|0,0:0|0:0,0:0:0:0:
419,185,106323,2,0,L|367:192,1,42.5
217,190,106492,6,0,L|123:191,1,85,0|0,3:0|0:0,0:0:0:0:
293,189,106829,1,8,0:0:0:0:
61,197,106998,2,0,P|49:145|76:127,1,85,2|0,0:0|0:0,0:0:0:0:
230,123,107335,2,0,L|326:123,1,85,0|8,3:0|0:0,0:0:0:0:
85,117,107672,6,0,P|48:170|64:180,1,85,0|0,3:0|0:0,0:0:0:0:
207,169,108009,2,0,L|109:170,1,85,0|8,0:0|0:0,0:0:0:0:
355,168,108346,2,0,P|377:108|354:95,1,85,0|0,3:0|2:0,0:0:0:0:
209,108,108683,6,0,L|154:108,1,42.5,0|0,3:0|0:0,0:0:0:0:
123,112,108852,2,0,L|170:111,1,42.5,8|0,0:0|0:0,0:0:0:0:
322,112,109020,2,0,L|320:60,1,42.5
161,71,109189,6,0,L|69:68,1,85,0|0,3:0|0:0,0:0:0:0:
238,73,109526,2,0,L|288:72,1,42.5,10|2,0:0|0:0,0:0:0:0:
238,73,109694,2,0,L|176:72,1,42.5,2|2,0:0|0:0,0:0:0:0:
78,71,109863,2,0,P|53:113|77:138,1,85,0|0,0:0|3:0,0:0:0:0:
234,134,110200,1,8,0:0:0:0:
464,141,110368,6,0,L|367:141,2,85,0|0|0,3:0|0:0|0:0,0:0:0:0:
302,139,110874,1,8,0:0:0:0:
68,150,111043,2,0,P|54:105|89:84,1,85,0|0,3:0|0:0,0:0:0:0:
241,84,111380,6,0,L|286:85,1,42.5,0|0,3:0|0:0,0:0:0:0:
168,85,111548,2,0,L|107:86,1,42.5,8|0,0:0|0:0,0:0:0:0:
168,85,111717,2,0,L|219:88,1,42.5
371,94,111885,6,0,L|463:93,1,85,0|0,3:0|0:0,0:0:0:0:
294,88,112222,1,8,0:0:0:0:
64,100,112391,2,0,P|40:147|61:167,1,85,2|0,2:0|0:0,0:0:0:0:
218,162,112728,2,0,L|130:164,1,85,0|8,3:0|0:0,0:0:0:0:
363,174,113065,6,0,L|464:170,1,85,0|2,3:0|0:0,0:0:0:0:
286,172,113402,2,0,L|236:172,2,42.5,2|0|8,3:2|0:0|3:2,0:0:0:0:
401,181,113655,2,0,L|456:182,2,42.5,0|0|0,0:0|3:0|0:0,0:0:0:0:
285,177,113908,6,0,L|223:178,1,42.5,2|0,0:0|0:0,0:0:0:0:
200,178,114076,2,0,L|247:178,1,42.5,0|0,3:0|3:0,3:0:0:0:
401,180,114245,2,0,L|457:182,1,42.5,8|0,0:0|0:0,0:0:0:0:
286,179,114413,2,0,L|243:178,1,42.5,0|0,3:0|3:0,0:0:0:0:
415,182,114582,6,0,P|449:152|406:122,1,85,4|0,2:2|0:0,0:0:0:0:
271,110,114919,2,0,L|219:110,1,42.5,10|2,0:0|0:0,0:0:0:0:
185,108,115088,2,0,L|251:105,1,42.5,2|2,0:0|0:0,0:0:0:0:
345,112,115256,2,0,L|447:111,1,85,0|0,0:0|3:0,0:0:0:0:
268,108,115593,1,8,0:0:0:0:
38,112,115762,6,0,P|32:166|53:186,1,85,0|0,3:0|0:0,0:0:0:0:
212,193,116099,2,0,L|316:193,1,85,0|8,0:0|0:0,0:0:0:0:
65,205,116436,2,0,P|59:145|86:140,1,85,0|0,3:0|0:0,0:0:0:0:
231,133,116773,6,0,L|279:133,1,42.5,0|0,3:0|0:0,0:0:0:0:
158,139,116941,2,0,L|106:138,1,42.5,8|0,0:0|0:0,0:0:0:0:
115,138,117110,2,0,L|161:137,1,42.5
317,137,117279,6,0,L|406:132,1,85,0|0,3:0|0:0,0:0:0:0:
239,136,117616,1,8,0:0:0:0:
469,137,117784,2,0,P|468:83|429:74,1,85,2|0,0:0|0:0,0:0:0:0:
283,65,118121,2,0,L|174:66,1,85,0|8,3:0|0:0,0:0:0:0:
432,67,118458,6,0,P|459:113|439:132,1,85,0|0,3:0|0:0,0:0:0:0:
281,133,118795,2,0,L|373:133,1,85,0|8,0:0|0:0,0:0:0:0:
136,138,119132,2,0,L|35:137,2,85,0|0|0,3:0|0:0|3:0,0:0:0:0:
371,136,119638,2,0,L|457:140,1,85,8|0,0:0|0:0,0:0:0:0:
216,140,119975,6,0,P|203:94|237:74,1,85,0|0,3:0|0:0,0:0:0:0:
390,71,120312,2,0,L|435:73,1,42.5,10|2,0:0|0:0,0:0:0:0:
432,72,120481,2,0,L|387:75,1,42.5,2|2,0:0|0:0,0:0:0:0:
274,75,120649,2,0,L|367:76,1,85,0|0,0:0|3:0,0:0:0:0:
197,74,120986,1,8,0:0:0:0:
429,77,121155,6,0,P|452:116|431:157,1,85,0|0,3:0|0:0,0:0:0:0:
276,148,121492,2,0,L|361:148,1,85,0|8,0:0|0:0,0:0:0:0:
131,164,121829,2,0,L|46:165,1,85,0|0,3:0|0:0,0:0:0:0:
207,162,122166,6,0,L|204:112,1,42.5,0|0,3:0|0:0,0:0:0:0:
88,117,122335,2,0,L|43:117,1,42.5,8|0,0:0|0:0,0:0:0:0:
88,117,122503,2,0,L|134:117,1,42.5
290,128,122672,6,0,L|387:127,2,85,0|2|2,3:0|0:0|0:0,0:0:0:0:
61,130,123177,2,0,P|52:83|84:64,1,85,2|0,0:0|0:0,0:0:0:0:
241,63,123515,2,0,L|147:64,1,85,0|2,0:0|0:0,0:0:0:0:
386,67,123852,6,0,P|410:107|391:149,1,85,2|8,0:0|0:0,0:0:0:0:
237,153,124189,2,0,L|343:151,1,85,2|2,0:0|0:0,0:0:0:0:
91,157,124526,2,0,P|77:110|104:95,1,85,8|0,0:0|0:0,0:0:0:0:
263,88,124863,6,0,L|316:88,1,42.5,2|2,0:0|0:0,0:0:0:0:
190,91,125031,2,0,L|139:90,1,42.5,8|0,0:0|0:0,0:0:0:0:
147,90,125200,2,0,L|198:92,1,42.5,2|2,0:0|0:0,0:0:0:0:
350,94,125368,6,0,L|443:93,2,85,12|0|0,0:0|0:0|0:0,0:0:0:0:
119,96,125874,2,0,L|301:93,1,170,12|0,0:0|0:0,0:0:0:0:
59,102,126380,6,0,L|156:103,2,85,12|0|0,0:0|0:0|0:0,0:0:0:0:
288,96,126885,2,0,L|468:97,1,170,12|0,0:0|0:0,0:0:0:0:
226,95,127391,6,0,L|134:97,2,85,12|8|8,0:0|0:0|0:0,0:0:0:0:
456,98,127897,1,8,0:0:0:0:
256,192,128065,12,0,129076,0:0:0:0:
339,233,129413,6,0,L|406:233,1,42.5,0|0,3:0|3:0,3:0:0:0:
381,233,129582,2,0,L|331:235,1,42.5,0|0,3:0|3:0,3:0:0:0:
181,230,129750,2,0,L|117:230,1,42.5,0|0,3:0|3:0,3:0:0:0:
181,230,129919,2,0,L|223:230,1,42.5,0|0,3:0|3:0,3:0:0:0:
382,230,130088,2,0,L|453:229,1,42.5,0|0,3:0|3:0,3:0:0:0:
466,230,130257,2,0,L|410:229,1,42.5,0|0,3:0|3:0,3:0:0:0:
249,229,130425,1,8,3:2:0:0:
