osu file format v14

[General]
AudioFilename: audio.mp3
AudioLeadIn: 0
PreviewTime: 121306
Countdown: 0
SampleSet: Soft
StackLeniency: 0.7
Mode: 2
LetterboxInBreaks: 0
WidescreenStoryboard: 1

[Editor]
Bookmarks: 2640,4973,5306,15973,26640,27973,29306,39973,49306,50640,61306,70640,71973,82640,93306,97306,98640,99973,110640,115973,117306,118640,119973,121306,131973,137306,139973,141473,143973
DistanceSpacing: 0.8
BeatDivisor: 4
GridSize: 32
TimelineZoom: 1

[Metadata]
Title:Renai Syndrome
TitleUnicode:恋愛シンドローム
Artist:Lime
ArtistUnicode:Lime
Creator:Secre
Version:Cup
Source:osu!
Tags:chickenbible regraz mafumafu nelly featured artist electronic instrumental the bms of fighters bof2013 konzertsaal dramatical ソウシソウアイ 佐久間まゆ mappers guild mg kankitsu
BeatmapID:2786780
BeatmapSetID:1338215

[Difficulty]
HPDrainRate:3
CircleSize:2.5
OverallDifficulty:6
ApproachRate:6
SliderMultiplier:1.5
SliderTickRate:1

[Events]
//Background and Video events
0,0,"miko danye home.jpg",0,0
//Break Periods
//Storyboard Layer 0 (Background)
//Storyboard Layer 1 (Fail)
//Storyboard Layer 2 (Pass)
//Storyboard Layer 3 (Foreground)
//Storyboard Layer 4 (Overlay)
//Storyboard Sound Samples

[TimingPoints]
2640,333.333333333333,4,2,1,40,1,0
2640,-100,4,2,1,40,0,0
15973,-100,4,2,1,60,0,1
16306,-100,4,2,1,50,0,0
29306,-100,4,2,1,65,0,1
29639,-100,4,2,1,65,0,0
39973,-100,4,2,1,65,0,1
40306,-100,4,2,1,65,0,0
50640,-100,4,2,1,35,0,0
50973,-100,4,2,1,45,0,0
51306,-100,4,2,1,35,0,0
51640,-100,4,2,1,40,0,0
51973,-100,4,2,1,45,0,0
52640,-100,4,2,1,50,0,0
52973,-100,4,2,1,55,0,0
53195,-100,4,2,1,60,0,0
53306,-100,4,2,1,45,0,0
53973,-100,4,2,1,50,0,0
54306,-100,4,2,1,55,0,0
54529,-100,4,2,1,55,0,0
54640,-100,4,2,1,45,0,0
54973,-100,4,2,1,35,0,0
55306,-100,4,2,1,25,0,0
55640,-100,4,2,1,30,0,0
55973,-100,4,2,1,35,0,0
56306,-100,4,2,1,45,0,0
56640,-100,4,2,1,25,0,0
57306,-100,4,2,1,35,0,0
57640,-100,4,2,1,40,0,0
57973,-100,4,2,1,35,0,0
58306,-100,4,2,1,50,0,0
58529,-100,4,2,1,25,0,0
58640,-100,4,2,1,40,0,0
59195,-100,4,2,1,45,0,0
59306,-100,4,2,1,35,0,0
59973,-100,4,2,1,40,0,0
60306,-100,4,2,1,30,0,0
60640,-100,4,2,1,40,0,0
60973,-100,4,2,1,50,0,0
61306,-100,4,2,1,60,0,1
70306,-100,4,2,1,60,0,0
70639,-100,4,2,1,55,0,1
71973,-100,4,2,1,40,0,0
82639,-100,4,2,1,60,0,1
83973,-100,4,2,1,70,0,1
84306,-100,4,2,1,60,0,1
84473,-100,4,2,1,70,0,1
85640,-100,4,2,1,60,0,1
85973,-100,4,2,1,70,0,1
86306,-100,4,2,1,60,0,1
86640,-100,4,2,1,70,0,1
86973,-100,4,2,1,60,0,1
87640,-100,4,2,1,50,0,1
87973,-100,4,2,1,60,0,1
88640,-100,4,2,1,70,0,1
88973,-100,4,2,1,60,0,1
89306,-100,4,2,1,70,0,1
89806,-100,4,2,1,60,0,1
91306,-100,4,2,1,70,0,1
91640,-100,4,2,1,60,0,1
91973,-100,4,2,1,70,0,1
92306,-100,4,2,1,60,0,1
92973,-100,4,2,1,45,0,0
93389,-100,4,2,1,70,0,1
97306,-100,4,2,1,60,0,0
99973,-100,4,2,1,60,0,1
100306,-100,4,2,1,60,0,0
110639,-100,4,2,1,65,0,1
110973,-100,4,2,1,65,0,0
115973,-100,4,2,1,70,0,1
116973,-100,4,2,1,70,0,0
117306,-100,4,2,1,70,0,1
118306,-100,4,2,1,70,0,0
118639,-100,4,2,1,70,0,1
119639,-100,4,2,1,70,0,0
119973,-100,4,2,1,70,0,1
121139,-100,4,2,1,70,0,0
121306,-100,4,2,1,60,0,1
131639,-100,4,2,1,70,0,0
131973,-100,4,2,1,70,0,1
136973,-100,4,2,1,70,0,0
137306,-100,4,2,1,70,0,1
139973,-100,4,2,1,60,0,0
140473,-100,4,2,1,50,0,0
140973,-100,4,2,1,40,0,0
141473,-100,4,2,1,80,0,1
141639,-100,4,2,1,50,0,0
142640,-100,4,2,1,30,0,0
143973,-100,4,2,1,5,0,0

[Colours]
Combo1 : 245,135,185
Combo2 : 253,140,222
Combo3 : 248,63,114
Combo4 : 244,221,128

[HitObjects]
256,192,2640,12,0,4973,0:0:0:0:
253,229,5306,6,0,L|413:182,1,150,4|0,0:0|0:0,0:0:0:0:
256,230,5973,2,0,L|96:168,1,150,2|0,0:0|0:0,0:0:0:0:
256,231,6640,5,2,0:0:0:0:
256,231,6806,1,0,0:0:0:0:
256,231,6973,1,0,0:0:0:0:
181,231,7140,1,2,0:0:0:0:
181,231,7973,6,0,L|331:171,1,150,2|0,0:0|0:0,0:0:0:0:
184,232,8640,2,0,L|32:170,1,150,2|0,0:0|0:0,0:0:0:0:
181,231,9306,6,0,L|325:167,2,150,2|0|2,0:0|0:0|0:0,0:0:0:0:
30,200,10306,1,0,0:0:0:0:
30,200,10473,1,0,0:0:0:0:
30,200,10640,6,0,L|181:147,1,150,2|0,0:0|0:0,0:0:0:0:
319,235,11306,2,0,L|320:84,1,150,2|0,0:0|0:0,0:0:0:0:
175,139,11973,5,2,0:0:0:0:
175,139,12140,1,0,0:0:0:0:
175,139,12306,1,0,0:0:0:0:
248,138,12473,1,2,0:0:0:0:
248,138,13306,6,0,L|87:215,1,150,2|0,0:0|0:0,0:0:0:0:
248,138,13973,2,0,L|389:210,1,150,2|0,0:0|0:0,0:0:0:0:
248,138,14640,6,0,L|89:214,1,150,2|0,0:0|0:0,0:0:0:0:
250,245,15306,1,2,0:0:0:0:
250,245,15473,1,0,0:0:0:0:
250,245,15640,1,0,0:0:0:0:
175,247,15806,1,0,0:0:0:0:
264,253,15973,6,0,L|418:205,1,150,4|2,0:0|0:0,0:0:0:0:
250,245,16640,2,0,P|254:187|344:155,1,150,2|0,0:0|1:2,0:0:0:0:
475,247,17306,6,0,L|309:248,1,150,2|0,0:0|1:2,0:0:0:0:
404,185,17806,2,0,P|453:207|395:261,1,150,2|0,0:0|0:0,0:0:0:0:
333,263,18306,1,0,1:2:0:0:
179,210,18640,6,0,L|176:59,1,150,2|0,0:0|1:2,0:0:0:0:
258,64,19140,1,2,0:0:0:0:
332,62,19306,2,0,L|341:235,1,150,2|2,0:0|0:0,0:0:0:0:
177,257,19973,6,0,L|344:263,1,150,2|0,0:0|1:2,0:0:0:0:
398,198,20473,1,2,0:0:0:0:
323,184,20640,1,2,0:0:0:0:
171,167,20973,1,0,1:2:0:0:
171,167,21140,1,2,0:0:0:0:
245,116,21306,6,0,L|398:115,1,150,2|0,0:0|1:2,0:0:0:0:
319,223,21806,1,2,0:0:0:0:
243,117,21973,2,0,L|76:116,1,150,2|0,0:0|1:2,0:0:0:0:
263,249,22640,6,0,L|269:88,1,150,2|0,0:0|1:2,0:0:0:0:
192,105,23140,2,0,L|33:107,1,150,2|0,0:0|1:2,0:0:0:0:
119,196,23640,1,0,1:2:0:0:
283,210,23973,6,0,L|293:46,1,150,2|0,0:0|1:2,0:0:0:0:
216,64,24473,1,2,0:0:0:0:
142,123,24640,2,0,L|136:-47,1,150,0|0,3:0|1:2,0:0:0:0:
296,97,25306,6,0,L|462:98,1,150,2|0,0:0|1:2,0:0:0:0:
373,187,25806,1,2,0:0:0:0:
300,190,25973,2,0,L|133:188,1,150,2|0,0:0|3:0,0:0:0:0:
221,114,26473,1,0,1:2:0:0:
295,109,26640,5,4,0:0:0:0:
295,109,26973,2,0,P|298:173|122:328,1,300,4|0,0:0|0:0,0:0:0:0:
142,281,27973,6,0,L|143:95,1,150,8|0,0:0|1:2,0:0:0:0:
219,123,28473,2,0,L|220:-55,1,150,8|0,0:0|1:2,0:0:0:0:
141,67,28973,1,8,3:0:0:0:
284,153,29306,6,0,L|367:154,1,75,6|0,1:0|3:0,0:0:0:0:
142,214,30140,2,0,L|135:124,1,75,2|0,1:0|0:0,0:0:0:0:
216,137,30473,6,0,L|301:140,1,75,2|2,1:0|0:0,0:0:0:0:
142,188,30973,1,2,1:2:0:0:
289,187,31306,1,2,3:0:0:0:
434,196,31640,1,2,1:2:0:0:
296,270,31973,6,0,L|291:185,1,75,2|2,0:0|3:0,0:0:0:0:
364,196,32306,2,0,L|366:108,1,75,2|2,1:0|0:0,0:0:0:0:
442,118,32640,2,0,L|446:26,1,75,2|2,3:0|1:2,0:0:0:0:
367,67,32973,6,0,L|287:66,2,75,2|2|2,0:0|3:0|0:0,0:0:0:0:
448,125,33473,2,0,L|454:32,1,75,2|2,1:0|1:2,0:0:0:0:
303,132,33973,2,0,L|297:38,1,75,2|2,1:0|0:0,0:0:0:0:
373,45,34306,1,2,1:2:0:0:
229,126,34640,6,0,L|147:128,1,75,2|2,1:0|3:0,0:0:0:0:
389,199,35473,2,0,L|393:279,1,75,2|0,1:0|0:0,0:0:0:0:
313,283,35806,6,0,L|230:281,1,75,2|2,1:0|0:0,0:0:0:0:
95,197,36306,1,2,1:2:0:0:
238,164,36640,1,2,3:0:0:0:
385,137,36973,1,2,1:2:0:0:
231,167,37306,6,0,L|221:86,1,75,2|2,0:0|3:0,0:0:0:0:
297,94,37640,2,0,L|299:0,1,75,2|2,1:0|0:0,0:0:0:0:
216,60,37973,2,0,L|211:-20,1,75,2|2,3:0|1:2,0:0:0:0:
132,58,38306,2,0,L|124:-37,1,75,2|2,3:0|3:0,0:0:0:0:
201,174,38640,5,2,0:0:0:0:
279,177,38806,2,0,L|361:176,1,75,2|2,1:0|1:2,0:0:0:0:
213,255,39306,2,0,L|201:166,1,75,2|2,1:0|0:0,0:0:0:0:
284,175,39640,2,0,L|294:83,1,75,2|2,1:0|1:2,0:0:0:0:
209,174,39973,6,0,L|126:175,1,75,6|2,1:0|3:0,0:0:0:0:
351,235,40807,2,0,L|358:145,1,75,2|0,1:0|0:0,0:0:0:0:
277,158,41140,6,0,L|192:161,1,75,2|2,1:0|3:0,0:0:0:0:
351,209,41640,1,2,1:2:0:0:
204,208,41973,1,2,3:0:0:0:
59,217,42307,1,2,1:2:0:0:
197,291,42640,6,0,L|202:206,1,75,2|2,3:0|3:0,0:0:0:0:
129,217,42973,2,0,L|127:129,1,75,2|2,1:0|3:0,0:0:0:0:
51,139,43307,2,0,L|47:47,1,75,2|2,0:0|1:2,0:0:0:0:
126,88,43640,6,0,L|206:87,2,75,2|2|2,0:0|0:0|3:0,0:0:0:0:
45,146,44140,2,0,L|39:53,1,75,2|2,1:0|0:0,0:0:0:0:
190,153,44640,2,0,L|196:59,1,75,2|2,1:0|3:0,0:0:0:0:
120,66,44973,1,2,1:2:0:0:
264,147,45307,6,0,L|346:149,1,75,2|2,1:0|3:0,0:0:0:0:
104,220,46140,2,0,L|100:300,1,75,2|0,1:0|0:0,0:0:0:0:
180,304,46473,6,0,L|263:302,1,75,2|2,1:0|3:0,0:0:0:0:
398,218,46973,1,2,1:2:0:0:
255,185,47307,1,2,0:0:0:0:
108,158,47640,1,2,1:2:0:0:
262,188,47973,6,0,L|272:107,1,75,2|2,3:0|3:0,0:0:0:0:
196,115,48307,2,0,L|194:21,1,75,2|2,1:0|0:0,0:0:0:0:
277,81,48640,2,0,L|282:1,1,75,2|2,3:0|1:2,0:0:0:0:
361,79,48973,2,0,L|369:-16,1,75,2|2,3:0|3:0,0:0:0:0:
292,195,49307,5,4,0:0:0:0:
214,198,49473,2,0,L|132:197,1,75
214,198,49806,2,0,P|271:177|208:66,1,225
79,162,50640,6,0,L|70:7,1,150,6|2,0:0|0:0,0:0:0:0:
213,107,51306,2,0,L|216:-45,1,150,2|2,0:0|0:0,0:0:0:0:
360,116,51973,6,0,L|200:119,1,150,2|2,0:0|0:0,0:0:0:0:
371,188,52640,2,0,L|211:191,1,150,2|2,0:0|0:0,0:0:0:0:
376,256,53306,6,0,L|381:97,1,150,2|2,0:0|0:0,0:0:0:0:
242,183,53973,2,0,L|237:27,1,150,2|2,0:0|0:0,0:0:0:0:
388,101,54640,6,0,L|388:40,1,50,2|2,0:0|0:0,0:0:0:0:
289,77,54973,2,0,L|289:8,1,50,2|2,0:0|0:0,0:0:0:0:
193,174,55306,2,0,L|190:8,1,150,2|2,0:0|0:0,0:0:0:0:
359,124,55973,6,0,L|198:124,1,150,2|2,0:0|0:0,0:0:0:0:
63,195,56640,2,0,L|218:198,1,150,2|2,0:0|0:0,0:0:0:0:
358,237,57306,6,0,L|364:62,1,150,2|2,0:0|0:0,0:0:0:0:
507,145,57973,2,0,L|510:-8,1,150,2|2,0:0|0:0,0:0:0:0:
363,117,58640,6,0,L|197:118,1,150,2|2,0:0|0:0,0:0:0:0:
380,137,59306,2,0,L|391:308,1,150,2|2,0:0|0:0,0:0:0:0:
245,309,59973,6,0,L|77:308,1,150,2|2,0:0|0:0,0:0:0:0:
245,309,60640,2,0,L|413:308,1,150,2|2,0:0|0:0,0:0:0:0:
245,226,61306,6,0,L|240:65,1,150,4|0,3:0|1:2,0:0:0:0:
319,67,61806,1,0,3:0:0:0:
400,81,61973,2,0,L|410:253,1,150,2|0,3:0|0:0,0:0:0:0:
251,263,62640,6,0,L|425:256,1,150,2|0,3:0|1:2,0:0:0:0:
254,263,63306,2,0,L|76:264,1,150,2|2,3:0|1:2,0:0:0:0:
268,197,63973,6,0,L|268:20,1,150,2|2,3:0|1:2,0:0:0:0:
193,54,64473,1,0,3:0:0:0:
58,133,64806,1,0,1:2:0:0:
50,58,64973,1,2,3:0:0:0:
185,131,65306,5,2,3:0:0:0:
192,56,65472,1,0,0:0:0:0:
271,78,65639,1,2,1:2:0:0:
429,21,65973,1,2,3:0:0:0:
354,20,66139,1,0,3:0:0:0:
286,149,66306,1,2,1:2:0:0:
142,237,66640,6,0,L|129:78,1,150,0|2,3:0|1:2,0:0:0:0:
274,106,67306,2,0,L|441:105,1,150,2|2,3:0|3:0,0:0:0:0:
274,102,67973,6,0,L|105:108,1,150,2|0,3:0|1:2,0:0:0:0:
274,106,68640,2,0,L|441:105,1,150,2|2,3:0|1:2,0:0:0:0:
265,233,69306,6,0,L|258:63,1,150,2|2,3:0|1:2,0:0:0:0:
336,74,69806,1,0,3:0:0:0:
417,163,69973,2,0,L|422:5,1,150,2|2,3:0|3:0,0:0:0:0:
280,103,70640,6,0,L|101:107,1,150,4|0,0:0|0:0,0:0:0:0:
206,209,71140,2,0,L|372:208,1,150,0|0,1:2|0:0,0:0:0:0:
424,140,71640,1,0,0:0:0:0:
259,229,71973,6,0,L|92:227,1,150,6|0,0:0|0:0,0:0:0:0:
256,230,72640,2,0,L|427:234,1,150,2|0,0:0|0:0,0:0:0:0:
256,231,73307,5,2,0:0:0:0:
256,231,73473,1,0,0:0:0:0:
256,231,73640,1,0,0:0:0:0:
331,231,73807,1,2,0:0:0:0:
331,231,74640,6,0,L|164:229,1,150,2|0,0:0|0:0,0:0:0:0:
328,232,75307,2,0,L|499:236,1,150,2|0,0:0|0:0,0:0:0:0:
331,231,75973,6,0,L|164:229,2,150,2|0|2,0:0|0:0|0:0,0:0:0:0:
482,200,76973,1,0,0:0:0:0:
482,200,77140,1,0,0:0:0:0:
482,200,77307,6,0,L|325:196,1,150,2|0,0:0|0:0,0:0:0:0:
182,234,77973,2,0,L|181:83,1,150,2|0,0:0|0:0,0:0:0:0:
337,139,78640,5,2,0:0:0:0:
337,139,78807,1,0,0:0:0:0:
337,139,78973,1,0,0:0:0:0:
264,138,79140,1,2,0:0:0:0:
264,138,79973,6,0,L|443:137,1,150,2|0,0:0|0:0,0:0:0:0:
265,137,80640,2,0,L|115:137,1,150,2|0,0:0|0:0,0:0:0:0:
264,138,81307,6,0,L|443:137,1,150,2|0,0:0|0:0,0:0:0:0:
262,245,81973,1,2,0:0:0:0:
262,245,82140,1,0,0:0:0:0:
262,245,82307,1,0,0:0:0:0:
337,247,82473,1,0,0:0:0:0:
262,245,82640,6,0,L|102:247,1,150,4|2,0:0|0:0,0:0:0:0:
262,245,83306,2,0,L|426:242,1,150,2|2,0:0|0:0,0:0:0:0:
259,245,83973,6,0,L|251:75,1,150,2|2,0:0|0:0,0:0:0:0:
328,93,84473,2,0,L|489:92,1,150,2|0,0:0|0:0,0:0:0:0:
406,163,84973,1,0,1:2:0:0:
251,215,85306,6,0,L|413:223,1,150,2|2,0:0|0:0,0:0:0:0:
326,151,85806,1,2,0:0:0:0:
237,142,85973,2,0,L|61:140,1,150,2|2,0:0|0:0,0:0:0:0:
251,229,86640,6,0,L|259:61,1,150,2|2,0:0|0:0,0:0:0:0:
185,78,87140,1,2,0:0:0:0:
110,159,87306,2,0,L|100:-6,1,150,2|2,0:0|0:0,0:0:0:0:
180,24,87806,1,2,0:0:0:0:
256,109,87973,6,0,L|421:109,1,150,2|2,0:0|0:0,0:0:0:0:
247,211,88640,2,0,L|88:210,1,150,2|2,0:0|0:0,0:0:0:0:
264,214,89306,6,0,L|264:48,1,150,2|0,0:0|3:0,0:0:0:0:
182,69,89806,2,0,L|11:65,1,150,2|0,0:0|0:0,0:0:0:0:
108,151,90306,1,0,1:2:0:0:
265,177,90640,6,0,L|419:175,1,150,2|2,0:0|0:0,0:0:0:0:
337,111,91140,1,2,0:0:0:0:
266,175,91306,2,0,L|265:14,1,150,2|2,0:0|0:0,0:0:0:0:
419,128,91973,6,0,L|236:129,1,150,2|2,0:0|0:0,0:0:0:0:
341,204,92473,1,2,0:0:0:0:
418,202,92640,2,0,L|419:106,1,75,2|2,0:0|0:0,0:0:0:0:
342,121,92973,1,2,0:0:0:0:
178,257,93306,6,0,L|332:256,1,150,4|0,3:0|1:2,0:0:0:0:
251,192,93806,1,4,3:0:0:0:
43,196,94306,6,0,L|211:198,1,150,4|0,3:0|0:0,0:0:0:0:
120,124,94806,1,4,3:0:0:0:
333,173,95306,6,0,L|487:176,1,150,4|0,3:0|0:0,0:0:0:0:
420,108,95806,1,4,3:0:0:0:
206,227,96306,6,0,L|202:67,1,150,4|0,3:0|0:0,0:0:0:0:
278,61,96806,1,4,3:0:0:0:
481,148,97306,6,0,B|483:300|483:300|336:302|336:302|336:151,1,450,4|0,0:0|0:0,0:0:0:0:
479,193,98640,6,0,L|478:17,1,150,8|0,0:0|1:2,0:0:0:0:
399,176,99140,2,0,L|394:15,1,150,8|0,0:0|1:2,0:0:0:0:
321,31,99640,1,0,3:0:0:0:
169,229,99973,6,0,P|113:194|178:150,1,150,6|2,0:0|1:2,0:0:0:0:
309,187,100640,2,0,L|478:189,1,150,2|2,0:0|0:0,0:0:0:0:
295,256,101306,6,0,L|120:254,1,150,2|2,0:0|1:2,0:0:0:0:
308,256,101973,2,0,L|473:254,1,150,2|2,0:0|1:2,0:0:0:0:
291,224,102640,6,0,L|286:65,1,150,2|2,0:0|1:2,0:0:0:0:
132,119,103306,2,0,L|118:-47,1,150,2|2,0:0|0:0,0:0:0:0:
195,30,103806,1,2,0:0:0:0:
273,95,103973,6,0,L|435:98,1,150,2|2,0:0|1:2,0:0:0:0:
278,193,104640,2,0,L|114:193,1,150,2|2,3:0|1:2,0:0:0:0:
201,120,105140,1,2,0:0:0:0:
276,136,105306,6,0,L|277:-24,1,150,2|2,0:0|1:2,0:0:0:0:
122,106,105973,2,0,L|110:-56,1,150,2|2,0:0|0:0,0:0:0:0:
188,33,106473,1,2,0:0:0:0:
266,104,106640,6,0,L|449:107,1,150,2|2,0:0|1:2,0:0:0:0:
256,205,107306,2,0,L|85:201,1,150,2|2,0:0|1:2,0:0:0:0:
176,129,107806,1,2,0:0:0:0:
256,127,107973,5,2,0:0:0:0:
256,127,108140,1,2,3:0:0:0:
176,129,108306,1,2,1:2:0:0:
37,146,108640,1,2,0:0:0:0:
37,146,108806,1,2,1:2:0:0:
107,149,108973,1,2,0:0:0:0:
258,189,109306,5,2,0:0:0:0:
332,189,109472,1,2,3:0:0:0:
407,190,109639,1,2,1:2:0:0:
251,124,109973,1,2,0:0:0:0:
176,124,110139,1,2,3:0:0:0:
101,124,110306,1,2,1:2:0:0:
269,259,110640,6,0,L|438:258,1,150,2|2,0:0|1:2,0:0:0:0:
261,227,111306,2,0,L|254:61,1,150,2|2,0:0|0:0,0:0:0:0:
332,62,111806,1,2,0:0:0:0:
407,70,111973,6,0,L|416:252,1,150,2|2,0:0|1:2,0:0:0:0:
256,287,112640,2,0,L|418:288,1,150,2|2,0:0|1:2,0:0:0:0:
231,256,113306,6,0,L|71:257,1,150,2|2,0:0|1:2,0:0:0:0:
249,292,113973,2,0,L|89:293,1,150,2|0,0:0|0:0,0:0:0:0:
267,256,114640,6,0,L|427:257,1,150,2|2,3:0|1:2,0:0:0:0:
249,292,115307,2,0,L|409:293,1,150,2|2,0:0|1:2,0:0:0:0:
237,249,115973,6,0,L|226:84,1,150,6|2,0:0|1:2,0:0:0:0:
73,141,116640,2,0,L|57:-17,1,150,2|2,3:0|1:2,0:0:0:0:
211,119,117306,6,0,L|221:-35,1,150,6|2,0:0|1:2,0:0:0:0:
372,138,117973,2,0,L|381:-24,1,150,2|2,3:0|1:2,0:0:0:0:
228,222,118640,6,0,L|382:227,1,150,6|2,0:0|1:2,0:0:0:0:
228,222,119306,2,0,L|73:224,1,150,2|2,3:0|1:2,0:0:0:0:
234,158,119973,5,6,0:0:0:0:
234,158,120140,1,2,3:0:0:0:
157,161,120306,1,2,1:2:0:0:
14,165,120640,1,2,3:0:0:0:
14,165,120806,1,2,3:0:0:0:
95,166,120973,1,2,1:2:0:0:
268,224,121306,6,0,L|424:223,1,150,6|8,1:0|0:0,0:0:0:0:
333,273,121806,2,0,L|171:271,1,150,2|8,1:0|0:0,0:0:0:0:
253,189,122306,1,2,1:0:0:0:
417,178,122806,5,2,1:0:0:0:
218,258,123306,2,0,L|206:102,1,150,0|0,1:2|1:2,0:0:0:0:
360,265,123973,6,0,L|204:264,1,150,2|8,1:0|0:0,0:0:0:0:
288,238,124473,2,0,L|450:236,1,150,2|8,1:0|0:0,0:0:0:0:
361,169,124973,1,2,1:0:0:0:
200,166,125473,5,2,1:0:0:0:
383,245,125973,2,0,L|395:89,1,150,0|0,1:2|1:2,0:0:0:0:
235,183,126640,6,0,L|404:182,1,150,2|8,1:0|0:0,0:0:0:0:
310,277,127140,2,0,L|301:93,1,150,2|8,1:0|0:0,0:0:0:0:
379,99,127640,1,2,1:0:0:0:
175,117,128140,5,2,1:0:0:0:
360,233,128640,2,0,L|365:75,1,150,0|0,1:2|1:2,0:0:0:0:
217,182,129306,6,0,L|48:181,1,150,2|8,1:0|0:0,0:0:0:0:
142,276,129806,2,0,L|151:92,1,150,2|8,1:0|0:0,0:0:0:0:
73,98,130306,1,2,1:0:0:0:
277,116,130806,5,2,1:0:0:0:
92,232,131306,2,0,L|87:74,1,150,0|0,1:2|1:2,0:0:0:0:
245,178,131973,5,2,1:0:0:0:
319,178,132139,1,0,3:0:0:0:
394,178,132306,1,8,0:0:0:0:
319,178,132473,1,10,1:0:0:0:
122,182,132973,1,2,1:0:0:0:
336,185,133473,5,2,1:0:0:0:
146,256,133973,2,0,L|139:88,1,150,8|8,3:0|0:0,0:0:0:0:
295,182,134640,5,2,1:0:0:0:
220,182,134806,1,0,3:0:0:0:
145,182,134973,1,8,0:0:0:0:
220,182,135140,1,2,1:0:0:0:
418,186,135640,1,2,1:0:0:0:
204,189,136140,5,2,1:0:0:0:
394,260,136640,2,0,L|401:92,1,150,8|8,3:0|3:0,0:0:0:0:
248,204,137306,5,2,1:0:0:0:
179,188,137472,1,0,3:0:0:0:
176,118,137639,1,8,0:0:0:0:
243,97,137806,2,0,L|415:95,1,150,2|0,1:0|3:0,0:0:0:0:
317,180,138306,1,2,1:0:0:0:
170,182,138640,5,8,3:0:0:0:
95,185,138806,2,0,L|87:78,1,75,2|8,1:0|3:0,0:0:0:0:
161,96,139140,1,0,3:0:0:0:
304,140,139473,2,0,L|394:141,1,75,0|8,3:0|0:0,0:0:0:0:
234,230,139973,5,2,1:0:0:0:
41,177,140473,1,2,1:0:0:0:
255,161,140973,1,2,1:0:0:0:
25,94,141473,5,2,1:0:0:0:
256,192,141806,12,0,143973,0:0:0:0:
