osu file format v14

[General]
AudioFilename: audio.mp3
AudioLeadIn: 0
PreviewTime: 97741
Countdown: 0
SampleSet: Normal
StackLeniency: 0.7
Mode: 1
LetterboxInBreaks: 0
WidescreenStoryboard: 0

[Editor]
DistanceSpacing: 2
BeatDivisor: 4
GridSize: 32
TimelineZoom: 2.6

[Metadata]
Title:Renai Syndrome
TitleUnicode:恋愛シンドローム
Artist:Lime
ArtistUnicode:Lime
Creator:Lime717
Version:komasy's Oni
Source:
Tags:electronic instrumental The BMS of Fighters BOF2013 konzertsaal Dramatical ソウシソウアイ 佐久間まゆ Sakuma Mayu Skull Kid Rhytoly Genjuro komasy
BeatmapID:2177544
BeatmapSetID:1012988

[Difficulty]
HPDrainRate:5.5
CircleSize:6
OverallDifficulty:6
ApproachRate:6
SliderMultiplier:1.4
SliderTickRate:1

[Events]
//Background and Video events
0,0,"wallhaven-5wrq87.jpg",0,0
//Break Periods
//Storyboard Layer 0 (Background)
//Storyboard Layer 1 (Fail)
//Storyboard Layer 2 (Pass)
//Storyboard Layer 3 (Foreground)
//Storyboard Layer 4 (Overlay)
//Storyboard Sound Samples

[TimingPoints]
492,333.333333333333,4,1,0,20,1,0
13732,-100,4,1,0,70,0,0
24399,-86.9565217391304,4,1,0,60,0,0
24899,-117.647058823529,4,1,0,40,0,0
27065,-100,4,1,0,60,0,0
37732,-100,4,1,0,70,0,0
47232,-103.092783505155,4,1,0,40,0,0
47399,-106.382978723404,4,1,0,40,0,0
47565,-109.89010989011,4,1,0,40,0,0
48399,-100,4,1,0,50,0,0
59065,-100,4,1,0,60,0,0
69732,-117.647058823529,4,1,0,30,0,0
80399,-100,4,1,0,80,0,0
91065,-90.9090909090909,4,1,0,80,0,0
95232,-117.647058823529,4,1,0,40,0,0
97732,-100,4,1,0,80,0,0
97825,-100,4,1,0,80,0,1
119158,-90.9090909090909,4,1,0,70,0,0
129399,-93.4579439252336,4,1,0,70,0,0
129565,-96.1538461538461,4,1,0,70,0,0
129825,-100,4,1,0,70,0,1
135149,-90.9090909090909,4,1,0,70,0,1
137825,-83.3333333333333,4,1,0,70,0,0
138315,-81.3008130081301,4,1,0,70,0,0
138815,-79.3650793650794,4,1,0,70,0,0
139149,-76.9230769230769,4,1,0,70,0,0

[HitObjects]
256,192,3158,5,12,0:0:0:0:
339,139,3824,1,8,0:0:0:0:
339,139,4491,1,8,0:0:0:0:
256,192,4991,1,8,0:0:0:0:
256,192,5824,1,8,0:0:0:0:
256,192,6491,1,8,0:0:0:0:
256,192,7158,1,8,0:0:0:0:
256,192,7658,1,8,0:0:0:0:
443,122,7824,1,0,0:0:0:0:
443,122,8158,1,0,0:0:0:0:
443,122,8241,1,0,0:0:0:0:
443,122,8324,1,0,0:0:0:0:
422,99,8491,1,8,0:0:0:0:
256,192,8991,1,8,0:0:0:0:
256,192,9158,1,8,0:0:0:0:
256,192,9658,1,8,0:0:0:0:
256,192,9824,1,8,0:0:0:0:
256,192,10324,1,8,0:0:0:0:
256,192,11158,1,8,0:0:0:0:
256,192,11658,1,8,0:0:0:0:
256,192,11824,1,8,0:0:0:0:
256,192,12324,1,8,0:0:0:0:
256,192,12491,1,8,0:0:0:0:
256,192,12991,1,8,0:0:0:0:
290,166,13074,1,8,0:0:0:0:
256,192,13158,1,0,0:0:0:0:
256,192,13824,1,4,0:0:0:0:
256,192,14158,1,8,0:0:0:0:
256,192,14324,1,0,0:0:0:0:
288,196,14408,1,0,0:0:0:0:
256,192,14491,1,0,0:0:0:0:
256,192,14658,1,8,0:0:0:0:
342,117,14991,1,8,0:0:0:0:
256,192,15158,1,0,0:0:0:0:
256,192,15491,1,8,0:0:0:0:
256,192,15658,1,8,0:0:0:0:
273,83,15741,1,8,0:0:0:0:
283,72,15824,1,0,0:0:0:0:
256,192,15991,1,8,0:0:0:0:
256,192,16158,1,8,0:0:0:0:
256,192,16491,1,0,0:0:0:0:
256,192,16824,1,8,0:0:0:0:
283,195,16991,1,0,0:0:0:0:
324,197,17074,1,0,0:0:0:0:
256,192,17158,1,0,0:0:0:0:
256,192,17324,1,8,0:0:0:0:
329,123,17658,1,8,0:0:0:0:
256,192,17824,1,0,0:0:0:0:
256,192,18158,1,8,0:0:0:0:
256,192,18324,1,0,0:0:0:0:
256,192,18491,1,0,0:0:0:0:
320,79,18658,1,8,0:0:0:0:
256,192,18824,1,8,0:0:0:0:
256,192,18991,1,0,0:0:0:0:
256,192,19074,1,0,0:0:0:0:
256,192,19158,1,8,0:0:0:0:
256,192,19491,1,8,0:0:0:0:
256,192,19658,1,0,0:0:0:0:
318,197,19741,1,0,0:0:0:0:
256,192,19824,1,8,0:0:0:0:
256,192,19991,1,8,0:0:0:0:
256,192,20324,1,8,0:0:0:0:
256,192,20491,1,0,0:0:0:0:
256,192,20824,1,8,0:0:0:0:
256,192,20991,1,8,0:0:0:0:
364,140,21074,1,8,0:0:0:0:
256,192,21158,1,0,0:0:0:0:
256,192,21324,1,8,0:0:0:0:
300,128,21491,1,8,0:0:0:0:
256,192,21824,1,0,0:0:0:0:
256,192,22158,1,8,0:0:0:0:
256,192,22324,1,0,0:0:0:0:
326,197,22408,1,0,0:0:0:0:
256,192,22491,1,0,0:0:0:0:
256,192,22658,1,8,0:0:0:0:
329,123,22991,1,8,0:0:0:0:
256,192,23158,1,0,0:0:0:0:
256,192,23324,1,0,0:0:0:0:
256,192,23491,1,8,0:0:0:0:
256,192,23658,1,0,0:0:0:0:
256,192,23741,1,0,0:0:0:0:
256,192,23824,1,0,0:0:0:0:
256,192,23991,1,0,0:0:0:0:
256,192,24158,1,8,0:0:0:0:
334,96,24324,1,8,0:0:0:0:
256,192,24491,1,4,0:0:0:0:
256,192,24824,1,12,0:0:0:0:
256,192,25824,1,8,0:0:0:0:
256,192,26074,1,0,0:0:0:0:
256,192,26158,1,0,0:0:0:0:
256,192,26324,1,8,0:0:0:0:
256,192,26574,1,0,0:0:0:0:
256,192,26658,1,8,0:0:0:0:
256,192,26824,1,0,0:0:0:0:
256,192,27158,1,4,0:0:0:0:
256,192,27491,1,8,0:0:0:0:
256,192,27658,1,0,0:0:0:0:
256,192,27741,1,0,0:0:0:0:
256,192,27824,1,8,0:0:0:0:
256,192,27991,1,4,0:0:0:0:
256,192,28324,1,12,0:0:0:0:
256,192,28658,1,0,0:0:0:0:
256,192,28824,1,8,0:0:0:0:
256,192,28991,1,8,0:0:0:0:
256,192,29158,1,0,0:0:0:0:
256,192,29324,1,8,0:0:0:0:
256,192,29408,1,8,0:0:0:0:
256,192,29491,1,0,0:0:0:0:
256,192,29824,1,0,0:0:0:0:
256,192,29908,1,0,0:0:0:0:
256,192,29991,1,8,0:0:0:0:
256,192,30158,1,4,0:0:0:0:
256,192,30491,1,0,0:0:0:0:
256,192,30658,1,8,0:0:0:0:
256,192,30824,1,0,0:0:0:0:
256,192,30991,1,8,0:0:0:0:
399,158,31074,1,8,0:0:0:0:
256,192,31158,1,0,0:0:0:0:
256,192,31324,1,4,0:0:0:0:
256,192,31658,1,0,0:0:0:0:
256,192,31824,1,12,0:0:0:0:
256,192,31991,1,0,0:0:0:0:
256,192,32074,1,0,0:0:0:0:
256,192,32158,1,8,0:0:0:0:
256,192,32324,1,8,0:0:0:0:
256,192,32491,1,4,0:0:0:0:
256,192,32824,1,8,0:0:0:0:
256,192,32991,1,0,0:0:0:0:
256,192,33074,1,0,0:0:0:0:
256,192,33158,1,8,0:0:0:0:
256,192,33324,1,4,0:0:0:0:
256,192,33658,1,12,0:0:0:0:
256,192,33991,1,0,0:0:0:0:
256,192,34158,1,8,0:0:0:0:
256,192,34324,1,8,0:0:0:0:
256,192,34491,1,0,0:0:0:0:
256,192,34658,1,8,0:0:0:0:
256,192,34741,1,8,0:0:0:0:
256,192,34824,1,0,0:0:0:0:
256,192,35158,1,0,0:0:0:0:
256,192,35241,1,0,0:0:0:0:
256,192,35324,1,8,0:0:0:0:
256,192,35491,1,4,0:0:0:0:
256,192,35824,1,0,0:0:0:0:
256,192,35991,1,8,0:0:0:0:
256,192,36158,1,0,0:0:0:0:
256,192,36324,1,8,0:0:0:0:
351,127,36408,1,8,0:0:0:0:
256,192,36491,1,0,0:0:0:0:
256,192,36658,1,4,0:0:0:0:
256,192,36991,1,0,0:0:0:0:
256,192,37158,1,12,0:0:0:0:
256,192,37324,1,0,0:0:0:0:
347,114,37408,1,0,0:0:0:0:
256,192,37491,1,8,0:0:0:0:
256,192,37658,1,8,0:0:0:0:
256,192,37824,1,4,0:0:0:0:
256,192,38158,1,8,0:0:0:0:
256,192,38324,1,0,0:0:0:0:
256,192,38408,1,8,0:0:0:0:
256,192,38491,1,8,0:0:0:0:
256,192,38658,1,4,0:0:0:0:
256,192,38991,1,12,0:0:0:0:
418,175,39158,1,0,0:0:0:0:
256,192,39324,1,0,0:0:0:0:
256,192,39491,1,8,0:0:0:0:
256,192,39658,1,8,0:0:0:0:
324,117,39741,1,8,0:0:0:0:
256,192,39824,1,8,0:0:0:0:
256,192,39991,1,0,0:0:0:0:
256,192,40158,1,8,0:0:0:0:
256,192,40491,1,0,0:0:0:0:
256,192,40574,1,0,0:0:0:0:
256,192,40658,1,0,0:0:0:0:
256,192,40824,1,12,0:0:0:0:
256,192,40991,1,0,0:0:0:0:
256,192,41324,1,8,0:0:0:0:
256,192,41491,1,0,0:0:0:0:
256,192,41658,1,8,0:0:0:0:
256,192,41741,1,8,0:0:0:0:
256,192,41824,1,0,0:0:0:0:
256,192,41991,1,4,0:0:0:0:
256,192,42324,1,0,0:0:0:0:
256,192,42491,1,12,0:0:0:0:
256,192,42658,1,0,0:0:0:0:
256,192,42741,1,0,0:0:0:0:
256,192,42824,1,8,0:0:0:0:
256,192,42991,1,8,0:0:0:0:
256,192,43158,1,4,0:0:0:0:
256,192,43491,1,8,0:0:0:0:
256,192,43658,1,0,0:0:0:0:
256,192,43741,1,8,0:0:0:0:
256,192,43824,1,8,0:0:0:0:
256,192,43991,1,4,0:0:0:0:
256,192,44324,1,12,0:0:0:0:
229,147,44491,1,0,0:0:0:0:
256,192,44658,1,0,0:0:0:0:
256,192,44824,1,8,0:0:0:0:
256,192,44991,1,8,0:0:0:0:
358,122,45074,1,8,0:0:0:0:
256,192,45158,1,8,0:0:0:0:
256,192,45324,1,0,0:0:0:0:
256,192,45491,1,8,0:0:0:0:
256,192,45824,1,0,0:0:0:0:
256,192,45908,1,0,0:0:0:0:
256,192,45991,1,0,0:0:0:0:
256,192,46158,1,12,0:0:0:0:
256,192,46324,1,0,0:0:0:0:
256,192,46658,1,8,0:0:0:0:
256,192,46824,1,0,0:0:0:0:
256,192,46991,1,8,0:0:0:0:
256,192,47074,1,8,0:0:0:0:
256,192,47158,1,0,0:0:0:0:
256,192,47324,1,8,0:0:0:0:
256,192,47491,1,8,0:0:0:0:
256,192,47658,1,8,0:0:0:0:
256,192,48491,1,4,0:0:0:0:
256,192,48713,1,8,0:0:0:0:
256,192,48824,1,8,0:0:0:0:
256,192,49158,1,0,0:0:0:0:
256,192,49380,1,8,0:0:0:0:
256,192,49491,1,8,0:0:0:0:
256,192,49824,1,0,0:0:0:0:
256,192,50047,1,0,0:0:0:0:
256,192,50158,1,0,0:0:0:0:
256,192,50491,1,0,0:0:0:0:
256,192,50713,1,8,0:0:0:0:
256,192,50824,1,8,0:0:0:0:
256,192,51158,1,0,0:0:0:0:
256,192,51380,1,8,0:0:0:0:
256,192,51491,1,0,0:0:0:0:
256,192,51713,1,8,0:0:0:0:
256,192,51824,1,0,0:0:0:0:
256,192,52047,1,0,0:0:0:0:
256,192,52158,1,8,0:0:0:0:
254,196,52491,1,8,0:0:0:0:
226,119,52713,1,0,0:0:0:0:
256,192,52824,1,8,0:0:0:0:
256,192,53047,1,0,0:0:0:0:
256,192,53158,1,8,0:0:0:0:
420,71,53380,1,8,0:0:0:0:
251,191,53491,1,0,0:0:0:0:
256,192,53824,1,0,0:0:0:0:
256,192,54047,1,0,0:0:0:0:
256,192,54158,1,8,0:0:0:0:
256,192,54491,1,0,0:0:0:0:
256,192,54713,1,0,0:0:0:0:
256,192,54824,1,8,0:0:0:0:
256,192,55158,1,0,0:0:0:0:
256,192,55380,1,0,0:0:0:0:
256,192,55491,1,8,0:0:0:0:
256,192,55713,1,8,0:0:0:0:
256,192,55824,1,0,0:0:0:0:
256,192,56047,1,8,0:0:0:0:
256,192,56158,1,8,0:0:0:0:
256,192,56491,1,0,0:0:0:0:
256,192,56713,1,0,0:0:0:0:
256,192,56824,1,0,0:0:0:0:
256,192,57047,1,8,0:0:0:0:
256,192,57158,1,8,0:0:0:0:
256,192,57380,1,8,0:0:0:0:
256,192,57491,1,0,0:0:0:0:
256,192,57824,1,0,0:0:0:0:
256,192,58047,1,8,0:0:0:0:
256,192,58158,1,8,0:0:0:0:
256,192,58380,1,0,0:0:0:0:
256,192,58491,1,0,0:0:0:0:
256,192,58713,1,0,0:0:0:0:
256,192,58824,1,8,0:0:0:0:
256,192,59158,1,4,0:0:0:0:
256,192,59491,1,8,0:0:0:0:
256,192,59658,1,0,0:0:0:0:
256,192,59991,1,8,0:0:0:0:
256,192,60324,1,8,0:0:0:0:
256,192,60491,1,0,0:0:0:0:
256,192,60658,1,0,0:0:0:0:
256,192,60824,1,8,0:0:0:0:
256,192,60991,1,0,0:0:0:0:
256,192,61324,1,0,0:0:0:0:
256,192,61491,1,8,0:0:0:0:
256,192,61658,1,8,0:0:0:0:
256,192,61741,1,8,0:0:0:0:
256,192,61824,1,0,0:0:0:0:
256,192,62158,1,8,0:0:0:0:
256,192,62324,1,0,0:0:0:0:
256,192,62658,1,8,0:0:0:0:
256,192,62991,1,8,0:0:0:0:
256,192,63158,1,0,0:0:0:0:
256,192,63241,1,0,0:0:0:0:
256,192,63324,1,0,0:0:0:0:
256,192,63491,1,8,0:0:0:0:
256,192,63658,1,0,0:0:0:0:
256,192,63991,1,0,0:0:0:0:
256,192,64158,1,8,0:0:0:0:
235,78,64324,1,8,0:0:0:0:
235,78,64408,1,8,0:0:0:0:
256,192,64491,1,0,0:0:0:0:
256,192,64658,1,0,0:0:0:0:
256,192,64824,1,8,0:0:0:0:
256,192,64991,1,0,0:0:0:0:
256,192,65324,1,8,0:0:0:0:
256,192,65658,1,8,0:0:0:0:
256,192,65824,1,0,0:0:0:0:
256,192,65991,1,0,0:0:0:0:
256,192,66158,1,8,0:0:0:0:
256,192,66324,1,0,0:0:0:0:
256,192,66491,1,8,0:0:0:0:
256,192,66574,1,8,0:0:0:0:
256,192,66658,1,0,0:0:0:0:
168,103,66824,1,8,0:0:0:0:
256,192,67158,1,0,0:0:0:0:
256,192,67491,1,8,0:0:0:0:
256,192,67658,1,0,0:0:0:0:
256,192,67991,1,8,0:0:0:0:
256,192,68158,1,0,0:0:0:0:
256,192,68241,1,0,0:0:0:0:
256,192,68324,1,0,0:0:0:0:
256,192,68491,1,12,0:0:0:0:
256,192,69824,5,12,0:0:0:0:
256,192,70491,1,8,0:0:0:0:
256,192,71158,1,8,0:0:0:0:
256,192,71658,1,8,0:0:0:0:
256,192,72491,1,8,0:0:0:0:
256,192,73158,1,8,0:0:0:0:
256,192,73824,1,8,0:0:0:0:
256,192,74324,1,8,0:0:0:0:
256,192,74491,1,0,0:0:0:0:
279,103,74824,1,0,0:0:0:0:
256,192,74908,1,0,0:0:0:0:
256,192,74991,1,0,0:0:0:0:
256,192,75158,1,8,0:0:0:0:
256,192,75658,1,8,0:0:0:0:
256,192,75824,1,8,0:0:0:0:
256,192,76324,1,8,0:0:0:0:
256,192,76491,1,8,0:0:0:0:
256,192,76991,1,8,0:0:0:0:
256,192,77824,1,8,0:0:0:0:
256,192,78324,1,8,0:0:0:0:
256,192,78491,1,8,0:0:0:0:
256,192,78991,1,8,0:0:0:0:
256,192,79158,1,8,0:0:0:0:
256,192,79658,1,8,0:0:0:0:
256,192,79741,1,8,0:0:0:0:
256,192,79824,1,0,0:0:0:0:
256,192,80491,1,4,0:0:0:0:
256,192,80824,1,8,0:0:0:0:
256,192,80991,1,0,0:0:0:0:
256,192,81158,1,0,0:0:0:0:
256,192,81324,1,8,0:0:0:0:
256,192,81491,1,0,0:0:0:0:
342,117,81658,1,8,0:0:0:0:
342,117,81741,1,8,0:0:0:0:
256,192,81824,1,0,0:0:0:0:
256,192,82158,1,8,0:0:0:0:
256,192,82324,1,0,0:0:0:0:
273,83,82408,1,8,0:0:0:0:
283,72,82491,1,8,0:0:0:0:
256,192,82658,1,0,0:0:0:0:
256,192,82824,1,8,0:0:0:0:
256,192,83158,1,0,0:0:0:0:
256,192,83491,1,8,0:0:0:0:
256,192,83658,1,0,0:0:0:0:
256,192,83824,1,0,0:0:0:0:
256,192,83991,1,8,0:0:0:0:
256,192,84158,1,0,0:0:0:0:
329,123,84324,1,8,0:0:0:0:
256,192,84408,1,8,0:0:0:0:
256,192,84491,1,0,0:0:0:0:
256,192,84824,1,8,0:0:0:0:
256,192,84991,1,0,0:0:0:0:
256,192,85158,1,8,0:0:0:0:
320,79,85324,1,8,0:0:0:0:
256,192,85491,1,0,0:0:0:0:
256,192,85658,1,0,0:0:0:0:
256,192,85741,1,0,0:0:0:0:
256,192,85824,1,8,0:0:0:0:
256,192,86158,1,8,0:0:0:0:
256,192,86324,1,0,0:0:0:0:
338,128,86408,1,0,0:0:0:0:
256,192,86491,1,8,0:0:0:0:
256,192,86658,1,8,0:0:0:0:
256,192,86824,1,0,0:0:0:0:
256,192,86991,1,8,0:0:0:0:
271,87,87074,1,8,0:0:0:0:
256,192,87158,1,0,0:0:0:0:
256,192,87491,1,8,0:0:0:0:
256,192,87658,1,0,0:0:0:0:
364,140,87741,1,8,0:0:0:0:
256,192,87824,1,8,0:0:0:0:
256,192,87991,1,0,0:0:0:0:
300,128,88158,1,8,0:0:0:0:
256,192,88491,1,0,0:0:0:0:
256,192,88824,1,8,0:0:0:0:
256,192,88991,1,0,0:0:0:0:
256,192,89158,1,0,0:0:0:0:
256,192,89324,1,8,0:0:0:0:
256,192,89491,1,0,0:0:0:0:
329,123,89658,1,8,0:0:0:0:
256,192,89741,1,8,0:0:0:0:
256,192,89824,5,0,0:0:0:0:
256,192,89991,1,0,0:0:0:0:
256,192,90158,1,8,0:0:0:0:
256,192,90324,1,0,0:0:0:0:
256,192,90408,1,0,0:0:0:0:
256,192,90491,1,0,0:0:0:0:
256,192,90658,1,0,0:0:0:0:
256,192,90824,1,8,0:0:0:0:
256,192,90991,1,8,0:0:0:0:
256,192,91158,1,4,0:0:0:0:
256,192,91658,1,4,0:0:0:0:
256,192,92158,1,12,0:0:0:0:
256,192,92658,1,12,0:0:0:0:
256,192,93158,1,4,0:0:0:0:
256,192,93491,1,8,0:0:0:0:
256,192,93658,1,4,0:0:0:0:
256,192,94158,1,12,0:0:0:0:
285,103,94491,1,0,0:0:0:0:
256,192,94658,1,12,0:0:0:0:
256,192,95158,1,12,0:0:0:0:
256,192,96491,1,8,0:0:0:0:
256,192,96741,1,0,0:0:0:0:
256,192,96824,1,0,0:0:0:0:
256,192,96991,1,8,0:0:0:0:
256,192,97241,1,0,0:0:0:0:
256,192,97324,1,8,0:0:0:0:
256,192,97491,1,0,0:0:0:0:
256,192,97825,1,4,0:0:0:0:
256,192,98158,1,8,0:0:0:0:
256,192,98324,1,0,0:0:0:0:
293,166,98408,1,0,0:0:0:0:
256,192,98491,1,0,0:0:0:0:
256,192,98658,1,8,0:0:0:0:
347,143,98991,1,8,0:0:0:0:
256,192,99158,1,0,0:0:0:0:
178,106,99324,1,0,0:0:0:0:
293,166,99408,1,0,0:0:0:0:
256,192,99491,1,8,0:0:0:0:
256,192,99658,1,0,0:0:0:0:
256,192,99824,1,8,0:0:0:0:
256,192,99908,1,8,0:0:0:0:
256,192,99991,1,0,0:0:0:0:
256,192,100158,1,8,0:0:0:0:
318,101,100324,1,8,0:0:0:0:
256,192,100491,1,0,0:0:0:0:
256,192,100824,1,8,0:0:0:0:
256,192,100991,1,0,0:0:0:0:
256,192,101074,1,0,0:0:0:0:
256,192,101158,1,0,0:0:0:0:
256,192,101324,1,8,0:0:0:0:
335,109,101491,1,0,0:0:0:0:
256,192,101574,1,8,0:0:0:0:
346,145,101741,1,8,0:0:0:0:
256,192,101824,1,0,0:0:0:0:
256,192,101991,1,0,0:0:0:0:
256,192,102074,1,0,0:0:0:0:
256,192,102158,1,8,0:0:0:0:
256,192,102324,1,0,0:0:0:0:
316,89,102491,1,8,0:0:0:0:
282,146,102574,1,8,0:0:0:0:
256,192,102658,1,0,0:0:0:0:
256,192,102824,1,8,0:0:0:0:
256,192,102991,1,8,0:0:0:0:
256,192,103074,1,8,0:0:0:0:
256,192,103158,1,0,0:0:0:0:
256,192,103491,1,8,0:0:0:0:
256,192,103658,1,0,0:0:0:0:
293,166,103741,1,0,0:0:0:0:
256,192,103824,1,0,0:0:0:0:
256,192,103991,1,8,0:0:0:0:
347,143,104324,1,8,0:0:0:0:
256,192,104491,1,0,0:0:0:0:
293,166,104574,1,0,0:0:0:0:
178,106,104658,1,0,0:0:0:0:
256,192,104824,1,8,0:0:0:0:
256,192,104991,1,0,0:0:0:0:
256,192,105074,1,8,0:0:0:0:
256,192,105158,1,8,0:0:0:0:
256,192,105324,1,0,0:0:0:0:
256,192,105491,1,8,0:0:0:0:
318,101,105658,1,8,0:0:0:0:
382,39,105741,1,8,0:0:0:0:
256,192,105824,1,0,0:0:0:0:
256,192,106158,1,8,0:0:0:0:
256,192,106324,1,0,0:0:0:0:
256,192,106408,1,0,0:0:0:0:
256,192,106491,1,0,0:0:0:0:
256,192,106658,1,8,0:0:0:0:
247,72,106824,1,0,0:0:0:0:
256,192,106908,1,8,0:0:0:0:
377,110,107074,1,8,0:0:0:0:
256,192,107158,1,0,0:0:0:0:
256,192,107324,1,0,0:0:0:0:
256,192,107408,1,0,0:0:0:0:
256,192,107491,5,8,0:0:0:0:
256,192,107658,1,0,0:0:0:0:
316,89,107824,1,8,0:0:0:0:
282,146,107908,1,8,0:0:0:0:
256,192,107991,1,0,0:0:0:0:
246,127,108074,1,0,0:0:0:0:
256,192,108158,1,8,0:0:0:0:
256,192,108324,1,8,0:0:0:0:
256,192,108491,1,4,0:0:0:0:
256,192,108824,1,8,0:0:0:0:
256,192,108991,1,0,0:0:0:0:
293,166,109074,1,0,0:0:0:0:
256,192,109158,1,0,0:0:0:0:
256,192,109324,1,8,0:0:0:0:
267,64,109491,1,0,0:0:0:0:
205,69,109574,1,0,0:0:0:0:
347,143,109658,1,8,0:0:0:0:
256,192,109824,1,0,0:0:0:0:
178,106,109991,1,0,0:0:0:0:
256,192,110158,1,8,0:0:0:0:
256,192,110324,1,0,0:0:0:0:
289,144,110408,1,0,0:0:0:0:
256,192,110491,1,0,0:0:0:0:
256,192,110658,1,0,0:0:0:0:
256,192,110824,1,8,0:0:0:0:
256,192,111158,1,0,0:0:0:0:
320,83,111324,1,0,0:0:0:0:
256,192,111491,1,8,0:0:0:0:
256,192,111658,1,0,0:0:0:0:
256,192,111741,1,0,0:0:0:0:
256,192,111824,1,8,0:0:0:0:
256,192,111991,1,8,0:0:0:0:
294,82,112158,1,0,0:0:0:0:
256,192,112324,1,8,0:0:0:0:
294,82,112407,1,8,0:0:0:0:
256,192,112491,1,0,0:0:0:0:
256,192,112658,1,0,0:0:0:0:
256,192,112824,1,8,0:0:0:0:
277,179,112991,1,8,0:0:0:0:
354,134,113074,1,8,0:0:0:0:
316,89,113158,1,8,0:0:0:0:
256,192,113324,1,0,0:0:0:0:
256,192,113491,1,8,0:0:0:0:
256,192,113824,1,12,0:0:0:0:
256,192,114158,1,8,0:0:0:0:
256,192,114324,1,8,0:0:0:0:
256,192,114491,1,0,0:0:0:0:
256,192,114658,1,8,0:0:0:0:
256,192,114824,1,8,0:0:0:0:
256,192,114991,1,8,0:0:0:0:
256,192,115158,1,4,0:0:0:0:
256,192,115491,1,8,0:0:0:0:
256,192,115658,1,8,0:0:0:0:
256,192,115824,1,0,0:0:0:0:
310,151,115908,1,8,0:0:0:0:
256,192,115991,1,8,0:0:0:0:
256,192,116158,1,8,0:0:0:0:
256,192,116324,1,8,0:0:0:0:
256,192,116491,1,4,0:0:0:0:
383,138,116658,1,8,0:0:0:0:
333,159,116741,1,8,0:0:0:0:
256,192,116824,1,8,0:0:0:0:
256,192,116991,1,8,0:0:0:0:
256,192,117158,1,0,0:0:0:0:
256,192,117241,1,8,0:0:0:0:
256,192,117324,1,8,0:0:0:0:
256,192,117491,1,8,0:0:0:0:
256,192,117658,1,8,0:0:0:0:
256,192,117824,1,4,0:0:0:0:
256,192,117991,1,8,0:0:0:0:
256,192,118074,1,8,0:0:0:0:
256,192,118158,1,8,0:0:0:0:
256,192,118324,1,8,0:0:0:0:
256,192,118491,1,0,0:0:0:0:
256,192,118574,1,8,0:0:0:0:
256,192,118658,1,8,0:0:0:0:
256,192,118741,1,8,0:0:0:0:
256,192,118824,1,8,0:0:0:0:
256,192,118991,1,8,0:0:0:0:
256,192,119158,1,4,0:0:0:0:
256,192,119658,1,12,0:0:0:0:
256,192,120158,1,12,0:0:0:0:
256,192,120658,1,4,0:0:0:0:
285,154,120991,1,8,0:0:0:0:
285,154,121158,1,0,0:0:0:0:
256,192,121241,1,0,0:0:0:0:
256,192,121324,1,8,0:0:0:0:
285,154,121491,1,0,0:0:0:0:
256,192,121824,1,4,0:0:0:0:
256,192,122324,1,4,0:0:0:0:
256,192,122824,1,12,0:0:0:0:
256,192,123324,1,4,0:0:0:0:
256,192,123658,1,8,0:0:0:0:
336,152,123908,1,0,0:0:0:0:
256,192,123991,1,0,0:0:0:0:
256,192,124158,1,0,0:0:0:0:
256,192,124324,1,8,0:0:0:0:
256,192,124491,1,4,0:0:0:0:
256,192,124824,1,0,0:0:0:0:
256,192,124991,1,12,0:0:0:0:
256,192,125324,1,8,0:0:0:0:
256,192,125491,1,4,0:0:0:0:
256,192,125824,1,8,0:0:0:0:
256,192,125991,1,4,0:0:0:0:
256,192,126324,1,8,0:0:0:0:
256,192,126574,1,8,0:0:0:0:
256,192,126658,1,8,0:0:0:0:
256,192,126824,1,0,0:0:0:0:
256,192,127158,1,4,0:0:0:0:
256,192,127491,1,8,0:0:0:0:
256,192,127658,1,4,0:0:0:0:
256,192,127991,1,0,0:0:0:0:
256,192,128158,1,12,0:0:0:0:
256,192,128491,1,8,0:0:0:0:
256,192,128658,1,4,0:0:0:0:
256,192,128991,1,8,0:0:0:0:
60,62,129241,1,0,0:0:0:0:
256,192,129324,1,0,0:0:0:0:
256,192,129491,1,0,0:0:0:0:
314,80,129658,1,8,0:0:0:0:
256,192,129825,1,4,0:0:0:0:
256,192,130158,1,0,0:0:0:0:
256,192,130324,1,8,0:0:0:0:
256,192,130491,1,0,0:0:0:0:
256,192,130574,1,0,0:0:0:0:
256,192,130658,1,0,0:0:0:0:
256,192,130824,1,8,0:0:0:0:
256,192,130991,1,0,0:0:0:0:
256,192,131158,1,0,0:0:0:0:
256,192,131324,1,8,0:0:0:0:
256,192,131491,1,0,0:0:0:0:
260,124,131574,1,0,0:0:0:0:
256,192,131658,1,0,0:0:0:0:
256,192,131824,1,8,0:0:0:0:
256,192,131991,1,0,0:0:0:0:
256,192,132074,1,0,0:0:0:0:
256,192,132158,1,8,0:0:0:0:
256,192,132324,1,8,0:0:0:0:
256,192,132491,1,0,0:0:0:0:
256,192,132824,1,0,0:0:0:0:
256,192,132991,1,8,0:0:0:0:
256,192,133158,1,0,0:0:0:0:
256,192,133241,1,0,0:0:0:0:
256,192,133324,1,0,0:0:0:0:
256,192,133491,1,8,0:0:0:0:
256,192,133658,1,0,0:0:0:0:
256,192,133824,1,0,0:0:0:0:
308,93,133991,1,8,0:0:0:0:
256,192,134158,1,0,0:0:0:0:
269,142,134241,1,8,0:0:0:0:
256,192,134324,1,0,0:0:0:0:
256,192,134491,1,8,0:0:0:0:
256,192,134658,1,0,0:0:0:0:
256,192,134741,1,0,0:0:0:0:
256,192,134824,1,8,0:0:0:0:
256,192,134991,1,8,0:0:0:0:
256,192,135158,1,4,0:0:0:0:
231,61,135324,1,0,0:0:0:0:
256,192,135491,1,0,0:0:0:0:
256,192,135658,1,8,0:0:0:0:
338,83,135824,1,0,0:0:0:0:
256,192,135908,1,0,0:0:0:0:
256,192,135991,1,0,0:0:0:0:
256,192,136158,1,8,0:0:0:0:
256,192,136324,1,0,0:0:0:0:
256,192,136408,1,8,0:0:0:0:
256,192,136491,1,0,0:0:0:0:
256,192,136574,1,0,0:0:0:0:
256,192,136658,1,8,0:0:0:0:
256,192,136824,1,0,0:0:0:0:
256,192,136991,1,8,0:0:0:0:
256,192,137074,1,8,0:0:0:0:
256,192,137158,1,0,0:0:0:0:
256,192,137324,1,8,0:0:0:0:
256,192,137408,1,8,0:0:0:0:
256,192,137491,1,0,0:0:0:0:
256,192,137574,1,0,0:0:0:0:
256,192,137658,1,8,0:0:0:0:
256,192,137825,1,4,0:0:0:0:
256,192,138324,1,4,0:0:0:0:
256,192,138824,1,12,0:0:0:0:
256,192,139324,1,4,0:0:0:0:
