osu file format v14

[General]
AudioFilename: audio.mp3
AudioLeadIn: 0
PreviewTime: 97741
Countdown: 0
SampleSet: Normal
StackLeniency: 0.7
Mode: 1
LetterboxInBreaks: 0
WidescreenStoryboard: 1

[Editor]
DistanceSpacing: 2
BeatDivisor: 4
GridSize: 32
TimelineZoom: 3.299999

[Metadata]
Title:Renai Syndrome
TitleUnicode:恋愛シンドローム
Artist:Lime
ArtistUnicode:Lime
Creator:Lime717
Version:Skull Kid's Kantan
Source:
Tags:electronic instrumental The BMS of Fighters BOF2013 konzertsaal Dramatical ソウシソウアイ 佐久間まゆ Sakuma Mayu Skull Kid Rhytoly Genjuro komasy
BeatmapID:2260609
BeatmapSetID:1012988

[Difficulty]
HPDrainRate:7
CircleSize:4
OverallDifficulty:3
ApproachRate:9
SliderMultiplier:1.4
SliderTickRate:1

[Events]
//Background and Video events
0,0,"wallhaven-5wrq87.jpg",0,0
//Break Periods
2,48691,58558
//Storyboard Layer 0 (Background)
//Storyboard Layer 1 (Fail)
//Storyboard Layer 2 (Pass)
//Storyboard Layer 3 (Foreground)
//Storyboard Layer 4 (Overlay)
//Storyboard Sound Samples

[TimingPoints]
492,333.333333333333,4,1,0,20,1,0
492,-100,4,1,0,30,0,0
13732,-100,4,1,0,70,0,0
24399,-100,4,1,0,60,0,0
24899,-100,4,1,0,40,0,0
27065,-100,4,1,0,60,0,0
37732,-100,4,1,0,70,0,0
47232,-100,4,1,0,40,0,0
48399,-100,4,1,0,50,0,0
59065,-100,4,1,0,60,0,0
69732,-100,4,1,0,30,0,0
80399,-100,4,1,0,80,0,0
95232,-100,4,1,0,40,0,0
97732,-100,4,1,0,80,0,0
97825,-100,4,1,0,80,0,1
119158,-100,4,1,0,70,0,0
129825,-100,4,1,0,70,0,1
137825,-100,4,1,0,70,0,0

[HitObjects]
256,192,3158,5,4,0:0:0:0:
256,192,3824,1,8,0:0:0:0:
256,192,4491,1,8,0:0:0:0:
256,192,4991,1,0,0:0:0:0:
256,192,5824,1,0,0:0:0:0:
256,192,6491,1,8,0:0:0:0:
256,192,7158,1,0,0:0:0:0:
256,192,8491,1,0,0:0:0:0:
256,192,9158,1,8,0:0:0:0:
256,192,9824,1,8,0:0:0:0:
256,192,10324,1,0,0:0:0:0:
256,192,11158,1,0,0:0:0:0:
256,192,11824,1,8,0:0:0:0:
256,192,12491,1,0,0:0:0:0:
256,192,13824,1,4,0:0:0:0:
256,192,14158,1,8,0:0:0:0:
256,192,14658,1,8,0:0:0:0:
256,192,15158,1,0,0:0:0:0:
256,192,15658,1,8,0:0:0:0:
256,192,16491,1,0,0:0:0:0:
256,192,16824,1,8,0:0:0:0:
256,192,17324,1,0,0:0:0:0:
256,192,17824,1,0,0:0:0:0:
256,192,18491,1,8,0:0:0:0:
256,192,19158,1,0,0:0:0:0:
256,192,19491,1,8,0:0:0:0:
256,192,19991,1,8,0:0:0:0:
256,192,20491,1,0,0:0:0:0:
256,192,20991,1,8,0:0:0:0:
256,192,21824,1,0,0:0:0:0:
256,192,22158,1,8,0:0:0:0:
256,192,22658,1,0,0:0:0:0:
256,192,23158,1,0,0:0:0:0:
256,192,23824,1,8,0:0:0:0:
256,192,24158,1,8,0:0:0:0:
256,192,24491,1,4,0:0:0:0:
256,192,24824,1,12,0:0:0:0:
256,192,27158,1,12,0:0:0:0:
256,192,27991,1,4,0:0:0:0:
256,192,28324,1,12,0:0:0:0:
256,192,30158,1,12,0:0:0:0:
256,192,31324,1,12,0:0:0:0:
256,192,31824,1,4,0:0:0:0:
256,192,32491,1,12,0:0:0:0:
256,192,33324,1,4,0:0:0:0:
256,192,33658,1,12,0:0:0:0:
256,192,35491,1,12,0:0:0:0:
256,192,36658,1,12,0:0:0:0:
256,192,37158,1,4,0:0:0:0:
256,192,37491,1,0,0:0:0:0:
256,192,37824,1,12,0:0:0:0:
256,192,38658,1,0,0:0:0:0:
256,192,38991,1,8,0:0:0:0:
256,192,39491,1,0,0:0:0:0:
256,192,39824,1,8,0:0:0:0:
256,192,40158,1,0,0:0:0:0:
256,192,40491,1,0,0:0:0:0:
256,192,40824,1,12,0:0:0:0:
256,192,41491,1,0,0:0:0:0:
256,192,41991,1,8,0:0:0:0:
256,192,42491,1,0,0:0:0:0:
256,192,43158,1,12,0:0:0:0:
256,192,43991,1,0,0:0:0:0:
256,192,44324,1,8,0:0:0:0:
256,192,44824,1,0,0:0:0:0:
256,192,45158,1,8,0:0:0:0:
256,192,45491,1,0,0:0:0:0:
256,192,45824,1,0,0:0:0:0:
256,192,46158,1,12,0:0:0:0:
256,192,46824,1,0,0:0:0:0:
256,192,47158,1,0,0:0:0:0:
256,192,48491,1,4,0:0:0:0:
256,192,59158,5,4,0:0:0:0:
256,192,59491,1,8,0:0:0:0:
256,192,59991,1,8,0:0:0:0:
256,192,60491,1,0,0:0:0:0:
256,192,60824,1,8,0:0:0:0:
256,192,61824,1,0,0:0:0:0:
256,192,62158,1,8,0:0:0:0:
256,192,62658,1,8,0:0:0:0:
256,192,63158,1,0,0:0:0:0:
256,192,64158,1,8,0:0:0:0:
256,192,64491,1,0,0:0:0:0:
256,192,64824,1,8,0:0:0:0:
256,192,65324,1,8,0:0:0:0:
256,192,65824,1,0,0:0:0:0:
256,192,66158,1,8,0:0:0:0:
256,192,67158,1,0,0:0:0:0:
256,192,67491,1,8,0:0:0:0:
256,192,67991,1,8,0:0:0:0:
256,192,68491,1,4,0:0:0:0:
256,192,69824,1,4,0:0:0:0:
256,192,70491,1,8,0:0:0:0:
256,192,71158,1,8,0:0:0:0:
256,192,71658,1,0,0:0:0:0:
256,192,72491,1,0,0:0:0:0:
256,192,73158,1,8,0:0:0:0:
256,192,73824,1,0,0:0:0:0:
256,192,75158,1,0,0:0:0:0:
256,192,75824,1,8,0:0:0:0:
256,192,76491,1,8,0:0:0:0:
256,192,76991,1,0,0:0:0:0:
256,192,77824,1,0,0:0:0:0:
256,192,78491,1,8,0:0:0:0:
256,192,79158,1,0,0:0:0:0:
256,192,80491,1,4,0:0:0:0:
256,192,80824,1,8,0:0:0:0:
256,192,81324,1,8,0:0:0:0:
256,192,81824,1,0,0:0:0:0:
256,192,82324,1,8,0:0:0:0:
256,192,83157,1,0,0:0:0:0:
256,192,83490,1,8,0:0:0:0:
256,192,83991,1,0,0:0:0:0:
256,192,84490,1,0,0:0:0:0:
256,192,85157,1,8,0:0:0:0:
256,192,85491,1,8,0:0:0:0:
256,192,85824,1,0,0:0:0:0:
256,192,86157,1,8,0:0:0:0:
256,192,86657,1,8,0:0:0:0:
256,192,87157,1,0,0:0:0:0:
256,192,87657,1,8,0:0:0:0:
256,192,88490,1,0,0:0:0:0:
256,192,88824,1,8,0:0:0:0:
256,192,89324,1,0,0:0:0:0:
256,192,89824,1,0,0:0:0:0:
256,192,90158,1,0,0:0:0:0:
256,192,90490,1,8,0:0:0:0:
256,192,91157,1,4,0:0:0:0:
256,192,91658,1,4,0:0:0:0:
256,192,92158,1,12,0:0:0:0:
256,192,92658,1,12,0:0:0:0:
256,192,93158,1,4,0:0:0:0:
256,192,93658,1,12,0:0:0:0:
256,192,94158,1,4,0:0:0:0:
256,192,94658,1,12,0:0:0:0:
256,192,95158,1,4,0:0:0:0:
256,192,97825,1,4,0:0:0:0:
256,192,98491,1,0,0:0:0:0:
256,192,98824,1,0,0:0:0:0:
256,192,99158,1,8,0:0:0:0:
256,192,99824,1,0,0:0:0:0:
256,192,100158,1,8,0:0:0:0:
256,192,100491,1,0,0:0:0:0:
256,192,101158,1,0,0:0:0:0:
256,192,101491,1,0,0:0:0:0:
256,192,101824,1,8,0:0:0:0:
256,192,102491,1,8,0:0:0:0:
256,192,102824,1,0,0:0:0:0:
256,192,103158,1,8,0:0:0:0:
256,192,103824,1,0,0:0:0:0:
256,192,104158,1,0,0:0:0:0:
256,192,104491,1,8,0:0:0:0:
256,192,105158,1,0,0:0:0:0:
256,192,105491,1,8,0:0:0:0:
256,192,105824,1,0,0:0:0:0:
256,192,106158,1,0,0:0:0:0:
256,192,107158,1,8,0:0:0:0:
256,192,107491,1,0,0:0:0:0:
256,192,107824,1,8,0:0:0:0:
256,192,108158,1,8,0:0:0:0:
256,192,108491,1,4,0:0:0:0:
256,192,109158,1,0,0:0:0:0:
256,192,109491,1,0,0:0:0:0:
256,192,109824,1,8,0:0:0:0:
256,192,110491,1,0,0:0:0:0:
256,192,110824,1,8,0:0:0:0:
256,192,111158,1,0,0:0:0:0:
256,192,111824,1,0,0:0:0:0:
256,192,112158,1,0,0:0:0:0:
256,192,112491,1,8,0:0:0:0:
256,192,113158,1,8,0:0:0:0:
256,192,113824,1,4,0:0:0:0:
256,192,114158,1,8,0:0:0:0:
256,192,114658,1,8,0:0:0:0:
256,192,115158,1,4,0:0:0:0:
256,192,115491,1,8,0:0:0:0:
256,192,115991,1,8,0:0:0:0:
256,192,116491,1,4,0:0:0:0:
256,192,116824,1,0,0:0:0:0:
256,192,117158,1,8,0:0:0:0:
256,192,117491,1,8,0:0:0:0:
256,192,117824,1,4,0:0:0:0:
256,192,119158,1,4,0:0:0:0:
256,192,119658,1,12,0:0:0:0:
256,192,120158,1,12,0:0:0:0:
256,192,120658,1,4,0:0:0:0:
256,192,121824,1,12,0:0:0:0:
256,192,122324,1,12,0:0:0:0:
256,192,122824,1,12,0:0:0:0:
256,192,123324,1,4,0:0:0:0:
256,192,124491,1,4,0:0:0:0:
256,192,124991,1,12,0:0:0:0:
256,192,125491,1,12,0:0:0:0:
256,192,125991,1,4,0:0:0:0:
256,192,127158,1,12,0:0:0:0:
256,192,127658,1,12,0:0:0:0:
256,192,128158,1,12,0:0:0:0:
256,192,128658,1,4,0:0:0:0:
256,192,129825,1,4,0:0:0:0:
256,192,130325,1,0,0:0:0:0:
256,192,130825,1,8,0:0:0:0:
256,192,131325,1,0,0:0:0:0:
256,192,131825,1,8,0:0:0:0:
256,192,132158,1,8,0:0:0:0:
256,192,132491,1,0,0:0:0:0:
256,192,132991,1,8,0:0:0:0:
256,192,133491,1,8,0:0:0:0:
256,192,133991,1,0,0:0:0:0:
256,192,134491,1,8,0:0:0:0:
256,192,134825,1,8,0:0:0:0:
256,192,135158,1,4,0:0:0:0:
256,192,135658,1,0,0:0:0:0:
256,192,136158,1,8,0:0:0:0:
256,192,136658,1,0,0:0:0:0:
256,192,137158,1,8,0:0:0:0:
256,192,137491,1,8,0:0:0:0:
256,192,137825,1,4,0:0:0:0:
256,192,138324,1,12,0:0:0:0:
256,192,138824,1,12,0:0:0:0:
256,192,139324,1,4,0:0:0:0:
