osu file format v14

[General]
AudioFilename: audio.mp3
AudioLeadIn: 0
PreviewTime: 97741
Countdown: 0
SampleSet: Normal
StackLeniency: 0.7
Mode: 1
LetterboxInBreaks: 0
WidescreenStoryboard: 0

[Editor]
DistanceSpacing: 2
BeatDivisor: 4
GridSize: 32
TimelineZoom: 0.6999997

[Metadata]
Title:Renai Syndrome
TitleUnicode:恋愛シンドローム
Artist:Lime
ArtistUnicode:Lime
Creator:Lime717
Version:Rhytoly's Futsuu
Source:
Tags:electronic instrumental The BMS of Fighters BOF2013 konzertsaal Dramatical ソウシソウアイ 佐久間まゆ Sakuma Mayu Skull Kid Rhytoly Genjuro komasy
BeatmapID:2257402
BeatmapSetID:1012988

[Difficulty]
HPDrainRate:6
CircleSize:7
OverallDifficulty:4
ApproachRate:10
SliderMultiplier:1.4
SliderTickRate:1

[Events]
//Background and Video events
0,0,"wallhaven-5wrq87.jpg",0,0
//Break Periods
//Storyboard Layer 0 (Background)
//Storyboard Layer 1 (Fail)
//Storyboard Layer 2 (Pass)
//Storyboard Layer 3 (Foreground)
//Storyboard Layer 4 (Overlay)
//Storyboard Sound Samples

[TimingPoints]
492,333.333333333333,4,1,0,20,1,0
492,-100,4,1,0,30,0,0
13732,-100,4,1,0,70,0,0
24399,-100,4,1,0,60,0,0
24899,-100,4,1,0,40,0,0
27065,-100,4,1,0,60,0,0
37732,-100,4,1,0,70,0,0
47232,-100,4,1,0,40,0,0
48399,-100,4,1,0,50,0,0
59065,-100,4,1,0,60,0,0
69732,-100,4,1,0,30,0,0
80399,-100,4,1,0,80,0,0
95232,-100,4,1,0,40,0,0
97732,-100,4,1,0,80,0,0
97825,-100,4,1,0,80,0,1
119158,-100,4,1,0,70,0,0
129825,-100,4,1,0,70,0,1
137825,-100,4,1,0,70,0,0

[HitObjects]
256,192,3158,5,12,0:0:0:0:
256,192,3824,1,0,0:0:0:0:
256,192,4491,5,0,0:0:0:0:
256,192,5158,5,0,0:0:0:0:
256,192,5824,5,8,0:0:0:0:
256,192,6491,5,0,0:0:0:0:
256,192,7158,5,0,0:0:0:0:
256,192,7824,5,0,0:0:0:0:
256,192,8158,1,0,0:0:0:0:
256,192,8491,5,8,0:0:0:0:
256,192,9158,1,8,0:0:0:0:
256,192,9824,5,0,0:0:0:0:
256,192,10491,5,0,0:0:0:0:
256,192,11158,5,8,0:0:0:0:
256,192,11824,5,8,0:0:0:0:
256,192,12491,5,0,0:0:0:0:
256,192,13158,5,0,0:0:0:0:
256,192,13824,5,12,0:0:0:0:
256,192,14158,1,0,0:0:0:0:
256,192,14658,1,8,0:0:0:0:
256,192,15158,1,0,0:0:0:0:
256,192,15491,1,8,0:0:0:0:
256,192,15824,1,0,0:0:0:0:
256,192,15991,1,0,0:0:0:0:
256,192,16158,1,8,0:0:0:0:
256,192,16491,5,0,0:0:0:0:
256,128,16824,1,8,0:0:0:0:
256,192,17324,1,0,0:0:0:0:
256,224,17824,1,8,0:0:0:0:
256,224,18158,1,0,0:0:0:0:
256,224,18491,1,8,0:0:0:0:
256,224,18824,1,0,0:0:0:0:
256,224,18991,1,0,0:0:0:0:
256,224,19158,5,8,0:0:0:0:
192,192,19491,1,0,0:0:0:0:
192,192,19824,1,8,0:0:0:0:
192,64,19991,1,0,0:0:0:0:
192,192,20491,1,8,0:0:0:0:
224,160,20658,1,0,0:0:0:0:
224,160,20824,1,0,0:0:0:0:
192,96,20991,1,8,0:0:0:0:
256,192,21158,1,0,0:0:0:0:
352,192,21491,1,0,0:0:0:0:
256,192,21824,1,8,0:0:0:0:
256,192,21991,1,0,0:0:0:0:
128,192,22324,1,0,0:0:0:0:
256,192,22491,1,8,0:0:0:0:
256,192,22991,1,0,0:0:0:0:
128,128,23158,1,8,0:0:0:0:
256,160,23324,1,0,0:0:0:0:
256,160,23658,1,8,0:0:0:0:
256,192,23824,1,0,0:0:0:0:
256,192,24158,1,0,0:0:0:0:
256,192,24491,1,12,0:0:0:0:
224,128,24824,1,8,0:0:0:0:
256,192,25824,1,8,0:0:0:0:
256,192,26324,1,8,0:0:0:0:
256,192,26824,1,0,0:0:0:0:
256,192,27158,1,12,0:0:0:0:
256,192,27991,1,4,0:0:0:0:
256,192,28324,1,12,0:0:0:0:
256,192,28824,1,8,0:0:0:0:
256,192,29491,1,8,0:0:0:0:
256,192,29824,1,0,0:0:0:0:
256,192,30158,1,12,0:0:0:0:
224,160,30658,1,8,0:0:0:0:
192,160,31324,1,4,0:0:0:0:
192,160,31824,1,4,0:0:0:0:
192,160,32491,1,12,0:0:0:0:
256,192,33324,1,4,0:0:0:0:
256,192,33658,1,12,0:0:0:0:
224,96,34158,1,8,0:0:0:0:
224,64,34824,1,8,0:0:0:0:
256,192,35158,1,0,0:0:0:0:
256,192,35491,1,12,0:0:0:0:
224,128,35991,1,8,0:0:0:0:
256,160,36658,1,12,0:0:0:0:
256,192,37158,1,4,0:0:0:0:
256,192,37491,1,4,0:0:0:0:
256,192,37824,1,12,0:0:0:0:
256,224,38158,1,0,0:0:0:0:
256,224,38324,1,8,0:0:0:0:
192,96,38658,1,0,0:0:0:0:
192,96,38991,1,8,0:0:0:0:
256,224,39158,1,0,0:0:0:0:
256,192,39491,1,8,0:0:0:0:
256,192,40158,1,8,0:0:0:0:
256,192,40491,1,0,0:0:0:0:
192,192,40824,1,8,0:0:0:0:
192,192,40991,1,0,0:0:0:0:
192,192,41324,1,8,0:0:0:0:
192,192,41658,1,0,0:0:0:0:
192,192,41824,1,0,0:0:0:0:
256,192,41991,1,8,0:0:0:0:
256,192,42324,1,0,0:0:0:0:
256,192,42491,1,8,0:0:0:0:
224,160,43158,1,8,0:0:0:0:
288,224,43491,1,8,0:0:0:0:
288,224,43658,1,0,0:0:0:0:
288,224,43991,1,0,0:0:0:0:
288,224,44324,1,8,0:0:0:0:
224,160,44491,1,0,0:0:0:0:
224,160,44824,1,8,0:0:0:0:
224,160,45491,1,8,0:0:0:0:
192,32,45824,1,0,0:0:0:0:
256,192,46158,1,8,0:0:0:0:
256,192,46324,1,0,0:0:0:0:
256,192,46658,1,8,0:0:0:0:
224,128,46991,1,8,0:0:0:0:
224,128,47158,1,4,0:0:0:0:
256,192,48491,1,4,0:0:0:0:
256,192,49824,1,0,0:0:0:0:
256,192,51158,1,0,0:0:0:0:
256,192,52491,1,8,0:0:0:0:
256,192,53824,5,0,0:0:0:0:
256,192,55158,5,0,0:0:0:0:
256,192,56491,5,8,0:0:0:0:
256,192,57824,5,0,0:0:0:0:
256,192,58491,1,0,0:0:0:0:
256,192,59158,1,4,0:0:0:0:
256,192,59491,1,8,0:0:0:0:
256,192,59658,1,0,0:0:0:0:
256,192,59991,1,8,0:0:0:0:
256,192,60491,1,0,0:0:0:0:
256,192,60824,1,8,0:0:0:0:
256,192,61324,1,0,0:0:0:0:
256,192,61491,1,8,0:0:0:0:
224,192,61824,1,0,0:0:0:0:
224,192,62158,1,8,0:0:0:0:
224,192,62324,1,0,0:0:0:0:
224,192,62658,1,8,0:0:0:0:
256,192,63158,1,0,0:0:0:0:
256,192,63491,1,8,0:0:0:0:
224,192,63824,1,0,0:0:0:0:
256,192,63991,1,0,0:0:0:0:
256,192,64158,1,8,0:0:0:0:
256,192,64491,1,0,0:0:0:0:
256,192,64824,1,8,0:0:0:0:
256,192,64991,1,0,0:0:0:0:
256,192,65324,1,8,0:0:0:0:
256,192,65824,1,0,0:0:0:0:
256,192,66158,1,8,0:0:0:0:
256,192,66658,1,0,0:0:0:0:
256,192,66824,1,8,0:0:0:0:
256,192,67158,1,0,0:0:0:0:
256,192,67491,1,8,0:0:0:0:
256,192,67658,1,0,0:0:0:0:
256,192,67991,1,8,0:0:0:0:
256,192,68491,1,4,0:0:0:0:
256,192,69824,1,12,0:0:0:0:
256,192,70491,1,0,0:0:0:0:
256,192,71158,1,0,0:0:0:0:
256,192,71824,1,0,0:0:0:0:
256,192,72491,1,8,0:0:0:0:
256,192,73158,1,0,0:0:0:0:
256,192,73825,1,0,0:0:0:0:
256,192,74491,1,0,0:0:0:0:
256,192,74825,1,0,0:0:0:0:
256,192,75158,1,8,0:0:0:0:
256,192,75824,1,8,0:0:0:0:
256,192,76491,1,0,0:0:0:0:
256,192,77158,1,0,0:0:0:0:
256,192,77824,1,8,0:0:0:0:
256,192,78491,1,8,0:0:0:0:
256,192,79158,1,0,0:0:0:0:
256,192,79824,1,0,0:0:0:0:
256,192,80491,1,12,0:0:0:0:
256,192,80991,1,0,0:0:0:0:
256,192,81158,1,8,0:0:0:0:
160,128,81658,1,8,0:0:0:0:
256,192,81824,1,0,0:0:0:0:
256,160,82324,1,8,0:0:0:0:
256,160,82658,1,0,0:0:0:0:
256,160,82824,1,0,0:0:0:0:
256,160,83158,1,8,0:0:0:0:
224,160,83658,1,0,0:0:0:0:
224,160,83824,1,8,0:0:0:0:
256,160,84324,1,8,0:0:0:0:
256,160,84491,1,0,0:0:0:0:
224,192,84824,1,0,0:0:0:0:
224,192,84991,1,8,0:0:0:0:
224,192,85158,1,0,0:0:0:0:
224,192,85491,1,0,0:0:0:0:
224,192,85824,1,8,0:0:0:0:
256,192,86324,1,8,0:0:0:0:
256,192,86491,1,8,0:0:0:0:
256,192,86824,1,0,0:0:0:0:
256,192,86991,1,8,0:0:0:0:
256,192,87158,1,0,0:0:0:0:
192,160,87658,1,8,0:0:0:0:
256,192,88158,1,0,0:0:0:0:
256,192,88491,1,8,0:0:0:0:
256,192,88991,1,8,0:0:0:0:
256,192,89158,1,0,0:0:0:0:
256,192,89658,1,0,0:0:0:0:
256,192,89824,1,0,0:0:0:0:
224,192,90158,1,0,0:0:0:0:
224,192,90324,1,8,0:0:0:0:
224,192,90491,1,0,0:0:0:0:
224,160,90991,1,8,0:0:0:0:
224,160,91158,1,4,0:0:0:0:
224,160,91658,5,4,0:0:0:0:
224,160,92158,1,12,0:0:0:0:
256,160,92658,1,4,0:0:0:0:
256,160,93158,1,12,0:0:0:0:
256,160,93658,1,12,0:0:0:0:
256,160,94158,1,12,0:0:0:0:
256,160,94658,1,4,0:0:0:0:
256,160,95158,1,12,0:0:0:0:
256,192,96491,1,8,0:0:0:0:
256,192,96991,1,8,0:0:0:0:
256,192,97491,1,0,0:0:0:0:
256,192,97825,1,12,0:0:0:0:
256,192,98158,1,0,0:0:0:0:
256,192,98324,1,0,0:0:0:0:
256,192,98491,1,8,0:0:0:0:
256,192,98824,1,0,0:0:0:0:
256,192,99158,1,8,0:0:0:0:
256,192,99324,1,8,0:0:0:0:
256,192,99491,1,0,0:0:0:0:
256,192,99824,1,8,0:0:0:0:
256,192,99991,1,8,0:0:0:0:
256,192,100158,1,8,0:0:0:0:
256,192,100324,1,8,0:0:0:0:
256,192,100491,1,0,0:0:0:0:
256,160,100824,1,8,0:0:0:0:
256,160,101324,1,8,0:0:0:0:
256,192,101824,1,0,0:0:0:0:
256,160,102158,1,8,0:0:0:0:
256,160,102491,1,0,0:0:0:0:
256,128,102658,1,0,0:0:0:0:
256,160,102824,1,8,0:0:0:0:
256,160,102991,1,8,0:0:0:0:
256,160,103158,1,0,0:0:0:0:
224,192,103491,1,8,0:0:0:0:
224,192,103658,1,8,0:0:0:0:
224,192,103824,1,0,0:0:0:0:
256,192,104158,1,0,0:0:0:0:
256,192,104324,1,0,0:0:0:0:
256,192,104491,1,8,0:0:0:0:
256,192,104824,1,0,0:0:0:0:
256,192,105158,1,8,0:0:0:0:
256,192,105324,1,0,0:0:0:0:
256,192,105491,1,0,0:0:0:0:
256,192,105658,1,0,0:0:0:0:
256,192,105824,1,8,0:0:0:0:
256,192,106158,1,8,0:0:0:0:
256,192,106658,1,8,0:0:0:0:
256,192,107158,1,0,0:0:0:0:
256,192,107491,1,0,0:0:0:0:
256,192,107658,1,8,0:0:0:0:
256,192,107824,1,8,0:0:0:0:
256,192,107991,1,8,0:0:0:0:
256,192,108158,1,0,0:0:0:0:
256,192,108324,1,0,0:0:0:0:
256,192,108491,1,12,0:0:0:0:
256,192,108824,1,0,0:0:0:0:
256,192,108991,1,0,0:0:0:0:
256,192,109158,1,8,0:0:0:0:
256,192,109491,1,0,0:0:0:0:
256,192,109824,1,8,0:0:0:0:
256,192,109991,1,8,0:0:0:0:
256,192,110158,1,0,0:0:0:0:
256,192,110491,1,0,0:0:0:0:
256,192,110658,1,0,0:0:0:0:
256,192,110824,1,0,0:0:0:0:
256,192,110991,1,0,0:0:0:0:
256,192,111158,1,8,0:0:0:0:
224,192,111491,1,0,0:0:0:0:
224,192,111824,1,8,0:0:0:0:
224,192,111991,1,8,0:0:0:0:
224,192,112158,1,0,0:0:0:0:
256,192,112491,1,8,0:0:0:0:
256,192,112824,1,0,0:0:0:0:
256,192,112991,1,0,0:0:0:0:
256,192,113158,1,8,0:0:0:0:
256,192,113824,1,4,0:0:0:0:
256,192,114158,1,8,0:0:0:0:
256,192,114491,1,0,0:0:0:0:
256,192,114658,1,0,0:0:0:0:
256,192,114824,1,8,0:0:0:0:
256,192,115158,1,4,0:0:0:0:
256,192,115491,1,8,0:0:0:0:
256,192,115658,1,8,0:0:0:0:
256,192,115824,1,0,0:0:0:0:
256,192,115991,1,0,0:0:0:0:
256,192,116158,1,8,0:0:0:0:
256,192,116491,1,4,0:0:0:0:
256,192,116824,1,8,0:0:0:0:
256,192,116991,1,8,0:0:0:0:
256,192,117158,1,0,0:0:0:0:
256,192,117324,1,0,0:0:0:0:
256,192,117491,1,8,0:0:0:0:
256,192,117658,1,8,0:0:0:0:
256,192,117824,1,4,0:0:0:0:
256,192,118491,12,0,118991,0:0:0:0:
256,192,119158,5,4,0:0:0:0:
256,192,119658,5,12,0:0:0:0:
256,192,120158,5,12,0:0:0:0:
256,192,120658,5,4,0:0:0:0:
288,192,120991,1,8,0:0:0:0:
288,192,121324,1,8,0:0:0:0:
256,192,121824,1,4,0:0:0:0:
256,192,122324,1,4,0:0:0:0:
256,192,122824,1,12,0:0:0:0:
256,192,123324,1,4,0:0:0:0:
256,192,123658,1,8,0:0:0:0:
256,192,124158,1,8,0:0:0:0:
256,192,124491,1,4,0:0:0:0:
256,192,124991,1,12,0:0:0:0:
256,192,125491,1,12,0:0:0:0:
256,192,125991,1,4,0:0:0:0:
256,192,126324,1,8,0:0:0:0:
224,160,126658,1,8,0:0:0:0:
256,192,127158,1,4,0:0:0:0:
256,192,127658,1,4,0:0:0:0:
256,192,128158,1,12,0:0:0:0:
256,192,128658,1,4,0:0:0:0:
256,160,128991,1,8,0:0:0:0:
256,160,129491,1,8,0:0:0:0:
256,160,129825,1,4,0:0:0:0:
256,192,130158,1,0,0:0:0:0:
256,192,130324,1,8,0:0:0:0:
256,192,130491,1,0,0:0:0:0:
256,192,130658,1,0,0:0:0:0:
256,192,130824,1,8,0:0:0:0:
96,128,131158,1,8,0:0:0:0:
256,192,131324,1,0,0:0:0:0:
256,160,131658,1,8,0:0:0:0:
256,160,132158,1,8,0:0:0:0:
256,160,132324,1,8,0:0:0:0:
256,160,132491,1,0,0:0:0:0:
256,192,132824,1,0,0:0:0:0:
256,192,132991,1,8,0:0:0:0:
256,192,133158,1,0,0:0:0:0:
256,192,133324,1,0,0:0:0:0:
256,192,133491,1,8,0:0:0:0:
256,192,133824,1,8,0:0:0:0:
256,192,133991,1,0,0:0:0:0:
256,192,134491,1,0,0:0:0:0:
256,192,134824,1,8,0:0:0:0:
256,192,134991,1,8,0:0:0:0:
448,384,135158,1,4,0:0:0:0:
256,192,135658,1,8,0:0:0:0:
256,192,135824,1,0,0:0:0:0:
256,192,135991,1,0,0:0:0:0:
256,192,136158,1,8,0:0:0:0:
256,192,136324,1,8,0:0:0:0:
256,192,136491,1,4,0:0:0:0:
256,192,136824,1,8,0:0:0:0:
256,192,136991,1,8,0:0:0:0:
256,192,137158,1,0,0:0:0:0:
256,192,137324,1,0,0:0:0:0:
256,192,137491,1,8,0:0:0:0:
256,192,137658,1,8,0:0:0:0:
256,192,137825,1,4,0:0:0:0:
256,160,138324,1,12,0:0:0:0:
256,160,138824,1,12,0:0:0:0:
160,160,139324,1,4,0:0:0:0:
