osu file format v14

[General]
AudioFilename: audio.mp3
AudioLeadIn: 0
PreviewTime: 97741
Countdown: 0
SampleSet: Normal
StackLeniency: 0.7
Mode: 1
LetterboxInBreaks: 0
WidescreenStoryboard: 0

[Editor]
Bookmarks: 27159,32493,51159
DistanceSpacing: 2
BeatDivisor: 4
GridSize: 32
TimelineZoom: 2.999999

[Metadata]
Title:Renai Syndrome
TitleUnicode:恋愛シンドローム
Artist:Lime
ArtistUnicode:Lime
Creator:Lime717
Version:Lime
Source:
Tags:electronic instrumental The BMS of Fighters BOF2013 konzertsaal Dramatical ソウシソウアイ 佐久間まゆ Sakuma Mayu Skull Kid Rhytoly Genjuro komasy
BeatmapID:2120373
BeatmapSetID:1012988

[Difficulty]
HPDrainRate:6
CircleSize:5
OverallDifficulty:6.5
ApproachRate:5
SliderMultiplier:1.4
SliderTickRate:1

[Events]
//Background and Video events
0,0,"wallhaven-5wrq87.jpg",0,0
//Break Periods
//Storyboard Layer 0 (Background)
//Storyboard Layer 1 (Fail)
//Storyboard Layer 2 (Pass)
//Storyboard Layer 3 (Foreground)
//Storyboard Layer 4 (Overlay)
//Storyboard Sound Samples

[TimingPoints]
492,333.333333333333,4,1,0,100,1,0
492,-133.333333333333,4,1,0,50,0,0
12815,-131.578947368421,4,1,0,50,0,0
12982,-129.87012987013,4,1,0,50,0,0
13065,-128.205128205128,4,1,0,50,0,0
13149,-126.582278481013,4,1,0,50,0,0
13315,-125,4,1,0,50,0,0
13815,-100,4,1,0,80,0,0
24482,-90.9090909090909,4,1,0,100,0,0
24815,-83.3333333333333,4,1,0,100,0,0
25815,-100,4,1,0,70,0,0
27149,-90.9090909090909,4,1,0,90,0,0
37315,-90.0900900900901,4,1,0,90,0,0
37399,-89.2857142857143,4,1,0,90,0,0
37482,-88.4955752212389,4,1,0,90,0,0
37649,-87.719298245614,4,1,0,90,0,0
37815,-86.9565217391304,4,1,0,90,0,0
47149,-88.4955752212389,4,1,0,75,0,0
47315,-90.0900900900901,4,1,0,75,0,0
47482,-91.743119266055,4,1,0,75,0,0
47649,-93.4579439252336,4,1,0,75,0,0
48482,-95.2380952380952,4,1,0,60,0,0
58482,-94.3396226415094,4,1,0,60,0,0
58593,-93.4579439252336,4,1,0,60,0,0
58704,-92.5925925925926,4,1,0,60,0,0
58815,-91.743119266055,4,1,0,60,0,0
58927,-90.9090909090909,4,1,0,60,0,0
59038,-90.0900900900901,4,1,0,60,0,0
59149,-89.2857142857143,4,1,0,80,0,0
69815,-133.333333333333,4,1,0,50,0,0
79482,-131.578947368421,4,1,0,50,0,0
79649,-129.87012987013,4,1,0,50,0,0
79732,-128.205128205128,4,1,0,50,0,0
79815,-126.582278481013,4,1,0,50,0,0
79982,-125,4,1,0,50,0,0
80482,-90.9090909090909,4,1,0,80,0,0
90815,-87.719298245614,4,1,0,80,0,0
90982,-84.7457627118644,4,1,0,80,0,0
91149,-81.9672131147541,4,1,0,80,0,0
94149,-79.3650793650794,4,1,0,80,0,0
94649,-76.9230769230769,4,1,0,80,0,0
95149,-74.6268656716418,4,1,0,100,0,0
96482,-90.9090909090909,4,1,0,70,0,0
97649,-86.9565217391304,4,1,0,70,0,0
97825,-83.3333333333333,4,1,0,100,0,1
119158,-83.3333333333333,4,1,0,80,0,0
119399,-84.7457627118644,4,1,0,80,0,0
119482,-86.2068965517241,4,1,0,80,0,0
119649,-87.719298245614,4,1,0,80,0,0
119899,-89.2857142857143,4,1,0,80,0,0
119982,-90.9090909090909,4,1,0,80,0,0
120149,-92.5925925925926,4,1,0,80,0,0
120482,-94.3396226415094,4,1,0,80,0,0
120649,-96.1538461538461,4,1,0,80,0,0
120982,-98.0392156862745,4,1,0,80,0,0
121232,-100,4,1,0,80,0,0
129315,-98.0392156862745,4,1,0,80,0,0
129399,-96.1538461538461,4,1,0,80,0,0
129482,-94.3396226415094,4,1,0,80,0,0
129649,-92.5925925925926,4,1,0,80,0,0
129825,-90.9090909090909,4,1,0,100,0,1
134982,-89.2857142857143,4,1,0,100,0,1
135149,-87.719298245614,4,1,0,100,0,1
136149,-86.9565217391304,4,1,0,100,0,1
136232,-86.2068965517241,4,1,0,100,0,1
136315,-85.4700854700855,4,1,0,100,0,1
136371,-84.7457627118644,4,1,0,100,0,1
136427,-84.0336134453781,4,1,0,100,0,1
136482,-83.3333333333333,4,1,0,100,0,1
136649,-82.6446280991736,4,1,0,100,0,1
136732,-81.9672131147541,4,1,0,100,0,1
136815,-81.3008130081301,4,1,0,100,0,1
136899,-80.6451612903226,4,1,0,100,0,1
136982,-80,4,1,0,100,0,1
137065,-79.3650793650794,4,1,0,100,0,1
137149,-78.7401574803149,4,1,0,100,0,1
137232,-78.125,4,1,0,100,0,1
137315,-77.5193798449612,4,1,0,100,0,1
137399,-76.9230769230769,4,1,0,100,0,1
137482,-76.3358778625954,4,1,0,100,0,1
137565,-75.7575757575758,4,1,0,100,0,1
137649,-75.187969924812,4,1,0,100,0,1
137732,-74.6268656716418,4,1,0,100,0,1
137825,-74.0740740740741,4,1,0,100,0,0
138315,-71.4285714285714,4,1,0,100,0,0
138815,-68.9655172413793,4,1,0,100,0,0
139315,-66.6666666666667,4,1,0,100,0,0

[HitObjects]
256,192,3157,5,12,0:0:0:0:
256,192,3491,1,0,0:0:0:0:
256,192,3657,1,8,0:0:0:0:
256,192,3824,1,8,0:0:0:0:
256,192,4157,1,8,0:0:0:0:
256,192,4324,1,0,0:0:0:0:
256,192,4491,1,8,0:0:0:0:
256,192,4824,1,0,0:0:0:0:
256,192,4991,1,8,0:0:0:0:
256,192,5824,1,8,0:0:0:0:
256,192,6158,1,0,0:0:0:0:
256,192,6324,1,8,0:0:0:0:
256,192,6491,1,8,0:0:0:0:
256,192,6824,1,8,0:0:0:0:
256,192,6991,1,0,0:0:0:0:
256,192,7158,1,8,0:0:0:0:
256,192,7491,1,8,0:0:0:0:
256,192,7658,1,8,0:0:0:0:
256,192,7824,1,0,0:0:0:0:
256,192,8157,1,0,0:0:0:0:
256,192,8241,1,0,0:0:0:0:
256,192,8324,1,0,0:0:0:0:
256,192,8407,1,0,0:0:0:0:
256,192,8491,1,8,0:0:0:0:
256,192,8825,1,0,0:0:0:0:
256,192,8991,1,8,0:0:0:0:
256,192,9158,1,8,0:0:0:0:
256,192,9491,1,8,0:0:0:0:
256,192,9658,1,0,0:0:0:0:
256,192,9825,1,8,0:0:0:0:
256,192,10158,1,0,0:0:0:0:
256,192,10325,1,8,0:0:0:0:
256,192,11158,1,8,0:0:0:0:
256,192,11490,1,0,0:0:0:0:
256,192,11658,1,8,0:0:0:0:
256,192,11825,1,8,0:0:0:0:
256,192,12158,1,8,0:0:0:0:
256,192,12325,1,0,0:0:0:0:
256,192,12490,1,8,0:0:0:0:
256,192,12825,1,0,0:0:0:0:
256,192,12990,1,8,0:0:0:0:
256,192,13074,1,8,0:0:0:0:
256,192,13157,1,0,0:0:0:0:
256,192,13324,1,0,0:0:0:0:
256,192,13824,1,4,0:0:0:0:
256,192,13991,1,0,0:0:0:0:
256,192,14157,1,8,0:0:0:0:
256,192,14324,1,0,0:0:0:0:
256,192,14407,1,0,0:0:0:0:
256,192,14491,1,0,0:0:0:0:
256,192,14657,1,8,0:0:0:0:
256,192,14824,1,0,0:0:0:0:
256,192,14907,1,0,0:0:0:0:
256,192,14991,1,8,0:0:0:0:
256,192,15074,1,8,0:0:0:0:
256,192,15157,1,0,0:0:0:0:
256,192,15324,1,0,0:0:0:0:
256,192,15491,1,8,0:0:0:0:
256,192,15657,1,0,0:0:0:0:
256,192,15741,1,8,0:0:0:0:
256,192,15824,1,0,0:0:0:0:
256,192,15991,1,0,0:0:0:0:
256,192,16157,1,8,0:0:0:0:
256,192,16491,1,8,0:0:0:0:
256,192,16574,1,0,0:0:0:0:
256,192,16657,1,8,0:0:0:0:
256,192,16824,1,8,0:0:0:0:
256,192,16991,1,8,0:0:0:0:
256,192,17074,1,0,0:0:0:0:
256,192,17157,1,8,0:0:0:0:
256,192,17241,1,8,0:0:0:0:
256,192,17324,1,0,0:0:0:0:
256,192,17491,1,0,0:0:0:0:
256,192,17657,1,8,0:0:0:0:
256,192,17824,1,8,0:0:0:0:
256,192,17907,1,8,0:0:0:0:
256,192,17990,1,0,0:0:0:0:
256,192,18157,1,8,0:0:0:0:
256,192,18324,1,0,0:0:0:0:
256,192,18407,1,8,0:0:0:0:
256,192,18491,1,0,0:0:0:0:
256,192,18824,1,0,0:0:0:0:
256,192,18907,1,0,0:0:0:0:
256,192,18991,1,8,0:0:0:0:
256,192,19074,1,8,0:0:0:0:
256,192,19157,1,8,0:0:0:0:
256,192,19324,1,0,0:0:0:0:
256,192,19490,1,8,0:0:0:0:
256,192,19657,1,0,0:0:0:0:
256,192,19740,1,0,0:0:0:0:
256,192,19824,1,8,0:0:0:0:
256,192,19990,1,8,0:0:0:0:
256,192,20157,1,0,0:0:0:0:
256,192,20240,1,0,0:0:0:0:
256,192,20324,1,8,0:0:0:0:
256,192,20407,1,8,0:0:0:0:
256,192,20490,1,0,0:0:0:0:
256,192,20657,1,0,0:0:0:0:
256,192,20824,1,8,0:0:0:0:
256,192,20990,1,8,0:0:0:0:
256,192,21074,1,8,0:0:0:0:
256,192,21157,1,0,0:0:0:0:
256,192,21324,1,0,0:0:0:0:
256,192,21490,1,0,0:0:0:0:
256,192,21824,1,8,0:0:0:0:
256,192,21991,1,0,0:0:0:0:
256,192,22157,1,8,0:0:0:0:
256,192,22324,1,0,0:0:0:0:
256,192,22407,1,0,0:0:0:0:
256,192,22491,1,8,0:0:0:0:
256,192,22574,1,0,0:0:0:0:
256,192,22657,1,8,0:0:0:0:
256,192,22824,1,8,0:0:0:0:
256,192,22907,1,8,0:0:0:0:
256,192,22991,1,0,0:0:0:0:
256,192,23157,1,8,0:0:0:0:
256,192,23324,1,0,0:0:0:0:
256,192,23491,1,8,0:0:0:0:
256,192,23657,1,0,0:0:0:0:
256,192,23741,1,8,0:0:0:0:
256,192,23824,1,0,0:0:0:0:
256,192,23991,1,0,0:0:0:0:
256,192,24157,1,0,0:0:0:0:
256,192,24324,1,8,0:0:0:0:
256,192,24491,1,4,0:0:0:0:
256,192,24824,1,12,0:0:0:0:
256,192,25824,1,8,0:0:0:0:
256,192,25907,1,0,0:0:0:0:
256,192,25991,1,0,0:0:0:0:
256,192,26074,1,0,0:0:0:0:
256,192,26157,1,8,0:0:0:0:
256,192,26241,1,0,0:0:0:0:
256,192,26324,1,8,0:0:0:0:
256,192,26407,1,0,0:0:0:0:
256,192,26491,1,0,0:0:0:0:
256,192,26574,1,0,0:0:0:0:
256,192,26657,1,8,0:0:0:0:
256,192,26741,1,8,0:0:0:0:
256,192,26824,1,0,0:0:0:0:
256,192,26991,1,0,0:0:0:0:
256,192,27157,1,12,0:0:0:0:
256,192,27491,1,0,0:0:0:0:
256,192,27574,1,0,0:0:0:0:
256,192,27657,1,8,0:0:0:0:
256,192,27741,1,8,0:0:0:0:
256,192,27824,1,0,0:0:0:0:
256,192,27991,1,4,0:0:0:0:
256,192,28324,1,12,0:0:0:0:
256,192,28491,1,8,0:0:0:0:
256,192,28657,1,0,0:0:0:0:
256,192,28824,1,0,0:0:0:0:
256,192,28991,1,8,0:0:0:0:
256,192,29157,1,0,0:0:0:0:
256,192,29324,1,0,0:0:0:0:
256,192,29407,1,8,0:0:0:0:
256,192,29491,1,0,0:0:0:0:
256,192,29657,1,0,0:0:0:0:
256,192,29824,1,0,0:0:0:0:
256,192,29907,1,0,0:0:0:0:
256,192,29991,1,8,0:0:0:0:
256,192,30074,1,8,0:0:0:0:
256,192,30157,1,4,0:0:0:0:
256,192,30324,1,8,0:0:0:0:
256,192,30491,1,0,0:0:0:0:
256,192,30657,1,8,0:0:0:0:
256,192,30824,1,0,0:0:0:0:
256,192,30991,1,8,0:0:0:0:
256,192,31157,1,0,0:0:0:0:
256,192,31324,1,4,0:0:0:0:
256,192,31491,1,8,0:0:0:0:
256,192,31657,1,0,0:0:0:0:
256,192,31824,1,12,0:0:0:0:
256,192,31991,1,8,0:0:0:0:
256,192,32074,1,0,0:0:0:0:
256,192,32157,1,8,0:0:0:0:
256,192,32324,1,0,0:0:0:0:
256,192,32491,1,12,0:0:0:0:
256,192,32825,1,0,0:0:0:0:
256,192,32907,1,0,0:0:0:0:
256,192,32990,1,8,0:0:0:0:
256,192,33075,1,8,0:0:0:0:
256,192,33157,1,0,0:0:0:0:
256,192,33325,1,4,0:0:0:0:
256,192,33657,1,12,0:0:0:0:
256,192,33825,1,8,0:0:0:0:
256,192,33990,1,0,0:0:0:0:
256,192,34157,1,0,0:0:0:0:
256,192,34325,1,8,0:0:0:0:
256,192,34490,1,8,0:0:0:0:
256,192,34658,1,0,0:0:0:0:
256,192,34741,1,8,0:0:0:0:
256,192,34825,1,0,0:0:0:0:
256,192,34991,1,0,0:0:0:0:
256,192,35158,1,0,0:0:0:0:
256,192,35241,1,0,0:0:0:0:
256,192,35325,1,8,0:0:0:0:
256,192,35408,1,8,0:0:0:0:
256,192,35491,1,4,0:0:0:0:
256,192,35658,1,8,0:0:0:0:
256,192,35825,1,0,0:0:0:0:
256,192,35991,1,8,0:0:0:0:
256,192,36158,1,0,0:0:0:0:
256,192,36325,1,8,0:0:0:0:
256,192,36490,1,0,0:0:0:0:
256,192,36657,1,4,0:0:0:0:
256,192,36825,1,8,0:0:0:0:
256,192,36990,1,0,0:0:0:0:
256,192,37157,1,12,0:0:0:0:
256,192,37325,1,8,0:0:0:0:
256,192,37408,1,8,0:0:0:0:
256,192,37491,1,4,0:0:0:0:
256,192,37658,1,0,0:0:0:0:
256,192,37824,1,12,0:0:0:0:
256,192,37991,1,0,0:0:0:0:
256,192,38074,1,0,0:0:0:0:
256,192,38157,1,8,0:0:0:0:
256,192,38241,1,0,0:0:0:0:
256,192,38324,1,8,0:0:0:0:
256,192,38408,1,8,0:0:0:0:
256,192,38491,1,0,0:0:0:0:
256,192,38657,1,4,0:0:0:0:
256,192,38824,1,8,0:0:0:0:
256,192,38907,1,0,0:0:0:0:
256,192,38991,1,12,0:0:0:0:
256,192,39158,1,8,0:0:0:0:
256,192,39324,1,0,0:0:0:0:
256,192,39491,1,0,0:0:0:0:
256,192,39658,1,8,0:0:0:0:
256,192,39824,1,8,0:0:0:0:
256,192,39991,1,0,0:0:0:0:
256,192,40074,1,8,0:0:0:0:
256,192,40158,1,0,0:0:0:0:
256,192,40324,1,0,0:0:0:0:
256,192,40491,1,0,0:0:0:0:
256,192,40574,1,0,0:0:0:0:
256,192,40658,1,8,0:0:0:0:
256,192,40741,1,8,0:0:0:0:
256,192,40824,1,4,0:0:0:0:
256,192,40991,1,8,0:0:0:0:
256,192,41158,1,0,0:0:0:0:
256,192,41324,1,8,0:0:0:0:
256,192,41407,1,8,0:0:0:0:
256,192,41491,1,8,0:0:0:0:
256,192,41658,1,8,0:0:0:0:
256,192,41824,1,0,0:0:0:0:
256,192,41991,1,4,0:0:0:0:
256,192,42158,1,8,0:0:0:0:
256,192,42324,1,0,0:0:0:0:
256,192,42491,1,12,0:0:0:0:
256,192,42658,1,8,0:0:0:0:
256,192,42741,1,0,0:0:0:0:
256,192,42824,1,8,0:0:0:0:
256,192,42991,1,0,0:0:0:0:
256,192,43157,1,12,0:0:0:0:
256,192,43324,1,0,0:0:0:0:
256,192,43407,1,0,0:0:0:0:
256,192,43490,1,8,0:0:0:0:
256,192,43574,1,0,0:0:0:0:
256,192,43657,1,8,0:0:0:0:
256,192,43741,1,8,0:0:0:0:
256,192,43824,1,0,0:0:0:0:
256,192,43990,1,4,0:0:0:0:
256,192,44157,1,8,0:0:0:0:
256,192,44240,1,0,0:0:0:0:
256,192,44324,1,12,0:0:0:0:
256,192,44491,1,8,0:0:0:0:
256,192,44657,1,0,0:0:0:0:
256,192,44824,1,0,0:0:0:0:
256,192,44991,1,8,0:0:0:0:
256,192,45157,1,8,0:0:0:0:
256,192,45324,1,0,0:0:0:0:
256,192,45407,1,8,0:0:0:0:
256,192,45491,1,0,0:0:0:0:
256,192,45657,1,0,0:0:0:0:
256,192,45824,1,0,0:0:0:0:
256,192,45907,1,0,0:0:0:0:
256,192,45991,1,8,0:0:0:0:
256,192,46074,1,8,0:0:0:0:
256,192,46157,1,4,0:0:0:0:
256,192,46324,1,8,0:0:0:0:
256,192,46491,1,0,0:0:0:0:
256,192,46657,1,8,0:0:0:0:
256,192,46740,1,8,0:0:0:0:
256,192,46824,1,8,0:0:0:0:
256,192,46991,1,8,0:0:0:0:
256,192,47157,1,0,0:0:0:0:
256,192,47324,1,8,0:0:0:0:
256,192,47491,1,0,0:0:0:0:
256,192,47657,1,8,0:0:0:0:
256,192,48491,1,0,0:0:0:0:
256,192,48713,1,0,0:0:0:0:
256,192,48824,1,8,0:0:0:0:
256,192,49046,1,8,0:0:0:0:
256,192,49157,1,0,0:0:0:0:
256,192,49269,1,0,0:0:0:0:
256,192,49380,1,0,0:0:0:0:
256,192,49491,1,8,0:0:0:0:
256,192,49713,1,8,0:0:0:0:
256,192,49824,1,0,0:0:0:0:
256,192,50046,1,0,0:0:0:0:
256,192,50157,1,0,0:0:0:0:
256,192,50380,1,8,0:0:0:0:
256,192,50491,1,0,0:0:0:0:
256,192,50602,1,0,0:0:0:0:
256,192,50713,1,8,0:0:0:0:
256,192,50824,1,8,0:0:0:0:
256,192,51046,1,8,0:0:0:0:
256,192,51157,1,0,0:0:0:0:
256,192,51380,1,8,0:0:0:0:
256,192,51491,1,0,0:0:0:0:
256,192,51602,1,8,0:0:0:0:
256,192,51713,1,8,0:0:0:0:
256,192,51824,1,0,0:0:0:0:
256,192,52046,1,0,0:0:0:0:
256,192,52157,1,8,0:0:0:0:
256,192,52268,1,8,0:0:0:0:
256,192,52379,1,8,0:0:0:0:
254,196,52490,1,8,0:0:0:0:
254,196,52714,1,0,0:0:0:0:
256,192,52825,1,8,0:0:0:0:
256,192,52936,1,8,0:0:0:0:
256,192,53047,1,0,0:0:0:0:
256,192,53158,1,8,0:0:0:0:
256,192,53380,1,0,0:0:0:0:
251,191,53491,1,8,0:0:0:0:
251,191,53713,1,8,0:0:0:0:
256,192,53824,1,0,0:0:0:0:
256,192,54046,1,0,0:0:0:0:
256,192,54157,1,8,0:0:0:0:
256,192,54269,1,8,0:0:0:0:
256,192,54380,1,8,0:0:0:0:
256,192,54491,1,0,0:0:0:0:
256,192,54713,1,8,0:0:0:0:
256,192,54824,1,0,0:0:0:0:
256,192,55046,1,8,0:0:0:0:
256,192,55157,1,0,0:0:0:0:
256,192,55269,1,0,0:0:0:0:
256,192,55380,1,0,0:0:0:0:
256,192,55491,1,8,0:0:0:0:
256,192,55713,1,8,0:0:0:0:
256,192,55824,1,0,0:0:0:0:
256,192,56046,1,8,0:0:0:0:
256,192,56157,1,0,0:0:0:0:
256,192,56269,1,8,0:0:0:0:
256,192,56380,1,8,0:0:0:0:
256,192,56491,1,0,0:0:0:0:
256,192,56713,1,8,0:0:0:0:
256,192,56824,1,0,0:0:0:0:
256,192,57046,1,8,0:0:0:0:
256,192,57157,1,8,0:0:0:0:
256,192,57380,1,0,0:0:0:0:
256,192,57491,1,8,0:0:0:0:
256,192,57602,1,0,0:0:0:0:
256,192,57713,1,8,0:0:0:0:
256,192,57824,1,0,0:0:0:0:
256,192,58046,1,0,0:0:0:0:
256,192,58157,1,8,0:0:0:0:
256,192,58269,1,8,0:0:0:0:
256,192,58380,1,0,0:0:0:0:
256,192,58491,1,0,0:0:0:0:
256,192,58602,1,8,0:0:0:0:
256,192,58713,1,0,0:0:0:0:
256,192,58824,1,8,0:0:0:0:
256,192,58935,1,8,0:0:0:0:
256,192,59046,1,8,0:0:0:0:
256,192,59157,1,4,0:0:0:0:
256,192,59491,1,8,0:0:0:0:
256,192,59657,1,0,0:0:0:0:
256,192,59741,1,0,0:0:0:0:
256,192,59824,1,0,0:0:0:0:
256,192,59991,1,8,0:0:0:0:
256,192,60157,1,0,0:0:0:0:
256,192,60324,1,8,0:0:0:0:
256,192,60491,1,0,0:0:0:0:
256,192,60575,1,0,0:0:0:0:
256,192,60658,1,8,0:0:0:0:
256,192,60741,1,0,0:0:0:0:
256,192,60825,1,8,0:0:0:0:
256,192,60990,1,0,0:0:0:0:
256,192,61158,1,8,0:0:0:0:
256,192,61241,1,8,0:0:0:0:
256,192,61325,1,0,0:0:0:0:
256,192,61491,1,8,0:0:0:0:
256,192,61575,1,0,0:0:0:0:
256,192,61658,1,8,0:0:0:0:
256,192,61741,1,8,0:0:0:0:
256,192,61825,1,0,0:0:0:0:
256,192,61991,1,8,0:0:0:0:
256,192,62074,1,0,0:0:0:0:
256,192,62157,1,8,0:0:0:0:
256,192,62325,1,0,0:0:0:0:
256,192,62491,1,0,0:0:0:0:
256,192,62575,1,0,0:0:0:0:
256,192,62658,1,8,0:0:0:0:
256,192,62825,1,0,0:0:0:0:
256,192,62935,1,8,0:0:0:0:
256,192,63046,1,8,0:0:0:0:
256,192,63158,1,0,0:0:0:0:
256,192,63241,1,0,0:0:0:0:
256,192,63325,1,8,0:0:0:0:
256,192,63408,1,0,0:0:0:0:
256,192,63491,1,8,0:0:0:0:
256,192,63657,1,8,0:0:0:0:
256,192,63741,1,0,0:0:0:0:
256,192,63824,1,8,0:0:0:0:
256,192,63991,1,0,0:0:0:0:
256,192,64157,1,8,0:0:0:0:
256,192,64241,1,8,0:0:0:0:
256,192,64324,1,0,0:0:0:0:
256,192,64491,1,0,0:0:0:0:
256,192,64574,1,0,0:0:0:0:
256,192,64657,1,0,0:0:0:0:
256,192,64741,1,0,0:0:0:0:
256,192,64824,1,8,0:0:0:0:
256,192,64991,1,0,0:0:0:0:
256,192,65157,1,8,0:0:0:0:
256,192,65324,1,8,0:0:0:0:
256,192,65407,1,0,0:0:0:0:
256,192,65491,1,8,0:0:0:0:
256,192,65574,1,8,0:0:0:0:
256,192,65657,1,0,0:0:0:0:
256,192,65741,1,8,0:0:0:0:
256,192,65824,1,0,0:0:0:0:
256,192,65991,1,0,0:0:0:0:
256,192,66074,1,0,0:0:0:0:
256,192,66157,1,8,0:0:0:0:
256,192,66324,1,0,0:0:0:0:
256,192,66491,1,8,0:0:0:0:
256,192,66657,1,0,0:0:0:0:
256,192,66824,1,8,0:0:0:0:
256,192,66907,1,8,0:0:0:0:
256,192,66991,1,8,0:0:0:0:
256,192,67157,1,8,0:0:0:0:
256,192,67269,1,8,0:0:0:0:
256,192,67380,1,0,0:0:0:0:
256,192,67491,1,0,0:0:0:0:
256,192,67602,1,8,0:0:0:0:
256,192,67713,1,0,0:0:0:0:
256,192,67824,1,8,0:0:0:0:
256,192,67907,1,8,0:0:0:0:
256,192,67991,1,0,0:0:0:0:
256,192,68074,1,8,0:0:0:0:
256,192,68157,1,0,0:0:0:0:
256,192,68241,1,0,0:0:0:0:
256,192,68324,1,8,0:0:0:0:
256,192,68407,1,0,0:0:0:0:
256,192,68491,1,12,0:0:0:0:
256,192,69825,5,12,0:0:0:0:
256,192,70157,1,0,0:0:0:0:
256,192,70325,1,8,0:0:0:0:
256,192,70490,1,8,0:0:0:0:
256,192,70825,1,8,0:0:0:0:
256,192,70991,1,0,0:0:0:0:
256,192,71158,1,8,0:0:0:0:
256,192,71490,1,0,0:0:0:0:
256,192,71657,1,8,0:0:0:0:
256,192,72490,1,8,0:0:0:0:
256,192,72824,1,0,0:0:0:0:
256,192,72990,1,8,0:0:0:0:
256,192,73157,1,8,0:0:0:0:
256,192,73490,1,8,0:0:0:0:
256,192,73657,1,0,0:0:0:0:
256,192,73824,1,8,0:0:0:0:
256,192,74157,1,8,0:0:0:0:
256,192,74324,1,8,0:0:0:0:
256,192,74490,1,0,0:0:0:0:
256,192,74825,1,0,0:0:0:0:
256,192,74908,1,0,0:0:0:0:
256,192,74991,1,0,0:0:0:0:
256,192,75075,1,0,0:0:0:0:
256,192,75158,1,8,0:0:0:0:
256,192,75491,1,0,0:0:0:0:
256,192,75658,1,8,0:0:0:0:
256,192,75825,1,8,0:0:0:0:
256,192,76158,1,8,0:0:0:0:
256,192,76325,1,0,0:0:0:0:
256,192,76491,1,8,0:0:0:0:
256,192,76825,1,0,0:0:0:0:
256,192,76991,1,8,0:0:0:0:
256,192,77824,1,8,0:0:0:0:
256,192,78158,1,0,0:0:0:0:
256,192,78324,1,8,0:0:0:0:
256,192,78491,1,8,0:0:0:0:
256,192,78824,1,8,0:0:0:0:
256,192,78991,1,0,0:0:0:0:
256,192,79158,1,8,0:0:0:0:
256,192,79490,5,0,0:0:0:0:
256,192,79657,1,8,0:0:0:0:
256,192,79740,1,8,0:0:0:0:
256,192,79825,1,0,0:0:0:0:
256,192,79990,1,0,0:0:0:0:
256,192,80491,1,12,0:0:0:0:
256,192,80657,1,0,0:0:0:0:
256,192,80741,1,0,0:0:0:0:
256,192,80824,1,8,0:0:0:0:
256,192,80991,1,8,0:0:0:0:
256,192,81074,1,8,0:0:0:0:
256,192,81157,1,8,0:0:0:0:
256,192,81324,1,0,0:0:0:0:
256,192,81491,1,8,0:0:0:0:
256,192,81657,1,0,0:0:0:0:
256,192,81824,1,8,0:0:0:0:
256,192,81907,1,8,0:0:0:0:
256,192,81991,1,0,0:0:0:0:
256,192,82157,1,0,0:0:0:0:
256,192,82324,1,8,0:0:0:0:
256,192,82407,1,0,0:0:0:0:
256,192,82491,1,0,0:0:0:0:
256,192,82574,1,0,0:0:0:0:
256,192,82657,1,8,0:0:0:0:
256,192,82824,1,8,0:0:0:0:
256,192,83157,1,8,0:0:0:0:
256,192,83241,1,8,0:0:0:0:
256,192,83324,1,0,0:0:0:0:
256,192,83407,1,0,0:0:0:0:
256,192,83491,1,8,0:0:0:0:
256,192,83657,1,8,0:0:0:0:
256,192,83824,1,0,0:0:0:0:
256,192,83907,1,8,0:0:0:0:
256,192,83991,1,0,0:0:0:0:
256,192,84157,1,0,0:0:0:0:
256,192,84241,1,0,0:0:0:0:
256,192,84324,1,8,0:0:0:0:
256,192,84407,1,0,0:0:0:0:
256,192,84491,1,8,0:0:0:0:
256,192,84574,1,8,0:0:0:0:
256,192,84657,1,0,0:0:0:0:
256,192,84824,1,8,0:0:0:0:
256,192,84991,1,0,0:0:0:0:
256,192,85157,1,8,0:0:0:0:
256,192,85241,1,8,0:0:0:0:
256,192,85324,1,0,0:0:0:0:
256,192,85491,1,0,0:0:0:0:
256,192,85574,1,0,0:0:0:0:
256,192,85657,1,8,0:0:0:0:
256,192,85741,1,8,0:0:0:0:
256,192,85824,1,8,0:0:0:0:
256,192,85991,1,0,0:0:0:0:
256,192,86157,1,8,0:0:0:0:
256,192,86324,1,8,0:0:0:0:
256,192,86407,1,0,0:0:0:0:
256,192,86491,1,8,0:0:0:0:
256,192,86657,1,8,0:0:0:0:
256,192,86824,1,0,0:0:0:0:
256,192,86907,1,0,0:0:0:0:
256,192,86991,1,8,0:0:0:0:
256,192,87074,1,0,0:0:0:0:
256,192,87157,1,0,0:0:0:0:
256,192,87324,1,0,0:0:0:0:
256,192,87491,1,8,0:0:0:0:
256,192,87574,1,8,0:0:0:0:
256,192,87657,1,0,0:0:0:0:
256,192,87824,1,0,0:0:0:0:
256,192,87907,1,0,0:0:0:0:
256,192,87991,1,8,0:0:0:0:
256,192,88074,1,8,0:0:0:0:
256,192,88157,1,8,0:0:0:0:
256,192,88491,1,8,0:0:0:0:
256,192,88574,1,8,0:0:0:0:
256,192,88657,1,0,0:0:0:0:
256,192,88824,1,8,0:0:0:0:
256,192,88991,1,0,0:0:0:0:
256,192,89074,1,0,0:0:0:0:
256,192,89157,1,0,0:0:0:0:
256,192,89324,1,8,0:0:0:0:
256,192,89491,1,0,0:0:0:0:
256,192,89574,1,0,0:0:0:0:
256,192,89657,1,8,0:0:0:0:
256,192,89741,1,0,0:0:0:0:
256,192,89824,1,8,0:0:0:0:
256,192,89991,1,0,0:0:0:0:
256,192,90157,1,8,0:0:0:0:
256,192,90324,1,0,0:0:0:0:
256,192,90407,1,0,0:0:0:0:
256,192,90491,1,8,0:0:0:0:
256,192,90574,1,8,0:0:0:0:
256,192,90657,1,0,0:0:0:0:
256,192,90824,1,8,0:0:0:0:
256,192,90991,1,8,0:0:0:0:
256,192,91157,1,12,0:0:0:0:
256,192,91324,1,0,0:0:0:0:
256,192,91491,1,8,0:0:0:0:
256,192,91657,1,4,0:0:0:0:
256,192,91991,1,0,0:0:0:0:
256,192,92157,1,12,0:0:0:0:
256,192,92657,1,4,0:0:0:0:
256,192,93157,1,12,0:0:0:0:
256,192,93324,1,0,0:0:0:0:
256,192,93491,1,8,0:0:0:0:
256,192,93657,1,4,0:0:0:0:
256,192,93991,1,0,0:0:0:0:
256,192,94157,1,12,0:0:0:0:
256,192,94657,1,12,0:0:0:0:
256,192,95157,1,4,0:0:0:0:
256,192,96491,1,8,0:0:0:0:
256,192,96574,1,0,0:0:0:0:
256,192,96657,1,0,0:0:0:0:
256,192,96741,1,0,0:0:0:0:
256,192,96824,1,8,0:0:0:0:
256,192,96907,1,0,0:0:0:0:
256,192,96991,1,8,0:0:0:0:
256,192,97074,1,0,0:0:0:0:
256,192,97157,1,0,0:0:0:0:
256,192,97241,1,0,0:0:0:0:
256,192,97324,1,8,0:0:0:0:
256,192,97407,1,8,0:0:0:0:
256,192,97491,1,0,0:0:0:0:
256,192,97657,1,0,0:0:0:0:
256,192,97825,1,12,0:0:0:0:
256,192,97991,1,0,0:0:0:0:
256,192,98157,1,8,0:0:0:0:
256,192,98324,1,0,0:0:0:0:
256,192,98407,1,0,0:0:0:0:
256,192,98491,1,8,0:0:0:0:
256,192,98574,1,0,0:0:0:0:
256,192,98657,1,8,0:0:0:0:
256,192,98740,1,8,0:0:0:0:
256,192,98824,1,0,0:0:0:0:
256,192,98991,1,8,0:0:0:0:
256,192,99074,1,8,0:0:0:0:
256,192,99157,1,0,0:0:0:0:
256,192,99324,1,0,0:0:0:0:
256,192,99491,1,8,0:0:0:0:
256,192,99657,1,8,0:0:0:0:
256,192,99741,1,0,0:0:0:0:
256,192,99824,1,8,0:0:0:0:
256,192,99907,1,8,0:0:0:0:
256,192,99991,1,0,0:0:0:0:
256,192,100157,1,8,0:0:0:0:
256,192,100324,1,0,0:0:0:0:
256,192,100490,1,8,0:0:0:0:
256,192,100657,1,0,0:0:0:0:
256,192,100740,1,0,0:0:0:0:
256,192,100825,1,8,0:0:0:0:
256,192,100990,1,0,0:0:0:0:
256,192,101157,1,0,0:0:0:0:
256,192,101240,1,0,0:0:0:0:
256,192,101325,1,8,0:0:0:0:
256,192,101490,1,0,0:0:0:0:
256,192,101575,1,0,0:0:0:0:
256,192,101657,1,8,0:0:0:0:
256,192,101740,1,0,0:0:0:0:
256,192,101825,1,8,0:0:0:0:
256,192,101907,1,8,0:0:0:0:
256,192,101990,1,0,0:0:0:0:
256,192,102075,1,0,0:0:0:0:
256,192,102157,1,8,0:0:0:0:
256,192,102325,1,8,0:0:0:0:
256,192,102407,1,0,0:0:0:0:
256,192,102490,1,8,0:0:0:0:
256,192,102657,1,0,0:0:0:0:
256,192,102824,1,8,0:0:0:0:
256,192,102990,1,8,0:0:0:0:
256,192,103075,1,8,0:0:0:0:
256,192,103157,1,8,0:0:0:0:
256,192,103241,1,0,0:0:0:0:
256,192,103325,1,0,0:0:0:0:
256,192,103490,1,8,0:0:0:0:
256,192,103657,1,0,0:0:0:0:
256,192,103740,1,0,0:0:0:0:
256,192,103825,1,8,0:0:0:0:
256,192,103990,1,8,0:0:0:0:
256,192,104157,1,0,0:0:0:0:
256,192,104324,1,8,0:0:0:0:
256,192,104491,1,8,0:0:0:0:
256,192,104574,1,8,0:0:0:0:
256,192,104657,1,0,0:0:0:0:
256,192,104741,1,0,0:0:0:0:
256,192,104824,1,8,0:0:0:0:
256,192,104907,1,0,0:0:0:0:
256,192,104991,1,8,0:0:0:0:
256,192,105074,1,0,0:0:0:0:
256,192,105157,1,8,0:0:0:0:
256,192,105324,1,0,0:0:0:0:
256,192,105491,1,8,0:0:0:0:
256,192,105657,1,8,0:0:0:0:
256,192,105741,1,0,0:0:0:0:
256,192,105824,1,8,0:0:0:0:
256,192,105991,1,0,0:0:0:0:
256,192,106157,1,8,0:0:0:0:
256,192,106324,1,8,0:0:0:0:
256,192,106407,1,8,0:0:0:0:
256,192,106491,1,8,0:0:0:0:
256,192,106657,1,0,0:0:0:0:
256,192,106824,1,0,0:0:0:0:
256,192,106907,1,0,0:0:0:0:
256,192,106991,1,8,0:0:0:0:
256,192,107157,1,0,0:0:0:0:
256,192,107241,1,0,0:0:0:0:
256,192,107324,1,8,0:0:0:0:
256,192,107407,1,0,0:0:0:0:
256,192,107491,1,8,0:0:0:0:
256,192,107574,1,0,0:0:0:0:
256,192,107657,1,8,0:0:0:0:
256,192,107741,1,8,0:0:0:0:
256,192,107824,1,8,0:0:0:0:
256,192,107991,1,0,0:0:0:0:
256,192,108157,1,8,0:0:0:0:
256,192,108241,1,8,0:0:0:0:
256,192,108324,1,0,0:0:0:0:
256,192,108407,1,0,0:0:0:0:
256,192,108491,1,12,0:0:0:0:
256,192,108657,1,0,0:0:0:0:
256,192,108824,1,0,0:0:0:0:
256,192,108991,1,8,0:0:0:0:
256,192,109074,1,8,0:0:0:0:
256,192,109157,1,8,0:0:0:0:
256,192,109324,1,0,0:0:0:0:
256,192,109491,1,8,0:0:0:0:
256,192,109657,1,8,0:0:0:0:
256,192,109741,1,0,0:0:0:0:
256,192,109824,1,8,0:0:0:0:
256,192,109991,1,0,0:0:0:0:
256,192,110157,1,0,0:0:0:0:
256,192,110241,1,0,0:0:0:0:
256,192,110324,1,8,0:0:0:0:
256,192,110407,1,0,0:0:0:0:
256,192,110491,1,8,0:0:0:0:
256,192,110657,1,0,0:0:0:0:
256,192,110741,1,0,0:0:0:0:
256,192,110824,1,8,0:0:0:0:
256,192,110991,1,8,0:0:0:0:
256,192,111074,1,8,0:0:0:0:
256,192,111157,1,0,0:0:0:0:
256,192,111324,1,0,0:0:0:0:
256,192,111407,1,0,0:0:0:0:
256,192,111491,1,8,0:0:0:0:
256,192,111657,1,0,0:0:0:0:
256,192,111741,1,8,0:0:0:0:
256,192,111824,1,0,0:0:0:0:
256,192,111991,1,8,0:0:0:0:
256,192,112157,1,8,0:0:0:0:
256,192,112241,1,8,0:0:0:0:
256,192,112324,1,8,0:0:0:0:
256,192,112407,1,0,0:0:0:0:
256,192,112491,1,8,0:0:0:0:
256,192,112657,1,0,0:0:0:0:
256,192,112741,1,0,0:0:0:0:
256,192,112824,1,8,0:0:0:0:
256,192,112991,1,0,0:0:0:0:
256,192,113074,1,8,0:0:0:0:
256,192,113157,1,0,0:0:0:0:
256,192,113324,1,0,0:0:0:0:
256,192,113491,1,8,0:0:0:0:
256,192,113657,1,0,0:0:0:0:
256,192,113824,1,12,0:0:0:0:
256,192,113991,1,0,0:0:0:0:
256,192,114074,1,0,0:0:0:0:
256,192,114157,1,8,0:0:0:0:
256,192,114241,1,8,0:0:0:0:
256,192,114324,1,0,0:0:0:0:
256,192,114407,1,0,0:0:0:0:
256,192,114491,1,8,0:0:0:0:
256,192,114574,1,0,0:0:0:0:
256,192,114657,1,8,0:0:0:0:
256,192,114741,1,8,0:0:0:0:
256,192,114824,1,0,0:0:0:0:
256,192,114907,1,0,0:0:0:0:
256,192,114991,1,8,0:0:0:0:
256,192,115074,1,8,0:0:0:0:
256,192,115157,1,4,0:0:0:0:
256,192,115324,1,0,0:0:0:0:
256,192,115407,1,0,0:0:0:0:
256,192,115490,1,8,0:0:0:0:
256,192,115574,1,0,0:0:0:0:
256,192,115657,1,8,0:0:0:0:
256,192,115740,1,8,0:0:0:0:
256,192,115824,1,0,0:0:0:0:
256,192,115907,1,8,0:0:0:0:
256,192,115991,1,0,0:0:0:0:
256,192,116074,1,0,0:0:0:0:
256,192,116157,1,8,0:0:0:0:
256,192,116240,1,8,0:0:0:0:
256,192,116324,1,0,0:0:0:0:
256,192,116407,1,0,0:0:0:0:
256,192,116490,1,12,0:0:0:0:
256,192,116657,1,0,0:0:0:0:
256,192,116740,1,0,0:0:0:0:
256,192,116825,1,8,0:0:0:0:
256,192,116907,1,0,0:0:0:0:
256,192,116990,1,8,0:0:0:0:
256,192,117075,1,8,0:0:0:0:
256,192,117157,1,0,0:0:0:0:
256,192,117240,1,8,0:0:0:0:
256,192,117324,1,0,0:0:0:0:
256,192,117407,1,0,0:0:0:0:
256,192,117490,1,8,0:0:0:0:
256,192,117575,1,8,0:0:0:0:
256,192,117657,1,0,0:0:0:0:
256,192,117740,1,8,0:0:0:0:
256,192,117825,1,4,0:0:0:0:
256,192,117991,1,8,0:0:0:0:
256,192,118074,1,0,0:0:0:0:
256,192,118157,1,8,0:0:0:0:
256,192,118241,1,8,0:0:0:0:
256,192,118324,1,0,0:0:0:0:
256,192,118491,1,8,0:0:0:0:
256,192,118546,1,0,0:0:0:0:
256,192,118602,1,0,0:0:0:0:
256,192,118657,1,8,0:0:0:0:
256,192,118713,1,0,0:0:0:0:
256,192,118769,1,0,0:0:0:0:
256,192,118824,1,8,0:0:0:0:
256,192,118991,1,8,0:0:0:0:
256,192,119074,1,8,0:0:0:0:
256,192,119158,1,4,0:0:0:0:
256,192,119407,1,0,0:0:0:0:
256,192,119491,1,8,0:0:0:0:
256,192,119657,1,12,0:0:0:0:
256,192,119907,1,0,0:0:0:0:
256,192,119991,1,8,0:0:0:0:
256,192,120157,1,12,0:0:0:0:
256,192,120491,1,8,0:0:0:0:
256,192,120657,1,4,0:0:0:0:
256,192,120991,1,8,0:0:0:0:
256,192,121241,1,8,0:0:0:0:
256,192,121324,1,8,0:0:0:0:
256,192,121491,1,0,0:0:0:0:
256,192,121824,1,4,0:0:0:0:
256,192,122157,1,8,0:0:0:0:
256,192,122324,1,4,0:0:0:0:
256,192,122574,1,0,0:0:0:0:
256,192,122657,1,8,0:0:0:0:
256,192,122824,1,12,0:0:0:0:
256,192,123157,1,8,0:0:0:0:
256,192,123324,1,4,0:0:0:0:
256,192,123657,1,8,0:0:0:0:
256,192,123991,1,8,0:0:0:0:
256,192,124074,1,8,0:0:0:0:
256,192,124157,1,0,0:0:0:0:
256,192,124324,1,0,0:0:0:0:
256,192,124491,1,4,0:0:0:0:
256,192,124741,1,0,0:0:0:0:
256,192,124825,1,8,0:0:0:0:
256,192,124991,1,12,0:0:0:0:
256,192,125241,1,0,0:0:0:0:
256,192,125325,1,8,0:0:0:0:
256,192,125491,1,12,0:0:0:0:
256,192,125825,1,8,0:0:0:0:
256,192,125991,1,4,0:0:0:0:
256,192,126325,1,8,0:0:0:0:
256,192,126575,1,8,0:0:0:0:
256,192,126658,1,8,0:0:0:0:
256,192,126825,1,0,0:0:0:0:
256,192,127158,1,4,0:0:0:0:
256,192,127491,1,8,0:0:0:0:
256,192,127658,1,4,0:0:0:0:
256,192,127908,1,0,0:0:0:0:
256,192,127991,1,8,0:0:0:0:
256,192,128158,1,12,0:0:0:0:
256,192,128491,1,8,0:0:0:0:
256,192,128658,1,4,0:0:0:0:
256,192,128991,1,8,0:0:0:0:
256,192,129325,1,8,0:0:0:0:
256,192,129408,1,8,0:0:0:0:
256,192,129491,1,0,0:0:0:0:
256,192,129658,1,0,0:0:0:0:
256,192,129825,1,4,0:0:0:0:
256,192,129991,1,0,0:0:0:0:
256,192,130074,1,0,0:0:0:0:
256,192,130157,1,8,0:0:0:0:
256,192,130324,1,8,0:0:0:0:
256,192,130491,1,8,0:0:0:0:
256,192,130574,1,0,0:0:0:0:
256,192,130657,1,8,0:0:0:0:
256,192,130824,1,8,0:0:0:0:
256,192,130907,1,8,0:0:0:0:
256,192,130991,1,0,0:0:0:0:
256,192,131074,1,8,0:0:0:0:
256,192,131157,1,0,0:0:0:0:
256,192,131324,1,0,0:0:0:0:
256,192,131407,1,0,0:0:0:0:
256,192,131491,1,0,0:0:0:0:
256,192,131657,1,8,0:0:0:0:
256,192,131824,1,0,0:0:0:0:
256,192,131907,1,0,0:0:0:0:
256,192,131991,1,8,0:0:0:0:
256,192,132074,1,0,0:0:0:0:
256,192,132157,1,8,0:0:0:0:
256,192,132324,1,0,0:0:0:0:
256,192,132491,1,0,0:0:0:0:
256,192,132658,1,8,0:0:0:0:
256,192,132741,1,0,0:0:0:0:
256,192,132824,1,8,0:0:0:0:
256,192,132991,1,0,0:0:0:0:
256,192,133158,1,8,0:0:0:0:
256,192,133241,1,8,0:0:0:0:
256,192,133324,1,8,0:0:0:0:
256,192,133491,1,8,0:0:0:0:
256,192,133574,1,0,0:0:0:0:
256,192,133658,1,8,0:0:0:0:
256,192,133741,1,8,0:0:0:0:
256,192,133824,1,0,0:0:0:0:
256,192,133991,1,0,0:0:0:0:
256,192,134074,1,0,0:0:0:0:
256,192,134158,1,0,0:0:0:0:
256,192,134324,1,8,0:0:0:0:
256,192,134491,1,0,0:0:0:0:
256,192,134574,1,8,0:0:0:0:
256,192,134658,1,8,0:0:0:0:
256,192,134741,1,8,0:0:0:0:
256,192,134824,1,0,0:0:0:0:
256,192,134991,1,0,0:0:0:0:
256,192,135157,1,12,0:0:0:0:
256,192,135324,1,0,0:0:0:0:
256,192,135491,1,8,0:0:0:0:
256,192,135657,1,0,0:0:0:0:
256,192,135741,1,0,0:0:0:0:
256,192,135824,1,8,0:0:0:0:
256,192,135907,1,0,0:0:0:0:
256,192,135991,1,8,0:0:0:0:
256,192,136157,1,8,0:0:0:0:
256,192,136240,1,8,0:0:0:0:
256,192,136325,1,0,0:0:0:0:
256,192,136379,1,0,0:0:0:0:
256,192,136435,1,0,0:0:0:0:
256,192,136490,1,12,0:0:0:0:
256,192,136657,1,0,0:0:0:0:
256,192,136741,1,0,0:0:0:0:
256,192,136824,1,8,0:0:0:0:
256,192,136907,1,0,0:0:0:0:
256,192,136991,1,8,0:0:0:0:
256,192,137074,1,8,0:0:0:0:
256,192,137157,1,0,0:0:0:0:
256,192,137241,1,0,0:0:0:0:
256,192,137324,1,8,0:0:0:0:
256,192,137407,1,0,0:0:0:0:
256,192,137491,1,8,0:0:0:0:
256,192,137574,1,0,0:0:0:0:
256,192,137657,1,8,0:0:0:0:
256,192,137741,1,8,0:0:0:0:
256,192,137825,1,4,0:0:0:0:
256,192,138324,1,12,0:0:0:0:
256,192,138824,1,12,0:0:0:0:
256,192,139324,1,4,0:0:0:0:
