osu file format v14

[General]
AudioFilename: audio.mp3
AudioLeadIn: 0
PreviewTime: 97741
Countdown: 0
SampleSet: Normal
StackLeniency: 0.7
Mode: 1
LetterboxInBreaks: 0
WidescreenStoryboard: 1

[Editor]
DistanceSpacing: 2
BeatDivisor: 4
GridSize: 32
TimelineZoom: 2.6

[Metadata]
Title:Renai Syndrome
TitleUnicode:恋愛シンドローム
Artist:Lime
ArtistUnicode:Lime
Creator:Lime717
Version:Genjuro's Muzukashii
Source:
Tags:electronic instrumental The BMS of Fighters BOF2013 konzertsaal Dramatical ソウシソウアイ 佐久間まゆ Sakuma Mayu Skull Kid Rhytoly Genjuro komasy
BeatmapID:2177861
BeatmapSetID:1012988

[Difficulty]
HPDrainRate:5
CircleSize:2
OverallDifficulty:5
ApproachRate:9
SliderMultiplier:1.4
SliderTickRate:1

[Events]
//Background and Video events
0,0,"wallhaven-5wrq87.jpg",0,0
//Break Periods
//Storyboard Layer 0 (Background)
//Storyboard Layer 1 (Fail)
//Storyboard Layer 2 (Pass)
//Storyboard Layer 3 (Foreground)
//Storyboard Layer 4 (Overlay)
//Storyboard Sound Samples

[TimingPoints]
492,333.333333333333,4,1,0,20,1,0
492,-100,4,1,0,30,0,0
13732,-100,4,1,0,70,0,0
24399,-100,4,1,0,60,0,0
24899,-100,4,1,0,40,0,0
27065,-100,4,1,0,60,0,0
37732,-100,4,1,0,70,0,0
47232,-100,4,1,0,40,0,0
48399,-100,4,1,0,50,0,0
59065,-100,4,1,0,60,0,0
69732,-100,4,1,0,30,0,0
80399,-100,4,1,0,80,0,0
95232,-100,4,1,0,40,0,0
97732,-100,4,1,0,80,0,0
97825,-100,4,1,0,80,0,1
119158,-100,4,1,0,70,0,0
129825,-100,4,1,0,70,0,1
137825,-100,4,1,0,70,0,0

[HitObjects]
256,192,3158,5,12,0:0:0:0:
256,192,3824,1,8,0:0:0:0:
256,192,4491,1,0,0:0:0:0:
256,192,4991,1,0,0:0:0:0:
256,192,5824,1,8,0:0:0:0:
256,192,6491,1,8,0:0:0:0:
256,192,7158,1,0,0:0:0:0:
256,192,7824,1,0,0:0:0:0:
256,192,8491,1,8,0:0:0:0:
256,192,8991,1,8,0:0:0:0:
256,192,9158,1,8,0:0:0:0:
256,192,9658,1,8,0:0:0:0:
256,192,9824,1,0,0:0:0:0:
256,192,10324,1,0,0:0:0:0:
256,192,11158,1,8,0:0:0:0:
256,192,11824,1,8,0:0:0:0:
256,192,12491,1,0,0:0:0:0:
256,192,12991,1,8,0:0:0:0:
256,192,13158,1,0,0:0:0:0:
256,192,13824,1,4,0:0:0:0:
256,192,14158,1,8,0:0:0:0:
256,192,14491,1,0,0:0:0:0:
256,192,14658,1,8,0:0:0:0:
256,192,14991,1,0,0:0:0:0:
256,192,15324,1,8,0:0:0:0:
256,192,15491,1,0,0:0:0:0:
256,192,15824,1,8,0:0:0:0:
256,192,16491,1,0,0:0:0:0:
256,192,16658,1,8,0:0:0:0:
256,192,16824,1,0,0:0:0:0:
256,192,17158,1,8,0:0:0:0:
256,192,17491,1,8,0:0:0:0:
256,192,17658,1,0,0:0:0:0:
256,192,17991,1,0,0:0:0:0:
256,192,18158,1,8,0:0:0:0:
256,192,18491,1,0,0:0:0:0:
256,192,18658,1,0,0:0:0:0:
256,192,18824,1,8,0:0:0:0:
256,192,19158,1,0,0:0:0:0:
256,192,19491,1,8,0:0:0:0:
256,192,19658,1,0,0:0:0:0:
256,192,19824,1,0,0:0:0:0:
256,192,19991,1,8,0:0:0:0:
256,192,20324,1,0,0:0:0:0:
256,192,20658,1,8,0:0:0:0:
256,192,20824,1,8,0:0:0:0:
256,192,21158,1,8,0:0:0:0:
256,192,21824,1,0,0:0:0:0:
256,192,21991,1,8,0:0:0:0:
256,192,22158,1,0,0:0:0:0:
256,192,22491,1,8,0:0:0:0:
256,192,22824,1,0,0:0:0:0:
256,192,22991,1,0,0:0:0:0:
256,192,23324,1,8,0:0:0:0:
256,192,23491,1,8,0:0:0:0:
256,192,23658,1,0,0:0:0:0:
256,192,23824,1,8,0:0:0:0:
256,192,24158,1,8,0:0:0:0:
256,192,24491,1,4,0:0:0:0:
256,192,24824,1,12,0:0:0:0:
256,192,25824,1,8,0:0:0:0:
256,192,26158,1,0,0:0:0:0:
256,192,26324,1,8,0:0:0:0:
256,192,26658,1,8,0:0:0:0:
256,192,26824,1,0,0:0:0:0:
256,192,27158,1,12,0:0:0:0:
256,192,27491,1,0,0:0:0:0:
256,192,27991,1,4,0:0:0:0:
256,192,28324,1,12,0:0:0:0:
256,192,28824,1,0,0:0:0:0:
256,192,29158,1,8,0:0:0:0:
256,192,29324,1,0,0:0:0:0:
256,192,29491,1,8,0:0:0:0:
256,192,29824,1,0,0:0:0:0:
256,192,30158,1,12,0:0:0:0:
256,192,30658,1,0,0:0:0:0:
256,192,30991,1,8,0:0:0:0:
256,192,31324,1,4,0:0:0:0:
256,192,31824,1,12,0:0:0:0:
256,192,32158,1,0,0:0:0:0:
256,192,32491,1,12,0:0:0:0:
256,192,32824,1,0,0:0:0:0:
256,192,33324,1,4,0:0:0:0:
256,192,33658,1,12,0:0:0:0:
256,192,34158,1,0,0:0:0:0:
256,192,34491,1,8,0:0:0:0:
256,192,34658,1,0,0:0:0:0:
256,192,34824,1,8,0:0:0:0:
256,192,35158,1,0,0:0:0:0:
256,192,35491,1,12,0:0:0:0:
256,192,35991,1,0,0:0:0:0:
256,192,36324,1,8,0:0:0:0:
256,192,36658,1,4,0:0:0:0:
256,192,37158,1,12,0:0:0:0:
256,192,37491,1,12,0:0:0:0:
256,192,37658,1,0,0:0:0:0:
256,192,37824,1,12,0:0:0:0:
256,192,38158,1,0,0:0:0:0:
256,192,38324,1,8,0:0:0:0:
256,192,38658,1,4,0:0:0:0:
256,192,38991,1,12,0:0:0:0:
256,192,39158,1,0,0:0:0:0:
256,192,39491,1,0,0:0:0:0:
256,192,39824,1,8,0:0:0:0:
256,192,39991,1,0,0:0:0:0:
256,192,40158,1,8,0:0:0:0:
256,192,40491,1,0,0:0:0:0:
256,192,40824,1,12,0:0:0:0:
256,192,40991,1,0,0:0:0:0:
256,192,41324,1,0,0:0:0:0:
256,192,41658,1,8,0:0:0:0:
256,192,41824,1,8,0:0:0:0:
256,192,41991,1,4,0:0:0:0:
256,192,42491,1,12,0:0:0:0:
256,192,42824,1,0,0:0:0:0:
256,192,43158,1,12,0:0:0:0:
256,192,43491,1,0,0:0:0:0:
256,192,43658,1,8,0:0:0:0:
256,192,43991,1,4,0:0:0:0:
256,192,44324,1,12,0:0:0:0:
256,192,44491,1,0,0:0:0:0:
256,192,44824,1,0,0:0:0:0:
256,192,45158,1,8,0:0:0:0:
256,192,45324,1,0,0:0:0:0:
256,192,45491,1,8,0:0:0:0:
256,192,45824,1,0,0:0:0:0:
256,192,46158,1,12,0:0:0:0:
256,192,46324,1,0,0:0:0:0:
256,192,46658,1,0,0:0:0:0:
256,192,46991,1,8,0:0:0:0:
256,192,47158,1,0,0:0:0:0:
256,192,48491,1,4,0:0:0:0:
256,192,49824,1,0,0:0:0:0:
256,192,51158,1,0,0:0:0:0:
256,192,52491,1,8,0:0:0:0:
256,192,53824,1,0,0:0:0:0:
256,192,55158,1,0,0:0:0:0:
256,192,56491,1,0,0:0:0:0:
256,192,57824,1,8,0:0:0:0:
256,192,59158,1,4,0:0:0:0:
256,192,59491,1,8,0:0:0:0:
256,192,59658,1,0,0:0:0:0:
256,192,59991,1,8,0:0:0:0:
256,192,60491,1,0,0:0:0:0:
256,192,60824,1,8,0:0:0:0:
256,192,60991,1,0,0:0:0:0:
256,192,61158,1,0,0:0:0:0:
256,192,61241,1,0,0:0:0:0:
256,192,61324,1,0,0:0:0:0:
256,192,61491,1,8,0:0:0:0:
256,192,61824,1,0,0:0:0:0:
256,192,62158,1,8,0:0:0:0:
256,192,62324,1,0,0:0:0:0:
256,192,62491,1,0,0:0:0:0:
256,192,62658,1,8,0:0:0:0:
256,192,63158,1,0,0:0:0:0:
256,192,63491,1,8,0:0:0:0:
256,192,63658,1,0,0:0:0:0:
256,192,63741,1,0,0:0:0:0:
256,192,63991,1,0,0:0:0:0:
256,192,64158,1,8,0:0:0:0:
256,192,64491,1,0,0:0:0:0:
256,192,64824,1,8,0:0:0:0:
256,192,64991,1,0,0:0:0:0:
256,192,65324,1,8,0:0:0:0:
256,192,65824,1,0,0:0:0:0:
256,192,66158,1,8,0:0:0:0:
256,192,66324,1,0,0:0:0:0:
256,192,66491,1,0,0:0:0:0:
256,192,66574,1,0,0:0:0:0:
256,192,66658,1,0,0:0:0:0:
256,192,66824,1,8,0:0:0:0:
256,192,67158,1,0,0:0:0:0:
256,192,67491,1,8,0:0:0:0:
256,192,67658,1,0,0:0:0:0:
256,192,67824,1,0,0:0:0:0:
256,192,67991,1,8,0:0:0:0:
256,192,68491,1,4,0:0:0:0:
256,192,69824,1,12,0:0:0:0:
256,192,70491,1,8,0:0:0:0:
256,192,71158,1,0,0:0:0:0:
256,192,71658,1,0,0:0:0:0:
256,192,72491,1,8,0:0:0:0:
256,192,73158,1,8,0:0:0:0:
256,192,73824,1,0,0:0:0:0:
256,192,74491,1,0,0:0:0:0:
256,192,75158,1,8,0:0:0:0:
256,192,75658,1,8,0:0:0:0:
256,192,75824,1,8,0:0:0:0:
256,192,76324,1,8,0:0:0:0:
256,192,76491,1,0,0:0:0:0:
256,192,76991,1,0,0:0:0:0:
256,192,77824,1,8,0:0:0:0:
256,192,78491,1,8,0:0:0:0:
256,192,79158,1,0,0:0:0:0:
256,192,79658,1,8,0:0:0:0:
256,192,79824,1,0,0:0:0:0:
256,192,80491,1,4,0:0:0:0:
256,192,80824,1,8,0:0:0:0:
256,192,80991,1,0,0:0:0:0:
256,192,81074,1,0,0:0:0:0:
256,192,81158,1,0,0:0:0:0:
256,192,81324,1,8,0:0:0:0:
256,192,81658,1,0,0:0:0:0:
256,192,81991,1,0,0:0:0:0:
256,192,82158,1,0,0:0:0:0:
256,192,82324,1,8,0:0:0:0:
256,192,82491,1,0,0:0:0:0:
256,192,82658,1,0,0:0:0:0:
256,192,82824,1,8,0:0:0:0:
256,192,83158,1,8,0:0:0:0:
256,192,83324,1,0,0:0:0:0:
256,192,83491,1,0,0:0:0:0:
256,192,83658,1,8,0:0:0:0:
256,192,83824,1,8,0:0:0:0:
256,192,83908,1,8,0:0:0:0:
256,192,83991,1,8,0:0:0:0:
256,192,84158,1,0,0:0:0:0:
256,192,84491,1,8,0:0:0:0:
256,192,84824,1,0,0:0:0:0:
256,192,84991,1,8,0:0:0:0:
256,192,85158,1,0,0:0:0:0:
256,192,85658,1,8,0:0:0:0:
256,192,85741,1,8,0:0:0:0:
256,192,85824,1,8,0:0:0:0:
256,192,86158,1,8,0:0:0:0:
256,192,86324,1,0,0:0:0:0:
256,192,86491,1,8,0:0:0:0:
256,192,86658,1,8,0:0:0:0:
256,192,86824,1,0,0:0:0:0:
256,192,86908,1,0,0:0:0:0:
256,192,86991,1,0,0:0:0:0:
256,192,87158,1,8,0:0:0:0:
256,192,87491,1,0,0:0:0:0:
256,192,87658,1,8,0:0:0:0:
256,192,87824,1,0,0:0:0:0:
256,192,87991,1,0,0:0:0:0:
256,192,88158,1,8,0:0:0:0:
256,192,88491,1,8,0:0:0:0:
256,192,88658,1,0,0:0:0:0:
256,192,88824,1,0,0:0:0:0:
256,192,88991,1,8,0:0:0:0:
256,192,89158,1,8,0:0:0:0:
256,192,89241,1,8,0:0:0:0:
256,192,89324,1,8,0:0:0:0:
256,192,89658,1,8,0:0:0:0:
256,192,89824,1,0,0:0:0:0:
256,192,90158,1,0,0:0:0:0:
256,192,90324,1,8,0:0:0:0:
256,192,90408,1,8,0:0:0:0:
256,192,90491,1,8,0:0:0:0:
256,192,90658,1,0,0:0:0:0:
256,192,90824,1,8,0:0:0:0:
256,192,90991,1,8,0:0:0:0:
256,192,91158,1,4,0:0:0:0:
256,192,91658,1,4,0:0:0:0:
256,192,92158,1,12,0:0:0:0:
256,192,92658,1,12,0:0:0:0:
256,192,93158,1,12,0:0:0:0:
256,192,93658,1,4,0:0:0:0:
256,192,94158,1,12,0:0:0:0:
256,192,94658,1,12,0:0:0:0:
256,192,95158,1,4,0:0:0:0:
256,192,96491,1,8,0:0:0:0:
256,192,96824,1,0,0:0:0:0:
256,192,96991,1,8,0:0:0:0:
256,192,97324,1,8,0:0:0:0:
256,192,97491,1,0,0:0:0:0:
256,192,97825,1,4,0:0:0:0:
256,192,98158,1,8,0:0:0:0:
256,192,98324,1,0,0:0:0:0:
256,192,98408,1,0,0:0:0:0:
256,192,98491,1,0,0:0:0:0:
256,192,98658,1,8,0:0:0:0:
256,192,98991,1,8,0:0:0:0:
256,192,99158,1,0,0:0:0:0:
256,192,99491,1,8,0:0:0:0:
256,192,99658,1,8,0:0:0:0:
256,192,99824,1,0,0:0:0:0:
256,192,99908,1,0,0:0:0:0:
256,192,99991,1,0,0:0:0:0:
256,192,100158,1,8,0:0:0:0:
256,192,100491,1,0,0:0:0:0:
256,192,100658,1,8,0:0:0:0:
256,192,100824,1,8,0:0:0:0:
256,192,100991,1,0,0:0:0:0:
256,192,101324,1,8,0:0:0:0:
256,192,101491,1,8,0:0:0:0:
256,192,101658,1,0,0:0:0:0:
256,192,101824,1,8,0:0:0:0:
256,192,102158,1,0,0:0:0:0:
256,192,102324,1,8,0:0:0:0:
256,192,102408,1,8,0:0:0:0:
256,192,102574,1,0,0:0:0:0:
256,192,102658,1,0,0:0:0:0:
256,192,102824,1,8,0:0:0:0:
256,192,103158,1,0,0:0:0:0:
256,192,103658,1,8,0:0:0:0:
256,192,103824,1,0,0:0:0:0:
256,192,103991,1,8,0:0:0:0:
256,192,104158,1,0,0:0:0:0:
256,192,104241,1,0,0:0:0:0:
256,192,104324,1,0,0:0:0:0:
256,192,104491,1,8,0:0:0:0:
256,192,104824,1,0,0:0:0:0:
256,192,104991,1,8,0:0:0:0:
256,192,105074,1,8,0:0:0:0:
256,192,105158,1,8,0:0:0:0:
256,192,105324,1,0,0:0:0:0:
256,192,105491,1,8,0:0:0:0:
256,192,105824,1,0,0:0:0:0:
256,192,106158,1,8,0:0:0:0:
256,192,106324,1,0,0:0:0:0:
256,192,106658,1,8,0:0:0:0:
256,192,106824,1,8,0:0:0:0:
256,192,106908,1,8,0:0:0:0:
256,192,106991,1,8,0:0:0:0:
256,192,107158,1,0,0:0:0:0:
256,192,107491,1,8,0:0:0:0:
256,192,107658,1,0,0:0:0:0:
256,192,107824,1,8,0:0:0:0:
256,192,107908,1,8,0:0:0:0:
256,192,107991,1,8,0:0:0:0:
256,192,108158,1,0,0:0:0:0:
256,192,108324,1,0,0:0:0:0:
256,192,108491,1,12,0:0:0:0:
256,192,108991,1,0,0:0:0:0:
256,192,109158,1,8,0:0:0:0:
256,192,109324,1,0,0:0:0:0:
256,192,109658,1,8,0:0:0:0:
256,192,109824,1,0,0:0:0:0:
256,192,110158,1,8,0:0:0:0:
256,192,110324,1,0,0:0:0:0:
256,192,110408,1,0,0:0:0:0:
256,192,110491,1,0,0:0:0:0:
256,192,110658,1,0,0:0:0:0:
256,192,110824,1,8,0:0:0:0:
256,192,111158,1,0,0:0:0:0:
256,192,111491,1,8,0:0:0:0:
256,192,111658,1,0,0:0:0:0:
256,192,111824,1,8,0:0:0:0:
256,192,111991,1,8,0:0:0:0:
256,192,112324,1,0,0:0:0:0:
256,192,112491,1,8,0:0:0:0:
256,192,112824,1,8,0:0:0:0:
256,192,112991,1,0,0:0:0:0:
256,192,113158,1,8,0:0:0:0:
256,192,113241,1,8,0:0:0:0:
256,192,113324,1,8,0:0:0:0:
256,192,113491,1,0,0:0:0:0:
256,192,113824,1,12,0:0:0:0:
256,192,114324,1,0,0:0:0:0:
256,192,114658,1,8,0:0:0:0:
256,192,114824,1,0,0:0:0:0:
256,192,114908,1,0,0:0:0:0:
256,192,114991,1,0,0:0:0:0:
256,192,115158,1,12,0:0:0:0:
256,192,115491,1,0,0:0:0:0:
256,192,115658,1,8,0:0:0:0:
256,192,115741,1,8,0:0:0:0:
256,192,115824,1,8,0:0:0:0:
256,192,115991,1,0,0:0:0:0:
256,192,116158,1,8,0:0:0:0:
256,192,116491,1,4,0:0:0:0:
256,192,116824,1,8,0:0:0:0:
256,192,116991,1,0,0:0:0:0:
256,192,117074,1,0,0:0:0:0:
256,192,117158,1,0,0:0:0:0:
256,192,117324,1,0,0:0:0:0:
256,192,117491,1,8,0:0:0:0:
256,192,117658,1,8,0:0:0:0:
256,192,117824,1,4,0:0:0:0:
256,192,118158,1,8,0:0:0:0:
256,192,118324,1,0,0:0:0:0:
256,192,118491,1,8,0:0:0:0:
256,192,118574,1,8,0:0:0:0:
256,192,118658,1,8,0:0:0:0:
256,192,118741,1,8,0:0:0:0:
256,192,118824,1,8,0:0:0:0:
256,192,118991,1,0,0:0:0:0:
256,192,119158,1,12,0:0:0:0:
256,192,119658,1,12,0:0:0:0:
256,192,120158,1,4,0:0:0:0:
256,192,120658,1,4,0:0:0:0:
256,192,120991,1,8,0:0:0:0:
256,192,121158,1,0,0:0:0:0:
256,192,121324,1,8,0:0:0:0:
256,192,121491,1,8,0:0:0:0:
256,192,121824,1,4,0:0:0:0:
256,192,122324,1,12,0:0:0:0:
256,192,122824,1,12,0:0:0:0:
256,192,123324,1,4,0:0:0:0:
256,192,123658,1,8,0:0:0:0:
256,192,123824,1,0,0:0:0:0:
256,192,123908,1,0,0:0:0:0:
256,192,123991,1,0,0:0:0:0:
256,192,124158,1,8,0:0:0:0:
256,192,124491,1,4,0:0:0:0:
256,192,124991,1,12,0:0:0:0:
256,192,125491,1,4,0:0:0:0:
256,192,125991,1,4,0:0:0:0:
256,192,126324,1,8,0:0:0:0:
256,192,126491,1,8,0:0:0:0:
256,192,126658,1,0,0:0:0:0:
256,192,126824,1,8,0:0:0:0:
256,192,127158,1,4,0:0:0:0:
256,192,127658,1,12,0:0:0:0:
256,192,128158,1,12,0:0:0:0:
256,192,128658,1,4,0:0:0:0:
256,192,128991,1,8,0:0:0:0:
256,192,129158,1,0,0:0:0:0:
256,192,129241,1,0,0:0:0:0:
256,192,129324,1,0,0:0:0:0:
256,192,129491,1,8,0:0:0:0:
256,192,129658,1,8,0:0:0:0:
256,192,129825,1,4,0:0:0:0:
256,192,130158,1,0,0:0:0:0:
256,192,130324,1,8,0:0:0:0:
256,192,130491,1,0,0:0:0:0:
256,192,130658,1,8,0:0:0:0:
256,192,130741,1,8,0:0:0:0:
256,192,130824,1,8,0:0:0:0:
256,192,130991,1,0,0:0:0:0:
256,192,131324,1,8,0:0:0:0:
256,192,131491,1,0,0:0:0:0:
256,192,131658,1,8,0:0:0:0:
256,192,131824,1,0,0:0:0:0:
256,192,131908,1,0,0:0:0:0:
256,192,131991,1,0,0:0:0:0:
256,192,132158,1,8,0:0:0:0:
256,192,132491,1,0,0:0:0:0:
256,192,132824,1,8,0:0:0:0:
256,192,132991,1,0,0:0:0:0:
256,192,133074,1,0,0:0:0:0:
256,192,133158,1,0,0:0:0:0:
256,192,133324,1,8,0:0:0:0:
256,192,133491,1,8,0:0:0:0:
256,192,133658,1,0,0:0:0:0:
256,192,133991,1,0,0:0:0:0:
256,192,134158,1,8,0:0:0:0:
256,192,134324,1,8,0:0:0:0:
256,192,134408,1,8,0:0:0:0:
256,192,134491,1,8,0:0:0:0:
256,192,134658,1,0,0:0:0:0:
256,192,134824,1,8,0:0:0:0:
256,192,135158,1,4,0:0:0:0:
256,192,135491,1,8,0:0:0:0:
256,192,135658,1,0,0:0:0:0:
256,192,135824,1,8,0:0:0:0:
256,192,135991,1,8,0:0:0:0:
256,192,136158,1,8,0:0:0:0:
256,192,136324,1,0,0:0:0:0:
256,192,136408,1,0,0:0:0:0:
256,192,136491,1,0,0:0:0:0:
256,192,136658,1,0,0:0:0:0:
256,192,136824,1,8,0:0:0:0:
256,192,136908,1,8,0:0:0:0:
256,192,136991,1,8,0:0:0:0:
256,192,137158,1,8,0:0:0:0:
256,192,137324,1,0,0:0:0:0:
256,192,137491,1,8,0:0:0:0:
256,192,137658,1,8,0:0:0:0:
256,192,137825,1,4,0:0:0:0:
256,192,138324,1,12,0:0:0:0:
256,192,138824,1,12,0:0:0:0:
256,192,139324,1,4,0:0:0:0:
