osu file format v14

[General]
AudioFilename: audio.mp3
AudioLeadIn: 0
PreviewTime: 89311
Countdown: 0
SampleSet: Soft
StackLeniency: 0.7
Mode: 2
LetterboxInBreaks: 0
WidescreenStoryboard: 1

[Editor]
Bookmarks: 46056,57218,68381,78149,79544,113032,129777,133614
DistanceSpacing: 0.9
BeatDivisor: 2
GridSize: 4
TimelineZoom: 2.799999

[Metadata]
Title:Harmony
TitleUnicode:Harmony
Artist:Lime
ArtistUnicode:Lime
Creator:wonjae
Version:Cup
Source:
Tags:ajamez jemzuu G2R2014 Album Groundbreaking -G2R2014 COMPILATION ALBUM- kankitsu bms kawaiicore instrumental electronic piano paranoid grapes
BeatmapID:2578078
BeatmapSetID:1231601

[Difficulty]
HPDrainRate:3
CircleSize:2.7
OverallDifficulty:6
ApproachRate:6
SliderMultiplier:1.4
SliderTickRate:1

[Events]
//Background and Video events
0,0,"mountain of great size_waifu2x.png",0,0
//Break Periods
2,57480,67331
//Storyboard Layer 0 (Background)
//Storyboard Layer 1 (Fail)
//Storyboard Layer 2 (Pass)
//Storyboard Layer 3 (Foreground)
//Storyboard Layer 4 (Overlay)
//Storyboard Sound Samples

[TimingPoints]
1405,348.837209302326,4,2,2,49,1,0
11521,-66.6666666666667,4,2,2,49,0,0
11870,-80,4,2,2,49,0,0
12218,-80,4,2,2,49,0,0
16579,-80,4,2,2,49,0,0
16753,-80,4,2,2,49,0,0
22684,-64.5161290322581,4,2,2,49,0,0
23032,-83.3333333333333,4,2,2,49,0,0
23381,-52.6315789473684,4,2,2,49,0,0
23730,-80,4,2,2,60,0,0
45707,-80,4,2,2,60,0,0
46056,-80,4,2,2,49,0,0
69428,-80,4,2,2,49,0,0
71172,-80,4,2,2,49,0,0
72218,-80,4,2,2,49,0,0
73963,-80,4,2,2,49,0,0
74660,-80,4,2,2,49,0,0
76753,-80,4,2,2,49,0,0
77277,-80,4,2,2,49,0,0
78149,-80,4,2,2,49,0,0
78497,-80,4,2,2,49,0,0
78672,-80,4,2,2,49,0,0
89573,-60.6060606060606,4,2,2,49,0,0
89659,-60.6060606060606,4,2,2,49,0,0
90009,-51.2820512820513,4,2,2,49,0,0
90358,-41.6666666666667,4,2,2,49,0,0
90707,-80,4,2,2,65,0,1
101172,-80,4,2,2,65,0,0
101521,-56.4971751412429,4,2,2,65,0,0
101870,-80,4,2,2,65,0,1
113032,-80,4,2,2,65,0,0
114253,-80,4,2,2,65,0,0
114428,-80,4,2,2,65,0,0
129951,-80,4,2,2,65,0,0
130125,-80,4,2,2,65,0,0
130474,-80,4,2,2,55,0,0
131172,-80,4,2,2,45,0,0
132567,-80,4,2,2,35,0,0
133614,-80,4,2,2,20,0,0

[Colours]
Combo1 : 251,194,111
Combo2 : 0,128,255
Combo3 : 213,31,4
Combo4 : 113,113,255
Combo5 : 158,158,158
Combo6 : 0,83,166

[HitObjects]
177,207,1405,6,0,L|339:205,1,140,4|8,2:0|0:0,0:0:0:0:
234,205,1928,1,0,1:0:0:0:
75,211,2277,2,0,L|72:59,1,140,0|0,1:0|1:0,0:0:0:0:
140,56,2800,6,0,L|282:53,1,140,2|8,0:0|0:0,0:0:0:0:
207,53,3323,1,0,1:0:0:0:
125,69,3498,2,0,P|146:150|220:154,1,140,2|8,0:0|0:0,0:0:0:0:
371,271,4195,6,0,L|218:269,1,140,2|8,0:0|0:0,0:0:0:0:
308,269,4718,1,0,1:0:0:0:
457,327,5067,2,0,L|290:330,1,140,0|0,1:0|1:0,0:0:0:0:
226,275,5591,6,0,P|208:195|277:173,1,140,2|8,0:0|0:0,0:0:0:0:
335,150,6114,1,0,1:0:0:0:
427,122,6288,2,0,L|271:123,1,140,2|8,0:0|0:0,0:0:0:0:
111,165,6986,6,0,P|67:223|119:276,1,140,6|8,0:0|0:0,0:0:0:0:
175,280,7509,1,0,1:0:0:0:
327,309,7858,2,0,L|163:311,1,140,0|0,1:0|1:0,0:0:0:0:
116,264,8381,6,0,P|84:212|141:167,1,140,2|8,0:0|0:0,0:0:0:0:
220,157,8905,1,0,1:0:0:0:
307,115,9079,2,0,L|135:115,1,140,2|8,0:0|0:0,0:0:0:0:
348,89,9777,6,0,P|388:148|341:210,1,140,2|8,0:0|0:0,0:0:0:0:
283,210,10300,2,0,L|120:214,1,140,0|0,1:0|1:0,0:0:0:0:
293,269,10998,1,0,1:0:0:0:
386,312,11172,6,0,L|245:314,1,140,0|0,1:0|0:0,0:0:0:0:
138,250,11870,2,0,P|87:182|150:115,1,175,0|8,0:0|1:0,0:0:0:0:
309,93,12567,6,0,L|499:87,2,175,12|8|8,1:2|0:1|0:0,0:0:0:0:
186,181,13614,1,8,0:1:0:0:
337,215,13963,6,0,P|373:266|347:372,1,175,8|8,0:0|0:1,0:0:0:0:
216,330,14660,2,0,P|171:313|39:348,1,175,8|8,0:0|0:1,0:0:0:0:
123,289,15184,1,0,0:0:0:0:
197,256,15358,6,0,P|271:244|346:304,1,175,8|8,0:0|0:1,0:0:0:0:
216,236,16056,2,0,P|201:142|243:70,1,175,8|8,0:0|0:1,0:0:0:0:
395,39,16753,6,0,L|235:146,3,175,8|8|8|8,0:0|0:1|0:0|0:1,0:0:0:0:
401,106,18149,6,0,P|452:166|366:216,1,175,12|8,0:0|0:1,0:0:0:0:
305,231,18672,1,2,0:0:0:0:
211,247,18846,2,0,P|149:275|120:381,1,175,8|8,0:0|0:1,0:0:0:0:
280,337,19544,6,0,L|141:219,1,175,8|8,0:0|0:1,0:0:0:0:
221,209,20067,1,2,0:0:0:0:
301,215,20242,2,0,P|340:163|261:83,1,175,8|8,0:0|0:1,0:0:0:0:
117,73,20939,5,8,0:0:0:0:
59,100,21114,1,2,0:3:0:0:
40,161,21288,1,8,0:1:0:0:
62,222,21463,1,2,0:3:0:0:
115,253,21637,2,0,L|307:270,1,175,8|8,0:0|0:1,0:0:0:0:
308,308,22160,1,2,0:3:0:0:
288,355,22335,6,0,L|162:199,2,175,8|0|0,0:0|0:0|0:0,0:0:0:0:
126,305,23381,1,0,0:0:0:0:
305,136,23730,6,0,L|489:152,1,175,4|8,1:2|0:1,0:0:0:0:
352,198,24428,1,10,1:2:0:0:
284,225,24602,1,2,1:2:0:0:
219,259,24777,1,8,0:1:0:0:
280,299,24951,1,0,1:1:0:0:
376,207,25125,6,0,P|438:266|371:313,1,175,10|8,1:2|0:1,0:0:0:0:
245,307,25823,2,0,L|115:180,1,175,10|8,1:2|0:1,0:0:0:0:
276,136,26521,6,0,L|289:-48,1,175,10|8,1:2|0:1,0:0:0:0:
190,155,27044,2,0,P|137:229|218:278,1,175,2|0,1:2|1:1,0:0:0:0:
268,295,27567,1,8,0:1:0:0:
417,330,27916,6,0,L|236:351,1,175,10|8,1:2|0:1,0:0:0:0:
165,309,28439,2,0,P|131:257|216:191,1,175,2|8,1:2|1:2,0:0:0:0:
298,186,28963,1,8,0:1:0:0:
122,166,29311,6,0,P|66:114|112:21,1,175,10|8,1:2|0:1,0:0:0:0:
254,41,30009,1,10,1:2:0:0:
332,73,30184,1,2,1:2:0:0:
355,152,30358,1,8,0:1:0:0:
333,236,30532,1,2,1:2:0:0:
252,251,30707,6,0,L|59:285,2,175,10|8|10,1:2|0:1|1:2,0:0:0:0:
406,288,31753,1,8,0:1:0:0:
252,248,32102,6,0,P|214:170|287:104,1,175,10|8,1:2|0:1,0:0:0:0:
344,63,32625,2,0,P|398:137|342:192,1,175,2|0,1:2|1:1,0:0:0:0:
266,207,33149,2,0,L|95:260,2,175,8|10|8,0:1|1:2|0:1,0:0:0:0:
423,217,34195,6,0,P|459:289|394:340,1,175,10|8,1:2|0:1,0:0:0:0:
316,342,34718,1,2,1:2:0:0:
237,342,34893,6,0,L|389:239,1,175,4|8,1:2|0:1,0:0:0:0:
239,233,35591,2,0,P|205:155|289:118,1,175,10|8,1:2|0:1,0:0:0:0:
367,137,36114,6,0,L|374:329,1,175,2|8,1:2|1:2,0:0:0:0:
221,323,36811,1,0,1:1:0:0:
147,278,36986,2,0,L|325:274,1,175,10|8,1:2|0:1,0:0:0:0:
160,212,37684,6,0,P|72:166|61:93,1,175,10|8,1:2|0:1,0:0:0:0:
213,79,38381,2,0,P|289:108|283:220,1,175,10|8,1:2|0:1,0:0:0:0:
244,230,38905,6,0,L|59:231,1,175,2|2,1:2|1:2,0:0:0:0:
216,296,39602,2,0,L|428:297,1,175,2|2,1:2|1:2,0:0:0:0:
271,209,40300,1,2,1:2:0:0:
186,237,40474,6,0,P|112:154|224:59,1,262.5,10|0,1:2|3:0,0:0:0:0:
326,44,41346,1,0,3:0:0:0:
464,143,41695,6,0,L|264:144,1,175,0|0,3:0|3:0,0:0:0:0:
213,189,42218,2,0,L|194:295,1,87.5,8|0,0:1|3:0,0:0:0:0:
290,321,42567,2,0,L|469:337,1,175,10|8,1:2|0:1,0:0:0:0:
268,281,43265,6,0,P|136:187|143:87,2,262.5,14|14|14,1:2|1:2|1:2,0:0:0:0:
392,24,44835,6,0,B|501:68|529:164|527:307|469:350|426:373|339:399,1,437.5,14|0,1:2|0:0,0:0:0:0:
253,373,46056,1,4,1:2:0:0:
115,294,46405,6,0,L|241:142,1,175,2|2,1:2|1:2,0:0:0:0:
370,148,47102,1,2,1:2:0:0:
255,111,47451,1,2,1:2:0:0:
389,126,47800,6,0,P|444:210|382:249,1,175,8|8,0:0|0:0,0:0:0:0:
277,252,48498,1,8,0:0:0:0:
135,275,48846,5,8,0:0:0:0:
264,192,49195,2,0,L|394:333,2,175,10|10|10,1:2|1:2|1:2,0:0:0:0:
414,205,50242,2,0,P|430:144|345:49,1,175,10|10,1:2|1:2,0:0:0:0:
223,41,50939,6,0,L|222:225,1,175,10|2,1:2|1:2,0:0:0:0:
290,217,51463,1,0,0:0:0:0:
397,83,51637,6,0,P|475:247|201:355,1,525,6|0,1:2|1:0,0:0:0:0:
187,285,53032,6,0,B|41:254|74:177|59:51|193:275|323:253|407:45|180:78,1,525,0|2,1:0|0:2,0:0:0:0:
83,74,54428,5,2,0:2:0:0:
256,192,54777,12,4,57218,1:2:0:0:
425,135,68381,5,8,0:0:0:0:
329,219,69428,1,0,0:0:0:0:
198,216,69777,5,2,0:0:0:0:
51,217,71172,1,8,2:0:0:0:
243,264,72218,1,0,0:0:0:0:
374,252,72567,5,2,0:0:0:0:
216,169,73614,1,0,0:0:0:0:
62,172,73963,5,8,0:0:0:0:
231,268,74660,2,0,L|328:271,2,87.5,0|0|0,0:0|0:0|0:0,0:0:0:0:
90,254,75358,6,0,P|15:175|115:78,1,262.5,2|0,0:0|0:0,0:0:0:0:
295,40,76579,2,0,L|311:142,1,87.5,0|8,0:0|0:0,0:0:0:0:
155,131,77277,5,0,0:0:0:0:
70,174,77451,1,0,0:0:0:0:
67,256,77625,1,0,0:0:0:0:
148,307,77800,1,0,0:0:0:0:
314,319,78149,6,0,L|511:335,1,175,4|0,0:0|0:0,0:0:0:0:
402,272,78672,1,2,0:0:0:0:
372,197,78846,1,2,0:0:0:0:
399,113,79021,1,2,0:0:0:0:
487,66,79195,1,8,1:0:0:0:
347,204,79544,6,0,L|147:221,1,175,12|8,0:0|0:1,0:0:0:0:
322,269,80242,2,0,L|327:80,1,175,8|8,1:2|0:1,0:0:0:0:
185,64,80939,6,0,L|8:54,1,175,8|8,1:2|0:1,0:0:0:0:
140,91,81637,2,0,L|270:234,1,175,8|8,1:2|0:1,0:0:0:0:
391,311,82335,6,0,P|452:278|379:228,1,175,8|8,1:2|0:1,0:0:0:0:
257,212,83032,2,0,L|110:309,1,175,8|8,1:2|0:1,0:0:0:0:
259,232,83730,6,0,L|407:337,3,175,8|8|8|8,1:2|0:1|1:2|0:1,0:0:0:0:
242,204,85125,6,0,P|94:190|72:72,2,262.5,8|2|8,1:2|0:0|0:1,0:0:0:0:
396,172,86521,6,0,P|429:254|395:353,1,175,8|8,1:2|0:1,0:0:0:0:
283,333,87218,2,0,P|208:343|93:282,1,175,8|8,1:2|0:1,0:0:0:0:
251,247,87916,6,0,L|458:240,2,175,8|8|8,1:2|0:1|1:2,0:0:0:0:
96,247,88963,1,8,0:1:0:0:
254,76,89311,6,0,P|361:85|409:161,1,175,2|2,3:0|3:0,0:0:0:0:
283,175,90009,2,0,P|194:272|287:362,1,273.000001041412,2|2,3:0|3:0,0:0:0:0:
408,345,90707,6,0,P|495:289|402:196,1,262.5,4|2,1:2|0:0,0:0:0:0:
217,187,91753,1,8,0:1:0:0:
60,195,92102,6,0,B|64:142|64:142|252:136,1,175,10|8,1:2|0:1,0:0:0:0:
283,182,92625,2,0,P|373:125|374:32,1,175,2|2,0:0|0:0,0:0:0:0:
298,44,93149,1,8,0:1:0:0:
134,66,93498,6,0,P|82:131|212:197,1,262.5,10|2,1:2|0:0,0:0:0:0:
399,221,94544,1,8,0:1:0:0:
237,277,94893,6,0,P|179:189|262:159,1,175,10|8,1:2|0:1,0:0:0:0:
293,134,95416,2,0,L|485:128,1,175,2|2,0:0|0:0,0:0:0:0:
376,123,95939,1,8,0:1:0:0:
205,202,96288,6,0,P|117:170|79:17,2,262.5,10|2|8,1:2|0:0|0:1,0:0:0:0:
356,102,97684,6,0,P|437:172|374:297,1,262.5,10|2,1:2|0:0,0:0:0:0:
233,349,98730,1,8,0:1:0:0:
309,335,98905,1,2,0:0:0:0:
390,324,99079,6,0,P|384:218|225:161,1,262.5,10|2,1:2|0:0,0:0:0:0:
190,106,99777,1,10,1:2:0:0:
122,157,99951,1,2,0:0:0:0:
93,239,100125,1,8,1:0:0:0:
107,330,100300,1,2,0:0:0:0:
182,107,100474,6,0,L|363:118,1,175,10|8,1:2|0:1,0:0:0:0:
484,238,101172,2,0,L|489:37,1,175,10|8,1:2|0:1,0:0:0:0:
301,51,101870,6,0,P|159:134|148:230,1,262.5,4|2,1:2|0:0,0:0:0:0:
349,299,102916,1,8,0:1:0:0:
156,331,103265,6,0,P|105:262|191:210,1,175,10|8,1:2|0:1,0:0:0:0:
255,199,103788,2,0,L|270:10,1,175,2|2,0:0|0:0,0:0:0:0:
166,21,104311,1,8,0:1:0:0:
339,45,104660,6,0,P|445:93|442:203,1,175,10|8,1:2|0:1,0:0:0:0:
458,206,105184,2,0,L|298:325,1,175,2|2,0:0|0:0,0:0:0:0:
239,326,105707,1,8,0:1:0:0:
57,259,106056,6,0,P|62:162|254:112,1,262.5,10|2,1:2|0:0,0:0:0:0:
377,99,107102,1,8,0:1:0:0:
213,101,107451,6,0,P|144:227|287:348,1,350,10|10,1:2|1:2,0:0:0:0:
426,347,108498,1,8,0:1:0:0:
276,348,108846,6,0,L|77:345,1,175,10|8,1:2|0:1,0:0:0:0:
42,292,109370,2,0,P|63:183|129:161,1,175,2|2,0:0|0:0,0:0:0:0:
188,157,109893,1,8,0:1:0:0:
346,163,110242,6,0,P|343:52|260:20,1,175,10|8,1:2|0:1,0:0:0:0:
225,26,110765,1,2,0:0:0:0:
154,37,110939,2,0,L|110:133,2,87.5,10|2|8,1:2|0:0|0:1,0:0:0:0:
225,26,111463,1,2,0:0:0:0:
319,65,111637,6,0,P|420:112|382:301,1,262.5,10|2,1:2|0:0,0:0:0:0:
230,285,112684,1,8,0:1:0:0:
88,315,113032,6,0,B|88:264|88:264|231:240,1,175,10|8,1:2|0:1,0:0:0:0:
350,212,113730,2,0,L|361:25,1,175,10|8,1:2|0:1,0:0:0:0:
280,36,114253,1,0,0:0:0:0:
200,34,114428,6,0,P|104:54|48:229,2,262.5,10|2|8,1:2|0:0|0:1,0:0:0:0:
352,41,115823,2,0,L|359:238,1,175,10|8,1:2|0:1,0:0:0:0:
209,220,116521,6,0,P|128:317|182:374,1,175,10|8,1:2|0:1,0:0:0:0:
213,348,117044,1,2,0:0:0:0:
311,349,117218,5,10,1:2:0:0:
497,341,117916,1,10,1:2:0:0:
201,264,118614,6,0,P|126:236|94:136,2,175,14|8|10,1:2|0:1|1:2,0:0:0:0:
361,278,119660,1,8,0:1:0:0:
205,262,120009,6,0,L|203:74,1,175,10|8,1:2|0:1,0:0:0:0:
288,77,120532,1,2,0:0:0:0:
371,64,120707,2,0,L|140:62,1,175,10|8,1:2|0:1,0:0:0:0:
355,107,121405,6,0,P|441:169|434:269,1,175,10|8,1:2|0:1,0:0:0:0:
369,236,121928,2,0,L|214:354,1,175,2|2,0:0|0:0,0:0:0:0:
150,345,122451,1,8,0:1:0:0:
316,250,122800,6,0,L|333:57,1,175,10|8,1:2|0:1,0:0:0:0:
254,62,123323,1,2,0:0:0:0:
175,52,123498,2,0,P|120:119|146:212,1,175,10|8,1:2|0:1,0:0:0:0:
314,282,124195,6,0,P|407:281|464:370,2,175,10|8|8,1:2|0:1|0:1,0:0:0:0:
164,143,125242,1,8,0:1:0:0:
100,167,125416,1,2,3:2:0:0:
79,228,125591,5,10,1:2:0:0:
93,280,125765,1,2,3:2:0:0:
160,307,125939,1,8,0:1:0:0:
337,327,126288,6,0,P|443:223|415:174,1,175,8|8,0:1|0:1,0:0:0:0:
367,196,126811,1,2,3:2:0:0:
291,173,126986,6,0,L|263:80,2,87.5,10|2|8,1:2|3:2|0:1,0:0:0:0:
367,196,127509,1,2,3:2:0:0:
459,209,127684,2,0,P|476:304|388:349,1,175,8|8,0:1|0:1,0:0:0:0:
252,356,128381,6,0,L|56:356,1,175,10|8,1:2|0:1,0:0:0:0:
206,278,129079,2,0,P|185:150|143:117,1,175,8|8,0:1|0:1,0:0:0:0:
19,90,129777,6,0,L|20:195,1,87.5,0|0,3:2|0:0,0:0:0:0:
130,212,130125,1,4,1:2:0:0:
256,192,130474,12,0,133614,0:0:0:0:
