osu file format v14

[General]
AudioFilename: audio.mp3
AudioLeadIn: 0
PreviewTime: 89311
Countdown: 0
SampleSet: Soft
StackLeniency: 0.7
Mode: 2
LetterboxInBreaks: 0
WidescreenStoryboard: 1

[Editor]
Bookmarks: 46056,57218,68381,78149,79544,113032,118614,129777,130474,133614
DistanceSpacing: 0.9
BeatDivisor: 16
GridSize: 4
TimelineZoom: 3.299999

[Metadata]
Title:Harmony
TitleUnicode:Harmony
Artist:Lime
ArtistUnicode:Lime
Creator:wonjae
Version:Rain
Source:
Tags:ajamez jemzuu G2R2014 Album Groundbreaking -G2R2014 COMPILATION ALBUM- kankitsu bms kawaiicore instrumental electronic piano paranoid grapes
BeatmapID:2560263
BeatmapSetID:1231601

[Difficulty]
HPDrainRate:6
CircleSize:4
OverallDifficulty:9
ApproachRate:9
SliderMultiplier:1.77
SliderTickRate:1

[Events]
//Background and Video events
0,0,"mountain of great size_waifu2x.png",0,0
//Break Periods
2,57480,67684
//Storyboard Layer 0 (Background)
//Storyboard Layer 1 (Fail)
//Storyboard Layer 2 (Pass)
//Storyboard Layer 3 (Foreground)
//Storyboard Layer 4 (Overlay)
//Storyboard Sound Samples

[TimingPoints]
1405,348.837209302326,4,2,2,49,1,0
11434,-100,4,2,2,49,0,0
11521,-62.5,4,2,2,49,0,0
11782,-66.6666666666667,4,2,2,49,0,0
11870,-80,4,2,2,49,0,0
22596,-80,4,2,2,49,0,0
22684,-64.5161290322581,4,2,2,49,0,0
22945,-64.5161290322581,4,2,2,49,0,0
23032,-60.6060606060606,4,2,2,49,0,0
23294,-60.6060606060606,4,2,2,49,0,0
23381,-52.6315789473684,4,2,2,49,0,0
23730,-80,4,2,2,60,0,0
46056,-80,4,2,2,49,0,0
89573,-80,4,2,2,49,0,0
89660,-60.6060606060606,4,2,2,49,0,0
89922,-60.6060606060606,4,2,2,49,0,0
90009,-51.2820512820513,4,2,2,49,0,0
90271,-51.2820512820513,4,2,2,49,0,0
90358,-41.6666666666667,4,2,2,49,0,0
90707,-80,4,2,2,65,0,1
101172,-80,4,2,2,65,0,0
101521,-56.4971751412429,4,2,2,65,0,0
101870,-80,4,2,2,65,0,1
113032,-80,4,2,2,65,0,0
130474,-80,4,2,2,55,0,0
131172,-80,4,2,2,45,0,0
132567,-80,4,2,2,35,0,0
133614,-80,4,2,2,20,0,0

[Colours]
Combo1 : 251,194,111
Combo2 : 0,128,255
Combo3 : 213,31,4
Combo4 : 113,113,255
Combo5 : 158,158,158
Combo6 : 0,83,166

[HitObjects]
207,197,1405,6,0,L|327:197,2,88.5,4|0|8,2:0|0:0|0:0,0:0:0:0:
293,192,1928,1,0,1:0:0:0:
149,195,2102,2,0,L|36:197,1,88.5,2|0,0:0|1:0,0:0:0:0:
130,132,2451,2,0,L|225:131,1,88.5,8|0,0:0|1:0,0:0:0:0:
400,140,2800,6,0,P|462:192|400:205,1,177,2|8,0:0|0:0,0:0:0:0:
316,210,3323,1,0,1:0:0:0:
146,245,3498,2,0,L|40:252,3,88.5,2|0|8|0,0:0|1:0|0:0|1:0,0:0:0:0:
250,292,4195,6,0,L|255:183,1,88.5,2|0,0:0|0:0,0:0:0:0:
433,195,4544,2,0,L|436:84,1,88.5,8|0,0:0|1:0,0:0:0:0:
280,125,4893,2,0,L|285:6,1,88.5,2|0,0:0|1:0,0:0:0:0:
117,36,5242,2,0,L|111:137,1,88.5,8|0,0:0|1:0,0:0:0:0:
280,166,5591,6,0,L|388:185,1,88.5,2|0,0:0|0:0,0:0:0:0:
159,222,5939,2,0,L|56:244,1,88.5,8|0,0:0|1:0,0:0:0:0:
351,279,6288,2,0,L|472:310,1,88.5,2|0,0:0|1:0,0:0:0:0:
251,318,6637,2,0,L|128:339,1,88.5,8|0,0:0|1:0,0:0:0:0:
456,252,6986,5,6,0:0:0:0:
438,232,7160,1,0,0:0:0:0:
376,210,7335,1,8,0:0:0:0:
273,207,7509,1,0,1:0:0:0:
96,159,7684,1,2,0:0:0:0:
114,139,7858,1,0,1:0:0:0:
176,117,8033,1,8,0:0:0:0:
279,114,8207,1,0,1:0:0:0:
92,62,8381,6,0,L|209:65,3,88.5,2|0|8|0,0:0|0:0|0:0|1:0,0:0:0:0:
449,207,9079,2,0,L|325:209,3,88.5,2|0|8|0,0:0|1:0|0:0|1:0,0:0:0:0:
97,226,9777,6,0,L|93:117,1,88.5,2|0,0:0|0:0,0:0:0:0:
264,95,10125,2,0,L|265:198,1,88.5,8|0,0:0|1:0,0:0:0:0:
437,236,10474,2,0,L|435:120,1,88.5,2|0,0:0|1:0,0:0:0:0:
259,94,10823,2,0,L|203:93,1,44.25,8|0,0:0|0:0,0:0:0:0:
322,94,10998,2,0,L|401:98,1,44.25,0|0,1:0|1:0,0:0:0:0:
201,174,11172,6,0,L|53:177,1,132.75,0|0,1:0|0:0,0:0:0:0:
20,185,11521,2,0,L|289:183,1,212.4,0|0,0:0|0:0,0:0:0:0:
323,188,11870,2,0,L|327:340,1,110.625,0|8,0:0|0:0,0:0:0:0:
276,304,12131,1,0,0:0:0:0:
85,284,12218,2,0,P|39:212|112:152,1,165.9375,8|0,1:0|0:0,0:0:0:0:
331,94,12567,6,0,L|396:94,2,55.3125,12|0|2,1:2|0:0|0:0,0:0:0:0:
221,124,12916,1,8,0:1:0:0:
207,179,13003,1,0,0:0:0:0:
214,238,13091,1,2,0:0:0:0:
272,273,13178,1,0,0:0:0:0:
383,274,13265,2,0,L|506:275,3,110.625,8|2|8|0,0:0|0:0|0:1|0:0,0:0:0:0:
333,246,13963,6,0,L|338:130,1,110.625,8|2,0:0|0:0,0:0:0:0:
195,139,14311,2,0,L|205:26,1,110.625,8|2,0:1|0:0,0:0:0:0:
465,45,14660,1,8,0:0:0:0:
481,113,14748,1,0,0:0:0:0:
464,164,14835,1,2,0:0:0:0:
415,197,14922,1,0,0:0:0:0:
351,195,15009,2,0,L|448:278,1,110.625,8|0,0:1|0:0,0:0:0:0:
166,275,15358,6,0,L|111:278,2,55.3125,8|0|2,0:0|0:0|0:0,0:0:0:0:
222,274,15620,1,0,0:0:0:0:
280,234,15707,1,8,0:1:0:0:
297,170,15794,1,0,0:0:0:0:
281,101,15881,1,2,0:0:0:0:
216,66,15968,1,0,0:0:0:0:
94,62,16056,2,0,L|91:184,1,110.625,8|2,0:0|0:0,0:0:0:0:
179,214,16405,2,0,L|60:216,1,110.625,8|0,0:1|0:0,0:0:0:0:
229,247,16753,6,0,L|228:374,1,110.625,8|2,0:0|0:0,0:0:0:0:
74,346,17102,2,0,L|184:346,1,110.625,8|2,0:1|0:0,0:0:0:0:
430,348,17451,2,0,P|493:295|411:204,1,221.25,8|8,0:0|0:1,0:0:0:0:
326,232,17974,1,0,0:0:0:0:
46,223,18149,6,0,P|56:121|167:95,1,221.25,12|8,0:0|0:1,0:0:0:0:
279,100,18672,1,2,0:0:0:0:
124,88,18846,2,0,L|117:214,1,110.625,8|2,0:0|0:0,0:0:0:0:
272,258,19195,2,0,L|151:255,1,110.625,8|0,0:1|0:0,0:0:0:0:
424,210,19544,6,0,L|424:95,1,110.625,8|2,0:0|0:0,0:0:0:0:
331,61,19893,2,0,L|478:62,1,110.625,8|2,0:1|0:0,0:0:0:0:
161,97,20242,2,0,P|101:132|102:201,1,110.625,8|2,0:0|0:0,0:0:0:0:
146,213,20503,1,2,0:0:0:0:
212,222,20591,1,8,0:1:0:0:
232,282,20678,1,0,0:0:0:0:
215,347,20765,1,2,0:0:0:0:
150,360,20852,1,0,0:0:0:0:
361,325,20939,5,8,0:0:0:0:
423,304,21027,1,0,0:0:0:0:
369,269,21114,1,2,0:3:0:0:
313,244,21201,1,0,0:0:0:0:
289,176,21288,1,8,0:1:0:0:
291,113,21375,1,0,0:0:0:0:
329,58,21463,1,2,0:3:0:0:
387,50,21550,1,0,0:0:0:0:
151,71,21637,5,8,0:0:0:0:
88,92,21724,1,0,3:3:0:0:
142,129,21811,1,2,0:3:0:0:
191,158,21899,1,0,3:3:0:0:
371,208,21986,1,8,0:1:0:0:
437,225,22073,1,0,3:3:0:0:
235,262,22160,1,2,0:3:0:0:
172,283,22248,1,0,3:3:0:0:
386,331,22335,6,0,P|440:280|377:256,1,165.9375,8|0,0:0|0:0,0:0:0:0:
272,255,22684,2,0,P|202:195|295:168,1,205.762501569843,0|0,0:0|0:0,0:0:0:0:
382,164,23032,2,0,P|456:136|371:76,1,219.037502088904,0|0,0:0|0:0,0:0:0:0:
188,63,23381,2,0,P|96:104|145:242,1,252.224993264866,0|0,0:0|0:0,0:0:0:0:
325,301,23730,6,0,L|454:301,1,110.625,4|0,1:2|1:1,0:0:0:0:
274,241,24079,2,0,L|149:233,1,110.625,8|0,0:1|1:1,0:0:0:0:
439,54,24428,1,10,1:2:0:0:
422,128,24602,1,2,1:2:0:0:
358,184,24777,1,8,0:1:0:0:
271,201,24951,1,0,1:1:0:0:
31,260,25125,6,0,L|27:373,1,110.625,10|0,1:2|1:1,0:0:0:0:
186,353,25474,2,0,L|61:356,1,110.625,8|0,0:1|1:1,0:0:0:0:
344,308,25823,2,0,L|458:308,1,110.625,10|8,1:2|1:2,0:0:0:0:
157,241,26172,2,0,L|161:110,1,110.625,8|0,0:1|1:1,0:0:0:0:
435,96,26521,6,0,L|313:74,2,110.625,10|2|8,1:2|1:2|0:1,0:0:0:0:
192,108,27044,2,0,P|96:125|77:239,1,221.25,2|0,1:2|1:1,0:0:0:0:
308,287,27567,2,0,L|439:298,1,110.625,8|8,0:1|1:2,0:0:0:0:
146,237,27916,5,10,1:2:0:0:
51,151,28091,1,0,0:0:0:0:
60,57,28265,1,8,0:1:0:0:
165,32,28439,1,2,1:2:0:0:
420,104,28614,2,0,L|417:223,1,110.625,0|8,0:0|1:2,0:0:0:0:
269,237,28963,2,0,L|387:237,1,110.625,8|0,0:1|1:1,0:0:0:0:
91,248,29311,5,10,1:2:0:0:
102,177,29486,1,2,1:2:0:0:
170,121,29660,1,8,0:1:0:0:
277,107,29835,1,2,1:2:0:0:
29,167,30009,2,0,L|27:285,1,110.625,10|2,1:2|1:2,0:0:0:0:
174,251,30358,2,0,L|173:371,1,110.625,8|2,0:1|1:2,0:0:0:0:
439,251,30707,6,0,P|502:194|428:104,1,221.25,10|8,1:2|0:1,0:0:0:0:
321,126,31230,1,0,1:1:0:0:
66,96,31405,2,0,L|66:207,1,110.625,10|2,1:2|1:2,0:0:0:0:
300,296,31753,2,0,L|180:296,1,110.625,8|0,0:1|1:1,0:0:0:0:
452,261,32102,6,0,P|485:192|370:116,1,221.25,10|8,1:2|0:1,0:0:0:0:
215,81,32625,2,0,L|438:74,1,221.25,2|0,1:2|1:1,0:0:0:0:
163,140,33149,2,0,P|141:199|186:239,1,110.625,8|2,0:1|1:2,0:0:0:0:
449,137,33498,5,10,1:2:0:0:
451,239,33672,1,0,1:1:0:0:
385,317,33846,1,8,0:1:0:0:
281,333,34021,1,0,1:1:0:0:
27,266,34195,2,0,L|161:257,1,110.625,10|8,1:2|0:1,0:0:0:0:
379,210,34544,1,8,0:1:0:0:
440,173,34631,1,2,1:2:0:0:
383,131,34718,1,2,1:2:0:0:
317,104,34806,1,2,1:2:0:0:
130,130,34893,6,0,L|20:133,1,110.625,4|0,1:2|0:0,0:0:0:0:
164,181,35242,2,0,P|283:219|297:258,1,165.9375,8|0,0:1|0:0,0:0:0:0:
274,274,35591,2,0,L|160:270,1,110.625,10|0,1:2|1:1,0:0:0:0:
437,232,35939,1,8,0:1:0:0:
179,218,36114,6,0,P|99:177|195:105,1,221.25,2|8,1:2|1:2,0:0:0:0:
311,100,36637,2,0,L|429:99,1,110.625,8|0,0:1|1:1,0:0:0:0:
136,64,36986,2,0,L|134:190,1,110.625,10|0,1:2|1:1,0:0:0:0:
292,198,37335,1,8,0:1:0:0:
268,232,37422,1,2,1:2:0:0:
217,242,37509,1,2,1:2:0:0:
473,326,37684,6,0,L|473:193,1,110.625,10|0,1:2|0:0,0:0:0:0:
328,184,38032,2,0,P|273:139|327:79,1,165.9375,8|0,0:1|0:0,0:0:0:0:
361,73,38381,2,0,L|483:76,1,110.625,10|2,1:2|1:2,0:0:0:0:
193,181,38730,1,8,0:1:0:0:
471,100,38905,6,0,L|465:226,1,110.625,2|0,1:2|0:0,0:0:0:0:
330,232,39253,2,0,L|459:239,1,110.625,2|8,1:2|0:1,0:0:0:0:
168,305,39602,2,0,P|93:284|176:211,1,221.25,2|2,1:2|1:2,0:0:0:0:
311,168,40125,1,8,0:1:0:0:
372,169,40213,1,2,1:2:0:0:
428,171,40300,1,2,1:2:0:0:
372,169,40387,1,2,1:2:0:0:
173,137,40474,6,0,L|51:133,2,110.625,10|0|8,1:2|0:0|0:1,0:0:0:0:
435,206,40998,2,0,P|441:294|304:328,1,221.25,0|0,3:0|3:0,0:0:0:0:
163,332,41521,2,0,P|147:280|188:241,1,110.625,8|0,0:1|3:0,0:0:0:0:
468,260,41870,6,0,L|468:180,2,55.3125,10|0|0,1:2|0:0|3:0,0:0:0:0:
329,173,42218,2,0,L|329:93,2,55.3125,8|0|0,0:1|3:0|3:0,0:0:0:0:
183,71,42567,1,10,1:2:0:0:
120,101,42655,1,0,3:0:0:0:
83,169,42742,1,0,3:0:0:0:
103,252,42829,1,0,3:0:0:0:
177,283,42916,1,8,0:1:0:0:
216,332,43003,1,0,3:0:0:0:
177,283,43091,1,0,3:0:0:0:
103,252,43178,1,0,3:0:0:0:
334,247,43265,6,0,P|447:197|426:120,1,221.25,14|0,1:2|0:0,0:0:0:0:
160,191,43788,2,0,P|102:141|200:70,1,221.25,14|0,1:2|0:0,0:0:0:0:
439,79,44311,2,0,B|437:169|437:169|256:175,1,221.25,14|0,1:2|0:0,0:0:0:0:
45,144,44835,2,0,P|203:356|414:109,1,663.75,14|0,1:2|1:0,0:0:0:0:
105,119,46056,5,4,1:2:0:0:
105,205,46405,2,0,L|329:205,1,221.25,2|2,1:2|1:2,0:0:0:0:
292,244,46841,1,2,1:2:0:0:
260,271,46928,1,2,1:2:0:0:
152,311,47102,1,2,1:2:0:0:
152,311,47218,1,2,1:2:0:0:
152,311,47335,1,2,1:2:0:0:
259,339,47451,5,2,1:2:0:0:
259,339,47567,1,2,1:2:0:0:
259,339,47684,1,2,1:2:0:0:
393,306,47800,2,0,L|394:270,4,36.875,8|0|0|0|0,0:0|0:0|0:0|0:0|0:0,0:0:0:0:
253,235,48149,5,8,0:0:0:0:
210,196,48207,1,0,0:0:0:0:
192,141,48265,1,0,0:0:0:0:
199,89,48323,1,0,0:0:0:0:
228,50,48381,1,0,0:0:0:0:
328,34,48498,2,0,L|331:78,4,36.875,8|0|0|0|0,0:0|0:0|0:0|0:0|0:0,0:0:0:0:
272,38,48846,5,8,0:0:0:0:
228,50,48904,1,0,0:0:0:0:
199,89,48962,1,0,0:0:0:0:
192,141,49020,1,0,0:0:0:0:
210,196,49078,1,0,0:0:0:0:
309,257,49195,2,0,L|353:263,4,36.875,10|0|0|0|0,1:2|0:0|0:0|0:0|0:0,0:0:0:0:
235,292,49544,6,0,L|193:303,4,36.875,10|0|0|0|0,1:2|0:0|0:0|0:0|0:0,0:0:0:0:
159,317,49893,2,0,L|117:328,4,36.875,10|0|0|0|0,1:2|0:0|0:0|0:0|0:0,0:0:0:0:
233,282,50242,6,0,L|277:288,4,36.875,10|0|0|0|0,1:2|0:0|0:0|0:0|0:0,0:0:0:0:
309,257,50591,2,0,L|353:263,4,36.875,10|0|0|0|0,1:2|0:0|0:0|0:0|0:0,0:0:0:0:
184,183,50939,2,0,L|104:189,2,73.75,10|2|2,1:2|1:2|1:2,0:0:0:0:
331,200,51288,2,0,L|436:207,2,73.75,2|2|2,1:2|1:2|1:2,0:0:0:0:
132,210,51637,6,0,P|47:244|131:295,1,221.25,6|0,1:2|1:0,0:0:0:0:
284,143,52160,2,0,P|296:209|172:275,1,221.25,0|0,1:0|1:0,0:0:0:0:
344,287,52684,2,0,L|476:314,1,110.625,0|0,1:0|1:0,0:0:0:0:
292,194,53032,6,0,L|178:183,3,110.625,0|0|0|2,1:0|1:0|0:2|0:2,0:0:0:0:
44,169,53730,2,0,L|46:52,1,110.625,2|2,0:2|0:2,0:0:0:0:
154,44,54079,2,0,L|282:42,1,110.625,2|0,0:2|1:2,0:0:0:0:
443,89,54428,6,0,P|479:152|373:227,1,221.25,2|2,0:2|1:2,0:0:0:0:
235,303,54951,2,0,L|466:316,1,221.25,2|0,0:2|1:2,0:0:0:0:
358,303,55474,1,0,1:2:0:0:
199,204,55649,6,0,L|79:212,2,110.625,2|2|2,0:2|0:2|0:2,0:0:0:0:
359,156,56172,2,0,L|357:25,1,110.625,2|2,0:2|0:2,0:0:0:0:
200,142,56521,2,0,P|81:96|206:42,1,331.875,2|0,0:2|1:2,0:0:0:0:
481,110,57218,5,4,1:2:0:0:
244,50,68381,6,0,P|452:243|189:341,1,663.75,8|0,0:0|0:0,0:0:0:0:
112,184,69777,2,0,P|305:392|412:127,1,663.75,2|0,0:0|0:0,0:0:0:0:
244,53,71172,6,0,P|36:246|305:341,1,663.75,8|0,2:0|0:0,0:0:0:0:
354,176,72567,2,0,P|161:384|78:113,1,663.75,2|0,0:0|0:0,0:0:0:0:
330,82,73963,6,0,P|373:181|135:358,1,442.5,8|0,0:0|0:0,0:0:0:0:
288,346,74835,1,0,0:0:0:0:
392,306,75009,1,0,0:0:0:0:
93,88,75358,6,0,P|137:265|300:274,1,331.875,2|0,0:0|0:0,0:0:0:0:
289,57,76753,6,0,P|394:119|339:311,1,331.875,8|0,0:0|0:0,0:0:0:0:
239,293,77451,1,0,0:0:0:0:
234,341,77625,1,0,0:0:0:0:
353,347,77800,1,0,0:0:0:0:
75,252,78149,6,0,P|41:196|149:111,1,221.25,4|0,0:0|0:0,0:0:0:0:
324,108,78672,2,0,L|404:106,1,55.3125,2|2,0:0|0:0,0:0:0:0:
280,57,78846,2,0,L|214:58,1,55.3125,2|2,0:0|0:0,0:0:0:0:
324,108,79021,2,0,L|404:106,1,55.3125,2|2,0:0|0:0,0:0:0:0:
175,141,79195,2,0,P|115:110|195:74,1,165.9375,8|0,1:0|0:0,0:0:0:0:
378,133,79544,6,0,L|503:127,1,110.625,12|0,0:0|0:0,0:0:0:0:
318,152,79893,1,8,0:1:0:0:
318,152,80242,2,0,L|322:29,1,110.625,8|0,1:2|0:0,0:0:0:0:
183,201,80591,2,0,L|176:78,1,110.625,8|0,0:1|0:0,0:0:0:0:
337,70,80939,6,0,L|216:75,1,110.625,8|0,1:2|0:0,0:0:0:0:
93,74,81288,1,8,0:1:0:0:
97,73,81637,2,0,L|224:79,1,110.625,8|0,1:2|0:0,0:0:0:0:
361,317,81986,2,0,P|405:276|326:219,1,165.9375,8|0,0:1|0:0,0:0:0:0:
159,175,82335,6,0,L|43:175,1,110.625,8|0,1:2|0:0,0:0:0:0:
208,117,82684,1,8,0:1:0:0:
316,267,83032,2,0,L|196:268,1,110.625,8|0,1:2|0:0,0:0:0:0:
67,336,83381,2,0,L|186:336,1,110.625,8|0,0:1|0:0,0:0:0:0:
325,251,83730,6,0,L|321:131,1,110.625,8|0,1:2|0:0,0:0:0:0:
165,95,84079,1,8,0:1:0:0:
45,241,84428,2,0,L|171:237,1,110.625,8|0,1:2|0:0,0:0:0:0:
390,269,84777,2,0,L|395:143,1,110.625,8|0,0:1|0:0,0:0:0:0:
135,61,85125,6,0,L|266:56,2,110.625,8|0|8,1:2|0:0|0:1,0:0:0:0:
378,96,85649,2,0,L|374:211,1,110.625,2|0,0:0|0:0,0:0:0:0:
273,203,85998,1,2,0:0:0:0:
414,214,86172,2,0,L|414:329,1,110.625,8|0,0:1|0:0,0:0:0:0:
139,325,86521,6,0,L|22:329,1,110.625,8|0,1:2|0:0,0:0:0:0:
181,263,86870,2,0,L|182:134,1,110.625,8|2,0:1|0:0,0:0:0:0:
46,109,87218,2,0,L|177:111,1,110.625,8|2,1:2|0:0,0:0:0:0:
300,190,87567,2,0,L|433:201,1,110.625,8|0,0:1|0:0,0:0:0:0:
134,102,87916,5,8,1:2:0:0:
83,154,88003,1,0,3:0:0:0:
65,217,88091,1,2,3:2:0:0:
93,272,88178,1,0,3:0:0:0:
150,290,88265,1,8,0:1:0:0:
213,315,88352,1,0,3:0:0:0:
150,332,88439,1,2,3:2:0:0:
150,332,88527,1,0,3:0:0:0:
394,301,88614,5,8,1:2:0:0:
443,264,88701,1,0,3:0:0:0:
462,207,88788,1,2,3:2:0:0:
442,149,88875,1,0,3:0:0:0:
384,120,88963,1,8,0:1:0:0:
323,104,89050,1,0,3:0:0:0:
379,81,89137,1,2,3:2:0:0:
441,57,89224,1,0,3:0:0:0:
203,55,89311,6,0,P|144:76|125:177,1,165.9375,2|0,3:0|0:0,0:0:0:0:
218,169,89660,2,0,P|293:230|231:326,1,219.037502088904,2|0,3:0|0:0,0:0:0:0:
138,332,90009,2,0,P|98:261|183:172,1,172.575000658321,2|2,3:0|3:2,0:0:0:0:
200,179,90271,1,0,0:0:0:0:
368,215,90358,2,0,P|470:187|348:86,1,318.5999902771,2|0,3:0|0:0,0:0:0:0:
162,85,90707,6,0,L|35:96,1,110.625,4|2,1:2|0:0,0:0:0:0:
114,88,90968,1,0,0:0:0:0:
168,82,91056,1,8,0:1:0:0:
312,107,91230,1,2,0:0:0:0:
376,142,91317,1,0,0:0:0:0:
393,204,91405,5,10,1:2:0:0:
376,254,91492,1,2,0:0:0:0:
320,284,91579,1,2,0:0:0:0:
171,324,91753,2,0,L|175:212,1,110.625,8|0,0:1|0:0,0:0:0:0:
242,212,92015,1,0,0:0:0:0:
425,205,92102,6,0,P|439:163|304:96,1,221.25,10|8,1:2|0:1,0:0:0:0:
171,54,92625,2,0,L|411:56,1,221.25,2|2,0:0|0:0,0:0:0:0:
213,119,93149,2,0,L|148:132,2,55.3125,8|0|0,0:1|0:0|0:0,0:0:0:0:
473,206,93498,6,0,L|474:321,1,110.625,10|0,1:2|0:0,0:0:0:0:
423,308,93759,1,0,0:0:0:0:
372,305,93846,1,8,0:1:0:0:
222,229,94021,2,0,L|147:232,2,55.3125,2|0|10,0:0|0:0|1:2,0:0:0:0:
280,223,94282,5,2,0:0:0:0:
222,229,94370,1,2,0:0:0:0:
72,227,94544,2,0,L|67:115,1,110.625,8|0,0:1|0:0,0:0:0:0:
127,113,94806,1,0,0:0:0:0:
320,85,94893,6,0,P|428:111|452:221,1,221.25,10|8,1:2|0:1,0:0:0:0:
314,243,95416,2,0,L|86:262,1,221.25,2|2,0:0|0:0,0:0:0:0:
263,320,95939,1,8,0:1:0:0:
320,281,96027,1,0,0:0:0:0:
322,219,96114,1,2,0:0:0:0:
262,185,96201,1,0,0:0:0:0:
57,139,96288,6,0,P|41:240|152:249,1,221.25,10|8,1:2|0:1,0:0:0:0:
274,317,96811,1,2,0:0:0:0:
320,291,96898,1,0,0:0:0:0:
332,235,96985,5,10,1:2:0:0:
311,183,97072,1,2,0:0:0:0:
246,158,97159,1,2,0:0:0:0:
98,100,97335,2,0,L|212:101,1,110.625,8|0,0:1|0:0,0:0:0:0:
452,129,97684,6,0,P|481:182|370:254,1,221.25,10|8,1:2|0:1,0:0:0:0:
256,287,98207,2,0,L|24:294,1,221.25,2|2,0:0|0:0,0:0:0:0:
192,219,98730,2,0,L|278:215,1,55.3125,8|0,0:1|0:0,0:0:0:0:
192,219,98905,1,2,0:0:0:0:
136,225,98992,1,2,0:0:0:0:
334,88,99079,6,0,P|477:145|472:206,1,221.25,10|8,1:2|0:1,0:0:0:0:
382,197,99602,1,2,0:0:0:0:
119,214,99777,2,0,L|119:337,1,110.625,10|2,1:2|0:0,0:0:0:0:
259,326,100125,2,0,L|128:326,1,110.625,8|2,1:0|0:0,0:0:0:0:
427,255,100474,6,0,P|490:196|407:121,1,221.25,10|8,1:2|0:1,0:0:0:0:
305,109,100998,1,2,0:0:0:0:
159,101,101172,6,0,L|92:102,2,55.3125,10|0|0,1:2|0:0|0:0,0:0:0:0:
304,147,101521,1,8,0:1:0:0:
373,156,101608,1,0,0:0:0:0:
440,158,101695,1,2,0:0:0:0:
373,156,101782,1,0,0:0:0:0:
168,174,101870,6,0,P|73:203|64:230,1,110.625,4|2,1:2|0:0,0:0:0:0:
34,212,102131,1,0,0:0:0:0:
51,274,102218,1,8,0:1:0:0:
200,322,102393,1,2,0:0:0:0:
247,313,102480,1,0,0:0:0:0:
282,280,102567,5,10,1:2:0:0:
293,234,102654,1,2,0:0:0:0:
277,188,102741,1,2,0:0:0:0:
138,155,102916,2,0,L|125:28,1,110.625,8|0,0:1|0:0,0:0:0:0:
395,32,103265,6,0,P|462:86|369:148,1,221.25,10|8,1:2|0:1,0:0:0:0:
138,192,103788,2,0,B|155:244|155:244|330:260,1,221.25,2|2,0:0|0:0,0:0:0:0:
167,295,104311,1,8,0:1:0:0:
101,270,104399,1,0,0:0:0:0:
101,270,104486,1,2,0:0:0:0:
167,295,104573,1,0,0:0:0:0:
356,296,104660,6,0,L|484:300,1,110.625,10|0,1:2|0:0,0:0:0:0:
404,296,104922,1,0,0:0:0:0:
356,296,105009,1,8,0:1:0:0:
216,241,105184,2,0,P|183:156|286:124,1,221.25,2|2,0:0|0:0,0:0:0:0:
403,81,105707,2,0,L|274:79,1,110.625,8|0,0:1|0:0,0:0:0:0:
48,150,106056,6,0,P|45:224|178:251,1,221.25,10|8,1:2|0:1,0:0:0:0:
297,303,106579,2,0,L|363:304,2,55.3125,2|0|10,0:0|0:0|1:2,0:0:0:0:
230,267,106841,5,2,0:0:0:0:
202,201,106928,1,2,0:0:0:0:
230,267,107015,1,2,0:0:0:0:
400,310,107102,2,0,L|517:303,1,110.625,8|2,0:1|0:0,0:0:0:0:
223,239,107451,6,0,P|175:160|277:117,1,221.25,10|8,1:2|0:1,0:0:0:0:
354,106,107974,1,0,0:0:0:0:
94,112,108149,2,0,L|212:114,3,110.625,10|2|8|2,1:2|0:0|0:1|0:0,0:0:0:0:
456,131,108846,6,0,P|470:199|340:254,1,221.25,10|8,1:2|0:1,0:0:0:0:
238,312,109370,2,0,L|464:223,1,221.25,2|2,0:0|0:0,0:0:0:0:
274,207,109893,1,8,0:1:0:0:
207,172,109980,1,0,0:0:0:0:
189,111,110067,1,2,0:0:0:0:
218,45,110155,1,2,0:0:0:0:
291,31,110242,6,0,L|416:28,1,110.625,10|0,1:2|0:0,0:0:0:0:
249,85,110591,2,0,L|118:86,1,110.625,8|2,0:1|0:0,0:0:0:0:
398,259,110939,2,0,L|281:262,1,110.625,10|2,1:2|0:0,0:0:0:0:
146,309,111288,2,0,L|30:308,1,110.625,8|2,0:1|0:0,0:0:0:0:
348,254,111637,6,0,P|446:182|411:108,1,221.25,10|8,1:2|0:1,0:0:0:0:
269,115,112160,2,0,L|45:108,1,221.25,2|2,0:0|0:0,0:0:0:0:
230,51,112684,2,0,L|365:49,1,110.625,8|2,0:1|0:0,0:0:0:0:
53,122,113032,5,10,1:2:0:0:
34,183,113120,1,2,0:0:0:0:
47,251,113207,1,2,0:0:0:0:
97,296,113294,1,2,0:0:0:0:
194,323,113381,2,0,L|325:323,3,110.625,8|2|10|2,0:1|0:0|1:2|0:0,0:0:0:0:
447,251,114079,2,0,L|448:119,1,110.625,8|0,0:1|0:0,0:0:0:0:
206,169,114428,6,0,P|142:130|237:66,1,221.25,10|8,1:2|0:1,0:0:0:0:
366,54,114951,2,0,L|163:167,1,221.25,2|2,0:0|0:0,0:0:0:0:
32,97,115474,2,0,L|30:207,1,110.625,8|0,0:1|0:0,0:0:0:0:
279,187,115823,5,10,1:2:0:0:
345,193,115910,1,2,0:0:0:0:
398,233,115998,1,2,0:0:0:0:
417,296,116085,1,2,0:0:0:0:
420,353,116172,2,0,L|310:354,3,110.625,8|2|10|2,0:1|0:0|1:2|0:0,0:0:0:0:
168,341,116870,2,0,L|162:215,1,110.625,8|2,0:1|0:0,0:0:0:0:
440,210,117218,6,0,P|447:131|325:88,1,221.25,10|8,1:2|0:1,0:0:0:0:
83,103,117742,2,0,P|21:172|110:245,1,221.25,0|0,0:0|0:0,0:0:0:0:
354,206,118265,2,0,L|469:214,1,110.625,0|0,0:0|0:0,0:0:0:0:
176,317,118614,5,14,1:2:0:0:
108,284,118701,1,0,0:0:0:0:
86,218,118788,1,2,0:0:0:0:
105,161,118875,1,0,0:0:0:0:
167,135,118963,1,8,0:1:0:0:
208,81,119050,1,0,0:0:0:0:
167,135,119137,1,2,0:0:0:0:
105,161,119224,1,0,0:0:0:0:
261,240,119311,6,0,L|392:251,1,110.625,10|2,1:2|0:0,0:0:0:0:
213,228,119660,2,0,L|206:77,1,110.625,8|0,0:1|0:0,0:0:0:0:
450,51,120009,5,10,1:2:0:0:
484,115,120096,1,0,0:0:0:0:
482,168,120184,1,2,0:0:0:0:
461,229,120271,1,0,0:0:0:0:
416,255,120358,1,8,0:1:0:0:
353,260,120445,1,2,0:0:0:0:
196,285,120532,2,0,L|135:297,1,55.3125,2|0,0:0|0:0,0:0:0:0:
338,336,120707,6,0,L|452:323,1,110.625,10|2,1:2|0:0,0:0:0:0:
282,250,121056,2,0,L|285:134,1,110.625,8|0,0:1|0:0,0:0:0:0:
442,105,121405,6,0,L|313:107,2,110.625,10|2|8,1:2|0:0|0:1,0:0:0:0:
178,101,121928,2,0,P|77:134|62:242,1,221.25,2|2,0:0|0:0,0:0:0:0:
211,251,122451,2,0,L|331:256,1,110.625,8|2,0:1|0:0,0:0:0:0:
57,160,122800,5,10,1:2:0:0:
10,128,122887,1,0,0:0:0:0:
62,90,122974,1,2,0:0:0:0:
122,118,123061,1,0,0:0:0:0:
155,172,123149,1,8,0:1:0:0:
137,238,123236,1,2,0:0:0:0:
75,278,123323,1,2,0:0:0:0:
132,320,123410,1,2,0:0:0:0:
321,339,123498,5,10,1:2:0:0:
392,316,123585,1,0,0:0:0:0:
436,259,123672,1,2,0:0:0:0:
449,193,123759,1,0,0:0:0:0:
241,121,123846,2,0,L|165:112,1,55.3125,8|2,0:1|0:0,0:0:0:0:
391,81,124021,2,0,L|461:66,1,55.3125,2|2,0:0|0:0,0:0:0:0:
191,63,124195,6,0,L|54:86,3,110.625,10|2|8|2,1:2|3:2|0:1|3:2,0:0:0:0:
246,207,124893,2,0,L|363:223,3,110.625,8|2|8|2,0:1|3:2|0:1|3:2,0:0:0:0:
86,312,125591,6,0,L|88:200,1,110.625,10|2,1:2|3:2,0:0:0:0:
189,169,125939,1,8,0:1:0:0:
474,108,126114,1,2,3:2:0:0:
183,124,126288,2,0,L|65:128,1,110.625,8|2,0:1|3:2,0:0:0:0:
241,207,126637,2,0,L|358:209,1,110.625,8|2,0:1|3:2,0:0:0:0:
48,321,126986,5,10,1:2:0:0:
29,271,127073,1,0,3:2:0:0:
39,207,127160,1,2,3:2:0:0:
86,169,127248,1,0,3:2:0:0:
147,164,127335,1,8,0:1:0:0:
427,318,127509,1,2,3:2:0:0:
489,279,127596,1,0,3:2:0:0:
497,221,127684,5,8,0:1:0:0:
480,155,127771,1,0,3:2:0:0:
418,109,127858,1,0,3:2:0:0:
264,95,128032,1,8,0:1:0:0:
202,118,128120,1,0,0:0:0:0:
259,151,128207,1,2,3:2:0:0:
313,181,128294,1,0,3:2:0:0:
128,195,128381,5,10,1:2:0:0:
81,228,128468,1,0,0:0:0:0:
52,285,128556,1,2,3:2:0:0:
48,344,128643,1,0,0:0:0:0:
52,285,128730,1,8,0:1:0:0:
81,228,128817,1,0,0:0:0:0:
128,195,128905,1,2,3:2:0:0:
190,189,128992,1,0,0:0:0:0:
458,244,129079,5,8,0:1:0:0:
462,304,129166,1,0,0:0:0:0:
418,347,129253,1,2,3:2:0:0:
362,351,129341,1,0,0:0:0:0:
152,307,129428,1,8,0:1:0:0:
96,311,129515,1,0,0:0:0:0:
270,268,129602,1,2,3:2:0:0:
328,264,129689,1,0,0:0:0:0:
92,217,129777,6,0,L|62:223,1,27.65625,0|0,3:2|0:0,0:0:0:0:
56,189,129864,1,0,0:0:0:0:
64,222,129907,2,0,L|110:214,1,27.65625,0|0,0:0|0:0,0:0:0:0:
354,158,130125,2,0,L|376:153,1,13.828125,4|0,0:0|0:0,0:0:0:0:
256,192,130474,12,0,133614,0:0:0:0:
