osu file format v14

[General]
AudioFilename: audio.mp3
AudioLeadIn: 0
PreviewTime: 89311
Countdown: 0
SampleSet: Soft
StackLeniency: 0.7
Mode: 2
LetterboxInBreaks: 0
WidescreenStoryboard: 1

[Editor]
Bookmarks: 46056,57218,68381,78149,79544,113032,129777,133614
DistanceSpacing: 0.9
BeatDivisor: 4
GridSize: 4
TimelineZoom: 3.399998

[Metadata]
Title:Harmony
TitleUnicode:Harmony
Artist:Lime
ArtistUnicode:Lime
Creator:wonjae
Version:Platter
Source:
Tags:ajamez jemzuu G2R2014 Album Groundbreaking -G2R2014 COMPILATION ALBUM- kankitsu bms kawaiicore instrumental electronic piano paranoid grapes
BeatmapID:2564187
BeatmapSetID:1231601

[Difficulty]
HPDrainRate:5
CircleSize:3.5
OverallDifficulty:8
ApproachRate:8
SliderMultiplier:1.63
SliderTickRate:1

[Events]
//Background and Video events
0,0,"mountain of great size_waifu2x.png",0,0
//Break Periods
2,57480,67596
//Storyboard Layer 0 (Background)
//Storyboard Layer 1 (Fail)
//Storyboard Layer 2 (Pass)
//Storyboard Layer 3 (Foreground)
//Storyboard Layer 4 (Overlay)
//Storyboard Sound Samples

[TimingPoints]
1405,348.837209302326,4,2,2,49,1,0
11434,-100,4,2,2,49,0,0
11521,-62.5,4,2,2,49,0,0
11782,-66.6666666666667,4,2,2,49,0,0
11870,-80,4,2,2,49,0,0
22684,-64.5161290322581,4,2,2,49,0,0
23032,-60.6060606060606,4,2,2,49,0,0
23381,-52.6315789473684,4,2,2,49,0,0
23730,-80,4,2,2,60,0,0
46056,-80,4,2,2,49,0,0
89573,-80,4,2,2,49,0,0
89660,-60.6060606060606,4,2,2,49,0,0
90009,-51.2820512820513,4,2,2,49,0,0
90358,-41.6666666666667,4,2,2,49,0,0
90707,-80,4,2,2,65,0,1
101172,-80,4,2,2,65,0,0
101521,-56.4971751412429,4,2,2,65,0,0
101870,-80,4,2,2,65,0,1
113032,-80,4,2,2,65,0,0
130474,-80,4,2,2,55,0,0
131172,-80,4,2,2,45,0,0
132567,-80,4,2,2,35,0,0
133614,-80,4,2,2,20,0,0

[Colours]
Combo1 : 251,194,111
Combo2 : 0,128,255
Combo3 : 213,31,4
Combo4 : 113,113,255
Combo5 : 158,158,158
Combo6 : 0,83,166

[HitObjects]
291,293,1405,6,0,L|380:291,2,81.5,4|0|8,2:0|0:0|0:0,0:0:0:0:
111,227,1928,2,0,P|33:184|37:98,2,163,0|0|0,1:0|1:0|1:0,0:0:0:0:
293,181,2800,5,2,0:0:0:0:
375,156,2974,2,0,L|454:140,2,81.5,0|8|0,0:0|0:0|1:0,0:0:0:0:
287,209,3498,2,0,P|297:275|396:295,1,163,2|8,0:0|0:0,0:0:0:0:
145,210,4195,6,0,L|131:97,1,81.5,2|0,0:0|0:0,0:0:0:0:
226,106,4544,2,0,L|226:16,1,81.5,8|0,0:0|1:0,0:0:0:0:
311,138,4893,2,0,L|319:49,1,81.5,2|0,0:0|1:0,0:0:0:0:
407,118,5242,2,0,L|400:26,1,81.5,8|0,0:0|1:0,0:0:0:0:
234,36,5591,6,0,L|62:53,1,163,2|8,0:0|0:0,0:0:0:0:
366,51,6288,1,2,0:0:0:0:
354,157,6463,1,0,1:0:0:0:
286,234,6637,1,8,0:0:0:0:
191,243,6811,1,0,1:0:0:0:
427,195,6986,6,0,L|490:273,1,81.5,6|0,0:0|0:0,0:0:0:0:
409,303,7335,1,8,0:0:0:0:
244,303,7509,2,0,P|188:243|252:195,1,163,0|0,1:0|1:0,0:0:0:0:
366,164,8207,1,0,1:0:0:0:
220,105,8381,6,0,L|116:100,1,81.5,2|0,0:0|0:0,0:0:0:0:
138,101,8730,2,0,L|221:114,1,81.5,8|0,0:0|1:0,0:0:0:0:
376,163,9079,1,2,0:0:0:0:
363,228,9253,1,0,1:0:0:0:
303,264,9428,1,8,0:0:0:0:
221,272,9602,1,0,1:0:0:0:
375,226,9777,6,0,P|428:235|494:345,1,163,2|8,0:0|0:0,0:0:0:0:
196,88,10474,1,2,0:0:0:0:
99,91,10649,1,0,1:0:0:0:
34,150,10823,1,8,0:0:0:0:
22,229,10998,1,0,1:0:0:0:
263,311,11172,6,0,L|393:310,1,122.25,0|0,1:0|0:0,0:0:0:0:
322,265,11521,2,0,L|92:267,1,195.6,0|0,0:0|0:0,0:0:0:0:
81,266,11870,2,0,L|200:267,1,101.875,0|8,0:0|0:0,0:0:0:0:
375,174,12218,2,0,P|410:207|376:234,1,101.875,8|0,1:0|0:0,0:0:0:0:
128,185,12567,5,12,1:2:0:0:
79,199,12655,1,0,0:0:0:0:
128,185,12742,1,2,0:0:0:0:
207,175,12916,2,0,L|331:187,1,101.875,8|2,0:1|0:0,0:0:0:0:
257,64,13265,2,0,L|241:171,1,101.875,8|2,0:0|0:0,0:0:0:0:
149,182,13614,1,8,0:1:0:0:
339,178,13963,6,0,L|457:138,1,101.875,8|2,0:0|0:0,0:0:0:0:
452,171,14311,2,0,L|349:217,1,101.875,8|2,0:1|0:0,0:0:0:0:
170,200,14660,1,8,0:0:0:0:
180,276,14835,1,2,0:0:0:0:
248,334,15009,1,8,0:1:0:0:
367,334,15184,1,0,0:0:0:0:
183,330,15358,6,0,L|167:190,1,101.875,8|2,0:0|0:0,0:0:0:0:
262,205,15707,2,0,L|263:96,1,101.875,8|2,0:1|0:0,0:0:0:0:
360,133,16056,2,0,L|369:30,1,101.875,8|2,0:0|0:0,0:0:0:0:
455,25,16405,1,8,0:1:0:0:
286,71,16753,6,0,L|154:80,3,101.875,8|2|8|2,0:0|0:0|0:1|0:0,0:0:0:0:
366,91,17451,1,8,0:0:0:0:
447,108,17625,1,2,0:0:0:0:
447,108,17800,1,8,0:1:0:0:
359,82,17974,1,0,0:0:0:0:
122,163,18149,6,0,L|-9:175,1,101.875,12|2,0:0|0:0,0:0:0:0:
79,216,18498,2,0,L|182:232,1,101.875,8|2,0:1|0:0,0:0:0:0:
118,267,18846,2,0,L|18:282,1,101.875,8|2,0:0|0:0,0:0:0:0:
75,315,19195,2,0,L|212:331,1,101.875,8|0,0:1|0:0,0:0:0:0:
341,185,19544,6,0,L|336:310,1,101.875,8|2,0:0|0:0,0:0:0:0:
252,307,19893,2,0,L|174:200,1,101.875,8|2,0:1|0:0,0:0:0:0:
364,194,20242,2,0,L|442:129,1,101.875,8|2,0:0|0:0,0:0:0:0:
354,132,20591,2,0,L|349:27,1,101.875,8|2,0:1|0:0,0:0:0:0:
109,56,20939,5,8,0:0:0:0:
60,84,21027,1,0,0:0:0:0:
37,136,21114,1,2,0:3:0:0:
52,202,21201,1,0,0:0:0:0:
102,216,21288,1,8,0:1:0:0:
131,268,21375,1,0,0:0:0:0:
98,305,21463,1,2,0:3:0:0:
55,318,21550,1,0,0:0:0:0:
173,330,21637,5,8,0:0:0:0:
243,317,21724,1,0,3:3:0:0:
279,265,21811,1,2,0:3:0:0:
275,204,21899,1,0,3:3:0:0:
235,147,21986,1,8,0:1:0:0:
169,131,22073,1,0,3:3:0:0:
164,73,22160,1,2,0:3:0:0:
204,34,22248,1,0,3:3:0:0:
318,38,22335,6,0,L|450:36,1,101.875,8|0,0:0|0:0,0:0:0:0:
256,105,22684,2,0,L|97:112,1,126.325000963783,0|0,0:0|0:0,0:0:0:0:
280,197,23032,2,0,L|472:197,1,134.475001282454,0|0,0:0|0:0,0:0:0:0:
253,246,23381,2,0,P|189:185|191:101,1,154.849995865059,0|0,0:0|0:0,0:0:0:0:
484,49,23730,6,0,L|482:164,1,101.875,4|0,1:2|1:1,0:0:0:0:
385,167,24079,2,0,L|382:280,1,101.875,8|0,0:1|1:1,0:0:0:0:
202,303,24428,2,0,L|304:374,1,101.875,10|2,1:2|1:2,0:0:0:0:
382,363,24777,1,8,0:1:0:0:
66,289,25125,5,10,1:2:0:0:
36,204,25300,1,0,1:1:0:0:
67,117,25474,1,8,0:1:0:0:
157,78,25649,1,0,1:1:0:0:
323,72,25823,2,0,L|310:178,1,101.875,10|8,1:2|1:2,0:0:0:0:
212,201,26172,2,0,L|110:200,1,101.875,8|0,0:1|1:1,0:0:0:0:
356,241,26521,6,0,L|487:257,2,101.875,10|2|8,1:2|1:2|0:1,0:0:0:0:
175,236,27044,2,0,P|109:165|176:154,1,203.75,2|0,1:2|1:1,0:0:0:0:
345,115,27567,2,0,L|450:125,1,101.875,8|8,0:1|1:2,0:0:0:0:
269,140,27916,6,0,L|44:164,1,203.75,10|8,1:2|0:1,0:0:0:0:
233,155,28439,2,0,P|306:206|222:265,1,203.75,2|8,1:2|1:2,0:0:0:0:
64,273,28963,2,0,L|67:147,1,101.875,8|0,0:1|1:1,0:0:0:0:
346,67,29311,5,10,1:2:0:0:
429,132,29486,1,2,1:2:0:0:
436,250,29660,1,8,0:1:0:0:
351,308,29835,1,2,1:2:0:0:
162,297,30009,2,0,L|57:325,2,101.875,10|2|8,1:2|1:2|0:1,0:0:0:0:
456,86,30707,5,10,1:2:0:0:
364,106,30881,1,2,1:2:0:0:
311,174,31056,1,8,0:1:0:0:
308,274,31230,1,0,1:1:0:0:
372,332,31405,2,0,L|476:332,1,101.875,10|2,1:2|1:2,0:0:0:0:
308,274,31753,2,0,L|179:275,1,101.875,8|0,0:1|1:1,0:0:0:0:
492,76,32102,6,0,P|488:172|380:198,1,203.75,10|8,1:2|0:1,0:0:0:0:
220,277,32625,2,0,P|157:212|227:153,1,203.75,2|0,1:2|1:1,0:0:0:0:
392,96,33149,2,0,L|507:96,1,101.875,8|2,0:1|1:2,0:0:0:0:
206,120,33498,6,0,P|124:133|62:34,3,203.75,10|8|10|8,1:2|0:1|1:2|0:1,0:0:0:0:
61,43,34631,1,2,1:2:0:0:
122,56,34718,1,2,1:2:0:0:
398,203,34893,6,0,L|410:311,1,101.875,4|0,1:2|0:0,0:0:0:0:
340,332,35242,2,0,L|467:347,1,101.875,8|0,0:1|1:1,0:0:0:0:
353,284,35591,2,0,P|329:219|433:141,1,203.75,10|8,1:2|0:1,0:0:0:0:
236,103,36114,6,0,P|138:153|115:250,1,203.75,2|8,1:2|1:2,0:0:0:0:
429,194,36811,2,0,P|493:276|405:328,1,203.75,0|0,1:1|1:1,0:0:0:0:
253,323,37335,1,8,0:1:0:0:
272,316,37422,1,2,1:2:0:0:
332,311,37509,1,2,1:2:0:0:
64,237,37684,6,0,L|41:115,1,101.875,10|0,1:2|0:0,0:0:0:0:
133,104,38032,2,0,L|30:90,1,101.875,8|2,0:1|1:2,0:0:0:0:
120,30,38381,2,0,P|111:158|36:197,1,203.75,10|8,1:2|0:1,0:0:0:0:
235,290,38905,6,0,L|460:300,2,203.75,2|2|2,1:2|1:2|1:2,0:0:0:0:
369,207,39951,1,2,1:2:0:0:
170,111,40125,1,8,0:1:0:0:
110,142,40213,1,2,1:2:0:0:
98,183,40300,1,2,1:2:0:0:
384,159,40474,6,0,P|460:219|396:278,1,203.75,10|8,1:2|0:1,0:0:0:0:
215,316,40998,2,0,L|83:326,1,101.875,0|10,3:0|1:2,0:0:0:0:
196,268,41346,2,0,L|194:143,1,101.875,0|8,3:0|0:1,0:0:0:0:
109,129,41695,1,0,3:0:0:0:
255,97,41870,1,10,1:2:0:0:
408,86,42044,5,0,3:0:0:0:
464,107,42131,1,0,3:0:0:0:
491,149,42218,1,8,0:1:0:0:
484,210,42306,1,0,3:0:0:0:
448,247,42393,1,0,3:0:0:0:
269,270,42567,5,10,1:2:0:0:
216,281,42655,1,0,3:0:0:0:
261,302,42742,1,0,3:0:0:0:
305,321,42829,1,0,3:0:0:0:
348,336,42916,1,8,0:1:0:0:
305,321,43003,1,0,3:0:0:0:
261,302,43091,1,0,3:0:0:0:
11,134,43265,6,0,L|34:243,1,101.875,14|0,1:2|0:0,0:0:0:0:
264,155,43788,2,0,L|248:257,1,101.875,14|0,1:2|0:0,0:0:0:0:
502,237,44311,2,0,L|485:345,1,101.875,14|0,1:2|0:0,0:0:0:0:
237,111,44835,2,0,L|254:219,1,101.875,14|0,1:2|0:0,0:0:0:0:
340,212,45184,6,0,L|327:313,1,101.875,0|0,0:0|0:0,0:0:0:0:
241,328,45532,2,0,L|233:207,1,101.875,0|0,0:0|0:0,0:0:0:0:
146,209,45881,1,0,1:0:0:0:
408,90,46056,6,0,P|479:166|399:216,1,203.75,4|2,1:2|1:2,0:0:0:0:
300,256,46753,2,0,L|211:269,2,50.9375,2|2|2,1:2|1:2|1:2,0:0:0:0:
385,302,47102,2,0,L|463:313,2,67.9166666666667,2|2|2,1:2|1:2|1:2,0:0:0:0:
326,244,47451,6,0,L|327:129,2,67.9166666666667,2|2|2,1:2|1:2|1:2,0:0:0:0:
176,234,47800,2,0,L|87:235,2,67.9166666666667,8|0|0,0:0|0:0|0:0,0:0:0:0:
307,238,48149,2,0,L|432:243,2,67.9166666666667,8|0|0,0:0|0:0|0:0,0:0:0:0:
177,171,48498,2,0,L|156:51,2,67.9166666666667,8|0|0,0:0|0:0|0:0,0:0:0:0:
311,192,48846,5,8,0:0:0:0:
375,208,48963,1,0,0:0:0:0:
401,269,49079,1,0,0:0:0:0:
368,309,49195,1,10,1:2:0:0:
300,322,49311,1,0,0:0:0:0:
268,318,49370,1,0,0:0:0:0:
233,316,49428,1,0,0:0:0:0:
201,315,49486,1,0,0:0:0:0:
344,225,49660,5,0,0:0:0:0:
350,171,49718,1,0,0:0:0:0:
358,112,49777,1,0,0:0:0:0:
368,49,49835,1,0,0:0:0:0:
206,84,50009,5,0,0:0:0:0:
167,78,50067,1,0,0:0:0:0:
167,78,50125,1,0,0:0:0:0:
206,84,50184,1,0,0:0:0:0:
386,107,50358,5,0,0:0:0:0:
417,137,50416,1,0,0:0:0:0:
414,175,50474,1,0,0:0:0:0:
380,201,50532,1,0,0:0:0:0:
230,194,50707,1,0,0:0:0:0:
189,217,50765,1,0,0:0:0:0:
151,237,50823,1,0,0:0:0:0:
174,277,50881,1,0,0:0:0:0:
331,254,51056,5,2,1:2:0:0:
312,301,51114,1,0,0:0:0:0:
265,321,51172,1,2,1:2:0:0:
206,334,51288,2,0,L|139:321,2,67.9166666666667,2|2|2,1:2|1:2|1:2,0:0:0:0:
344,314,51637,6,0,P|465:229|472:56,2,305.625,6|0|0,1:2|1:0|1:0,0:0:0:0:
77,160,53032,6,0,P|74:236|293:296,2,305.625,0|2|2,1:0|0:2|0:2,0:0:0:0:
379,138,54428,6,0,P|252:241|200:138,1,305.625,2|2,0:2|0:2,0:0:0:0:
256,192,55474,12,4,57218,1:2:0:0:
112,126,68381,6,0,P|216:28|306:138,1,305.625,8|0,0:0|0:0,0:0:0:0:
308,125,69428,1,0,0:0:0:0:
389,167,69777,2,0,P|326:314|176:299,1,305.625,2|0,0:0|0:0,0:0:0:0:
409,135,71172,6,0,P|305:37|215:147,1,305.625,8|0,2:0|0:0,0:0:0:0:
214,133,72218,1,0,0:0:0:0:
141,78,72567,2,0,P|135:225|287:260,1,305.625,2|0,0:0|0:0,0:0:0:0:
414,216,73614,1,0,0:0:0:0:
103,81,73963,6,0,L|431:381,1,407.5,8|0,0:0|0:0,0:0:0:0:
297,325,74835,1,0,0:0:0:0:
206,288,75009,1,0,0:0:0:0:
485,169,75358,6,0,P|411:55|226:1,1,305.625,2|0,0:0|0:0,0:0:0:0:
141,39,76579,1,0,0:0:0:0:
138,90,76666,1,0,0:0:0:0:
136,140,76753,6,0,P|332:155|399:263,1,305.625,8|0,0:0|0:0,0:0:0:0:
201,289,77451,2,0,L|128:210,2,101.875,0|0|0,0:0|0:0|0:0,0:0:0:0:
131,214,77974,1,0,0:0:0:0:
319,244,78149,6,0,P|399:217|391:75,1,203.75,4|0,0:0|0:0,0:0:0:0:
232,154,78672,2,0,L|159:163,1,50.9375,2|2,0:0|0:0,0:0:0:0:
216,174,78846,2,0,L|246:214,1,50.9375,2|2,0:0|0:0,0:0:0:0:
297,240,79021,2,0,L|285:291,1,50.9375,2|2,0:0|0:0,0:0:0:0:
172,314,79195,2,0,L|56:322,1,101.875,8|0,1:0|0:0,0:0:0:0:
340,248,79544,6,0,L|448:260,1,101.875,12|0,0:0|0:0,0:0:0:0:
318,188,79893,2,0,L|266:196,2,50.9375,8|0|0,0:1|0:0|0:0,0:0:0:0:
403,104,80242,1,8,1:2:0:0:
254,115,80591,2,0,L|150:126,1,101.875,8|0,0:1|0:0,0:0:0:0:
310,176,80939,6,0,L|301:301,1,101.875,8|0,1:2|0:0,0:0:0:0:
120,334,81288,2,0,L|50:350,2,50.9375,8|0|0,0:1|0:0|0:0,0:0:0:0:
196,269,81637,1,8,1:2:0:0:
25,194,81986,2,0,L|32:65,1,101.875,8|0,0:1|0:0,0:0:0:0:
283,60,82335,5,8,1:2:0:0:
346,66,82422,1,0,0:0:0:0:
345,127,82509,1,0,0:0:0:0:
184,178,82684,2,0,L|47:207,2,101.875,8|0|8,0:1|0:0|1:2,0:0:0:0:
336,209,83381,1,8,0:1:0:0:
385,219,83468,1,0,0:0:0:0:
403,274,83556,1,0,0:0:0:0:
237,340,83730,6,0,L|114:336,1,101.875,8|0,1:2|0:0,0:0:0:0:
307,275,84079,2,0,L|312:157,1,101.875,8|0,0:1|0:0,0:0:0:0:
194,160,84428,1,8,1:2:0:0:
138,141,84515,1,0,0:0:0:0:
138,91,84602,1,0,0:0:0:0:
329,73,84777,2,0,L|433:27,1,101.875,8|0,0:1|0:0,0:0:0:0:
148,23,85125,6,0,P|50:117|180:216,2,305.625,8|2|8,1:2|0:0|0:1,0:0:0:0:
434,128,86521,6,0,P|496:231|446:286,1,203.75,8|8,1:2|0:1,0:0:0:0:
373,298,87044,1,2,0:0:0:0:
199,300,87218,2,0,L|30:148,1,203.75,8|8,1:2|0:1,0:0:0:0:
458,71,87916,5,8,1:2:0:0:
472,125,88003,1,0,3:0:0:0:
489,184,88091,1,2,3:2:0:0:
319,194,88265,1,8,0:1:0:0:
271,216,88352,1,0,3:0:0:0:
247,266,88439,1,2,3:2:0:0:
260,323,88527,1,0,3:0:0:0:
308,353,88614,5,8,1:2:0:0:
360,351,88701,1,0,3:0:0:0:
308,353,88788,1,2,3:2:0:0:
140,290,88963,1,8,0:1:0:0:
81,240,89050,1,0,3:0:0:0:
138,183,89137,1,2,3:2:0:0:
393,125,89311,6,0,P|440:74|379:30,1,152.8125,2|0,3:0|0:0,0:0:0:0:
331,31,89660,1,2,3:0:0:0:
87,258,90009,2,0,P|62:91|149:60,1,238.387500909376,2|0,3:0|0:0,0:0:0:0:
165,66,90358,2,0,B|226:142|226:142|150:226,1,195.599994030762,2|0,3:0|0:0,0:0:0:0:
419,331,90707,6,0,P|460:274|458:118,1,203.75,4|8,1:2|0:1,0:0:0:0:
291,191,91230,2,0,P|182:149|180:76,1,203.75,2|2,0:0|0:0,0:0:0:0:
259,66,91753,2,0,L|385:36,1,101.875,8|0,0:1|0:0,0:0:0:0:
160,82,92102,6,0,P|123:114|209:216,1,203.75,10|8,1:2|0:1,0:0:0:0:
378,155,92625,2,0,P|440:257|366:304,1,203.75,2|2,0:0|0:0,0:0:0:0:
316,333,93149,2,0,L|399:236,1,101.875,8|0,0:1|0:0,0:0:0:0:
109,253,93498,6,0,P|53:224|134:158,1,203.75,10|8,1:2|0:1,0:0:0:0:
316,139,94021,2,0,L|341:241,1,101.875,2|10,0:0|1:2,0:0:0:0:
228,231,94370,1,2,0:0:0:0:
134,154,94544,2,0,L|4:158,1,101.875,8|0,0:1|0:0,0:0:0:0:
200,167,94893,6,0,P|273:188|290:311,1,203.75,10|8,1:2|0:1,0:0:0:0:
196,303,95416,2,0,P|94:331|41:257,1,203.75,2|2,0:0|0:0,0:0:0:0:
163,308,95939,1,8,0:1:0:0:
197,325,96027,1,0,0:0:0:0:
231,347,96114,1,2,0:0:0:0:
492,249,96288,6,0,B|483:191|467:146|300:173,1,203.75,10|8,1:2|0:1,0:0:0:0:
167,150,96811,2,0,P|102:104|186:58,1,203.75,2|2,0:0|0:0,0:0:0:0:
272,57,97335,2,0,L|380:57,1,101.875,8|0,0:1|0:0,0:0:0:0:
98,167,97684,6,0,P|29:223|120:290,1,203.75,10|8,1:2|0:1,0:0:0:0:
253,195,98207,2,0,P|271:281|160:315,1,203.75,2|2,0:0|0:0,0:0:0:0:
84,330,98730,2,0,L|219:331,1,101.875,8|2,0:1|0:0,0:0:0:0:
451,323,99079,6,0,P|465:220|287:169,1,305.625,10|2,1:2|0:0,0:0:0:0:
227,189,99777,1,10,1:2:0:0:
188,256,99951,1,2,0:0:0:0:
220,328,100125,1,8,1:0:0:0:
300,351,100300,1,2,0:0:0:0:
40,343,100474,6,0,P|43:262|146:224,1,203.75,10|8,1:2|0:1,0:0:0:0:
325,175,100998,2,0,B|338:71|338:71|226:55,1,203.75,2|0,0:0|0:0,0:0:0:0:
143,59,101521,1,8,0:1:0:0:
93,102,101608,1,0,0:0:0:0:
137,147,101695,1,2,0:0:0:0:
415,183,101870,6,0,P|454:250|351:297,1,203.75,4|8,1:2|0:1,0:0:0:0:
195,338,102393,2,0,L|85:344,2,101.875,2|10|2,0:0|1:2|0:0,0:0:0:0:
278,318,102916,2,0,L|368:271,1,101.875,8|0,0:1|0:0,0:0:0:0:
198,158,103265,6,0,L|-34:159,1,203.75,10|8,1:2|0:1,0:0:0:0:
155,91,103788,2,0,P|235:138|161:228,1,203.75,2|2,0:0|0:0,0:0:0:0:
112,240,104311,2,0,L|95:356,1,101.875,8|2,0:1|0:0,0:0:0:0:
371,332,104660,6,0,P|427:260|351:181,1,203.75,10|8,1:2|0:1,0:0:0:0:
202,278,105184,2,0,P|178:187|275:147,1,203.75,2|2,0:0|0:0,0:0:0:0:
334,122,105707,2,0,L|336:20,1,101.875,8|0,0:1|0:0,0:0:0:0:
179,27,106056,6,0,P|76:63|60:174,1,203.75,10|8,1:2|0:1,0:0:0:0:
216,196,106579,2,0,P|281:275|197:367,1,203.75,2|2,0:0|0:0,0:0:0:0:
396,353,107102,2,0,L|497:345,1,101.875,8|2,0:1|0:0,0:0:0:0:
226,280,107451,6,0,P|130:261|194:91,1,305.625,10|0,1:2|0:0,0:0:0:0:
332,156,108149,2,0,L|448:168,1,101.875,10|2,1:2|0:0,0:0:0:0:
434,115,108498,2,0,L|284:102,1,101.875,8|2,0:1|0:0,0:0:0:0:
65,150,108846,6,0,P|16:228|94:288,1,203.75,10|8,1:2|0:1,0:0:0:0:
259,336,109370,2,0,L|511:346,1,203.75,2|2,0:0|0:0,0:0:0:0:
390,290,109893,1,8,0:1:0:0:
320,245,110067,1,2,0:0:0:0:
37,199,110242,6,0,P|51:114|171:107,1,203.75,10|8,1:2|0:1,0:0:0:0:
240,101,110765,1,2,0:0:0:0:
79,177,110939,1,10,1:2:0:0:
56,261,111114,1,2,0:0:0:0:
107,330,111288,1,8,0:1:0:0:
199,336,111463,1,2,0:0:0:0:
478,140,111637,6,0,P|487:239|365:263,1,203.75,10|8,1:2|0:1,0:0:0:0:
233,297,112160,2,0,B|240:350|240:350|417:357,1,203.75,2|2,0:0|0:0,0:0:0:0:
224,344,112684,2,0,L|111:344,1,101.875,8|2,0:1|0:0,0:0:0:0:
391,58,113032,6,0,P|492:118|499:216,1,203.75,10|8,1:2|0:1,0:0:0:0:
225,260,113730,2,0,L|1:263,1,203.75,10|8,1:2|0:1,0:0:0:0:
106,268,114253,1,0,0:0:0:0:
372,272,114428,6,0,L|479:287,2,101.875,10|0|8,1:2|0:0|0:1,0:0:0:0:
197,245,114951,2,0,P|194:178|306:117,1,203.75,2|2,0:0|0:0,0:0:0:0:
481,65,115474,2,0,L|348:57,1,101.875,8|0,0:1|0:0,0:0:0:0:
113,49,115823,6,0,P|20:104|38:191,1,203.75,10|8,1:2|0:1,0:0:0:0:
295,272,116521,2,0,L|506:278,1,203.75,10|8,1:2|0:1,0:0:0:0:
412,284,117044,1,2,0:0:0:0:
147,252,117218,6,0,L|127:146,1,101.875,10|0,1:2|0:0,0:0:0:0:
392,242,117916,2,0,L|397:126,1,101.875,10|0,1:2|0:0,0:0:0:0:
325,87,118265,2,0,L|428:87,1,101.875,0|0,0:0|0:0,0:0:0:0:
143,90,118614,6,0,P|88:107|170:182,1,203.75,14|8,1:2|0:1,0:0:0:0:
386,285,119311,2,0,L|493:296,2,101.875,10|2|8,1:2|0:0|0:1,0:0:0:0:
289,272,119835,1,0,0:0:0:0:
110,212,120009,5,10,1:2:0:0:
34,95,120184,1,2,0:0:0:0:
62,52,120271,1,0,0:0:0:0:
120,28,120358,2,0,L|247:26,1,101.875,8|2,0:1|0:0,0:0:0:0:
483,81,120707,2,0,P|475:175|365:206,1,203.75,10|8,1:2|0:1,0:0:0:0:
118,264,121405,6,0,L|339:284,1,203.75,10|8,1:2|0:1,0:0:0:0:
150,252,121928,2,0,P|133:153|224:120,1,203.75,2|2,0:0|0:0,0:0:0:0:
388,82,122451,2,0,L|497:79,1,101.875,8|2,0:1|0:0,0:0:0:0:
313,115,122800,6,0,L|93:135,2,203.75,10|8|10,1:2|0:1|1:2,0:0:0:0:
396,144,123672,1,2,0:0:0:0:
418,236,123846,1,8,0:1:0:0:
401,289,123934,1,2,0:0:0:0:
340,314,124021,1,2,0:0:0:0:
65,303,124195,6,0,L|60:191,1,101.875,10|2,1:2|3:2,0:0:0:0:
159,190,124544,2,0,L|166:77,1,101.875,8|2,0:1|3:2,0:0:0:0:
261,118,124893,2,0,L|295:19,1,101.875,8|2,0:1|3:2,0:0:0:0:
387,35,125242,2,0,L|500:28,1,101.875,8|2,0:1|3:2,0:0:0:0:
188,59,125591,5,10,1:2:0:0:
92,101,125765,1,2,3:2:0:0:
57,192,125939,1,8,0:1:0:0:
87,287,126114,1,2,3:2:0:0:
197,320,126288,1,8,0:1:0:0:
262,338,126463,1,2,3:2:0:0:
197,320,126637,1,8,0:1:0:0:
87,287,126811,1,2,3:2:0:0:
364,263,126986,5,10,1:2:0:0:
429,241,127073,1,0,3:2:0:0:
463,199,127160,1,2,3:2:0:0:
466,135,127248,1,0,3:2:0:0:
438,84,127335,1,8,0:1:0:0:
383,65,127422,1,0,3:2:0:0:
260,73,127509,6,0,L|131:76,1,101.875,2|8,3:2|0:1,0:0:0:0:
111,58,127771,1,0,3:2:0:0:
155,32,127858,1,0,3:2:0:0:
331,140,128032,2,0,L|399:140,2,50.9375,8|0|2,0:1|0:0|3:2,0:0:0:0:
63,185,128381,6,0,P|54:281|151:308,1,203.75,10|8,1:2|0:1,0:0:0:0:
404,332,129079,2,0,L|170:345,1,203.75,8|8,0:1|0:1,0:0:0:0:
429,285,129777,2,0,L|502:278,1,50.9375,0|0,3:2|0:0,0:0:0:0:
113,89,130125,6,0,L|97:96,1,12.734375,4|0,1:2|1:2,1:2:0:0:
256,192,130474,12,0,133614,0:0:0:0:
