osu file format v14

[General]
AudioFilename: audio.mp3
AudioLeadIn: 0
PreviewTime: 89311
Countdown: 0
SampleSet: Soft
StackLeniency: 0.7
Mode: 2
LetterboxInBreaks: 0
WidescreenStoryboard: 0

[Editor]
Bookmarks: 46056,57218,68381,78149,129777,133614
DistanceSpacing: 0.9
BeatDivisor: 6
GridSize: 4
TimelineZoom: 2.799999

[Metadata]
Title:Harmony
TitleUnicode:Harmony
Artist:Lime
ArtistUnicode:Lime
Creator:wonjae
Version:Overdose
Source:
Tags:ajamez jemzuu G2R2014 Album Groundbreaking -G2R2014 COMPILATION ALBUM- kankitsu bms kawaiicore instrumental electronic piano paranoid grapes
BeatmapID:2560262
BeatmapSetID:1231601

[Difficulty]
HPDrainRate:6
CircleSize:4.2
OverallDifficulty:9.3
ApproachRate:9.3
SliderMultiplier:1.9
SliderTickRate:1

[Events]
//Background and Video events
0,0,"mountain of great size_waifu2x.png",0,0
//Break Periods
2,57480,67684
//Storyboard Layer 0 (Background)
//Storyboard Layer 1 (Fail)
//Storyboard Layer 2 (Pass)
//Storyboard Layer 3 (Foreground)
//Storyboard Layer 4 (Overlay)
//Storyboard Sound Samples

[TimingPoints]
1405,348.837209302326,4,2,2,49,1,0
11477,-100,4,2,2,49,0,0
11521,-66.6666666666667,4,2,2,49,0,0
11826,-66.6666666666667,4,2,2,49,0,0
11870,-80,4,2,2,49,0,0
22596,-80,4,2,2,49,0,0
22945,-64.5161290322581,4,2,2,49,0,0
23032,-60.6060606060606,4,2,2,49,0,0
23294,-60.6060606060606,4,2,2,49,0,0
23381,-52.6315789473684,4,2,2,49,0,0
23730,-80,4,2,2,60,0,0
46056,-80,4,2,2,49,0,0
89573,-80,4,2,2,49,0,0
89660,-60.6060606060606,4,2,2,49,0,0
89922,-60.6060606060606,4,2,2,49,0,0
90009,-51.2820512820513,4,2,2,49,0,0
90271,-51.2820512820513,4,2,2,49,0,0
90358,-41.6666666666667,4,2,2,49,0,0
90707,-80,4,2,2,65,0,1
101172,-80,4,2,2,65,0,0
101521,-56.4971751412429,4,2,2,65,0,0
101870,-80,4,2,2,65,0,1
113032,-80,4,2,2,65,0,0
130474,-80,4,2,2,55,0,0
131172,-80,4,2,2,45,0,0
132567,-80,4,2,2,35,0,0
133614,-80,4,2,2,20,0,0

[Colours]
Combo1 : 251,194,111
Combo2 : 0,128,255
Combo3 : 213,31,4
Combo4 : 113,113,255
Combo5 : 158,158,158
Combo6 : 0,83,166

[HitObjects]
169,239,1405,6,0,L|293:239,2,95,4|0|8,2:0|0:0|0:0,0:0:0:0:
242,239,1928,1,0,1:0:0:0:
80,187,2102,2,0,L|78:70,1,95,2|0,0:0|1:0,0:0:0:0:
166,68,2451,2,0,L|63:67,1,95,8|0,0:0|1:0,0:0:0:0:
326,161,2800,6,0,L|436:161,2,95,2|0|8,0:0|0:0|0:0,0:0:0:0:
388,164,3323,1,0,1:0:0:0:
206,224,3498,2,0,L|103:246,2,95,2|0|8,0:0|1:0|0:0,0:0:0:0:
147,230,4021,1,0,1:0:0:0:
410,178,4195,6,0,L|419:279,1,95,2|0,0:0|0:0,0:0:0:0:
268,195,4544,2,0,L|262:87,1,95,8|0,0:0|1:0,0:0:0:0:
115,93,4893,2,0,L|119:200,1,95,2|0,0:0|1:0,0:0:0:0:
258,201,5242,2,0,L|265:317,1,95,8|0,0:0|1:0,0:0:0:0:
437,319,5591,5,2,0:0:0:0:
442,259,5765,1,0,0:0:0:0:
408,211,5939,1,8,0:0:0:0:
323,187,6114,1,0,1:0:0:0:
167,244,6288,1,2,0:0:0:0:
162,184,6462,1,0,1:0:0:0:
196,136,6636,1,8,0:0:0:0:
281,112,6811,1,0,1:0:0:0:
13,131,6986,6,0,L|147:133,1,95,6|0,0:0|0:0,0:0:0:0:
246,261,7335,2,0,L|144:261,1,95,8|0,0:0|1:0,0:0:0:0:
13,131,7684,2,0,L|147:133,1,95,2|0,0:0|1:0,0:0:0:0:
246,261,8032,2,0,L|144:261,1,95,8|0,0:0|1:0,0:0:0:0:
310,109,8381,5,2,0:0:0:0:
317,182,8556,1,0,0:0:0:0:
265,251,8730,1,8,0:0:0:0:
170,267,8905,1,0,1:0:0:0:
443,159,9079,1,2,0:0:0:0:
318,195,9253,1,0,1:0:0:0:
266,256,9428,1,8,0:0:0:0:
250,331,9602,1,0,1:0:0:0:
483,138,9777,6,0,L|349:140,1,95,2|0,0:0|0:0,0:0:0:0:
264,236,10126,2,0,L|366:236,1,95,8|0,0:0|1:0,0:0:0:0:
494,140,10475,2,0,L|360:142,1,95,2|0,0:0|1:0,0:0:0:0:
264,236,10823,2,0,L|366:236,1,95,8|0,0:0|1:0,0:0:0:0:
360,302,11085,1,0,1:0:0:0:
210,289,11172,6,0,L|43:292,1,166.25,0|0,1:0|0:0,0:0:0:0:
87,337,11521,2,0,L|348:330,1,249.375009512902,0|0,0:0|0:0,0:0:0:0:
296,326,11870,2,0,L|169:326,1,118.75,0|8,0:0|0:0,0:0:0:0:
249,326,12131,1,0,0:0:0:0:
425,241,12218,2,0,P|463:157|401:106,1,178.125,8|0,1:0|0:0,0:0:0:0:
127,75,12567,5,12,1:2:0:0:
65,84,12655,1,0,0:0:0:0:
43,128,12742,1,2,0:0:0:0:
66,98,12829,1,0,0:0:0:0:
128,85,12916,1,8,0:1:0:0:
167,127,13003,1,0,0:0:0:0:
134,187,13091,1,2,0:0:0:0:
79,198,13178,1,0,0:0:0:0:
347,291,13265,6,0,L|477:291,1,118.75,8|2,0:0|0:0,0:0:0:0:
423,292,13527,1,0,0:0:0:0:
310,264,13614,2,0,P|291:207|333:178,1,118.75,8|0,0:1|0:0,0:0:0:0:
396,175,13875,1,0,0:0:0:0:
149,54,13963,5,8,0:0:0:0:
121,119,14050,1,0,0:0:0:0:
129,200,14137,1,2,0:0:0:0:
179,261,14224,1,0,0:0:0:0:
244,292,14311,1,8,0:1:0:0:
179,261,14399,1,0,0:0:0:0:
121,353,14486,1,2,0:0:0:0:
179,261,14573,1,0,0:0:0:0:
367,260,14660,5,8,0:0:0:0:
439,231,14748,1,0,0:0:0:0:
474,170,14835,1,2,0:0:0:0:
474,98,14922,1,0,0:0:0:0:
435,52,15009,1,8,0:1:0:0:
365,41,15096,1,0,0:0:0:0:
422,49,15184,1,0,0:0:0:0:
478,57,15271,1,0,0:0:0:0:
285,98,15358,5,8,0:0:0:0:
210,131,15445,1,0,0:0:0:0:
180,197,15532,1,2,0:0:0:0:
202,266,15620,1,0,0:0:0:0:
281,300,15707,1,8,0:1:0:0:
338,327,15794,1,0,0:0:0:0:
281,300,15881,1,2,0:0:0:0:
218,274,15968,1,0,0:0:0:0:
446,186,16056,6,0,L|442:331,1,118.75,8|2,0:0|0:0,0:0:0:0:
354,314,16317,1,0,0:0:0:0:
269,316,16405,2,0,L|105:318,1,118.75,8|0,0:1|0:0,0:0:0:0:
151,272,16666,1,0,0:0:0:0:
366,223,16753,5,8,0:0:0:0:
393,162,16841,1,0,0:0:0:0:
380,90,16928,1,2,0:0:0:0:
324,49,17015,1,0,0:0:0:0:
246,45,17102,1,8,0:1:0:0:
424,136,17277,1,2,0:0:0:0:
162,142,17451,6,0,L|27:141,1,118.75,8|2,0:0|0:0,0:0:0:0:
166,201,17800,2,0,L|50:321,1,118.75,8|0,0:1|0:0,0:0:0:0:
425,336,18149,6,0,L|425:199,1,118.75,12|2,0:0|0:0,0:0:0:0:
354,187,18410,1,0,1:1:0:0:
144,137,18498,1,8,0:1:0:0:
77,144,18585,1,0,0:0:0:0:
34,179,18672,1,2,0:0:0:0:
27,232,18759,1,0,0:0:0:0:
233,225,18846,5,8,0:0:0:0:
297,212,18934,1,2,0:0:0:0:
230,184,19021,1,2,0:0:0:0:
165,159,19108,1,0,0:0:0:0:
369,85,19195,1,8,0:1:0:0:
439,98,19282,1,0,0:0:0:0:
439,147,19370,1,0,0:0:0:0:
370,158,19457,1,0,0:0:0:0:
176,166,19544,5,8,0:0:0:0:
109,180,19631,1,0,0:0:0:0:
68,221,19718,1,2,0:0:0:0:
57,286,19806,1,2,0:0:0:0:
310,248,19893,1,8,0:1:0:0:
382,277,19980,1,0,0:0:0:0:
316,317,20067,1,2,0:0:0:0:
245,341,20155,1,0,0:0:0:0:
469,278,20242,5,8,0:0:0:0:
469,278,20329,1,2,0:0:0:0:
397,218,20416,1,2,0:0:0:0:
472,202,20503,1,2,0:0:0:0:
191,193,20591,1,8,0:1:0:0:
122,193,20678,1,0,0:0:0:0:
60,198,20765,1,2,0:0:0:0:
122,193,20852,1,0,0:0:0:0:
348,161,20939,5,8,0:0:0:0:
397,157,21027,1,0,0:0:0:0:
348,161,21114,1,2,0:3:0:0:
427,162,21201,1,0,0:0:0:0:
163,115,21288,1,8,0:1:0:0:
112,106,21376,1,0,0:0:0:0:
163,115,21463,1,2,0:3:0:0:
86,116,21550,1,0,0:0:0:0:
402,124,21637,6,0,L|464:129,1,59.375,8|0,0:0|3:3,0:0:0:0:
167,79,21811,2,0,L|159:14,1,59.375,2|0,0:3|3:3,0:0:0:0:
448,37,21986,2,0,L|368:47,1,59.375,8|0,0:1|3:3,0:0:0:0:
80,108,22160,2,0,L|171:113,1,59.375,2|0,0:3|3:3,0:0:0:0:
404,217,22335,6,0,L|171:219,1,178.125,8|0,0:0|0:0,0:0:0:0:
168,219,22684,2,0,L|400:221,1,178.125,0|0,0:0|0:0,0:0:0:0:
342,217,23032,2,0,L|41:220,1,235.125002242327,0|0,0:0|0:0,0:0:0:0:
61,221,23381,2,0,L|443:216,1,360.99999036026,0|4,0:0|1:2,0:0:0:0:
281,185,23905,5,0,1:1:0:0:
423,208,24079,2,0,L|432:69,1,118.75,8|0,0:1|1:1,0:0:0:0:
149,82,24428,2,0,L|272:82,1,118.75,10|2,1:2|1:2,0:0:0:0:
100,86,24777,2,0,L|93:211,1,118.75,8|0,0:1|1:1,0:0:0:0:
361,276,25125,5,10,1:2:0:0:
210,282,25300,1,0,1:1:0:0:
361,276,25474,1,8,0:1:0:0:
210,282,25649,1,0,1:1:0:0:
486,204,25823,2,0,L|349:202,1,118.75,10|8,1:2|1:2,0:0:0:0:
183,99,26172,2,0,L|303:99,1,118.75,8|0,0:1|1:1,0:0:0:0:
20,106,26521,5,10,1:2:0:0:
179,143,26695,1,2,1:2:0:0:
342,183,26870,1,8,0:1:0:0:
62,177,27044,2,0,L|58:297,1,118.75,2|10,1:2|1:2,0:0:0:0:
230,302,27393,2,0,L|91:306,1,118.75,0|8,1:1|0:1,0:0:0:0:
406,257,27742,1,8,1:2:0:0:
75,276,27916,6,0,L|340:273,1,237.5,10|8,1:2|0:1,0:0:0:0:
459,198,28439,2,0,P|464:140|306:53,1,237.5,2|8,1:2|1:2,0:0:0:0:
157,55,28963,2,0,L|18:58,1,118.75,8|0,0:1|1:1,0:0:0:0:
366,63,29311,5,10,1:2:0:0:
223,115,29486,2,0,L|222:244,1,118.75,2|8,1:2|0:1,0:0:0:0:
363,283,29835,1,2,1:2:0:0:
56,307,30009,1,10,1:2:0:0:
196,289,30184,1,2,1:2:0:0:
55,224,30358,1,8,0:1:0:0:
195,203,30532,1,2,1:2:0:0:
481,121,30707,6,0,L|351:120,2,118.75,10|2|8,1:2|1:2|0:1,0:0:0:0:
407,122,31230,1,0,1:1:0:0:
165,227,31405,2,0,L|25:239,1,118.75,10|2,1:2|1:2,0:0:0:0:
210,285,31753,2,0,L|353:311,1,118.75,8|0,0:1|1:1,0:0:0:0:
17,193,32102,5,10,1:2:0:0:
169,169,32277,1,2,1:2:0:0:
327,135,32451,1,8,0:1:0:0:
43,66,32625,1,2,1:2:0:0:
196,114,32800,1,10,1:2:0:0:
43,66,32974,1,0,1:1:0:0:
363,152,33149,2,0,L|373:290,1,118.75,8|2,0:1|1:2,0:0:0:0:
72,321,33498,6,0,L|222:324,1,118.75,10|0,1:2|1:1,0:0:0:0:
462,313,33846,2,0,L|339:314,1,118.75,8|0,0:1|1:1,0:0:0:0:
196,189,34195,2,0,L|130:189,2,59.375,10|0|8,1:2|0:0|0:1,0:0:0:0:
473,175,34544,2,0,L|471:254,1,59.375,8|2,0:1|1:2,0:0:0:0:
298,272,34718,2,0,L|233:288,1,59.375,2|2,1:2|1:2,0:0:0:0:
445,267,34893,6,0,P|476:204|395:130,1,178.125,4|0,1:2|0:0,0:0:0:0:
181,126,35242,2,0,L|13:137,1,118.75,8|0,0:1|1:1,0:0:0:0:
354,196,35591,2,0,L|476:222,1,118.75,10|0,1:2|1:1,0:0:0:0:
206,320,35939,1,8,0:1:0:0:
491,235,36114,6,0,L|233:246,1,237.5,2|8,1:2|1:2,0:0:0:0:
93,204,36637,2,0,L|87:65,1,118.75,8|0,0:1|1:1,0:0:0:0:
393,41,36986,2,0,L|272:37,1,118.75,10|0,1:2|1:1,0:0:0:0:
30,84,37335,1,8,0:1:0:0:
91,96,37422,1,2,1:2:0:0:
152,106,37509,1,2,1:2:0:0:
471,163,37684,6,0,P|479:242|366:289,1,178.125,10|0,1:2|0:0,0:0:0:0:
202,336,38032,2,0,L|356:337,1,118.75,8|2,0:1|1:2,0:0:0:0:
58,254,38381,2,0,L|52:94,1,118.75,10|2,1:2|1:2,0:0:0:0:
379,89,38730,1,8,0:1:0:0:
48,60,38905,6,0,L|314:56,1,237.5,2|2,1:2|1:2,0:0:0:0:
129,65,39428,1,8,0:1:0:0:
416,139,39602,2,0,L|425:267,1,118.75,2|10,1:2|1:2,0:0:0:0:
183,313,39951,1,2,1:2:0:0:
428,311,40125,1,8,0:1:0:0:
487,308,40213,1,2,1:2:0:0:
428,311,40300,1,2,1:2:0:0:
373,312,40387,1,2,1:2:0:0:
118,255,40474,6,0,P|51:191|171:123,1,237.5,10|8,1:2|0:1,0:0:0:0:
445,177,40998,2,0,L|321:177,1,118.75,0|10,3:0|1:2,0:0:0:0:
166,323,41346,2,0,L|316:319,1,118.75,0|8,3:0|0:1,0:0:0:0:
126,260,41695,1,0,3:0:0:0:
420,231,41870,6,0,L|431:100,1,118.75,10|0,1:2|3:0,0:0:0:0:
366,98,42131,1,0,3:0:0:0:
142,56,42218,1,8,0:1:0:0:
76,72,42306,1,0,3:0:0:0:
43,125,42393,1,0,3:0:0:0:
64,198,42480,1,0,3:0:0:0:
298,201,42567,5,10,1:2:0:0:
381,217,42655,1,0,3:0:0:0:
458,233,42742,1,0,3:0:0:0:
382,261,42829,1,0,3:0:0:0:
319,290,42916,1,8,0:1:0:0:
381,313,43003,1,0,3:0:0:0:
438,329,43091,1,0,3:0:0:0:
381,352,43178,1,0,3:0:0:0:
98,330,43265,6,0,L|407:330,1,296.875,14|0,1:2|0:0,0:0:0:0:
213,114,43788,2,0,P|112:122|51:300,1,296.875,14|0,1:2|0:0,0:0:0:0:
244,126,44311,2,0,P|338:155|371:345,1,296.875,14|0,1:2|0:0,0:0:0:0:
189,247,44835,2,0,B|53:254|59:125|157:102|157:102|369:99|369:99|469:118|460:268|316:249,1,712.5,14|0,1:2|1:0,0:0:0:0:
56,281,46056,6,0,P|19:200|89:142,1,178.125,4|0,1:2|0:0,0:0:0:0:
134,145,46405,2,0,L|295:153,1,118.75,2|0,1:2|0:0,0:0:0:0:
105,53,46753,2,0,L|45:54,2,59.375,2|2|2,1:2|1:2|1:2,0:0:0:0:
425,207,47102,2,0,L|427:292,2,79.1666666666667,2|2|2,1:2|1:2|1:2,0:0:0:0:
173,161,47451,2,0,L|171:60,2,79.1666666666667,2|2|2,1:2|1:2|1:2,0:0:0:0:
351,153,47800,5,8,0:0:0:0:
395,173,47858,2,0,L|393:224,3,39.5833333333333
171,115,48149,1,8,0:0:0:0:
119,148,48207,2,0,L|96:183,2,39.5833333333333
171,115,48381,1,0,0:0:0:0:
377,118,48498,5,8,0:0:0:0:
441,134,48556,2,0,L|464:169,2,39.5833333333333
377,118,48730,1,0,0:0:0:0:
154,70,48846,1,8,0:0:0:0:
105,102,48904,2,0,L|107:153,3,39.5833333333333
392,217,49195,5,10,0:0:0:0:
446,224,49253,2,0,L|488:229,3,39.5833333333333,0|0|0|0,1:2|0:0|0:0|0:0,0:0:0:0:
329,254,49544,2,0,L|371:259,4,39.5833333333333,10|0|0|0|0,1:2|0:0|0:0|0:0|0:0,0:0:0:0:
171,301,49893,6,0,L|213:306,4,39.5833333333333,10|0|0|0|0,1:2|0:0|0:0|0:0|0:0,0:0:0:0:
12,340,50242,2,0,L|54:345,4,39.5833333333333,10|0|0|0|0,1:2|0:0|0:0|0:0|0:0,0:0:0:0:
161,310,50591,6,0,L|119:315,4,39.5833333333333,10|0|0|0|0,1:2|0:0|0:0|0:0|0:0,0:0:0:0:
299,235,50939,2,0,L|213:236,2,79.1666666666667,10|2|2,1:2|1:2|1:2,0:0:0:0:
430,226,51288,5,2,1:2:0:0:
494,142,51405,1,2,1:2:0:0:
422,67,51521,1,2,1:2:0:0:
186,51,51637,6,0,L|350:44,2,118.75,6|0|0,1:2|1:0|1:0,0:0:0:0:
390,122,52160,2,0,L|235:123,2,118.75,0|0|0,1:0|1:0|1:0,0:0:0:0:
217,250,52684,6,0,L|319:125,2,118.75,0|0|0,1:0|1:0|1:0,0:0:0:0:
394,277,53207,2,0,L|268:218,1,118.75,0|0,1:0|0:2,0:0:0:0:
464,229,53556,2,0,L|464:93,1,118.75,2|2,0:2|0:2,0:0:0:0:
295,164,53905,6,0,L|167:82,2,118.75,2|2|0,0:2|0:2|1:2,0:0:0:0:
107,164,54428,2,0,L|109:296,2,118.75,2|0|2,0:2|1:2|1:2,0:0:0:0:
276,50,54951,6,0,L|278:182,2,118.75,2|0|0,0:2|1:2|1:2,0:0:0:0:
449,141,55474,2,0,L|451:273,2,118.75,0|2|2,1:2|0:2|0:2,0:0:0:0:
274,108,55998,5,2,0:2:0:0:
177,106,56172,2,0,L|317:106,1,118.75,2|2,0:2|0:2,0:0:0:0:
477,229,56521,2,0,L|322:229,1,118.75,2|0,0:2|1:2,0:0:0:0:
186,306,56870,2,0,L|336:312,1,118.75,0|0,1:2|1:2,0:0:0:0:
3,241,57218,5,4,1:2:0:0:
206,369,68381,6,0,P|446:231|174:40,1,712.5,8|0,0:0|0:0,0:0:0:0:
418,49,69777,2,0,P|363:239|59:13,1,712.5,2|0,0:0|0:0,0:0:0:0:
275,360,71172,6,0,P|35:222|307:31,1,712.5,8|0,2:0|0:0,0:0:0:0:
60,49,72567,2,0,P|115:239|419:13,1,712.5,2|0,0:0|0:0,0:0:0:0:
82,33,73963,6,0,L|465:379,1,475,8|0,0:0|0:0,0:0:0:0:
260,349,74835,1,0,0:0:0:0:
87,350,75009,1,0,0:0:0:0:
365,42,75358,6,0,L|94:294,1,356.25,2|0,0:0|0:0,0:0:0:0:
369,224,76579,1,0,0:0:0:0:
369,255,76666,1,0,0:0:0:0:
369,255,76753,6,0,L|114:258,1,237.5,8|0,0:0|0:0,0:0:0:0:
128,186,77277,1,0,0:0:0:0:
300,191,77451,2,0,L|436:192,3,118.75,0|0|0|0,0:0|0:0|0:0|0:0,0:0:0:0:
166,72,78149,6,0,P|88:158|166:226,1,237.5,4|0,0:0|0:0,0:0:0:0:
457,214,78672,2,0,L|462:284,1,59.375,2|2,0:0|0:0,0:0:0:0:
382,284,78846,2,0,L|383:350,1,59.375,2|2,0:0|0:0,0:0:0:0:
300,286,79021,2,0,L|292:358,1,59.375,2|2,0:0|0:0,0:0:0:0:
130,249,79195,2,0,L|120:354,1,59.375,8|0,1:0|0:0,0:0:0:0:
400,86,79370,2,0,L|460:87,1,59.375,0|0,0:0|0:0,0:0:0:0:
201,268,79544,6,0,P|130:204|218:105,1,237.5,12|8,0:0|0:1,0:0:0:0:
453,65,80242,2,0,L|263:243,1,237.5,8|8,1:2|0:1,0:0:0:0:
62,104,80939,6,0,L|266:252,1,237.5,8|8,1:2|0:1,0:0:0:0:
475,108,81637,2,0,P|481:245|395:300,1,237.5,8|8,1:2|0:1,0:0:0:0:
82,329,82335,6,0,L|250:326,1,118.75,8|0,1:2|0:0,0:0:0:0:
383,249,82684,2,0,L|243:241,1,118.75,8|0,0:1|0:0,0:0:0:0:
79,207,83032,2,0,L|81:67,1,118.75,8|0,1:2|0:0,0:0:0:0:
260,188,83381,2,0,L|260:55,1,118.75,8|0,0:1|0:0,0:0:0:0:
441,207,83730,6,0,L|441:69,1,118.75,8|0,1:2|0:0,0:0:0:0:
254,44,84079,2,0,L|122:46,1,118.75,8|0,0:1|0:0,0:0:0:0:
298,145,84428,2,0,L|429:149,1,118.75,8|0,1:2|0:0,0:0:0:0:
131,221,84777,2,0,L|-1:215,1,118.75,8|0,0:1|0:0,0:0:0:0:
351,314,85125,6,0,P|433:273|337:234,1,237.5,8|8,1:2|0:1,0:0:0:0:
170,143,85649,2,0,L|456:143,1,237.5,2|2,0:0|0:0,0:0:0:0:
233,82,86172,2,0,L|77:81,1,118.75,8|0,0:1|0:0,0:0:0:0:
429,91,86521,6,0,P|462:189|319:245,1,237.5,8|8,1:2|0:1,0:0:0:0:
181,311,87044,2,0,L|32:313,2,118.75,2|8|2,0:0|1:2|0:0,0:0:0:0:
464,236,87567,2,0,L|465:84,1,118.75,8|0,0:1|0:0,0:0:0:0:
194,37,87916,5,8,1:2:0:0:
127,50,88003,1,0,3:0:0:0:
194,37,88091,1,2,3:2:0:0:
269,25,88178,1,0,3:0:0:0:
168,64,88265,1,8,0:1:0:0:
142,125,88352,1,0,3:0:0:0:
168,196,88439,1,2,3:2:0:0:
267,209,88527,1,0,3:0:0:0:
461,222,88614,5,8,1:2:0:0:
467,290,88701,1,0,3:0:0:0:
431,345,88788,1,2,3:2:0:0:
372,360,88875,1,0,3:0:0:0:
307,352,88963,1,8,0:1:0:0:
373,352,89050,1,0,3:0:0:0:
431,333,89137,1,2,3:2:0:0:
373,352,89224,1,0,3:0:0:0:
171,292,89311,6,0,P|112:241|184:196,1,178.125,2|0,3:0|0:0,0:0:0:0:
291,184,89660,2,0,P|372:145|263:85,1,235.125002242327,2|0,3:0|0:0,0:0:0:0:
172,122,90009,2,0,P|78:147|58:247,1,185.250000706673,2|2,3:0|3:2,0:0:0:0:
145,241,90271,1,0,0:0:0:0:
334,144,90358,2,0,P|410:249|199:303,1,341.999989562989,2|0,3:0|0:0,0:0:0:0:
58,318,90707,6,0,L|184:312,1,118.75,4|2,1:2|0:0,0:0:0:0:
118,310,90968,1,0,0:0:0:0:
58,318,91056,1,8,0:1:0:0:
325,279,91230,1,2,0:0:0:0:
396,262,91317,1,0,0:0:0:0:
425,203,91405,5,10,1:2:0:0:
393,146,91492,1,2,0:0:0:0:
322,130,91579,1,2,0:0:0:0:
156,81,91753,2,0,L|215:83,1,59.375,8|0,0:1|0:0,0:0:0:0:
321,169,91928,2,0,L|260:176,1,59.375,0|0,0:0|0:0,0:0:0:0:
79,221,92102,6,0,P|30:332|156:356,1,237.5,10|8,1:2|0:1,0:0:0:0:
185,348,92538,1,0,0:0:0:0:
119,308,92625,1,2,0:0:0:0:
356,256,92800,5,10,1:2:0:0:
422,225,92887,1,2,0:0:0:0:
356,194,92974,1,2,0:0:0:0:
290,179,93061,1,2,0:0:0:0:
398,146,93149,2,0,L|401:78,1,59.375,8|0,0:1|0:0,0:0:0:0:
294,62,93323,2,0,L|198:50,1,59.375,0|0,0:0|0:0,0:0:0:0:
467,47,93498,6,0,P|467:118|313:164,1,237.5,10|8,1:2|0:1,0:0:0:0:
382,224,93934,1,0,0:0:0:0:
448,261,94021,1,2,0:0:0:0:
442,313,94108,1,0,0:0:0:0:
190,325,94195,5,10,1:2:0:0:
119,320,94282,1,2,0:0:0:0:
64,268,94370,1,2,0:0:0:0:
65,191,94457,1,0,0:0:0:0:
265,148,94544,1,8,0:1:0:0:
342,130,94631,1,0,0:0:0:0:
268,88,94718,1,0,0:0:0:0:
198,60,94806,1,0,0:0:0:0:
397,68,94893,6,0,P|472:136|382:218,1,237.5,10|8,1:2|0:1,0:0:0:0:
92,175,95416,2,0,L|14:172,1,59.375,2|0,0:0|0:0,0:0:0:0:
245,173,95591,5,10,1:2:0:0:
277,212,95678,1,2,0:0:0:0:
244,263,95765,1,2,0:0:0:0:
191,266,95852,1,2,0:0:0:0:
413,327,95939,1,8,0:1:0:0:
400,275,96027,1,0,0:0:0:0:
356,256,96114,1,2,0:0:0:0:
280,247,96201,1,0,0:0:0:0:
41,74,96288,6,0,P|60:224|137:264,1,237.5,10|8,1:2|0:1,0:0:0:0:
454,217,96811,6,0,L|306:222,1,118.75,2|10,0:0|1:2,0:0:0:0:
386,184,97073,1,2,0:0:0:0:
444,154,97160,1,2,0:0:0:0:
389,125,97248,1,0,0:0:0:0:
184,107,97335,2,0,L|45:106,1,118.75,8|0,0:1|0:0,0:0:0:0:
128,110,97596,1,0,0:0:0:0:
374,168,97684,6,0,B|351:229|351:229|121:232,1,237.5,10|8,1:2|0:1,0:0:0:0:
443,274,98207,6,0,P|457:193|326:139,1,237.5,2|2,0:0|0:0,0:0:0:0:
261,119,98643,1,0,0:0:0:0:
200,77,98730,1,8,0:1:0:0:
262,59,98817,1,0,0:0:0:0:
329,51,98905,1,2,0:0:0:0:
262,29,98992,1,2,0:0:0:0:
43,31,99079,5,10,1:2:0:0:
31,101,99166,1,0,0:0:0:0:
64,183,99253,1,2,0:0:0:0:
128,231,99341,1,0,0:0:0:0:
215,246,99428,1,8,0:1:0:0:
290,259,99515,1,0,0:0:0:0:
215,246,99602,1,2,0:0:0:0:
134,236,99689,1,0,0:0:0:0:
393,246,99777,6,0,L|401:157,1,59.375,10|0,1:2|0:0,0:0:0:0:
174,154,99951,2,0,L|172:67,1,59.375,2|0,0:0|0:0,0:0:0:0:
407,56,100125,2,0,L|483:56,1,59.375,8|0,1:0|0:0,0:0:0:0:
174,47,100300,2,0,L|106:45,1,59.375,2|0,0:0|0:0,0:0:0:0:
419,58,100474,6,0,P|452:148|350:235,1,237.5,10|8,1:2|0:1,0:0:0:0:
197,245,100998,1,2,0:0:0:0:
484,283,101172,2,0,L|267:287,1,178.125,10|2,1:2|0:0,0:0:0:0:
283,306,101521,1,8,0:1:0:0:
397,269,101608,1,0,0:0:0:0:
408,207,101695,1,2,0:0:0:0:
134,264,101870,6,0,L|13:254,1,118.75,4|2,1:2|0:0,0:0:0:0:
81,221,102131,1,0,0:0:0:0:
146,189,102218,1,8,0:1:0:0:
451,67,102393,1,2,0:0:0:0:
460,116,102480,1,0,0:0:0:0:
457,176,102567,5,10,1:2:0:0:
422,228,102655,1,2,0:0:0:0:
376,257,102742,1,2,0:0:0:0:
312,256,102829,1,0,0:0:0:0:
78,145,102916,1,8,0:1:0:0:
18,173,103003,1,0,0:0:0:0:
78,145,103091,1,0,0:0:0:0:
140,120,103178,1,0,0:0:0:0:
416,52,103265,6,0,P|446:121|319:218,1,237.5,10|8,1:2|0:1,0:0:0:0:
414,260,103701,1,0,0:0:0:0:
476,287,103788,1,2,0:0:0:0:
415,311,103875,1,0,0:0:0:0:
126,337,103963,5,10,1:2:0:0:
62,300,104050,1,2,0:0:0:0:
47,234,104137,1,2,0:0:0:0:
79,179,104224,1,2,0:0:0:0:
140,149,104311,1,8,0:1:0:0:
84,123,104399,1,0,0:0:0:0:
31,94,104486,1,2,0:0:0:0:
79,126,104573,1,0,0:0:0:0:
304,55,104660,6,0,P|388:80|386:218,1,237.5,10|8,1:2|0:1,0:0:0:0:
324,251,105096,1,0,0:0:0:0:
386,280,105184,1,2,0:0:0:0:
441,306,105271,1,0,0:0:0:0:
180,205,105358,5,10,1:2:0:0:
84,200,105445,1,2,0:0:0:0:
41,113,105532,1,2,0:0:0:0:
116,55,105620,1,0,0:0:0:0:
344,57,105707,1,8,0:1:0:0:
392,55,105794,1,0,0:0:0:0:
281,113,105881,1,0,0:0:0:0:
235,113,105968,1,0,0:0:0:0:
471,113,106056,6,0,P|482:226|350:296,1,237.5,10|8,1:2|0:1,0:0:0:0:
323,323,106492,1,0,0:0:0:0:
392,296,106579,1,2,0:0:0:0:
462,258,106666,1,0,0:0:0:0:
231,91,106753,5,10,1:2:0:0:
127,135,106841,1,2,0:0:0:0:
98,163,106928,1,2,0:0:0:0:
98,163,107015,1,2,0:0:0:0:
331,200,107102,1,8,0:1:0:0:
267,209,107189,1,0,0:0:0:0:
39,250,107277,1,2,0:0:0:0:
104,260,107364,1,0,0:0:0:0:
368,318,107451,6,0,P|453:250|363:223,1,237.5,10|8,1:2|0:1,0:0:0:0:
188,216,107974,1,0,0:0:0:0:
471,132,108149,5,10,1:2:0:0:
195,96,108323,2,0,L|194:226,1,118.75,2|8,0:0|0:1,0:0:0:0:
358,216,108672,1,2,0:0:0:0:
95,71,108846,6,0,P|22:140|150:176,1,237.5,10|8,1:2|0:1,0:0:0:0:
434,322,109370,6,0,L|146:338,1,237.5,2|2,0:0|0:0,0:0:0:0:
364,234,109893,1,8,0:1:0:0:
51,203,110067,2,0,L|45:115,1,59.375,2|2,0:0|0:0,0:0:0:0:
274,210,110242,6,0,P|288:124|146:55,1,237.5,10|8,1:2|0:1,0:0:0:0:
480,74,110765,1,2,0:0:0:0:
171,57,110939,6,0,L|32:59,3,118.75,10|2|8|2,1:2|0:0|0:1|0:0,0:0:0:0:
363,44,111637,5,10,1:2:0:0:
437,71,111724,1,0,0:0:0:0:
477,133,111811,1,2,0:0:0:0:
479,203,111899,1,0,0:0:0:0:
443,262,111986,1,8,0:1:0:0:
366,285,112073,1,0,0:0:0:0:
252,295,112160,1,2,0:0:0:0:
267,289,112248,1,2,0:0:0:0:
314,282,112335,5,10,1:2:0:0:
383,281,112422,1,0,0:0:0:0:
405,271,112509,1,2,0:0:0:0:
385,226,112596,1,0,0:0:0:0:
155,188,112684,1,8,0:1:0:0:
92,192,112771,1,0,0:0:0:0:
306,109,112858,1,2,0:0:0:0:
369,111,112945,1,0,0:0:0:0:
104,74,113032,5,10,1:2:0:0:
72,128,113120,1,2,0:0:0:0:
79,201,113207,1,2,0:0:0:0:
129,245,113294,1,2,0:0:0:0:
199,250,113381,1,8,0:1:0:0:
260,281,113468,1,0,0:0:0:0:
202,314,113556,1,2,0:0:0:0:
131,334,113643,1,0,0:0:0:0:
357,337,113730,5,10,1:2:0:0:
381,262,113817,1,0,0:0:0:0:
374,201,113905,1,2,0:0:0:0:
323,137,113992,1,0,0:0:0:0:
252,104,114079,1,8,0:1:0:0:
329,67,114166,1,0,0:0:0:0:
407,53,114253,1,0,0:0:0:0:
320,73,114341,1,0,0:0:0:0:
86,108,114428,6,0,P|35:217|162:273,1,237.5,10|8,1:2|0:1,0:0:0:0:
298,316,114951,2,0,L|37:307,1,237.5,2|2,0:0|0:0,0:0:0:0:
363,221,115474,2,0,P|493:179|494:124,1,178.125,8|0,0:1|0:0,0:0:0:0:
265,74,115823,5,10,1:2:0:0:
234,129,115910,1,2,0:0:0:0:
233,197,115998,1,2,0:0:0:0:
279,261,116085,1,2,0:0:0:0:
369,275,116172,1,8,0:1:0:0:
426,309,116259,1,0,0:0:0:0:
370,331,116346,1,2,0:0:0:0:
310,353,116434,1,0,0:0:0:0:
370,331,116521,5,10,1:2:0:0:
401,260,116608,1,0,0:0:0:0:
373,189,116695,1,2,0:0:0:0:
298,152,116782,1,0,0:0:0:0:
244,121,116870,1,8,0:1:0:0:
304,98,116957,1,0,0:0:0:0:
372,79,117044,1,2,0:0:0:0:
70,80,117218,6,0,P|32:230|86:269,1,237.5,10|8,1:2|0:1,0:0:0:0:
270,324,117742,2,0,L|348:324,1,59.375,0|0,0:0|0:0,0:0:0:0:
165,259,117916,6,0,B|46:259|82:158|210:159|210:159|69:162,1,356.25,10|0,1:2|0:0,0:0:0:0:
413,56,118614,6,0,L|504:137,1,118.75,14|2,1:2|0:0,0:0:0:0:
425,130,118875,1,0,0:0:0:0:
348,124,118963,2,0,L|343:255,1,118.75,8|2,0:1|0:0,0:0:0:0:
498,299,119311,6,0,L|364:307,1,118.75,10|2,1:2|0:0,0:0:0:0:
237,328,119660,2,0,L|360:338,1,118.75,8|0,0:1|0:0,0:0:0:0:
361,301,119922,1,0,0:0:0:0:
151,86,120009,5,10,1:2:0:0:
120,149,120096,1,0,0:0:0:0:
130,229,120184,1,2,0:0:0:0:
188,288,120271,1,0,0:0:0:0:
276,303,120358,1,8,0:1:0:0:
342,299,120445,1,2,0:0:0:0:
146,259,120532,1,2,0:0:0:0:
83,265,120620,1,0,0:0:0:0:
351,203,120707,6,0,L|202:222,2,118.75,10|2|8,1:2|0:0|0:1,0:0:0:0:
61,182,121230,1,0,0:0:0:0:
341,149,121405,6,0,L|482:138,2,118.75,10|2|8,1:2|0:0|0:1,0:0:0:0:
46,254,121928,1,2,0:0:0:0:
350,302,122102,6,0,L|447:319,2,59.375,10|2|2,1:2|0:0|0:0,0:0:0:0:
187,282,122451,2,0,L|330:276,1,118.75,8|2,0:1|0:0,0:0:0:0:
57,60,122800,5,10,1:2:0:0:
34,124,122887,1,0,0:0:0:0:
58,192,122974,1,2,0:0:0:0:
127,215,123061,1,0,0:0:0:0:
197,237,123149,1,8,0:1:0:0:
230,302,123236,1,2,0:0:0:0:
193,360,123323,1,2,0:0:0:0:
130,363,123410,1,2,0:0:0:0:
224,316,123498,5,10,1:2:0:0:
282,289,123585,1,0,0:0:0:0:
228,255,123672,1,2,0:0:0:0:
169,233,123759,1,0,0:0:0:0:
376,145,123846,1,8,0:1:0:0:
436,143,123934,1,2,0:0:0:0:
228,69,124021,1,2,0:0:0:0:
168,64,124108,1,2,0:0:0:0:
422,90,124195,6,0,L|428:232,1,118.75,10|2,1:2|3:2,0:0:0:0:
269,264,124544,2,0,L|403:264,1,118.75,8|2,0:1|3:2,0:0:0:0:
217,207,124893,6,0,L|364:202,1,118.75,8|2,0:1|3:2,0:0:0:0:
172,110,125242,2,0,L|156:273,1,118.75,8|2,0:1|3:2,0:0:0:0:
470,292,125591,6,0,L|332:291,2,118.75,10|2|8,1:2|3:2|0:1,0:0:0:0:
211,221,126114,1,2,3:2:0:0:
471,175,126288,6,0,L|479:28,1,118.75,8|2,0:1|3:2,0:0:0:0:
117,58,126637,2,0,L|121:187,1,118.75,8|2,0:1|3:2,0:0:0:0:
437,64,126986,5,10,1:2:0:0:
440,119,127073,1,0,3:2:0:0:
392,157,127160,1,2,3:2:0:0:
323,153,127248,1,0,3:2:0:0:
393,168,127335,1,8,0:1:0:0:
323,153,127422,1,0,3:2:0:0:
140,83,127509,5,2,3:2:0:0:
83,81,127596,1,0,3:2:0:0:
55,131,127683,1,8,0:1:0:0:
86,178,127770,1,0,3:2:0:0:
142,174,127857,1,0,3:2:0:0:
435,279,128032,2,0,L|286:284,1,118.75,8|2,0:1|3:2,0:0:0:0:
248,287,128294,1,0,3:2:0:0:
44,324,128381,5,10,1:2:0:0:
13,259,128468,1,0,0:0:0:0:
36,187,128556,1,2,3:2:0:0:
100,154,128643,1,0,0:0:0:0:
174,123,128730,1,8,0:1:0:0:
100,90,128817,1,0,0:0:0:0:
23,76,128905,1,2,3:2:0:0:
102,48,128992,1,0,0:0:0:0:
375,41,129079,5,8,0:1:0:0:
443,92,129166,1,0,0:0:0:0:
372,139,129253,1,2,3:2:0:0:
290,170,129341,1,0,0:0:0:0:
82,229,129428,1,8,0:1:0:0:
23,240,129515,1,0,0:0:0:0:
295,288,129602,1,2,3:2:0:0:
355,314,129689,1,0,0:0:0:0:
119,294,129777,6,0,L|73:305,6,29.6875,0|0|0|0|0|0|0,3:2|0:0|0:0|0:0|0:0|0:0|0:0,0:0:0:0:
333,244,130125,2,0,L|354:245,1,14.84375,4|0,0:0|0:0,0:0:0:0:
256,192,130474,12,0,133614,0:0:0:0:
