osu file format v14

[General]
AudioFilename: audio.mp3
AudioLeadIn: 0
PreviewTime: 89311
Countdown: 0
SampleSet: Soft
StackLeniency: 0.7
Mode: 2
LetterboxInBreaks: 0
WidescreenStoryboard: 1

[Editor]
Bookmarks: 46056,57218,68381,78149,79544,113032,129777,133614
DistanceSpacing: 0.9
BeatDivisor: 4
GridSize: 32
TimelineZoom: 2.799999

[Metadata]
Title:Harmony
TitleUnicode:Harmony
Artist:Lime
ArtistUnicode:Lime
Creator:wonjae
Version:Jemzuu's Salad
Source:
Tags:ajamez jemzuu G2R2014 Album Groundbreaking -G2R2014 COMPILATION ALBUM- kankitsu bms kawaiicore instrumental electronic piano paranoid grapes
BeatmapID:2578733
BeatmapSetID:1231601

[Difficulty]
HPDrainRate:4
CircleSize:3.1
OverallDifficulty:7
ApproachRate:7
SliderMultiplier:1.5
SliderTickRate:1

[Events]
//Background and Video events
0,0,"mountain of great size_waifu2x.png",0,0
//Break Periods
2,57418,67481
//Storyboard Layer 0 (Background)
//Storyboard Layer 1 (Fail)
//Storyboard Layer 2 (Pass)
//Storyboard Layer 3 (Foreground)
//Storyboard Layer 4 (Overlay)
//Storyboard Sound Samples

[TimingPoints]
1405,348.837209302326,4,2,2,49,1,0
11521,-100,4,2,2,49,0,0
11870,-100,4,2,2,49,0,0
22684,-100,4,2,2,49,0,0
23032,-100,4,2,2,49,0,0
23381,-100,4,2,2,49,0,0
23730,-100,4,2,2,60,0,0
46056,-100,4,2,2,49,0,0
89573,-100,4,2,2,49,0,0
90009,-100,4,2,2,49,0,0
90358,-100,4,2,2,49,0,0
90707,-100,4,2,2,65,0,1
101172,-100,4,2,2,65,0,0
101521,-100,4,2,2,65,0,0
101870,-100,4,2,2,65,0,1
113032,-100,4,2,2,65,0,0
130474,-100,4,2,2,55,0,0
131172,-100,4,2,2,45,0,0
132567,-100,4,2,2,35,0,0
133614,-100,4,2,2,20,0,0

[Colours]
Combo1 : 251,194,111
Combo2 : 0,128,255
Combo3 : 213,31,4
Combo4 : 113,113,255
Combo5 : 158,158,158
Combo6 : 0,83,166

[HitObjects]
417,77,1405,6,0,P|435:140|364:195,1,150,4|8,2:0|0:0,0:0:0:0:
301,214,1928,2,0,L|159:298,1,150,0|0,1:0|1:0,0:0:0:0:
250,334,2451,1,8,0:0:0:0:
332,341,2625,1,0,1:0:0:0:
160,372,2974,2,0,L|115:300,2,75,0|8|0,0:0|0:0|1:0,0:0:0:0:
251,366,3498,2,0,P|268:309|203:238,1,150,2|8,0:0|0:0,0:0:0:0:
137,232,4021,1,0,1:0:0:0:
52,197,4195,6,0,L|220:176,1,150,2|8,0:0|0:0,0:0:0:0:
281,140,4718,1,0,1:0:0:0:
112,80,5067,2,0,L|26:49,2,75,0|8|0,1:0|0:0|1:0,0:0:0:0:
192,95,5591,2,0,L|198:186,1,75,2|0,0:0|0:0,0:0:0:0:
368,263,6114,2,0,L|227:337,1,150,0|0,1:0|1:0,0:0:0:0:
397,367,6811,1,0,1:0:0:0:
224,370,6986,6,0,P|205:323|285:253,1,150,6|8,0:0|0:0,0:0:0:0:
343,214,7509,2,0,L|186:198,1,150,0|0,1:0|1:0,0:0:0:0:
114,151,8032,1,8,0:0:0:0:
194,107,8207,1,0,1:0:0:0:
359,38,8556,2,0,L|447:48,2,75,0|8|0,0:0|0:0|1:0,0:0:0:0:
276,51,9079,2,0,P|261:105|338:166,1,150,2|8,0:0|0:0,0:0:0:0:
403,180,9602,1,0,1:0:0:0:
484,228,9777,6,0,L|305:251,1,150,2|8,0:0|0:0,0:0:0:0:
259,284,10300,1,0,1:0:0:0:
88,369,10649,2,0,P|67:307|116:228,1,150,0|0,1:0|1:0,0:0:0:0:
455,126,12044,6,0,L|475:80,2,37.5,8|0|8,0:0|0:0|1:0,0:0:0:0:
146,86,12567,6,0,P|221:126|289:120,1,150,12|8,1:2|0:1,0:0:0:0:
201,162,13091,1,2,0:0:0:0:
114,188,13265,2,0,L|106:353,1,150,8|8,0:0|0:1,0:0:0:0:
267,357,13963,2,0,L|421:339,1,150,8|8,0:0|0:1,0:0:0:0:
244,260,14660,2,0,L|94:239,1,150,8|8,0:0|0:1,0:0:0:0:
388,249,15358,6,0,P|401:193|317:115,1,150,8|8,0:0|0:1,0:0:0:0:
270,98,15881,1,2,0:0:0:0:
185,88,16056,2,0,L|343:62,1,150,8|8,0:0|0:1,0:0:0:0:
156,189,16753,2,0,L|8:150,1,150,8|8,0:0|0:1,0:0:0:0:
93,108,17277,1,2,0:0:0:0:
178,91,17451,2,0,L|182:260,1,150,8|8,0:0|0:1,0:0:0:0:
475,273,18149,6,0,P|439:318|337:335,1,150,12|8,0:0|0:1,0:0:0:0:
272,317,18672,1,2,0:0:0:0:
356,248,18846,2,0,L|448:242,2,75,8|2|8,0:0|0:0|0:1,0:0:0:0:
66,282,19544,6,0,P|52:238|129:170,1,150,8|8,0:0|0:1,0:0:0:0:
195,152,20067,1,2,0:0:0:0:
105,119,20242,2,0,L|23:109,2,75,8|2|8,0:0|0:0|0:1,0:0:0:0:
397,27,20939,5,8,0:0:0:0:
465,52,21113,1,2,0:3:0:0:
492,119,21287,1,8,0:1:0:0:
459,184,21462,1,2,0:3:0:0:
282,211,21637,5,8,0:0:0:0:
248,224,21724,1,0,3:3:0:0:
235,258,21811,1,2,0:3:0:0:
250,291,21898,1,0,3:3:0:0:
285,302,21986,2,0,L|380:289,1,75,8|2,0:1|0:3,0:0:0:0:
182,355,22335,6,0,L|37:287,3,150,8|0|0|0,0:0|0:0|0:0|0:0,0:0:0:0:
358,309,23730,6,0,P|372:240|306:186,1,150,4|8,1:2|0:1,0:0:0:0:
158,201,24428,2,0,L|139:124,1,75,10|2,1:2|1:2,0:0:0:0:
231,122,24777,2,0,L|248:32,1,75,8|0,0:1|1:1,0:0:0:0:
151,19,25125,2,0,L|18:107,1,150,10|8,1:2|0:1,0:0:0:0:
209,172,25823,2,0,L|136:226,1,75,10|8,1:2|1:2,0:0:0:0:
63,226,26172,1,8,0:1:0:0:
354,306,26521,6,0,L|453:312,2,75,10|2|8,1:2|1:2|0:1,0:0:0:0:
268,318,27044,2,0,P|240:249|306:191,1,150,2|0,1:2|1:1,0:0:0:0:
365,174,27567,2,0,L|457:166,1,75,8|8,0:1|1:2,0:0:0:0:
340,86,27916,2,0,L|184:56,1,150,10|8,1:2|0:1,0:0:0:0:
285,33,28439,2,0,P|305:84|260:161,1,150,2|8,1:2|1:2,0:0:0:0:
171,167,28963,1,8,0:1:0:0:
465,295,29311,6,0,L|475:114,1,150,10|8,1:2|0:1,0:0:0:0:
290,64,30009,1,10,1:2:0:0:
358,88,30183,1,2,1:2:0:0:
386,155,30357,1,8,0:1:0:0:
354,220,30532,1,2,1:2:0:0:
284,240,30707,2,0,L|111:233,1,150,10|8,1:2|0:1,0:0:0:0:
316,343,31405,2,0,L|406:317,2,75,10|2|8,1:2|1:2|0:1,0:0:0:0:
27,131,32102,6,0,P|79:81|182:75,1,150,10|8,1:2|0:1,0:0:0:0:
248,80,32625,2,0,L|257:242,1,150,2|0,1:2|1:1,0:0:0:0:
166,260,33149,1,8,0:1:0:0:
459,317,33498,6,0,P|472:257|397:196,1,150,10|8,1:2|0:1,0:0:0:0:
331,167,34021,2,0,L|276:164,1,37.5,0|0,1:1|0:0,0:0:0:0:
207,86,34282,2,0,L|254:81,1,37.5,0|8,0:0|0:1,0:0:0:0:
336,27,34544,2,0,L|437:35,1,75,8|2,0:1|1:2,0:0:0:0:
230,235,34893,6,0,L|76:186,2,150,4|8|10,1:2|0:1|1:2,0:0:0:0:
52,295,35939,1,8,0:1:0:0:
60,343,36114,2,0,L|216:354,1,150,2|8,1:2|1:2,0:0:0:0:
381,172,36811,2,0,L|218:144,1,150,0|0,1:1|1:1,0:0:0:0:
75,129,37509,1,2,1:2:0:0:
258,58,37684,6,0,L|412:94,2,150,10|8|10,1:2|0:1|1:2,0:0:0:0:
446,47,38730,1,8,0:1:0:0:
437,151,38905,2,0,L|271:186,1,150,2|2,1:2|1:2,0:0:0:0:
466,335,39602,2,0,P|473:282|414:204,1,150,2|2,1:2|1:2,0:0:0:0:
342,176,40125,1,8,0:1:0:0:
261,165,40300,1,2,1:2:0:0:
77,313,40474,6,0,P|46:247|110:214,1,150,10|8,1:2|0:1,0:0:0:0:
185,120,40998,2,0,L|321:51,2,150,0|0|0,3:0|3:0|3:0,0:0:0:0:
363,165,41870,6,0,L|443:175,1,75,10|0,1:2|3:0,0:0:0:0:
340,250,42218,1,8,0:1:0:0:
305,237,42305,1,0,3:0:0:0:
291,203,42392,1,0,3:0:0:0:
306,170,42479,1,0,3:0:0:0:
340,158,42567,2,0,L|436:145,1,75,10|0,1:2|3:0,0:0:0:0:
336,106,42916,2,0,L|235:92,1,75,8|0,0:1|3:0,0:0:0:0:
72,99,43265,6,0,L|71:177,1,75,14|0,1:2|0:0,0:0:0:0:
253,266,43788,2,0,L|98:288,1,150,14|0,1:2|0:0,0:0:0:0:
289,354,44311,2,0,L|293:272,1,75,14|0,1:2|0:0,0:0:0:0:
110,165,44835,2,0,L|269:142,1,150,14|0,1:2|0:0,0:0:0:0:
420,196,45532,1,0,0:0:0:0:
258,315,45881,1,0,1:0:0:0:
74,338,46056,6,0,L|72:179,1,150,4|2,1:2|1:2,0:0:0:0:
247,120,46753,2,0,L|347:104,2,75,2|2|2,1:2|1:2|1:2,0:0:0:0:
67,40,47451,2,0,L|212:120,1,150,2|8,1:2|0:0,0:0:0:0:
119,149,47974,1,0,0:0:0:0:
37,159,48149,2,0,L|37:328,1,150,8|8,0:0|0:0,0:0:0:0:
211,342,48846,6,0,L|370:302,3,150,8|10|10|10,0:0|1:2|1:2|1:2,0:0:0:0:
181,249,50242,2,0,L|179:94,1,150,10|10,1:2|1:2,0:0:0:0:
356,29,50939,2,0,L|209:75,1,150,10|2,1:2|1:2,0:0:0:0:
293,112,51463,1,0,0:0:0:0:
391,138,51637,6,0,L|195:297,2,225,6|0|0,1:2|1:0|1:0,0:0:0:0:
225,96,53032,1,0,1:0:0:0:
57,133,53381,2,0,L|18:54,2,75,0|2|2,0:2|0:2|0:2,0:0:0:0:
214,178,54079,1,2,0:2:0:0:
389,198,54428,6,0,P|422:237|313:333,1,225,2|2,0:2|0:2,0:0:0:0:
40,94,55823,2,0,L|126:100,2,75,2|2|2,0:2|0:2|0:2,0:0:0:0:
216,192,56521,2,0,L|53:263,1,150,2|0,0:2|1:2,0:0:0:0:
397,302,57218,5,4,1:2:0:0:
337,209,68381,6,0,L|505:26,2,225,8|0|0,0:0|0:0|0:0,0:0:0:0:
163,282,69777,2,0,L|380:185,1,225,2|0,0:0|0:0,0:0:0:0:
55,285,71172,6,0,P|50:218|186:142,2,225,8|0|0,2:0|0:0|0:0,0:0:0:0:
216,316,72567,2,0,L|386:151,2,225,2|0|0,0:0|0:0|0:0,0:0:0:0:
397,333,73963,6,0,P|458:282|330:152,1,300,8|0,0:0|0:0,0:0:0:0:
272,129,74835,1,0,0:0:0:0:
192,118,75009,1,0,0:0:0:0:
373,53,75358,6,0,L|384:280,1,225,2|0,0:0|0:0,0:0:0:0:
112,362,76579,1,0,0:0:0:0:
31,348,76753,6,0,P|25:288|154:189,1,225,8|0,0:0|0:0,0:0:0:0:
217,168,77451,1,0,0:0:0:0:
139,149,77625,2,0,L|46:140,1,75,0|0,0:0|0:0,0:0:0:0:
248,72,78149,6,0,P|299:101|219:208,1,225,4|2,0:0|0:0,0:0:0:0:
140,211,78846,2,0,L|143:370,1,150,2|8,0:0|1:0,0:0:0:0:
458,33,79544,5,12,0:0:0:0:
318,72,79892,1,8,0:1:0:0:
263,206,80241,1,8,1:2:0:0:
334,333,80590,1,8,0:1:0:0:
477,355,80939,1,8,1:2:0:0:
332,315,81287,1,8,0:1:0:0:
187,276,81636,1,8,1:2:0:0:
42,237,81985,1,8,0:1:0:0:
358,225,82335,6,0,L|366:66,1,150,8|8,1:2|0:1,0:0:0:0:
199,53,83032,2,0,L|41:49,1,150,8|8,1:2|0:1,0:0:0:0:
219,178,83730,2,0,L|228:338,1,150,8|8,1:2|0:1,0:0:0:0:
408,354,84428,2,0,L|417:193,1,150,8|8,1:2|0:1,0:0:0:0:
106,72,85125,6,0,P|86:145|158:182,1,150,8|8,1:2|0:1,0:0:0:0:
217,203,85649,1,2,0:0:0:0:
295,219,85823,2,0,L|426:134,1,150,0|8,0:0|0:1,0:0:0:0:
119,347,86521,6,0,P|62:331|59:225,1,150,8|8,1:2|0:1,0:0:0:0:
203,192,87218,1,8,1:2:0:0:
35,153,87567,1,8,0:1:0:0:
323,64,87916,5,8,1:2:0:0:
349,131,88090,1,2,3:2:0:0:
316,195,88264,1,8,0:1:0:0:
245,211,88439,1,2,3:2:0:0:
423,143,88614,5,8,1:2:0:0:
449,210,88788,1,2,3:2:0:0:
416,274,88962,1,8,0:1:0:0:
345,290,89137,1,2,3:2:0:0:
159,306,89311,6,0,L|27:213,3,150,2|2|2|2,3:0|3:0|3:0|3:0,0:0:0:0:
346,60,90707,6,0,P|377:115|297:165,1,150,4|8,1:2|0:1,0:0:0:0:
236,196,91230,2,0,L|395:235,1,150,2|2,0:0|0:0,0:0:0:0:
469,238,91753,1,8,0:1:0:0:
179,353,92102,6,0,P|157:297|241:240,1,150,10|8,1:2|0:1,0:0:0:0:
301,195,92625,2,0,L|138:182,1,150,2|2,0:0|0:0,0:0:0:0:
62,122,93149,2,0,L|145:109,1,75,8|0,0:1|0:0,0:0:0:0:
229,111,93498,6,0,P|266:184|195:238,1,150,10|8,1:2|0:1,0:0:0:0:
139,262,94021,2,0,P|83:257|60:164,1,150,2|2,0:0|0:0,0:0:0:0:
132,141,94544,1,8,0:1:0:0:
426,68,94893,6,0,P|440:135|367:184,1,150,10|8,1:2|0:1,0:0:0:0:
292,187,95416,2,0,L|289:346,1,150,2|2,0:0|0:0,0:0:0:0:
372,351,95939,1,8,0:1:0:0:
457,347,96114,1,2,0:0:0:0:
365,317,96288,6,0,L|210:291,1,150,10|8,1:2|0:1,0:0:0:0:
123,294,96811,2,0,L|280:215,1,150,2|2,0:0|0:0,0:0:0:0:
345,220,97335,1,8,0:1:0:0:
54,269,97684,6,0,P|35:210|112:140,1,150,10|8,1:2|0:1,0:0:0:0:
174,129,98207,2,0,L|315:58,1,150,2|2,0:0|0:0,0:0:0:0:
228,37,98730,1,8,0:1:0:0:
144,29,98905,1,2,0:0:0:0:
57,42,99079,6,0,L|52:205,1,150,10|8,1:2|0:1,0:0:0:0:
215,224,99777,2,0,L|314:231,1,75,10|2,1:2|0:0,0:0:0:0:
209,263,100125,2,0,L|126:273,1,75,8|2,1:0|0:0,0:0:0:0:
308,346,100474,6,0,L|455:279,1,150,10|8,1:2|0:1,0:0:0:0:
361,238,100998,2,0,L|209:213,1,150,2|0,0:0|0:0,0:0:0:0:
126,211,101521,1,8,0:1:0:0:
430,263,101870,6,0,P|447:201|371:146,1,150,4|8,1:2|0:1,0:0:0:0:
299,127,102393,2,0,P|280:177|352:258,1,150,2|2,0:0|0:0,0:0:0:0:
423,269,102916,1,8,0:1:0:0:
133,349,103265,6,0,P|165:311|279:278,1,150,10|8,1:2|0:1,0:0:0:0:
163,260,103788,2,0,P|115:255|72:161,1,150,2|2,0:0|0:0,0:0:0:0:
148,127,104311,1,8,0:1:0:0:
232,117,104486,1,2,0:0:0:0:
141,95,104660,6,0,L|10:195,1,150,10|8,1:2|0:1,0:0:0:0:
106,225,105184,2,0,L|263:284,1,150,2|2,0:0|0:0,0:0:0:0:
160,308,105707,1,8,0:1:0:0:
450,344,106056,6,0,P|459:300|370:226,1,150,10|8,1:2|0:1,0:0:0:0:
305,209,106579,2,0,L|145:184,1,150,2|2,0:0|0:0,0:0:0:0:
329,89,107102,2,0,L|426:69,1,75,8|2,0:1|0:0,0:0:0:0:
223,68,107451,6,0,L|70:118,2,150,10|8|10,1:2|0:1|1:2,0:0:0:0:
305,105,108323,1,2,0:0:0:0:
224,68,108498,1,8,0:1:0:0:
48,102,108846,6,0,P|22:174|85:213,1,150,10|8,1:2|0:1,0:0:0:0:
162,217,109370,2,0,P|207:231|234:335,1,150,2|2,0:0|0:0,0:0:0:0:
161,348,109893,1,8,0:1:0:0:
79,353,110067,1,2,0:0:0:0:
257,183,110242,6,0,L|401:115,1,150,10|8,1:2|0:1,0:0:0:0:
306,101,110765,1,2,0:0:0:0:
393,74,110939,2,0,L|490:60,2,75,10|2|8,1:2|0:0|0:1,0:0:0:0:
306,101,111463,1,2,0:0:0:0:
128,125,111637,6,0,P|107:171|187:233,1,150,10|8,1:2|0:1,0:0:0:0:
256,264,112160,2,0,L|309:267,1,37.5,2|2,0:0|0:0,0:0:0:0:
382,333,112422,2,0,L|326:339,1,37.5,0|2,0:0|0:0,0:0:0:0:
256,358,112684,2,0,L|158:340,1,75,8|2,0:1|0:0,0:0:0:0:
364,235,113032,6,0,P|376:175|301:119,1,150,10|8,1:2|0:1,0:0:0:0:
143,90,113730,2,0,P|91:102|72:202,1,150,10|8,1:2|0:1,0:0:0:0:
366,217,114428,6,0,P|340:253|237:271,1,150,10|8,1:2|0:1,0:0:0:0:
156,199,114951,2,0,L|204:189,1,37.5,2|0,0:0|0:0,0:0:0:0:
279,129,115213,2,0,L|218:124,1,37.5,0|2,0:0|0:0,0:0:0:0:
152,106,115474,2,0,L|46:110,1,75,8|0,0:1|0:0,0:0:0:0:
261,37,115823,6,0,L|426:117,3,150,10|8|10|8,1:2|0:1|1:2|0:1,0:0:0:0:
82,57,117218,6,0,P|37:129|131:228,1,225,10|0,1:2|0:0,0:0:0:0:
295,302,117916,6,0,L|137:350,1,150,10|0,1:2|0:0,0:0:0:0:
454,34,118614,6,0,P|468:93|394:141,1,150,14|8,1:2|0:1,0:0:0:0:
230,211,119311,1,10,1:2:0:0:
410,281,119660,1,8,0:1:0:0:
113,343,120009,2,0,L|106:188,1,150,10|8,1:2|0:1,0:0:0:0:
185,157,120532,1,2,0:0:0:0:
270,140,120707,1,10,1:2:0:0:
87,87,121056,1,8,0:1:0:0:
388,42,121405,6,0,P|408:107|337:156,1,150,10|8,1:2|0:1,0:0:0:0:
271,185,121928,1,2,0:0:0:0:
185,198,122102,1,10,1:2:0:0:
372,286,122451,1,8,0:1:0:0:
79,333,122800,6,0,L|64:177,1,150,10|8,1:2|0:1,0:0:0:0:
152,140,123323,2,0,L|319:94,1,150,2|2,0:0|0:0,0:0:0:0:
378,48,123846,1,8,0:1:0:0:
296,100,124021,1,2,0:0:0:0:
112,141,124195,6,0,L|26:125,2,75,10|2|8,1:2|3:2|0:1,0:0:0:0:
282,237,124893,2,0,L|132:258,1,150,8|8,0:1|0:1,0:0:0:0:
429,335,125591,6,0,P|445:284|363:213,1,150,10|8,1:2|0:1,0:0:0:0:
306,203,126114,1,2,3:2:0:0:
219,201,126288,1,8,0:1:0:0:
406,123,126637,1,8,0:1:0:0:
96,286,126986,6,0,P|80:231|153:171,1,150,10|8,1:2|0:1,0:0:0:0:
220,156,127509,1,2,3:2:0:0:
131,144,127684,1,8,0:1:0:0:
93,204,127858,1,0,3:2:0:0:
127,267,128032,1,8,0:1:0:0:
198,269,128207,1,2,3:2:0:0:
391,314,128381,6,0,P|405:252|344:168,1,150,10|8,1:2|0:1,0:0:0:0:
283,161,128905,1,2,3:2:0:0:
199,154,129079,1,8,0:1:0:0:
374,84,129428,1,8,0:1:0:0:
193,62,129777,2,0,L|131:42,1,37.5,0|0,3:2|0:0,0:0:0:0:
420,25,130125,5,4,1:2:0:0:
256,192,130474,12,0,133614,0:0:0:0:
