osu file format v14

[General]
AudioFilename: audio.mp3
AudioLeadIn: 0
PreviewTime: 115472
Countdown: 0
SampleSet: None
StackLeniency: 0.4
Mode: 0
LetterboxInBreaks: 0
WidescreenStoryboard: 1

[Editor]
Bookmarks: 3668,12126,20584,22698,31156,39615,50187,58645,62875,71333,88249,97764,98822,107280,113623,115738,128425,132654,142170
DistanceSpacing: 0.8
BeatDivisor: 8
GridSize: 8
TimelineZoom: 3.199999

[Metadata]
Title:Chronomia
TitleUnicode:Chronomia
Artist:Lime
ArtistUnicode:Lime
Creator:kirbob
Version:2018 REMAP
Source:BOFU2016
Tags:Instrumental Electronic
BeatmapID:1685840
BeatmapSetID:636488

[Difficulty]
HPDrainRate:4.3
CircleSize:4.1
OverallDifficulty:7.4
ApproachRate:9.7
SliderMultiplier:2.21999990463257
SliderTickRate:1

[Events]
//Background and Video events
0,0,"clock.png",0,0
//Break Periods
//Storyboard Layer 0 (Background)
//Storyboard Layer 1 (Fail)
//Storyboard Layer 2 (Pass)
//Storyboard Layer 3 (Foreground)
//Storyboard Sound Samples

[TimingPoints]
3666,264.31718061674,4,1,0,60,1,0
3666,-166.666666666667,4,1,0,60,0,0
12124,-125,4,1,0,60,0,0
14238,-83.3333333333333,4,1,0,60,0,0
16353,-103.092783505155,4,1,0,60,0,0
20582,-73.5294117647059,4,1,0,60,0,0
22168,-83.3333333333333,4,1,0,60,0,0
31154,-80.6451612903226,4,1,0,60,0,0
42124,-73.5294117647059,4,1,0,60,0,0
46088,-90.9090909090909,4,1,0,60,0,0
50185,-71.4285714285714,4,1,0,60,0,0
56529,-81.9672131147541,4,1,0,60,0,0
62873,-151.515151515152,4,1,0,60,0,0
67102,-200,4,1,0,60,0,0
71331,-72.463768115942,4,1,0,60,0,0
94591,-90.0900900900901,4,1,0,60,0,0
96705,-113.636363636364,4,1,0,60,0,0
98820,-151.515151515152,4,1,0,60,0,0
107278,-111.111111111111,4,1,0,60,0,0
111507,-90.9090909090909,4,1,0,60,0,0
113621,-181.818181818182,4,1,0,60,0,0
115736,-68.9655172413793,4,1,0,60,0,0
128423,-81.9672131147541,4,1,0,60,0,0
130538,-86.9565217391304,4,1,0,60,0,0
132652,-111.111111111111,4,1,0,60,0,0

[Colours]
Combo1 : 181,137,239
Combo2 : 91,149,244
Combo3 : 113,143,215
Combo4 : 152,92,233

[HitObjects]
52,141,3666,6,0,B|190:113|177:205|321:177,1,266.399980426026
356,98,4458,1,0,0:0:0:0:
471,202,4723,2,0,L|463:343,1,133.199990213013
239,272,5119,2,0,P|311:256|382:274,1,133.199990213013
147,343,5516,1,0,0:0:0:0:
134,332,5648,2,0,L|126:193,1,133.199990213013
246,130,6044,2,0,L|235:264,1,133.199990213013
152,96,6573,1,0,0:0:0:0:
335,29,6837,5,0,0:0:0:0:
394,94,7102,1,0,0:0:0:0:
353,185,7366,1,0,0:0:0:0:
412,313,7630,2,0,L|310:295,1,99.8999926597598
301,304,7895,6,0,B|166:245|168:364|34:302,1,266.399980426026
77,220,8688,1,0,0:0:0:0:
225,369,8952,2,0,L|90:377,1,133.199990213013
217,161,9348,2,0,P|205:292|234:361,1,199.79998531952
421,258,9877,2,0,L|276:269,1,133.199990213013
280,275,10273,1,0,0:0:0:0:
292,104,10538,1,0,0:0:0:0:
381,339,10802,1,0,0:0:0:0:
459,231,11066,5,0,0:0:0:0:
433,216,11331,1,0,0:0:0:0:
407,201,11595,1,0,0:0:0:0:
270,59,11859,2,0,L|165:77,1,99.8999926597598
160,69,12124,6,0,B|90:197|206:198|151:331,1,266.399988555908
88,268,12652,2,0,L|0:282,1,88.7999961853028
214,150,12917,2,0,L|313:160,1,88.7999961853028
320,341,13181,2,0,P|334:250|305:156,1,177.599992370606
83,279,13577,2,0,L|280:244,1,177.599992370606
43,194,13974,1,0,0:0:0:0:
80,122,14238,6,0,P|172:113|280:142,1,199.79998531952
283,150,14503,1,0,0:0:0:0:
487,230,14635,2,0,L|262:249,1,199.79998531952
279,257,14899,1,0,0:0:0:0:
404,22,15031,2,0,B|357:135|451:166|385:292,1,266.399980426026
364,297,15428,5,0,0:0:0:0:
158,296,15560,1,0,0:0:0:0:
326,208,15692,1,0,0:0:0:0:
239,344,15824,1,0,0:0:0:0:
190,126,15956,1,0,0:0:0:0:
313,362,16088,1,0,0:0:0:0:
403,193,16221,1,0,0:0:0:0:
78,348,16353,6,0,L|67:231,1,107.669997921196
101,159,16617,1,0,0:0:0:0:
311,294,16749,2,0,L|182:285,1,107.669997921196
151,224,17014,1,0,0:0:0:0:
330,177,17146,2,0,L|319:296,1,107.669997921196
191,46,17410,6,0,L|202:165,1,107.669997921196
246,224,17674,1,0,0:0:0:0:
93,320,17806,2,0,L|215:341,1,107.669997921196
277,302,18071,1,0,0:0:0:0:
449,271,18203,2,0,L|329:256,1,107.669997921196
262,87,18467,6,0,P|241:198|274:305,1,215.339995842392
354,154,18864,1,0,0:0:0:0:
350,134,18930,1,0,0:0:0:0:
346,114,18996,1,0,0:0:0:0:
150,213,19128,1,0,0:0:0:0:
348,282,19260,5,0,0:0:0:0:
256,35,19392,1,0,0:0:0:0:
134,102,19525,6,0,L|140:213,1,107.669997921196
192,286,19789,1,0,0:0:0:0:
357,194,19921,1,0,0:0:0:0:
334,182,19987,1,0,0:0:0:0:
307,182,20053,1,0,0:0:0:0:
322,348,20185,1,0,0:0:0:0:
428,114,20317,1,0,0:0:0:0:
146,106,20450,1,0,0:0:0:0:
393,299,20582,6,0,B|484:244|412:134|308:169|319:254|319:254|306:260|306:260|301:278|301:278|248:261|208:275,1,377.399986091004
214,277,20978,1,0,0:0:0:0:
151,354,21375,6,0,B|115:282|151:208|151:208|180:200|180:200|213:115|184:57|184:57|159:84|157:123,1,377.399986091004
164,110,21771,1,0,0:0:0:0:
202,179,22168,6,0,L|277:174,1,66.5999951065066
393,244,22300,2,0,L|316:240,1,66.5999951065066
240,78,22432,1,0,0:0:0:0:
274,91,22498,1,0,0:0:0:0:
308,104,22564,1,0,0:0:0:0:
342,117,22630,1,0,0:0:0:0:
376,130,22696,6,0,B|406:123|406:123|510:165,1,133.199990213013
398,234,22961,1,0,0:0:0:0:
297,80,23093,1,0,0:0:0:0:
504,171,23225,2,0,L|513:310,1,133.199990213013
301,219,23489,2,0,L|292:80,1,133.199990213013
402,245,23754,6,0,B|381:279|381:279|280:304,1,133.199990213013
157,216,24018,1,0,0:0:0:0:
303,90,24150,1,0,0:0:0:0:
295,225,24282,2,0,L|147:223,1,133.199990213013
165,83,24547,2,0,L|313:85,1,133.199990213013
85,279,24811,6,0,B|64:242|64:242|73:134,1,133.199990213013
291,234,25075,1,0,0:0:0:0:
116,351,25207,1,0,0:0:0:0:
281,92,25340,2,0,L|296:235,1,133.199990213013
81,157,25604,2,0,L|66:14,1,133.199990213013
378,122,25868,6,0,L|376:195,1,66.5999951065065
368,209,26000,1,0,0:0:0:0:
143,94,26132,2,0,P|212:79|279:82,1,133.199990213013
503,212,26397,2,0,P|434:197|367:200,1,133.199990213013
185,337,26661,2,0,L|263:344,1,66.5999951065065
263,335,26793,1,0,0:0:0:0:
184,215,26925,6,0,B|137:198|137:198|39:212,1,133.199990213013
175,335,27190,1,0,0:0:0:0:
292,178,27322,1,0,0:0:0:0:
39,320,27454,2,0,L|171:341,1,133.199990213013
287,170,27718,2,0,L|155:149,1,133.199990213013
351,280,27983,6,0,B|371:247|371:247|371:145,1,133.199990213013
236,268,28247,1,0,0:0:0:0:
468,305,28379,1,0,0:0:0:0:
245,127,28511,2,0,L|233:268,1,133.199990213013
510,156,28776,2,0,L|369:144,1,133.199990213013
252,361,29040,6,0,P|322:337|353:285,1,133.199990213013
468,68,29304,2,0,P|398:92|367:144,1,133.199990213013
506,322,29569,2,0,P|482:252|430:221,1,133.199990213013
213,106,29833,2,0,P|237:176|289:207,1,133.199990213013
464,56,30097,2,0,L|326:66,1,133.199990213013
441,288,30362,2,0,L|448:213,1,66.5999951065065
441,211,30494,1,0,0:0:0:0:
148,183,30758,5,0,0:0:0:0:
203,268,30890,1,0,0:0:0:0:
222,270,30956,1,0,0:0:0:0:
241,272,31022,1,0,0:0:0:0:
260,274,31088,1,0,0:0:0:0:
279,276,31154,6,0,P|361:275|424:248,1,137.639988626648
292,192,31419,1,0,0:0:0:0:
412,350,31551,1,0,0:0:0:0:
374,113,31683,2,0,L|231:119,1,137.639988626648
398,200,31947,1,0,0:0:0:0:
294,30,32080,1,0,0:0:0:0:
285,198,32212,6,0,L|296:343,1,137.639988626648
408,206,32476,1,0,0:0:0:0:
229,121,32608,1,0,0:0:0:0:
412,350,32740,2,0,L|420:209,1,137.639988626648
298,329,33005,1,0,0:0:0:0:
508,356,33137,1,0,0:0:0:0:
315,184,33269,6,0,L|293:328,1,137.639988626648
402,197,33533,1,0,0:0:0:0:
180,260,33665,1,0,0:0:0:0:
399,341,33798,2,0,L|408:199,1,137.639988626648
263,129,34062,1,0,0:0:0:0:
303,337,34194,1,0,0:0:0:0:
406,133,34326,6,0,L|248:120,1,137.639988626648
383,273,34591,2,0,P|418:205|412:136,1,137.639988626648
289,10,34855,2,0,P|254:78|260:147,1,137.639988626648
461,49,35119,2,0,L|373:48,1,68.8199943133242
383,58,35251,1,0,0:0:0:0:
118,137,35384,6,0,L|269:148,1,137.639988626648
372,64,35648,1,0,0:0:0:0:
208,29,35780,1,0,0:0:0:0:
377,207,35912,2,0,L|362:62,1,137.639988626648
277,248,36177,1,0,0:0:0:0:
470,153,36309,1,0,0:0:0:0:
201,36,36441,6,0,L|205:181,1,137.639988626648
384,214,36705,1,0,0:0:0:0:
294,20,36837,1,0,0:0:0:0:
136,222,36969,2,0,L|287:245,1,137.639988626648
299,28,37234,1,0,0:0:0:0:
76,125,37366,1,0,0:0:0:0:
310,174,37498,6,0,L|304:34,1,137.639988626648
143,231,37762,1,0,0:0:0:0:
319,180,37895,1,0,0:0:0:0:
83,114,38027,1,0,0:0:0:0:
279,266,38159,1,0,0:0:0:0:
204,30,38291,1,0,0:0:0:0:
136,239,38423,1,0,0:0:0:0:
464,146,38555,5,0,0:0:0:0:
392,86,38688,1,0,0:0:0:0:
369,92,38754,1,0,0:0:0:0:
346,98,38820,1,0,0:0:0:0:
288,275,38952,1,0,0:0:0:0:
471,155,39084,1,0,0:0:0:0:
209,34,39216,1,0,0:0:0:0:
299,267,39348,1,0,0:0:0:0:
303,228,39414,1,0,0:0:0:0:
308,190,39480,1,0,0:0:0:0:
314,151,39547,1,0,0:0:0:0:
318,113,39613,5,0,0:0:0:0:
197,38,39745,2,0,L|188:119,1,68.8199943133242
394,164,39877,2,0,L|403:83,1,68.8199943133242
126,162,40009,2,0,L|135:243,1,68.8199943133242
406,241,40141,2,0,L|397:160,1,68.8199943133242
141,239,40273,1,0,0:0:0:0:
296,342,40406,2,0,L|308:264,1,68.8199943133242
146,87,40538,2,0,L|134:165,1,68.8199943133242
312,266,40670,1,0,0:0:0:0:
224,88,40802,6,0,P|178:77|154:81,1,68.8199943133242
333,62,40934,2,0,P|379:73|403:69,1,68.8199943133242
179,160,41066,2,0,P|133:171|109:167,1,68.8199943133242
394,151,41199,2,0,P|440:140|464:144,1,68.8199943133242
140,248,41331,1,0,0:0:0:0:
439,224,41463,1,0,0:0:0:0:
151,330,41595,2,0,L|133:254,1,68.8199943133242
140,248,41727,6,0,B|287:218|278:311|414:274,1,275.279977253297
169,26,42124,6,0,B|145:106|145:106|165:177,1,150.959994436401
412,283,42388,2,0,B|436:203|436:203|416:132,1,150.959994436401
173,174,42652,1,0,0:0:0:0:
405,138,42784,1,0,0:0:0:0:
388,116,42851,1,0,0:0:0:0:
371,94,42917,6,0,P|303:81|220:106,1,150.959994436401
407,289,43181,1,0,0:0:0:0:
488,113,43313,1,0,0:0:0:0:
179,180,43445,1,0,0:0:0:0:
415,281,43577,6,0,L|426:191,1,75.4799972182007
185,190,43710,2,0,L|199:277,1,75.4799972182007
356,80,43842,5,0,0:0:0:0:
321,66,43908,1,0,0:0:0:0:
283,61,43974,1,0,0:0:0:0:
245,66,44040,1,0,0:0:0:0:
210,81,44106,1,0,0:0:0:0:
306,264,44238,1,0,0:0:0:0:
364,89,44370,1,0,0:0:0:0:
190,199,44503,1,0,0:0:0:0:
422,290,44635,1,0,0:0:0:0:
201,88,44767,6,0,L|34:98,1,150.959994436401
267,159,45031,1,0,0:0:0:0:
100,19,45163,1,0,0:0:0:0:
64,210,45295,5,0,0:0:0:0:
68,233,45362,1,0,0:0:0:0:
72,256,45428,1,0,0:0:0:0:
76,279,45494,1,0,0:0:0:0:
80,302,45560,1,0,0:0:0:0:
84,325,45626,1,0,0:0:0:0:
88,348,45692,5,0,0:0:0:0:
138,338,45758,1,0,0:0:0:0:
188,328,45824,1,0,0:0:0:0:
238,318,45890,1,0,0:0:0:0:
288,308,45956,5,0,0:0:0:0:
134,42,46088,2,0,P|110:140|179:191,1,183.149997721481
174,184,46353,1,0,0:0:0:0:
181,180,46749,5,0,0:0:0:0:
470,49,46881,2,0,B|410:31|357:102|278:62,1,183.149997721481
291,53,47146,5,0,0:0:0:0:
334,60,47212,1,0,0:0:0:0:
367,87,47278,1,0,0:0:0:0:
382,127,47344,1,0,0:0:0:0:
375,169,47410,1,0,0:0:0:0:
347,201,47476,1,0,0:0:0:0:
307,216,47542,5,0,0:0:0:0:
268,177,47608,1,0,0:0:0:0:
213,172,47674,1,0,0:0:0:0:
167,203,47740,1,0,0:0:0:0:
153,256,47806,1,0,0:0:0:0:
176,306,47873,1,0,0:0:0:0:
226,330,47939,1,0,0:0:0:0:
280,317,48005,1,0,0:0:0:0:
312,271,48071,5,0,0:0:0:0:
220,40,48203,2,0,B|157:46|157:46|99:80|99:80|42:85,1,183.149997721481
37,77,48467,1,0,0:0:0:0:
33,85,48864,5,0,0:0:0:0:
364,343,48996,2,0,B|358:295|378:267|378:267|365:237|365:237|389:198|379:147,1,183.149997721481
375,158,49260,5,0,0:0:0:0:
358,154,49326,1,0,0:0:0:0:
341,151,49392,1,0,0:0:0:0:
324,148,49458,1,0,0:0:0:0:
307,145,49524,1,0,0:0:0:0:
291,142,49591,1,0,0:0:0:0:
274,139,49657,5,0,0:0:0:0:
197,138,49723,1,0,0:0:0:0:
137,186,49789,1,0,0:0:0:0:
122,261,49855,1,0,0:0:0:0:
159,329,49921,1,0,0:0:0:0:
231,356,49987,1,0,0:0:0:0:
303,331,50053,1,0,0:0:0:0:
343,266,50119,1,0,0:0:0:0:
332,189,50185,6,0,P|329:98|383:47,1,155.399988581849
466,337,50450,2,0,L|303:324,1,155.399988581849
171,210,50714,2,0,L|329:197,1,155.399988581849
147,372,50978,2,0,L|165:208,1,155.399988581849
302,46,51243,2,0,P|342:141|323:206,1,155.399988581849
151,222,51507,2,0,P|111:127|130:62,1,155.399988581849
336,200,51771,2,0,L|324:363,1,155.399988581849
135,62,52036,2,0,P|250:50|303:65,1,155.399988581849
60,349,52300,6,0,L|54:32,1,310.799977163697
63,36,52696,1,0,0:0:0:0:
345,190,52828,2,0,L|183:209,1,155.399988581849
74,31,53093,2,0,L|236:12,1,155.399988581849
434,293,53357,6,0,L|117:280,1,310.799977163697
113,273,53754,1,0,0:0:0:0:
382,60,53886,2,0,P|386:140|366:219,1,155.399988581849
88,110,54150,2,0,P|190:86|254:93,1,155.399988581849
165,348,54414,6,0,L|152:182,1,155.399988581849
243,96,54679,1,0,0:0:0:0:
470,291,54811,5,0,0:0:0:0:
430,201,54943,2,0,B|374:262|362:346|362:346|381:209|338:191|338:191|228:144|124:257|273:360|337:191|337:191|361:-21|540:-32|557:186|344:117|344:117|205:75|119:176|143:268|143:268|119:176|30:183,1,1553.99988581849
38,185,56529,5,0,0:0:0:0:
93,33,56661,1,0,0:0:0:0:
144,179,56793,2,0,L|130:317,1,135.419988603455
92,115,57058,1,0,0:0:0:0:
288,175,57190,2,0,L|150:186,1,135.419988603455
257,29,57454,1,0,0:0:0:0:
308,182,57586,6,0,L|292:327,1,135.419988603455
151,169,57851,1,0,0:0:0:0:
345,86,57983,1,0,0:0:0:0:
366,94,58049,1,0,0:0:0:0:
387,102,58115,1,0,0:0:0:0:
149,314,58247,2,0,L|148:167,1,135.419988603455
446,315,58511,5,0,0:0:0:0:
412,311,58577,1,0,0:0:0:0:
378,307,58643,1,0,0:0:0:0:
344,303,58710,1,0,0:0:0:0:
310,299,58776,1,0,0:0:0:0:
276,295,58842,1,0,0:0:0:0:
234,271,58908,6,0,P|219:198|241:133,1,135.419988603455
335,102,59172,1,0,0:0:0:0:
119,94,59304,2,0,P|182:133|251:134,1,135.419988603455
341,93,59569,1,0,0:0:0:0:
143,205,59701,2,0,L|26:272,1,135.419988603455
349,88,59965,1,0,0:0:0:0:
138,216,60097,2,0,L|158:374,1,135.419988603455
270,142,60362,5,0,0:0:0:0:
248,136,60428,1,0,0:0:0:0:
224,137,60494,1,0,0:0:0:0:
258,296,60626,1,0,0:0:0:0:
403,31,60758,5,0,0:0:0:0:
369,35,60825,1,0,0:0:0:0:
335,39,60891,1,0,0:0:0:0:
301,43,60957,1,0,0:0:0:0:
258,40,61022,6,0,P|186:33|132:-1,1,135.419988603455
49,163,61287,1,0,0:0:0:0:
258,40,61419,2,0,P|228:105|230:169,1,135.419988603455
38,169,61683,1,0,0:0:0:0:
330,115,61815,2,0,L|476:117,1,135.419988603455
29,174,62080,1,0,0:0:0:0:
290,340,62212,2,0,B|314:290|292:238|292:238|319:211|319:211|225:161|302:45|302:45|337:135,1,406.259965810365
324,120,62740,5,0,0:0:0:0:
232,151,62873,2,0,B|143:116|91:212|3:158,1,219.779989887909
10,155,63401,1,0,0:0:0:0:
182,229,63665,2,0,L|176:307,1,73.259996629303
328,289,63930,2,0,L|315:127,1,146.519993258606
309,137,64326,1,0,0:0:0:0:
181,306,64723,1,0,0:0:0:0:
469,263,64987,6,0,P|399:252|330:283,1,146.519993258606
410,345,65384,1,0,0:0:0:0:
385,142,65780,1,0,0:0:0:0:
186,312,66044,2,0,L|226:329,1,36.6299983146515
239,329,66177,2,0,P|305:311|383:331,1,146.519993258606
384,335,66573,1,0,0:0:0:0:
451,264,66969,5,0,0:0:0:0:
389,216,67102,2,0,B|330:215|295:269|295:269|376:147|315:47|315:47|247:113|256:167|256:167|164:169|137:46|13:78|13:78|21:147|114:170,1,887.999961853028
108,169,69745,5,0,0:0:0:0:
201,141,70273,5,0,0:0:0:0:
171,262,70802,5,0,0:0:0:0:
16,91,71331,6,0,B|132:39|150:137|246:90,1,229.769990480072
246,83,71595,1,0,0:0:0:0:
78,153,71727,1,0,0:0:0:0:
75,186,71793,1,0,0:0:0:0:
72,219,71859,1,0,0:0:0:0:
197,22,71991,1,0,0:0:0:0:
230,215,72124,2,0,L|67:228,1,153.179993653381
299,139,72388,6,0,P|313:226|281:308,1,153.179993653381
235,86,72652,1,0,0:0:0:0:
461,144,72784,2,0,L|304:137,1,153.179993653381
74,87,73049,2,0,L|239:82,1,153.179993653381
394,45,73313,1,0,0:0:0:0:
291,294,73445,6,0,P|279:211|301:143,1,153.179993653381
383,260,73710,1,0,0:0:0:0:
186,195,73842,1,0,0:0:0:0:
159,197,73908,1,0,0:0:0:0:
132,199,73974,1,0,0:0:0:0:
270,318,74106,1,0,0:0:0:0:
314,137,74238,2,0,L|155:120,1,153.179993653381
103,316,74503,6,0,P|193:304|266:313,1,153.179993653381
455,264,74767,2,0,P|365:252|292:261,1,153.179993653381
51,222,75031,2,0,P|141:210|214:219,1,153.179993653381
492,164,75295,2,0,P|402:152|329:161,1,153.179993653381
22,114,75560,6,0,L|183:98,1,153.179993653381
292,134,75824,1,0,0:0:0:0:
129,292,75956,1,0,0:0:0:0:
135,262,76022,1,0,0:0:0:0:
141,232,76088,1,0,0:0:0:0:
275,343,76221,1,0,0:0:0:0:
0,214,76353,2,0,L|161:198,1,153.179993653381
11,370,76617,6,0,P|-17:298|1:223,1,153.179993653381
131,350,76881,1,0,0:0:0:0:
312,168,77014,2,0,L|154:187,1,153.179993653381
319,298,77278,1,0,0:0:0:0:
333,15,77410,2,0,P|308:107|331:171,1,153.179993653381
448,286,77674,6,0,P|476:206|455:138,1,153.179993653381
302,179,77939,1,0,0:0:0:0:
346,295,78071,1,0,0:0:0:0:
379,292,78137,1,0,0:0:0:0:
412,289,78203,1,0,0:0:0:0:
424,68,78335,1,0,0:0:0:0:
290,188,78467,2,0,L|308:349,1,153.179993653381
415,67,78732,5,0,0:0:0:0:
183,51,78864,1,0,0:0:0:0:
488,31,78996,5,0,0:0:0:0:
279,133,79128,1,0,0:0:0:0:
390,252,79260,5,0,0:0:0:0:
118,183,79392,1,0,0:0:0:0:
464,176,79525,5,0,0:0:0:0:
139,267,79657,1,0,0:0:0:0:
462,338,79789,6,0,P|479:257|468:176,1,153.179993653381
243,323,80053,1,0,0:0:0:0:
282,331,80119,1,0,0:0:0:0:
321,339,80185,1,0,0:0:0:0:
267,129,80317,1,0,0:0:0:0:
132,274,80450,1,0,0:0:0:0:
396,246,80582,2,0,L|392:93,1,153.179993653381
126,114,80846,6,0,L|140:283,1,153.179993653381
322,346,81110,1,0,0:0:0:0:
279,88,81243,2,0,P|183:83|127:107,1,153.179993653381
354,244,81507,1,0,0:0:0:0:
432,34,81639,2,0,L|280:83,1,153.179993653381
458,347,81903,6,0,B|481:242|481:242|465:178,1,153.179993653381
227,157,82168,1,0,0:0:0:0:
378,357,82300,2,0,B|401:252|401:252|385:188,1,153.179993653381
286,44,82564,1,0,0:0:0:0:
141,318,82696,6,0,P|256:330|312:318,1,153.179993653381
155,131,82961,1,0,0:0:0:0:
134,311,83093,1,0,0:0:0:0:
382,206,83225,1,0,0:0:0:0:
154,138,83357,1,0,0:0:0:0:
293,317,83489,1,0,0:0:0:0:
282,55,83621,1,0,0:0:0:0:
129,322,83754,2,0,P|231:337|293:320,1,153.179993653381
73,137,84018,6,0,L|52:305,1,153.179993653381
203,164,84282,1,0,0:0:0:0:
201,132,84348,1,0,0:0:0:0:
199,100,84414,1,0,0:0:0:0:
129,311,84547,1,0,0:0:0:0:
330,197,84679,1,0,0:0:0:0:
105,151,84811,2,0,L|122:316,1,153.179993653381
345,188,85075,6,0,L|323:24,1,153.179993653381
217,218,85340,1,0,0:0:0:0:
434,225,85472,2,0,L|412:61,1,153.179993653381
232,323,85736,1,0,0:0:0:0:
320,31,85868,2,0,L|156:53,1,153.179993653381
97,252,86132,6,0,P|202:247|240:209,1,153.179993653381
61,141,86397,1,0,0:0:0:0:
115,357,86529,1,0,0:0:0:0:
155,355,86595,1,0,0:0:0:0:
195,353,86661,1,0,0:0:0:0:
264,154,86793,1,0,0:0:0:0:
51,149,86925,2,0,L|41:323,1,153.179993653381
302,281,87190,5,0,0:0:0:0:
345,213,87322,2,0,B|372:136|372:136|336:55,1,153.179993653381
218,271,87586,1,0,0:0:0:0:
228,305,87652,1,0,0:0:0:0:
238,339,87718,2,0,B|315:366|315:366|396:330,1,153.179993653381
254,81,87983,1,0,0:0:0:0:
120,212,88115,1,0,0:0:0:0:
112,254,88181,1,0,0:0:0:0:
104,296,88247,5,0,0:0:0:0:
385,192,88379,1,0,0:0:0:0:
131,210,88511,5,0,0:0:0:0:
426,260,88643,1,0,0:0:0:0:
203,343,88776,5,0,0:0:0:0:
461,191,88908,1,0,0:0:0:0:
342,350,89040,5,0,0:0:0:0:
237,69,89172,1,0,0:0:0:0:
274,303,89304,5,0,0:0:0:0:
323,7,89436,1,0,0:0:0:0:
426,260,89569,5,0,0:0:0:0:
163,112,89701,1,0,0:0:0:0:
404,72,89833,5,0,0:0:0:0:
144,225,89965,1,0,0:0:0:0:
385,192,90097,5,0,0:0:0:0:
87,142,90229,1,0,0:0:0:0:
81,163,90295,1,0,0:0:0:0:
75,184,90362,5,0,0:0:0:0:
314,34,90494,1,0,0:0:0:0:
121,301,90626,5,0,0:0:0:0:
207,32,90758,1,0,0:0:0:0:
326,316,90890,5,0,0:0:0:0:
75,184,91022,1,0,0:0:0:0:
307,154,91154,5,0,0:0:0:0:
44,261,91286,1,0,0:0:0:0:
389,356,91419,5,0,0:0:0:0:
138,224,91551,1,0,0:0:0:0:
476,163,91683,5,0,0:0:0:0:
213,270,91815,1,0,0:0:0:0:
359,45,91947,5,0,0:0:0:0:
466,307,92079,1,0,0:0:0:0:
196,125,92212,5,0,0:0:0:0:
476,163,92344,1,0,0:0:0:0:
479,186,92410,1,0,0:0:0:0:
482,209,92476,5,0,0:0:0:0:
197,265,92608,1,0,0:0:0:0:
456,302,92740,5,0,0:0:0:0:
201,161,92872,1,0,0:0:0:0:
362,125,93005,5,0,0:0:0:0:
143,315,93137,1,0,0:0:0:0:
366,285,93269,5,0,0:0:0:0:
91,190,93401,1,0,0:0:0:0:
236,350,93533,5,0,0:0:0:0:
180,64,93665,1,0,0:0:0:0:
67,275,93798,5,0,0:0:0:0:
338,170,93930,1,0,0:0:0:0:
82,89,94062,5,0,0:0:0:0:
308,271,94194,1,0,0:0:0:0:
180,64,94326,5,0,0:0:0:0:
135,350,94458,1,0,0:0:0:0:
18,161,94591,6,0,B|133:200|155:118|270:152,1,246.419995430328
216,349,94987,2,0,L|207:225,1,123.209997715164
324,90,95251,1,0,0:0:0:0:
448,206,95384,6,0,B|348:230|348:230|285:203|285:203|192:225,1,246.419995430328
116,334,95780,1,0,0:0:0:0:
450,287,95912,2,0,L|312:319,1,123.209997715164
206,214,96177,1,0,0:0:0:0:
445,78,96309,2,0,P|456:176|451:215,1,123.209997715164
232,33,96573,1,0,0:0:0:0:
226,21,96705,6,0,B|161:48|106:7|106:7|163:77|199:223|42:323|-92:25|251:123|251:123|320:143|336:101|336:101|320:143|354:169,1,781.43999027832
347,153,98820,6,0,B|400:180|455:185|455:185|401:182|287:198|138:377|305:450|496:375|278:186|278:186|142:70|263:-12|378:46|279:187|279:187|219:261|149:158|13:172|-98:388|234:437|150:210|150:210|120:141|136:88|136:88|86:116|41:87,1,1758.23991910327
34,57,103049,6,0,B|100:59|143:22|143:22|19:173|127:302|127:302|217:213|190:128|190:128|227:243|227:243|258:155|326:128|454:145|450:297|387:348|297:336|297:336|474:358|474:358|381:198|451:97|451:97|502:162|493:230,1,1758.23991910327
488,229,107278,6,0,L|378:213,1,99.8999926597598
177,184,107542,2,0,L|287:168,1,99.8999926597598
398,110,107806,2,0,P|402:189|393:219,1,99.8999926597598
264,70,108071,1,0,0:0:0:0:
264,70,108203,1,0,0:0:0:0:
264,70,108335,6,0,L|140:74,1,99.8999926597598
7,152,108599,2,0,L|131:148,1,99.8999926597598
266,178,108864,2,0,P|278:121|273:73,1,99.8999926597598
172,251,109128,1,0,0:0:0:0:
172,251,109260,1,0,0:0:0:0:
38,335,109392,6,0,L|146:329,1,99.8999926597598
248,262,109657,2,0,L|356:268,1,99.8999926597598
432,349,109921,2,0,P|476:306|479:260,1,99.8999926597598
414,53,110185,2,0,L|419:153,1,99.8999926597598
321,197,110450,2,0,L|316:97,1,99.8999926597598
206,48,110714,1,0,0:0:0:0:
206,48,110846,1,0,0:0:0:0:
113,201,110978,2,0,B|205:229|237:158|326:196,1,199.79998531952
369,277,111375,1,0,0:0:0:0:
95,328,111507,6,0,L|106:199,1,122.099998480988
228,117,111771,1,0,0:0:0:0:
250,255,111903,1,0,0:0:0:0:
237,269,111969,1,0,0:0:0:0:
224,283,112036,1,0,0:0:0:0:
97,107,112168,2,0,L|232:105,1,122.099998480988
60,233,112432,1,0,0:0:0:0:
130,32,112564,6,0,L|265:30,1,122.099998480988
357,121,112828,1,0,0:0:0:0:
178,263,112961,1,0,0:0:0:0:
184,237,113027,1,0,0:0:0:0:
190,211,113093,1,0,0:0:0:0:
321,344,113225,1,0,0:0:0:0:
19,159,113357,2,0,B|114:132|110:210|205:184,1,183.149997721481
198,180,113621,6,0,B|245:197|290:169|290:169|330:326|32:441|-111:76|176:-21|262:88,1,732.599990885926
252,86,115472,2,0,L|243:152,1,61.0499992404938
92,234,115736,6,0,B|150:213|190:278|255:251,1,160.949997997665
421,108,116000,1,0,0:0:0:0:
250,80,116132,1,0,0:0:0:0:
390,299,116265,1,0,0:0:0:0:
424,101,116397,1,0,0:0:0:0:
250,248,116529,2,0,P|241:164|247:82,1,160.949997997665
389,311,116793,6,0,B|321:299|286:344|223:329,1,160.949997997665
85,202,117058,1,0,0:0:0:0:
257,249,117190,1,0,0:0:0:0:
65,352,117322,1,0,0:0:0:0:
102,122,117454,1,0,0:0:0:0:
261,257,117586,2,0,P|283:146|268:85,1,160.949997997665
80,208,117851,6,0,B|150:238|199:209|245:237,1,160.949997997665
391,293,118115,5,0,0:0:0:0:
407,275,118181,1,0,0:0:0:0:
411,251,118247,1,0,0:0:0:0:
403,228,118313,1,0,0:0:0:0:
384,212,118379,5,0,0:0:0:0:
340,233,118445,1,0,0:0:0:0:
305,267,118511,1,0,0:0:0:0:
260,286,118577,1,0,0:0:0:0:
211,289,118643,1,0,0:0:0:0:
164,275,118709,1,0,0:0:0:0:
125,245,118776,1,0,0:0:0:0:
78,230,118842,1,0,0:0:0:0:
28,231,118908,5,0,0:0:0:0:
232,179,119040,1,0,0:0:0:0:
34,119,119172,5,0,0:0:0:0:
236,175,119304,1,0,0:0:0:0:
98,22,119436,5,0,0:0:0:0:
78,230,119568,1,0,0:0:0:0:
247,14,119701,6,0,P|263:105|242:175,1,160.949997997665
28,110,119965,6,0,B|95:87|123:142|201:117,1,160.949997997665
338,33,120229,1,0,0:0:0:0:
136,26,120362,1,0,0:0:0:0:
236,175,120494,1,0,0:0:0:0:
346,27,120626,1,0,0:0:0:0:
127,124,120758,2,0,B|121:182|121:182|131:215|131:215|124:288,1,160.949997997665
22,144,121022,5,0,0:0:0:0:
246,78,121154,1,0,0:0:0:0:
40,66,121287,5,0,0:0:0:0:
254,159,121419,1,0,0:0:0:0:
28,234,121551,5,0,0:0:0:0:
250,167,121683,1,0,0:0:0:0:
27,149,121815,5,0,0:0:0:0:
165,334,121947,1,0,0:0:0:0:
248,78,122080,6,0,B|168:51|170:103|83:68,1,160.949997997665
331,28,122344,1,0,0:0:0:0:
247,175,122476,1,0,0:0:0:0:
69,63,122608,2,0,P|159:39|228:63,1,160.949997997665
142,280,122873,2,0,L|145:109,1,160.949997997665
332,37,123137,5,0,0:0:0:0:
329,69,123203,1,0,0:0:0:0:
315,98,123269,1,0,0:0:0:0:
301,127,123335,1,0,0:0:0:0:
297,159,123401,1,0,0:0:0:0:
304,190,123467,1,0,0:0:0:0:
321,216,123533,5,0,0:0:0:0:
375,201,123599,1,0,0:0:0:0:
414,161,123665,1,0,0:0:0:0:
428,106,123732,1,0,0:0:0:0:
412,52,123798,1,0,0:0:0:0:
371,12,123864,1,0,0:0:0:0:
316,0,123930,2,0,L|226:2,1,80.4749989988327
127,98,124062,2,0,L|217:96,1,80.4749989988327
404,164,124194,6,0,B|343:151|313:202|228:176,1,160.949997997665
125,91,124458,1,0,0:0:0:0:
316,6,124591,1,0,0:0:0:0:
164,200,124723,1,0,0:0:0:0:
92,6,124855,1,0,0:0:0:0:
310,172,124987,2,0,P|328:67|317:1,1,160.949997997665
160,208,125251,6,0,B|221:189|264:268|328:244,1,160.949997997665
419,85,125516,1,0,0:0:0:0:
162,95,125648,1,0,0:0:0:0:
321,252,125780,1,0,0:0:0:0:
417,75,125912,1,0,0:0:0:0:
155,204,126044,2,0,P|151:302|166:368,1,160.949997997665
327,248,126309,5,0,0:0:0:0:
80,185,126441,1,0,0:0:0:0:
331,110,126573,5,0,0:0:0:0:
85,178,126705,1,0,0:0:0:0:
378,175,126837,5,0,0:0:0:0:
130,110,126969,1,0,0:0:0:0:
254,274,127102,5,0,0:0:0:0:
274,18,127234,1,0,0:0:0:0:
94,261,127366,5,0,0:0:0:0:
122,276,127432,1,0,0:0:0:0:
153,280,127498,1,0,0:0:0:0:
184,273,127564,1,0,0:0:0:0:
215,266,127630,1,0,0:0:0:0:
246,259,127696,1,0,0:0:0:0:
277,263,127762,5,0,0:0:0:0:
321,309,127828,1,0,0:0:0:0:
383,320,127895,1,0,0:0:0:0:
441,294,127961,1,0,0:0:0:0:
472,239,128028,1,0,0:0:0:0:
467,175,128093,1,0,0:0:0:0:
427,127,128159,2,0,P|376:113|332:115,1,80.4749989988327
183,164,128291,2,0,P|234:178|277:175,1,80.4749989988327
110,47,128423,6,0,B|89:74|105:101|105:101|96:122|96:122|113:147|93:187,1,135.419988603455
18,286,128688,1,0,0:0:0:0:
152,262,128820,2,0,B|223:237|227:282|291:270,1,135.419988603455
186,157,129084,1,0,0:0:0:0:
196,349,129216,2,0,L|335:339,1,135.419988603455
182,166,129480,5,0,0:0:0:0:
120,355,129613,1,0,0:0:0:0:
238,108,129745,5,0,0:0:0:0:
300,297,129878,1,0,0:0:0:0:
176,162,130009,5,0,0:0:0:0:
389,206,130142,1,0,0:0:0:0:
106,248,130273,5,0,0:0:0:0:
316,134,130406,1,0,0:0:0:0:
47,91,130538,6,0,B|176:127|231:30|367:64,1,319.124992377758
362,74,130934,2,0,P|357:213|205:177,1,319.124992377758
218,184,131331,2,0,L|220:336,1,127.649996951103
89,343,131595,5,0,0:0:0:0:
62,267,131683,5,0,0:0:0:0:
142,282,131771,5,0,0:0:0:0:
83,351,131859,5,0,0:0:0:0:
65,247,131947,5,0,0:0:0:0:
172,285,132036,5,0,0:0:0:0:
51,358,132124,6,0,B|40:264|40:264|51:222|51:222|39:109|39:109|-18:98|-18:98|13:183,1,382.94999085331
18,180,132652,5,0,0:0:0:0:
267,111,132784,1,0,0:0:0:0:
23,184,133049,5,0,0:0:0:0:
331,154,133181,1,0,0:0:0:0:
25,191,133445,5,0,0:0:0:0:
371,217,133577,1,0,0:0:0:0:
28,198,133842,5,0,0:0:0:0:
406,294,133974,1,0,0:0:0:0:
34,193,134238,5,0,0:0:0:0:
409,87,134370,2,0,L|409:114,4,24.97499816494
405,80,134635,5,0,0:0:0:0:
185,58,134767,1,0,0:0:0:0:
399,89,135031,5,0,0:0:0:0:
133,108,135163,1,0,0:0:0:0:
396,95,135428,5,0,0:0:0:0:
85,172,135560,1,0,0:0:0:0:
395,101,135824,5,0,0:0:0:0:
43,255,135956,1,0,0:0:0:0:
392,109,136221,5,0,0:0:0:0:
205,346,136353,1,0,0:0:0:0:
398,114,136485,1,0,0:0:0:0:
211,351,136617,1,0,0:0:0:0:
139,149,136749,1,0,0:0:0:0:
218,344,137014,5,0,0:0:0:0:
174,89,137146,1,0,0:0:0:0:
226,342,137410,5,0,0:0:0:0:
226,35,137542,1,0,0:0:0:0:
235,338,137806,5,0,0:0:0:0:
294,0,137938,1,0,0:0:0:0:
231,333,138203,5,0,0:0:0:0:
52,147,138335,2,0,L|53:177,4,24.97499816494
59,141,138599,5,0,0:0:0:0:
261,179,138732,1,0,0:0:0:0:
68,134,138996,5,0,0:0:0:0:
106,340,139128,1,0,0:0:0:0:
444,105,139392,5,0,0:0:0:0:
398,352,139524,1,0,0:0:0:0:
82,47,139789,5,0,0:0:0:0:
111,347,139921,1,0,0:0:0:0:
438,30,140185,5,0,0:0:0:0:
390,347,140317,1,0,0:0:0:0:
298,24,140450,5,0,0:0:0:0:
305,344,140582,1,0,0:0:0:0:
162,39,140714,5,0,0:0:0:0:
224,352,140846,1,0,0:0:0:0:
443,34,140978,1,0,0:0:0:0:
256,192,142168,5,0,0:0:0:0:
256,192,142201,12,0,143225,0:0:0:0:
256,192,143258,12,0,144282,0:0:0:0:
