osu file format v14

[General]
AudioFilename: audio.mp3
AudioLeadIn: 0
PreviewTime: 69157
Countdown: 0
SampleSet: Soft
StackLeniency: 0.7
Mode: 2
LetterboxInBreaks: 0
WidescreenStoryboard: 1

[Editor]
Bookmarks: 134906
DistanceSpacing: 1.9
BeatDivisor: 4
GridSize: 16
TimelineZoom: 3.599999

[Metadata]
Title:Chronomia
TitleUnicode:Chronomia
Artist:Lime
ArtistUnicode:Lime
Creator:Rocma
Version:Salad
Source:
Tags:jemzuu ajamez 2021 cwc finals hardrock hr hard rock fa featured artist BMS BOFU2016 Kankitsu Dramatical artcore inukoro MEGALOPULSE legendary again grimreaper ノリと勢い Electronic Instrumental musync muse dash sound voltex exceed gear
BeatmapID:3209825
BeatmapSetID:1471328

[Difficulty]
HPDrainRate:3
CircleSize:3
OverallDifficulty:7
ApproachRate:7
SliderMultiplier:1.28
SliderTickRate:1

[Events]
//Background and Video events
0,0,"BG.jpg",0,0
//Break Periods
//Storyboard Layer 0 (Background)
//Storyboard Layer 1 (Fail)
//Storyboard Layer 2 (Pass)
//Storyboard Layer 3 (Foreground)
//Storyboard Layer 4 (Overlay)
//Storyboard Sound Samples

[TimingPoints]
3151,264.31718061674,4,2,3,40,1,0
3151,-150.000000000002,4,2,3,40,0,0
11609,-100,4,2,3,60,0,0
30639,-100,4,2,3,70,0,0
62358,-100,4,2,4,90,0,0
63415,-100,4,2,4,75,0,0
64472,-100,4,2,4,60,0,0
65529,-100,4,2,4,45,0,0
66587,-100,4,2,4,30,0,0
67644,-100,4,2,4,15,0,0
70816,-100,4,2,3,80,0,1
81388,-100,4,2,3,90,0,1
82247,-100,4,2,3,80,0,1
87732,-100,4,2,3,85,0,1
89847,-100,4,2,3,90,0,1
91961,-100,4,2,3,85,0,1
96190,-100,4,2,3,60,0,0
97247,-100,4,3,3,60,0,0
98040,-100,4,2,3,40,0,0
106763,-100,4,2,3,60,0,0
115221,-100,4,2,3,80,0,1
132137,-100,4,2,3,90,0,1
132170,-100,4,2,3,40,0,1
132269,-100,4,2,3,90,0,1
132302,-100,4,2,3,40,0,1
132534,-100,4,2,3,90,0,1
132567,-100,4,2,3,40,0,1
132666,-100,4,2,3,90,0,1
132699,-100,4,2,3,40,0,1
132930,-100,4,2,3,90,0,1
132963,-100,4,2,3,40,0,1
133062,-100,4,2,3,90,0,1
133095,-100,4,2,3,40,0,1
133327,-100,4,2,3,90,0,1
133360,-100,4,2,3,40,0,1
133459,-100,4,2,3,90,0,1
133492,-100,4,2,3,40,0,1
133723,-100,4,2,3,90,0,1
133756,-100,4,2,3,40,0,1
133855,-100,4,2,3,90,0,1
133888,-100,4,2,3,40,0,1
134120,-100,4,2,3,90,0,1
134153,-100,4,2,3,40,0,1
134252,-100,4,2,3,90,0,1
134285,-100,4,2,3,40,0,1
134516,-100,4,2,3,90,0,1
134549,-100,4,2,3,40,0,1
134648,-100,4,2,3,90,0,1
134681,-100,4,2,3,40,0,1
134913,-100,4,2,3,90,0,1
134946,-100,4,2,3,40,0,1
135045,-100,4,2,3,90,0,1
135078,-100,4,2,3,40,0,1
135309,-100,4,2,3,90,0,1
135342,-100,4,2,3,40,0,1
135441,-100,4,2,3,90,0,1
135474,-100,4,2,3,40,0,1
135706,-100,4,2,3,90,0,1
135739,-100,4,2,3,40,0,1
135838,-100,4,2,3,90,0,1
135871,-100,4,2,3,40,0,1
135970,-100,4,2,3,90,0,1
136003,-100,4,2,3,40,0,1
136102,-100,4,2,3,90,0,1
136135,-100,4,2,3,40,0,1
136234,-100,4,2,3,90,0,1
136267,-100,4,2,3,40,0,1
136499,-100,4,2,3,90,0,1
136532,-100,4,2,3,40,0,1
136631,-100,4,2,3,90,0,1
136664,-100,4,2,3,40,0,1
136895,-100,4,2,3,90,0,1
136928,-100,4,2,3,40,0,1
137027,-100,4,2,3,90,0,1
137060,-100,4,2,3,40,0,1
137291,-100,4,2,3,90,0,1
137324,-100,4,2,3,40,0,1
137424,-100,4,2,3,90,0,1
137457,-100,4,2,3,40,0,1
137688,-100,4,2,3,90,0,1
137721,-100,4,2,3,40,0,1
137820,-100,4,2,3,90,0,1
137853,-100,4,2,3,40,0,1
138084,-100,4,2,3,90,0,1
138117,-100,4,2,3,40,0,1
138217,-100,4,2,3,90,0,1
138250,-100,4,2,3,40,0,1
138481,-100,4,2,3,90,0,1
138514,-100,4,2,3,40,0,1
138613,-100,4,2,3,90,0,1
138646,-100,4,2,3,40,0,1
138877,-100,4,2,3,90,0,1
138910,-100,4,2,3,40,0,1
139010,-100,4,2,3,90,0,1
139043,-100,4,2,3,40,0,1
139274,-100,4,2,3,90,0,1
139307,-100,4,2,3,40,0,1
139406,-100,4,2,3,90,0,1
139439,-100,4,2,3,40,0,1
139670,-100,4,2,3,90,0,1
139703,-100,4,2,3,40,0,1
139802,-100,4,2,3,90,0,1
139835,-100,4,2,3,40,0,1
139935,-100,4,2,3,90,0,1
139968,-100,4,2,3,40,0,1
140067,-100,4,2,3,90,0,1
140100,-100,4,2,3,40,0,1
140199,-100,4,2,3,90,0,1
140232,-100,4,2,3,40,0,1
140331,-100,4,2,3,90,0,1
140364,-100,4,2,3,40,0,1
140463,-100,4,2,3,90,0,1
140496,-100,4,2,3,40,0,1
140595,-150,4,2,3,40,0,0
142446,-150,4,2,3,10,0,0
142710,-150,4,2,3,30,0,0
143503,-150,4,2,3,10,0,0
143767,-150,4,2,3,20,0,0

[Colours]
Combo1 : 113,83,253
Combo2 : 150,152,254

[HitObjects]
256,192,1036,12,0,2886,0:0:0:0:
256,320,3151,5,2,0:0:0:0:
80,288,4208,1,2,0:0:0:0:
32,176,4604,1,0,0:0:0:0:
80,48,5001,1,0,0:0:0:0:
176,48,5133,5,0,0:0:0:0:
272,160,5397,1,0,0:0:0:0:
288,256,5529,1,0,0:0:0:0:
64,336,6322,6,0,L|48:240,1,85.3333333333333,2|0,0:0|0:0,0:0:0:0:
144,224,6851,2,0,L|160:128,1,85.3333333333333,0|0,0:0|0:0,0:0:0:0:
352,96,7380,5,2,0:0:0:0:
448,208,8437,1,2,0:0:0:0:
304,304,8833,1,0,0:0:0:0:
432,272,9230,1,0,0:0:0:0:
448,176,9362,1,0,0:0:0:0:
256,96,10551,5,2,0:0:0:0:
128,160,10816,1,0,0:0:0:0:
80,288,11080,1,0,0:0:0:0:
128,160,11344,1,0,0:0:0:0:
352,336,11609,6,0,P|416:288|330:150,1,256,2|0,0:0|0:0,0:0:0:0:
224,144,12402,1,0,0:0:0:0:
352,144,12666,6,0,P|456:190|480:288,2,192,2|0|0,0:0|0:0|0:0,0:0:0:0:
112,160,13723,5,10,0:0:0:0:
304,256,14120,1,8,0:0:0:0:
448,224,14516,2,0,P|511:124|448:16,1,256,8|0,0:0|0:0,0:0:0:0:
320,48,15309,1,0,0:0:0:0:
432,80,15573,1,2,0:0:0:0:
192,112,15838,6,0,P|107:177|80:272,2,192,2|0|0,0:0|0:0|0:0,0:0:0:0:
320,144,16895,2,0,L|352:352,2,192,2|0|0,0:0|0:0|0:0,0:0:0:0:
96,192,17952,6,0,P|115:108|288:48,1,256,2|0,0:0|0:0,0:0:0:0:
384,96,18745,1,2,0:0:0:0:
320,128,18877,2,0,L|304:336,1,192,2|0,0:0|0:0,0:0:0:0:
400,224,19538,2,0,L|416:352,1,128,0|0,0:0|0:0,0:0:0:0:
176,336,20067,6,0,B|147:213|147:213|224:208,1,192,8|8,0:0|0:0,0:0:0:0:
416,224,20860,2,0,B|445:101|445:101|368:96,1,192,8|8,0:0|0:0,0:0:0:0:
192,80,21653,2,0,B|64:80|64:80|128:80,1,192,2|2,0:0|0:0,0:0:0:0:
272,112,22181,6,0,L|288:240,1,128,2|8,0:0|0:0,0:0:0:0:
160,208,22710,2,0,L|144:336,1,128,0|8,0:0|0:0,0:0:0:0:
384,112,23239,2,0,L|400:240,1,128,0|8,0:0|0:0,0:0:0:0:
272,208,23768,2,0,L|256:336,1,128,0|8,0:0|0:0,0:0:0:0:
320,336,24164,1,0,0:0:0:0:
464,336,24296,6,0,P|448:256|336:208,1,192,2|0,0:0|0:0,0:0:0:0:
160,208,25089,1,8,0:0:0:0:
288,192,25353,2,0,L|304:64,1,128,0|8,0:0|0:0,0:0:0:0:
80,128,25882,2,0,L|64:0,1,128,0|8,0:0|0:0,0:0:0:0:
288,32,26410,6,0,P|336:48|416:176,1,192,2|0,0:0|0:0,0:0:0:0:
336,192,26939,2,0,L|320:336,1,128,0|8,0:0|0:0,0:0:0:0:
176,224,27468,2,0,L|192:368,1,128,0|8,0:0|0:0,0:0:0:0:
320,352,27996,2,0,L|384:352,2,64,0|0|8,0:0|0:0|0:0,0:0:0:0:
80,336,28525,6,0,L|64:192,1,128,2|8,0:0|0:0,0:0:0:0:
128,176,28921,1,0,0:0:0:0:
208,160,29054,2,0,L|224:16,1,128,0|8,0:0|0:0,0:0:0:0:
96,32,29582,1,0,0:0:0:0:
240,32,29847,1,8,0:0:0:0:
384,64,29979,2,0,L|384:192,1,128,2|0,0:0|0:0,0:0:0:0:
320,224,30375,1,8,0:0:0:0:
48,288,30639,6,0,P|80:160|192:128,1,256,4|0,0:0|0:0,0:0:0:0:
320,112,31432,1,8,0:0:0:0:
192,160,31697,2,0,L|176:304,1,128,4|8,0:0|0:0,0:0:0:0:
400,208,32225,2,0,L|416:352,1,128,0|8,0:0|0:0,0:0:0:0:
288,368,32754,6,0,L|144:368,1,128,2|8,0:0|0:0,0:0:0:0:
96,336,33150,2,0,L|176:336,1,64,0|0,0:0|0:0,0:0:0:0:
288,320,33547,1,8,0:0:0:0:
432,288,33811,6,0,L|448:144,1,128,2|8,0:0|0:0,0:0:0:0:
320,112,34340,1,0,0:0:0:0:
96,128,34604,1,8,0:0:0:0:
320,224,34869,6,0,P|408:159|320:80,1,256,4|0,0:0|0:0,0:0:0:0:
192,64,35662,1,8,0:0:0:0:
320,64,35926,2,0,P|356:114|320:160,1,128,4|8,0:0|0:0,0:0:0:0:
192,160,36454,2,0,L|112:160,2,64,0|0|8,0:0|0:0|0:0,0:0:0:0:
432,304,36983,6,0,P|398:187|336:160,1,192,2|0,0:0|0:0,0:0:0:0:
144,160,37776,1,8,0:0:0:0:
368,64,38040,6,0,L|400:128,2,64,2|0|0,0:0|0:0|0:0,0:0:0:0:
304,64,38437,1,0,0:0:0:0:
240,64,38569,2,0,L|208:128,2,64,2|0|2,0:0|0:0|0:0,0:0:0:0:
464,160,39098,6,0,P|458:212|391:246,1,128,4|0,0:0|0:0,0:0:0:0:
176,240,39626,2,0,P|182:292|249:326,1,128,2|2,0:0|0:0,0:0:0:0:
304,272,40023,2,0,P|298:324|231:358,1,128,2|2,0:0|0:0,0:0:0:0:
176,352,40419,1,2,0:0:0:0:
304,320,40684,1,2,0:0:0:0:
352,272,40816,1,0,0:0:0:0:
308,208,40948,1,2,0:0:0:0:
80,304,41212,6,0,L|80:160,1,128,4|0,0:0|0:0,0:0:0:0:
224,176,41609,2,0,L|352:176,2,128,2|2|2,0:0|0:0|0:0,0:0:0:0:
384,288,42402,2,0,L|416:224,2,64,0|2|0,0:0|0:0|0:0,0:0:0:0:
320,320,42798,2,0,L|464:320,1,128,2|0,0:0|0:0,0:0:0:0:
224,192,43327,6,0,L|176:128,1,64,4|0,0:0|0:0,0:0:0:0:
224,96,43591,1,2,0:0:0:0:
352,112,43855,2,0,L|480:112,1,128,2|2,0:0|0:0,0:0:0:0:
394,176,44252,2,0,P|330:204|304:270,2,128,2|2|0,0:0|0:0|0:0,0:0:0:0:
474,192,44913,2,0,L|490:256,2,64,2|0|2,0:0|0:0|0:0,0:0:0:0:
256,192,45441,6,0,P|215:148|256:112,1,128,4|0,0:0|0:0,0:0:0:0:
400,128,45838,1,8,0:0:0:0:
256,192,46234,2,0,P|215:148|256:112,1,128,2|0,0:0|0:0,0:0:0:0:
400,128,46631,1,8,0:0:0:0:
464,128,46763,1,0,0:0:0:0:
336,192,47027,2,0,L|256:192,1,64,0|0,0:0|0:0,0:0:0:0:
208,192,47291,1,0,0:0:0:0:
432,192,47556,6,0,P|473:148|432:112,1,128,4|0,0:0|0:0,0:0:0:0:
288,112,47952,1,8,0:0:0:0:
432,192,48349,2,0,P|473:148|432:112,1,128,4|0,0:0|0:0,0:0:0:0:
288,128,48745,2,0,L|224:128,2,64,8|0|0,0:0|0:0|0:0,0:0:0:0:
416,128,49274,2,0,L|480:128,1,64,0|0,0:0|0:0,0:0:0:0:
256,240,49670,5,4,0:0:0:0:
128,240,49935,2,0,L|112:112,2,128,8|0|8,0:0|0:0|0:0,0:0:0:0:
256,208,50728,2,0,L|272:80,1,128,0|8,0:0|0:0,0:0:0:0:
400,192,51256,2,0,L|416:64,1,128,0|8,0:0|0:0,0:0:0:0:
208,320,51785,6,0,L|208:176,1,128,4|8,0:0|0:0,0:0:0:0:
320,160,52313,1,0,0:0:0:0:
208,112,52578,1,8,0:0:0:0:
432,240,52842,6,0,L|432:96,1,128,0|8,0:0|0:0,0:0:0:0:
304,64,53371,1,0,0:0:0:0:
192,16,53636,1,8,0:0:0:0:
416,288,53899,6,0,P|464:272|496:192,1,128,4|8,0:0|0:0,0:0:0:0:
432,192,54296,1,0,0:0:0:0:
368,176,54428,1,0,0:0:0:0:
480,128,54692,1,8,0:0:0:0:
352,96,54957,6,0,L|208:96,1,128,0|8,0:0|0:0,0:0:0:0:
224,192,55485,2,0,L|352:192,1,128,0|8,0:0|0:0,0:0:0:0:
128,208,56014,6,0,L|80:160,2,64,0|2|2,0:0|0:0|0:0,0:0:0:0:
256,208,56543,2,0,L|320:208,1,64,2|2,0:0|0:0,0:0:0:0:
192,304,56939,1,2,0:0:0:0:
48,288,57071,6,0,L|48:144,1,128,2|2,0:0|0:0,0:0:0:0:
128,144,57468,2,0,L|192:144,1,64,2|0,0:0|0:0,0:0:0:0:
336,192,57732,6,0,P|356:141|304:96,1,128,8|0,0:0|0:0,0:0:0:0:
224,96,58128,1,0,0:0:0:0:
432,64,58393,6,0,P|480:112|420:214,1,192,4|8,0:0|0:0,0:0:0:0:
256,192,59186,2,0,P|208:240|268:342,1,192,4|8,0:0|0:0,0:0:0:0:
416,336,59979,2,0,L|432:272,1,64,0|0,0:0|0:0,0:0:0:0:
368,256,60243,1,0,0:0:0:0:
144,144,60507,6,0,P|96:192|156:294,1,192,4|8,0:0|0:0,0:0:0:0:
448,208,61300,2,0,P|496:256|436:358,1,192,4|8,0:0|0:0,0:0:0:0:
256,336,62093,1,0,0:0:0:0:
240,272,62225,1,0,0:0:0:0:
384,256,62358,5,0,0:0:0:0:
368,128,63415,1,0,0:0:0:0:
224,96,64472,1,0,0:0:0:0:
32,128,65529,1,0,0:0:0:0:
16,288,66587,1,0,0:0:0:0:
16,288,67644,1,0,0:0:0:0:
16,288,68701,1,0,0:0:0:0:
16,352,69230,6,0,L|96:80,2,256,0|0|0,0:0|0:0|0:0,0:0:0:0:
208,352,70816,6,0,P|331:309|384:194,1,256,4|0,0:0|0:0,0:0:0:0:
256,144,71609,1,8,0:0:0:0:
480,192,71873,6,0,L|352:352,2,192,4|2|8,0:0|0:0|0:0,0:0:0:0:
414,186,72798,1,4,0:0:0:0:
190,186,73062,2,0,L|185:253,1,64,4|8,0:0|0:0,0:0:0:0:
320,256,73459,2,0,L|384:256,2,64,0|2|8,0:0|0:0|0:0,0:0:0:0:
112,240,73988,6,0,L|96:96,1,128,2|8,0:0|0:0,0:0:0:0:
224,80,74516,1,0,0:0:0:0:
96,64,74780,1,8,0:0:0:0:
320,160,75045,6,0,P|382:195|304:336,1,256,4|0,0:0|0:0,0:0:0:0:
192,336,75838,1,8,0:0:0:0:
323,335,76102,1,4,0:0:0:0:
32,272,76499,6,0,P|50:187|159:147,1,192,2|8,0:0|0:0,0:0:0:0:
208,144,77027,1,4,0:0:0:0:
352,144,77424,1,8,0:0:0:0:
208,208,77688,2,0,L|192:336,1,128,2|8,0:0|0:0,0:0:0:0:
416,320,78217,5,2,0:0:0:0:
432,192,78481,1,2,0:0:0:0:
304,128,78745,1,2,0:0:0:0:
432,80,79010,1,2,0:0:0:0:
208,64,79274,6,0,P|96:123|48:240,1,256,4|0,0:0|0:0,0:0:0:0:
176,304,80067,1,8,0:0:0:0:
400,320,80331,6,0,P|416:208|336:192,1,192,4|4,0:0|0:0,0:0:0:0:
160,176,81124,1,8,0:0:0:0:
384,240,81388,6,0,P|432:224|496:96,2,192,8|8|8,0:0|0:0|0:0,0:0:0:0:
128,256,82710,2,0,P|63:222|48:160,2,128,8|2|8,0:0|0:0|0:0,0:0:0:0:
352,272,83503,6,0,L|368:64,1,192,4|2,0:0|0:0,0:0:0:0:
176,64,84296,1,8,0:0:0:0:
384,96,84560,6,0,L|369:287,1,192,4|2,0:0|0:0,0:0:0:0:
176,272,85353,1,8,0:0:0:0:
304,256,85617,6,0,P|369:285|384:336,1,128,2|8,0:0|0:0,0:0:0:0:
256,288,86146,2,0,P|191:317|176:368,1,128,0|8,0:0|0:0,0:0:0:0:
240,368,86543,1,2,0:0:0:0:
432,352,86939,1,8,0:0:0:0:
304,304,87203,2,0,L|176:304,1,128,2|8,0:0|0:0,0:0:0:0:
400,288,87732,6,0,L|416:160,1,128,4|8,0:0|0:0,0:0:0:0:
352,128,88128,1,0,0:0:0:0:
224,128,88393,2,0,L|288:128,1,64,2|8,0:0|0:0,0:0:0:0:
496,320,88789,6,0,L|352:320,1,128,4|8,0:0|0:0,0:0:0:0:
304,320,89186,1,0,0:0:0:0:
432,272,89450,2,0,L|448:192,1,64,2|8,0:0|0:0,0:0:0:0:
208,272,89847,6,0,P|144:256|128:192,1,128,4|8,0:0|0:0,0:0:0:0:
192,160,90243,1,0,0:0:0:0:
304,128,90507,2,0,L|368:128,1,64,2|8,0:0|0:0,0:0:0:0:
144,304,90904,6,0,P|102:263|144:224,1,128,4|8,0:0|0:0,0:0:0:0:
208,224,91300,2,0,L|336:224,1,128,0|2,0:0|0:0,0:0:0:0:
352,272,91697,1,8,0:0:0:0:
112,288,91961,6,0,L|96:160,1,128,4|8,0:0|0:0,0:0:0:0:
160,128,92357,1,0,0:0:0:0:
288,128,92622,2,0,L|224:128,1,64,2|8,0:0|0:0,0:0:0:0:
16,320,93018,6,0,L|160:320,1,128,4|8,0:0|0:0,0:0:0:0:
208,320,93415,1,0,0:0:0:0:
80,272,93679,2,0,L|64:192,1,64,2|8,0:0|0:0,0:0:0:0:
288,224,94076,6,0,P|384:192|416:96,2,192,4|2|2,0:0|0:0|0:0,0:0:0:0:
160,224,95133,2,0,P|120:274|160:304,1,128,4|8,0:0|0:0,0:0:0:0:
288,304,95662,1,2,0:0:0:0:
352,272,95794,1,0,0:0:0:0:
368,208,95926,1,8,0:0:0:0:
128,160,96190,5,8,0:0:0:0:
256,192,96454,12,4,97247,2:3:0:0:
368,240,98040,5,0,0:0:0:0:
400,240,98173,1,0,0:0:0:0:
368,240,98305,1,2,0:0:0:0:
224,240,98965,1,0,0:0:0:0:
192,240,99098,1,0,0:0:0:0:
224,240,99230,1,0,0:0:0:0:
288,240,99362,5,2,0:0:0:0:
144,240,100155,5,0,0:0:0:0:
112,240,100288,1,0,0:0:0:0:
144,240,100420,1,2,0:0:0:0:
352,240,102137,1,0,0:0:0:0:
416,240,102269,1,0,0:0:0:0:
448,240,102402,1,0,0:0:0:0:
416,240,102534,5,2,0:0:0:0:
256,240,103195,1,0,0:0:0:0:
224,240,103327,1,0,0:0:0:0:
256,240,103459,1,0,0:0:0:0:
320,240,103591,5,2,0:0:0:0:
176,320,104120,1,0,0:0:0:0:
368,304,104648,6,0,P|432:256|464:144,2,192,2|0|0,0:0|0:0|0:0,0:0:0:0:
256,192,105706,12,0,106499,0:0:0:0:
256,272,106763,6,0,L|256:144,1,128,4|0,0:0|0:0,0:0:0:0:
384,144,107291,1,8,0:0:0:0:
256,256,107556,1,0,0:0:0:0:
384,272,107820,5,0,0:0:0:0:
400,368,108084,1,0,0:0:0:0:
256,192,108349,1,8,0:0:0:0:
240,256,108481,1,0,0:0:0:0:
224,320,108613,1,0,0:0:0:0:
448,320,108877,6,0,L|480:192,2,128,0|0|8,0:0|0:0|0:0,0:0:0:0:
320,320,109670,1,2,0:0:0:0:
192,320,109935,6,0,L|160:192,2,128,0|0|8,0:0|0:0|0:0,0:0:0:0:
256,320,110595,1,0,0:0:0:0:
320,320,110728,1,0,0:0:0:0:
96,320,110992,6,0,P|48:272|107:173,1,192,4|0,0:0|0:0,0:0:0:0:
288,128,111785,1,8,0:0:0:0:
416,160,112049,6,0,L|432:288,1,128,4|0,0:0|0:0,0:0:0:0:
304,352,112578,1,8,0:0:0:0:
432,352,112842,1,0,0:0:0:0:
192,336,113106,6,0,P|112:320|64:208,2,192,8|0|8,0:0|0:0|0:0,0:0:0:0:
256,192,114164,12,0,114692,0:0:0:0:
96,176,114957,5,0,0:0:0:0:
80,224,115089,1,0,0:0:0:0:
224,272,115221,6,0,L|368:272,1,128,4|8,0:0|0:0,0:0:0:0:
224,208,115750,2,0,L|160:208,2,64,0|2|8,0:0|0:0|0:0,0:0:0:0:
448,192,116278,6,0,P|488:241|438:278,1,128,4|8,0:0|0:0,0:0:0:0:
320,320,116807,1,0,0:0:0:0:
384,320,116939,1,2,0:0:0:0:
448,320,117071,1,8,0:0:0:0:
224,304,117336,6,0,L|208:160,1,128,4|8,0:0|0:0,0:0:0:0:
432,192,117864,2,0,L|448:48,1,128,0|8,0:0|0:0,0:0:0:0:
320,48,118393,6,0,L|304:192,1,128,4|8,0:0|0:0,0:0:0:0:
416,208,118921,1,2,0:0:0:0:
432,288,119054,1,0,0:0:0:0:
368,304,119186,1,8,0:0:0:0:
144,192,119450,6,0,P|106:236|155:286,1,128,4|8,0:0|0:0,0:0:0:0:
272,304,119979,2,0,L|304:240,1,64,0|2,0:0|0:0,0:0:0:0:
272,304,120243,2,0,L|192:304,1,64,8|8,0:0|0:0,0:0:0:0:
64,304,120507,6,0,L|64:160,1,128,4|8,0:0|0:0,0:0:0:0:
192,224,121036,2,0,L|192:80,1,128,0|8,0:0|0:0,0:0:0:0:
416,96,121565,2,0,P|464:128|400:227,1,192,4|2,0:0|0:0,0:0:0:0:
224,224,122358,1,8,0:0:0:0:
352,272,122622,6,0,L|368:128,1,128,4|8,0:0|0:0,0:0:0:0:
240,192,123150,2,0,L|368:192,1,128,0|8,0:0|0:0,0:0:0:0:
304,64,123547,1,0,0:0:0:0:
160,288,123679,6,0,P|116:251|160:208,1,128,4|8,0:0|0:0,0:0:0:0:
288,208,124208,2,0,L|352:208,2,64,0|2|8,0:0|0:0|0:0,0:0:0:0:
64,192,124736,6,0,P|24:241|74:278,1,128,4|8,0:0|0:0,0:0:0:0:
192,320,125265,1,0,0:0:0:0:
128,320,125397,1,2,0:0:0:0:
64,320,125529,1,8,0:0:0:0:
288,304,125794,6,0,L|304:160,1,128,4|8,0:0|0:0,0:0:0:0:
80,192,126322,2,0,L|64:48,1,128,0|8,0:0|0:0,0:0:0:0:
192,48,126851,6,0,L|208:192,1,128,4|8,0:0|0:0,0:0:0:0:
96,208,127379,1,2,0:0:0:0:
112,288,127512,1,0,0:0:0:0:
176,304,127644,1,8,0:0:0:0:
416,272,127908,6,0,L|416:128,1,128,4|8,0:0|0:0,0:0:0:0:
352,256,128305,2,0,L|352:112,1,128,2|2,0:0|0:0,0:0:0:0:
416,112,128701,1,8,0:0:0:0:
192,112,128965,6,0,L|48:112,1,128,2|8,0:0|0:0,0:0:0:0:
192,176,129494,2,0,L|336:176,1,128,2|8,0:0|0:0,0:0:0:0:
96,336,130023,6,0,P|113:239|208:208,1,192,8|8,0:0|0:0,0:0:0:0:
496,176,130816,1,8,0:0:0:0:
368,160,131080,6,0,L|352:64,2,85.3333333333333,8|8|8,0:0|0:0|0:0,0:0:0:0:
208,192,131609,5,4,0:0:0:0:
144,240,131741,2,0,L|272:240,1,128,8|0,0:0|0:0,0:0:0:0:
416,240,132137,5,8,0:0:0:0:
480,224,132269,1,8,0:0:0:0:
480,160,132534,1,8,0:0:0:0:
416,144,132666,1,8,0:0:0:0:
192,208,132930,5,8,0:0:0:0:
128,192,133062,1,8,0:0:0:0:
128,128,133327,1,8,0:0:0:0:
192,112,133459,1,8,0:0:0:0:
320,304,133723,5,8,0:0:0:0:
384,288,133855,2,0,L|408:215,1,64,8|0,0:0|0:0,0:0:0:0:
384,288,134120,1,8,0:0:0:0:
320,272,134252,1,8,0:0:0:0:
96,240,134516,5,8,0:0:0:0:
32,224,134648,1,8,0:0:0:0:
32,128,134913,1,8,0:0:0:0:
96,112,135045,1,8,0:0:0:0:
224,160,135309,5,8,0:0:0:0:
288,144,135441,2,0,L|312:71,1,64,8|0,0:0|0:0,0:0:0:0:
288,144,135706,1,8,0:0:0:0:
224,128,135838,1,8,0:0:0:0:
160,144,135970,2,0,L|136:71,2,64,8|8|8,0:0|0:0|0:0,0:0:0:0:
384,176,136499,5,8,0:0:0:0:
400,240,136631,1,8,0:0:0:0:
272,240,136895,1,8,0:0:0:0:
256,304,137027,1,8,0:0:0:0:
480,192,137291,5,8,0:0:0:0:
496,256,137423,1,8,0:0:0:0:
368,256,137687,1,8,0:0:0:0:
352,320,137819,1,8,0:0:0:0:
480,192,138084,5,8,0:0:0:0:
496,256,138216,1,8,0:0:0:0:
272,304,138481,6,0,L|208:304,1,64,8|8,0:0|0:0,0:0:0:0:
272,240,138877,2,0,L|336:240,1,64,8|8,0:0|0:0,0:0:0:0:
112,208,139274,6,0,L|48:208,1,64,8|8,0:0|0:0,0:0:0:0:
112,144,139670,2,0,L|176:144,1,64,8|8,0:0|0:0,0:0:0:0:
197,79,139935,1,8,0:0:0:0:
176,144,140067,2,0,L|112:144,2,64,8|8|8,0:0|0:0|0:0,0:0:0:0:
320,144,140463,1,8,0:0:0:0:
256,384,141653,6,0,B|256:112,1,256,0|0,0:0|0:0,0:0:0:0:
144,384,142710,6,0,B|144:128,1,256,0|0,0:0|0:0,0:0:0:0:
368,352,143767,5,0,0:0:0:0:
