osu file format v14

[General]
AudioFilename: audio.mp3
AudioLeadIn: 0
PreviewTime: -1
Countdown: 1
SampleSet: Soft
StackLeniency: 0.7
Mode: 2
LetterboxInBreaks: 0
WidescreenStoryboard: 1

[Editor]
Bookmarks: 3610,12069,20575,31147,39605,50130,58853,62818,69690,97707,107223,115417,130218,132597
DistanceSpacing: 6
BeatDivisor: 4
GridSize: 8
TimelineZoom: 3.399999

[Metadata]
Title:Chronomia
TitleUnicode:Chronomia
Artist:Lime
ArtistUnicode:Lime
Creator:Leherketa
Version:Unnecessarily high AR
Source:BMS
Tags:bofu2016
BeatmapID:2144048
BeatmapSetID:1022907

[Difficulty]
HPDrainRate:5.5
CircleSize:4
OverallDifficulty:9.8
ApproachRate:9.8
SliderMultiplier:2.6
SliderTickRate:2

[Events]
//Background and Video events
0,0,"uLjDSm0.png",0,0
//Break Periods
//Storyboard Layer 0 (Background)
//Storyboard Layer 1 (Fail)
//Storyboard Layer 2 (Pass)
//Storyboard Layer 3 (Foreground)
//Storyboard Layer 4 (Overlay)
//Storyboard Sound Samples

[TimingPoints]
12069,264.31718061674,4,2,0,100,1,0
12069,-100,4,2,0,100,0,0
14188,-100,4,2,0,100,0,1
15174,-100,4,2,0,100,0,0
20527,-100,4,2,0,100,0,0
20575,264.31718061674,4,2,0,100,1,0
48544.8873818872,264.31718061674,4,2,0,100,1,0
50329,-66.6666666666667,4,2,0,100,0,0
51254,-100,4,2,0,100,0,0
62751,-133.333333333333,4,2,0,100,0,0
62818,264.31718061674,4,2,0,100,1,0
107223,-133.333333333333,4,2,0,100,0,0
111782,-100,4,2,0,100,0,0
115417,-100,4,2,0,100,0,1
129359,-100,4,2,0,100,0,0

[HitObjects]
256,192,3610,5,0,0:0:0:0:
448,144,3875,2,2,L|304:144,1,130
208,176,4668,5,0,0:0:0:0:
368,176,5064,1,0,0:0:0:0:
240,112,5461,2,0,L|96:112,1,130
288,208,5857,2,0,L|448:208,1,130
240,144,6782,5,0,0:0:0:0:
112,144,7046,1,0,0:0:0:0:
368,144,7311,1,0,0:0:0:0:
32,144,7575,1,0,0:0:0:0:
384,144,7839,1,0,0:0:0:0:
304,64,8104,2,0,L|128:112,1,130
128,192,8897,5,0,0:0:0:0:
368,192,9293,1,0,0:0:0:0:
480,192,9690,1,0,0:0:0:0:
160,160,9822,1,0,0:0:0:0:
256,176,10086,5,0,0:0:0:0:
384,176,10218,1,0,0:0:0:0:
256,112,10350,1,0,0:0:0:0:
112,240,11011,5,0,0:0:0:0:
304,240,11276,1,0,0:0:0:0:
496,240,11540,1,0,0:0:0:0:
112,240,11804,1,0,0:0:0:0:
336,256,12069,6,0,P|419:251|427:48,1,325
128,192,12597,2,0,L|0:144,1,130
320,208,12861,2,0,L|464:176,1,130
99,255,13126,6,0,P|48:195|106:21,1,260
304,32,13522,5,0,0:0:0:0:
416,32,13654,1,0,0:0:0:0:
336,80,13787,1,0,0:0:0:0:
448,80,13919,1,0,0:0:0:0:
368,144,14051,1,0,0:0:0:0:
48,144,14183,1,0,0:0:0:0:
368,192,14580,1,0,0:0:0:0:
64,192,14976,1,0,0:0:0:0:
288,192,15372,6,0,L|432:144,1,130
160,192,15637,2,0,L|16:128,1,130
224,304,15901,2,0,L|64:224,1,130
352,304,16165,2,0,L|496:240,1,130
336,192,16430,5,0,0:0:0:0:
240,192,16562,1,0,0:0:0:0:
128,128,16694,2,0,L|208:128,2,65
32,64,16958,2,0,L|208:64,1,130
80,128,17223,1,0,0:0:0:0:
192,192,17355,6,0,P|296:162|347:31,1,195
352,62,17586,1,0,0:0:0:0:
80,64,17619,1,0,0:0:0:0:
192,256,17751,6,0,L|320:256,2,65
96,256,18016,1,0,0:0:0:0:
384,256,18148,1,0,0:0:0:0:
464,176,18280,2,0,L|320:176,1,130
400,96,18544,6,0,L|496:96,2,65
272,64,18809,2,0,L|192:64,2,65
368,64,19073,1,0,0:0:0:0:
32,64,19205,1,0,0:0:0:0:
112,128,19337,1,0,0:0:0:0:
192,192,19469,1,0,0:0:0:0:
288,256,19602,6,0,L|192:256,2,65
432,256,19866,2,0,L|496:256,2,65
336,208,20130,1,0,0:0:0:0:
176,208,20262,1,0,0:0:0:0:
256,208,20394,1,0,0:0:0:0:
336,208,20575,5,0,0:0:0:0:
48,208,20971,1,0,0:0:0:0:
416,208,21368,1,0,0:0:0:0:
80,208,21764,1,0,0:0:0:0:
240,208,22161,5,0,0:0:0:0:
304,160,22293,2,0,L|384:160,1,65
240,112,22425,2,0,L|160:112,1,65
448,80,22557,1,0,0:0:0:0:
368,48,22689,6,0,P|304:64|240:80,1,130
320,112,22953,1,0,0:0:0:0:
112,112,23086,1,0,0:0:0:0:
16,144,23218,2,0,L|144:192,1,130
48,224,23482,1,0,0:0:0:0:
384,192,23614,6,0,L|544:192,2,130
256,192,24011,1,0,0:0:0:0:
320,192,24143,1,0,0:0:0:0:
192,192,24275,1,0,0:0:0:0:
80,224,24539,5,0,0:0:0:0:
11,124,24671,1,0,0:0:0:0:
91,33,24803,1,0,0:0:0:0:
320,32,24936,6,0,L|464:32,2,130
224,96,25332,2,0,L|368:96,2,130
288,160,25729,1,0,0:0:0:0:
160,160,25861,1,0,0:0:0:0:
224,208,25993,1,0,0:0:0:0:
288,272,26125,2,0,L|144:272,2,130
383,270,26522,5,0,0:0:0:0:
443,250,26588,1,0,0:0:0:0:
479,197,26654,1,0,0:0:0:0:
128,176,26786,2,0,L|-16:112,1,130
128,80,27050,1,0,0:0:0:0:
256,80,27182,1,0,0:0:0:0:
128,80,27315,1,0,0:0:0:0:
64,144,27579,5,0,0:0:0:0:
400,144,27711,1,0,0:0:0:0:
464,208,27843,2,0,L|320:208,2,130
320,272,28240,1,0,0:0:0:0:
432,272,28372,1,0,0:0:0:0:
64,80,28504,5,0,0:0:0:0:
272,80,28636,1,0,0:0:0:0:
480,80,28768,1,0,0:0:0:0:
64,160,29033,1,0,0:0:0:0:
144,208,29165,6,0,L|208:192,2,65
352,144,29429,2,0,L|208:144,1,130
16,256,29693,2,0,L|160:256,1,130
363,335,29958,1,0,0:0:0:0:
431,235,30090,1,0,0:0:0:0:
352,144,30222,1,0,0:0:0:0:
416,112,30354,5,0,0:0:0:0:
176,96,30486,5,4,0:0:0:0:
80,128,30619,2,0,L|-32:240,1,130
160,272,30883,1,0,0:0:0:0:
224,279,30949,1,0,0:0:0:0:
284,256,31015,1,0,0:0:0:0:
327,208,31081,1,0,0:0:0:0:
80,128,31147,1,0,0:0:0:0:
274,129,31279,6,0,L|419:130,1,130
192,192,31544,2,0,L|48:192,1,130
272,64,31808,2,0,L|416:64,1,130
160,80,32072,2,0,L|48:176,2,130
256,80,32469,2,0,L|368:176,2,130
128,80,32997,6,0,L|-16:80,1,130
368,80,33262,1,0,0:0:0:0:
240,144,33394,1,0,0:0:0:0:
320,144,33526,1,0,0:0:0:0:
160,144,33658,5,0,0:0:0:0:
240,192,33790,1,0,0:0:0:0:
112,192,33923,1,0,0:0:0:0:
240,192,34055,1,0,0:0:0:0:
176,160,34187,1,0,0:0:0:0:
304,160,34319,1,0,0:0:0:0:
432,160,34451,1,0,0:0:0:0:
189,180,34583,6,0,L|-5:-4,1,260
341,261,35112,2,0,L|540:32,1,260
384,64,35508,2,0,L|272:176,1,130
201,63,35773,2,0,L|310:179,1,130
385,156,36037,1,0,0:0:0:0:
208,336,36169,6,0,B|-32:320|-16:0|208:32,1,520
320,96,36962,5,0,0:0:0:0:
448,96,37094,1,0,0:0:0:0:
96,112,37226,1,0,0:0:0:0:
448,160,37491,1,0,0:0:0:0:
304,160,37887,1,0,0:0:0:0:
160,160,38284,1,0,0:0:0:0:
96,160,38416,1,0,0:0:0:0:
400,160,38548,5,0,0:0:0:0:
399,190,38812,1,0,0:0:0:0:
426,171,38845,1,0,0:0:0:0:
443,144,38878,1,0,0:0:0:0:
448,112,38911,1,0,0:0:0:0:
439,81,38944,1,0,0:0:0:0:
419,56,38977,1,0,0:0:0:0:
390,41,39010,1,0,0:0:0:0:
361,41,39043,5,0,0:0:0:0:
332,56,39076,1,0,0:0:0:0:
312,81,39109,1,0,0:0:0:0:
303,112,39142,1,0,0:0:0:0:
308,144,39175,1,0,0:0:0:0:
325,171,39208,1,0,0:0:0:0:
352,190,39241,1,0,0:0:0:0:
96,128,39308,5,0,0:0:0:0:
71,148,39341,1,0,0:0:0:0:
54,176,39374,1,0,0:0:0:0:
49,208,39407,1,0,0:0:0:0:
54,240,39440,1,0,0:0:0:0:
71,267,39473,1,0,0:0:0:0:
96,288,39506,1,0,0:0:0:0:
336,208,39605,5,0,0:0:0:0:
416,208,39737,2,0,L|512:96,1,130
336,128,40002,1,0,0:0:0:0:
240,128,40134,1,0,0:0:0:0:
320,192,40266,6,0,L|384:192,2,65
208,192,40530,1,0,0:0:0:0:
96,240,40663,2,0,L|32:240,2,65
384,128,40861,6,0,L|480:128,1,65
160,80,40993,2,0,L|96:80,1,65
352,64,41125,2,0,L|416:64,1,65
176,240,41257,2,0,P|80:224|64:128,1,195
432,112,41720,5,8,0:0:0:0:
250,193,41852,1,0,0:0:0:0:
218,199,41885,1,0,0:0:0:0:
186,192,41918,1,0,0:0:0:0:
159,174,41951,1,0,0:0:0:0:
142,147,41984,1,0,0:0:0:0:
136,115,42017,1,0,0:0:0:0:
143,83,42050,1,0,0:0:0:0:
161,57,42083,1,0,0:0:0:0:
188,39,42116,1,0,0:0:0:0:
400,32,42381,5,0,0:0:0:0:
96,32,42645,1,0,0:0:0:0:
192,32,42777,1,0,0:0:0:0:
288,32,42909,2,0,L|176:112,1,130
272,112,43174,1,0,0:0:0:0:
64,112,43306,1,0,0:0:0:0:
272,112,43438,1,0,0:0:0:0:
368,112,43570,2,0,L|512:112,2,130
320,112,43900,5,0,0:0:0:0:
258,125,43966,1,0,0:0:0:0:
204,92,44032,1,0,0:0:0:0:
188,31,44098,1,0,0:0:0:0:
288,32,44231,2,0,L|432:32,1,130
144,144,44495,2,0,L|-16:144,1,130
400,160,44760,1,0,0:0:0:0:
288,160,45024,1,0,0:0:0:0:
368,256,45288,6,0,L|320:208,1,65
240,208,45420,2,0,L|288:160,1,65
368,160,45552,2,0,L|320:112,1,65
240,144,45685,2,0,L|288:96,1,65
368,304,45817,2,0,L|320:256,1,65
48,80,45949,5,0,0:0:0:0:
432,64,46081,1,0,0:0:0:0:
160,80,46345,1,0,0:0:0:0:
352,80,46742,1,0,0:0:0:0:
64,80,46874,1,0,0:0:0:0:
288,80,47138,1,0,0:0:0:0:
272,224,47271,5,0,0:0:0:0:
337,224,47337,1,0,0:0:0:0:
402,224,47403,1,0,0:0:0:0:
192,224,47469,1,0,0:0:0:0:
127,224,47535,1,0,0:0:0:0:
62,224,47601,1,0,0:0:0:0:
128,128,47667,1,0,0:0:0:0:
193,128,47733,1,0,0:0:0:0:
258,128,47799,1,0,0:0:0:0:
192,64,47865,1,0,0:0:0:0:
127,64,47931,1,0,0:0:0:0:
64,64,47997,1,0,0:0:0:0:
432,64,48063,5,0,0:0:0:0:
64,128,48196,1,0,0:0:0:0:
224,128,48460,1,0,0:0:0:0:
112,128,48809,1,0,0:0:0:0:
432,128,48941,1,0,0:0:0:0:
208,128,49205,6,0,L|128:128,2,65
304,128,49469,1,0,0:0:0:0:
384,208,49602,2,0,L|480:208,1,65
351,209,49734,2,0,L|271:209,1,65
384,208,49866,2,0,L|448:209,1,65
351,209,49998,2,0,L|286:209,1,65
43,125,50130,5,0,0:0:0:0:
348,41,50395,6,0,P|478:117|288:203,1,390.00001487732
164,41,50923,6,0,P|34:117|224:203,1,390.00001487732
295,134,51452,2,0,L|46:286,1,260
440,62,51981,1,0,0:0:0:0:
186,25,52245,6,0,P|82:60|153:378,1,520
150,377,52773,6,0,P|234:349|416:249,1,260
386,269,53038,6,0,L|118:229,1,260
128,230,53302,6,0,P|215:269|491:17,1,520
492,28,53831,6,0,L|190:36,1,260
232,34,54095,6,0,L|420:244,1,260
411,228,54359,6,0,P|340:308|66:264,1,390
304,224,54888,2,0,B|416:176|416:48|416:48|240:48|240:48|336:128|336:128|144:128|144:128|240:128|240:128|240:128|240:128|336:128|336:128|174:338|-6:68,1,1300
192,240,56474,5,0,0:0:0:0:
320,240,56606,2,0,L|464:240,1,130
368,176,56870,1,0,0:0:0:0:
448,128,57003,2,0,L|288:128,1,130
400,64,57267,1,0,0:0:0:0:
160,64,57399,2,0,L|16:64,1,130
224,64,57663,5,0,0:0:0:0:
336,64,57795,1,0,0:0:0:0:
192,128,57928,2,0,L|112:128,2,65
480,128,58192,1,0,0:0:0:0:
352,128,58456,5,0,0:0:0:0:
224,256,58588,1,0,0:0:0:0:
160,257,58654,1,0,0:0:0:0:
100,232,58720,1,0,0:0:0:0:
56,185,58786,1,0,0:0:0:0:
304,256,58853,6,0,P|416:208|288:32,1,390
176,64,59381,2,0,L|240:208,1,130
80,112,59646,2,0,L|464:224,1,390
368,256,60174,5,0,0:0:0:0:
272,256,60307,1,0,0:0:0:0:
336,192,60373,1,0,0:0:0:0:
272,256,60439,1,0,0:0:0:0:
112,112,60703,5,0,0:0:0:0:
240,112,60769,1,0,0:0:0:0:
368,112,60835,1,0,0:0:0:0:
496,112,60901,1,0,0:0:0:0:
192,288,60967,2,0,P|128:256|256:48,1,390
320,288,61760,2,0,P|384:256|256:48,1,390
208,48,62289,5,0,0:0:0:0:
320,128,62421,1,0,0:0:0:0:
208,208,62553,1,0,0:0:0:0:
320,288,62685,1,0,0:0:0:0:
112,288,62818,6,0,L|0:192,1,130
192,208,63082,2,0,L|336:208,1,130
208,144,63478,5,0,0:0:0:0:
96,144,63610,1,0,0:0:0:0:
240,144,63743,1,0,0:0:0:0:
384,144,63875,1,0,0:0:0:0:
96,208,64271,5,0,0:0:0:0:
32,112,64668,1,0,0:0:0:0:
448,112,64932,1,0,0:0:0:0:
304,112,65329,1,0,0:0:0:0:
160,112,65725,1,0,0:0:0:0:
48,112,65989,2,0,L|-16:112,2,65
240,112,66518,5,0,0:0:0:0:
400,112,66914,1,0,0:0:0:0:
32,112,67047,1,0,0:0:0:0:
256,192,67311,12,0,69161,0:0:0:0:
256,192,69690,5,0,0:0:0:0:
96,192,70218,1,0,0:0:0:0:
400,192,70747,1,0,0:0:0:0:
254,193,71276,5,0,0:0:0:0:
160,160,71408,2,0,L|64:48,1,130
224,48,71672,1,0,0:0:0:0:
128,48,71804,1,0,0:0:0:0:
32,48,71936,1,0,0:0:0:0:
400,48,72069,1,0,0:0:0:0:
304,144,72201,5,0,0:0:0:0:
274,157,72234,1,0,0:0:0:0:
242,160,72267,1,0,0:0:0:0:
211,152,72300,1,0,0:0:0:0:
184,133,72333,1,0,0:0:0:0:
240,224,72399,6,0,L|320:224,1,65
112,272,72531,2,0,L|16:272,1,65
304,288,72663,2,0,L|384:288,1,65
240,288,72795,2,0,L|160:288,1,65
240,224,72994,1,0,0:0:0:0:
96,224,73126,1,0,0:0:0:0:
240,224,73258,1,0,0:0:0:0:
144,160,73390,5,0,0:0:0:0:
384,272,73522,2,0,P|448:256|448:176,1,130
368,112,73787,2,0,L|432:112,2,65
368,48,74051,1,0,0:0:0:0:
80,64,74183,1,0,0:0:0:0:
144,128,74315,2,0,L|0:128,1,130
80,192,74580,5,0,0:0:0:0:
416,208,74712,2,0,L|544:176,1,130
176,240,74976,2,0,L|16:208,1,130
352,96,75240,2,0,L|512:64,1,130
160,64,75505,1,0,0:0:0:0:
64,128,75637,6,0,L|-16:128,2,65
144,128,75835,1,0,0:0:0:0:
224,128,75901,1,0,0:0:0:0:
416,144,75967,2,0,L|496:144,2,65
352,144,76166,2,0,L|288:144,2,65
416,208,76364,5,0,0:0:0:0:
336,208,76430,1,0,0:0:0:0:
256,208,76496,1,0,0:0:0:0:
176,208,76562,1,0,0:0:0:0:
96,96,76694,5,0,0:0:0:0:
416,80,76826,1,0,0:0:0:0:
96,96,76958,1,0,0:0:0:0:
64,176,77355,5,0,0:0:0:0:
368,192,77487,1,0,0:0:0:0:
448,208,77619,1,0,0:0:0:0:
499,170,77685,1,0,0:0:0:0:
512,108,77751,1,0,0:0:0:0:
485,52,77817,1,0,0:0:0:0:
426,28,77883,1,0,0:0:0:0:
288,256,77950,1,0,0:0:0:0:
240,232,78016,1,0,0:0:0:0:
198,185,78082,1,0,0:0:0:0:
196,121,78148,1,0,0:0:0:0:
237,73,78214,1,0,0:0:0:0:
300,63,78280,1,0,0:0:0:0:
432,64,78412,5,0,0:0:0:0:
480,64,78478,1,0,0:0:0:0:
400,128,78610,1,0,0:0:0:0:
160,112,78677,1,0,0:0:0:0:
240,112,78809,5,0,0:0:0:0:
432,160,78941,1,0,0:0:0:0:
352,160,79073,1,0,0:0:0:0:
128,208,79205,1,0,0:0:0:0:
208,208,79337,1,0,0:0:0:0:
480,240,79469,1,0,0:0:0:0:
96,256,79734,1,0,0:0:0:0:
16,176,79866,6,0,L|144:144,1,130
256,144,80130,2,0,L|336:160,2,65
144,144,80395,1,0,0:0:0:0:
416,144,80527,1,0,0:0:0:0:
336,144,80659,1,0,0:0:0:0:
128,192,80791,2,0,P|48:128|160:48,1,260
384,32,81188,6,0,L|448:32,2,65
256,32,81452,2,0,L|112:32,1,130
352,288,81848,5,0,0:0:0:0:
384,286,81881,1,0,0:0:0:0:
413,272,81914,1,0,0:0:0:0:
436,249,81947,1,0,0:0:0:0:
449,220,81980,1,0,0:0:0:0:
451,188,82013,1,0,0:0:0:0:
442,157,82046,1,0,0:0:0:0:
422,131,82079,1,0,0:0:0:0:
160,288,82245,5,0,0:0:0:0:
128,286,82278,1,0,0:0:0:0:
99,272,82311,1,0,0:0:0:0:
76,249,82344,1,0,0:0:0:0:
63,220,82377,1,0,0:0:0:0:
61,188,82410,1,0,0:0:0:0:
70,157,82443,1,0,0:0:0:0:
90,131,82476,1,0,0:0:0:0:
352,288,82641,5,0,0:0:0:0:
384,286,82674,1,0,0:0:0:0:
413,272,82707,1,0,0:0:0:0:
436,249,82740,1,0,0:0:0:0:
449,220,82773,1,0,0:0:0:0:
451,188,82806,1,0,0:0:0:0:
442,157,82839,1,0,0:0:0:0:
422,131,82872,1,0,0:0:0:0:
176,80,83038,6,0,L|32:80,1,130
304,80,83302,2,0,L|464:80,1,130
256,128,83566,2,0,L|400:128,1,130
64,144,83831,1,0,0:0:0:0:
336,192,83963,1,0,0:0:0:0:
256,208,84095,6,0,L|112:208,1,130
400,208,84359,2,0,L|464:208,2,65
96,144,84624,1,0,0:0:0:0:
224,144,84756,1,0,0:0:0:0:
144,112,84888,5,0,0:0:0:0:
256,64,85020,2,0,L|176:64,2,65
352,64,85284,1,0,0:0:0:0:
480,64,85417,1,0,0:0:0:0:
416,112,85549,1,0,0:0:0:0:
176,112,85681,5,0,0:0:0:0:
240,112,85813,1,0,0:0:0:0:
368,288,86077,5,0,0:0:0:0:
399,281,86110,1,0,0:0:0:0:
426,263,86143,1,0,0:0:0:0:
444,236,86176,1,0,0:0:0:0:
449,205,86209,1,0,0:0:0:0:
442,173,86242,1,0,0:0:0:0:
423,147,86275,1,0,0:0:0:0:
395,130,86308,1,0,0:0:0:0:
128,128,86341,1,0,0:0:0:0:
224,176,86474,6,0,L|304:176,2,65
160,176,86738,1,0,0:0:0:0:
288,176,86870,1,0,0:0:0:0:
224,128,87003,1,0,0:0:0:0:
336,128,87135,1,0,0:0:0:0:
80,128,87267,2,0,L|208:208,1,130
128,240,87531,6,0,L|64:240,1,65
352,256,87663,1,0,0:0:0:0:
192,128,87928,6,0,L|48:128,1,130
384,128,88192,1,0,0:0:0:0:
256,128,88324,1,0,0:0:0:0:
320,128,88456,1,0,0:0:0:0:
240,192,88588,2,0,L|175:192,2,65
320,192,88853,1,0,0:0:0:0:
112,192,88985,1,0,0:0:0:0:
176,192,89117,1,0,0:0:0:0:
384,224,89249,6,0,L|512:192,1,130
400,128,89514,1,0,0:0:0:0:
256,128,89646,5,0,0:0:0:0:
128,240,89778,2,0,L|0:192,1,130
128,144,90042,1,0,0:0:0:0:
64,64,90174,5,0,0:0:0:0:
240,64,90240,1,0,0:0:0:0:
416,64,90306,1,0,0:0:0:0:
320,64,90439,1,0,0:0:0:0:
416,64,90571,5,0,0:0:0:0:
416,144,90703,1,0,0:0:0:0:
240,144,90769,1,0,0:0:0:0:
64,128,90835,1,0,0:0:0:0:
176,224,90967,2,0,L|320:224,1,130
432,224,91232,2,0,L|272:224,1,130
176,224,91496,1,0,0:0:0:0:
432,224,91628,1,0,0:0:0:0:
352,160,91760,6,0,L|288:160,2,65
432,160,92025,1,0,0:0:0:0:
112,144,92157,1,0,0:0:0:0:
256,96,92289,1,0,0:0:0:0:
400,96,92421,1,0,0:0:0:0:
304,96,92553,5,0,0:0:0:0:
400,96,92685,1,0,0:0:0:0:
96,96,92818,5,0,0:0:0:0:
128,96,92884,1,0,0:0:0:0:
160,96,92950,1,0,0:0:0:0:
304,96,93082,5,0,0:0:0:0:
160,160,93214,1,0,0:0:0:0:
48,160,93346,1,0,0:0:0:0:
352,160,93478,1,0,0:0:0:0:
464,160,93610,2,0,L|304:160,1,130
400,96,93875,2,0,L|320:96,2,65
464,96,94139,5,0,0:0:0:0:
176,96,94271,1,0,0:0:0:0:
80,160,94403,2,0,L|16:160,1,65
448,160,94536,1,0,0:0:0:0:
112,224,94932,1,0,0:0:0:0:
432,224,95329,1,0,0:0:0:0:
240,224,95593,1,0,0:0:0:0:
384,224,95857,1,0,0:0:0:0:
160,224,96121,1,0,0:0:0:0:
320,160,96386,1,0,0:0:0:0:
400,160,96518,1,0,0:0:0:0:
112,320,96650,2,0,B|48:272|192:208|192:208|80:144|48:48|144:16|336:48|384:64|416:96|344:150|344:150|550:94|482:284|259:282,1,1040
160,192,98500,1,0,0:0:0:0:
16,192,98632,1,0,0:0:0:0:
160,192,98765,1,0,0:0:0:0:
96,128,99425,5,0,0:0:0:0:
176,80,99558,1,0,0:0:0:0:
16,80,99690,1,0,0:0:0:0:
176,80,99822,1,0,0:0:0:0:
272,96,100615,5,0,0:0:0:0:
416,96,100747,1,0,0:0:0:0:
272,96,100879,1,0,0:0:0:0:
272,192,102597,6,0,L|416:192,1,130
320,128,102862,1,0,0:0:0:0:
160,128,102994,1,0,0:0:0:0:
144,224,103655,6,0,L|0:144,1,130
480,64,103919,2,0,L|374:139,1,130
192,144,104580,1,0,0:0:0:0:
464,144,105108,1,0,0:0:0:0:
144,144,105505,1,0,0:0:0:0:
480,144,105901,1,0,0:0:0:0:
400,144,106166,5,0,0:0:0:0:
256,304,107223,6,0,L|96:176,1,195.00000743866
320,160,107751,1,0,0:0:0:0:
432,112,108016,2,0,L|560:112,2,97.50000371933
352,112,108544,1,0,0:0:0:0:
208,112,108677,1,0,0:0:0:0:
64,112,108809,1,0,0:0:0:0:
112,240,109073,5,0,0:0:0:0:
352,272,109337,2,0,L|448:208,1,97.50000371933
320,192,109602,2,0,L|208:192,1,97.50000371933
432,112,109866,2,0,L|512:48,1,97.50000371933
208,48,110130,1,0,0:0:0:0:
112,128,110395,6,0,L|0:128,2,97.50000371933
208,128,110791,1,0,0:0:0:0:
448,128,110923,1,0,0:0:0:0:
448,192,111055,1,0,0:0:0:0:
256,192,111188,1,0,0:0:0:0:
64,192,111320,1,0,0:0:0:0:
352,256,111452,6,0,L|480:256,2,97.50000371933,8|0|8,0:0|0:0|0:0,0:0:0:0:
176,256,111848,2,0,L|80:256,2,65
384,208,112047,2,0,L|464:208,1,65
384,144,112179,1,0,0:0:0:0:
144,144,112245,2,0,L|0:144,2,130
272,112,112641,6,0,L|336:112,2,65
144,80,112906,1,0,0:0:0:0:
256,48,113038,1,0,0:0:0:0:
368,48,113170,1,0,0:0:0:0:
96,48,113302,1,8,0:0:0:0:
432,64,113566,5,0,0:0:0:0:
240,64,113963,1,0,0:0:0:0:
48,64,114359,1,0,0:0:0:0:
256,192,114624,12,0,115152,0:0:0:0:
144,256,115417,5,0,0:0:0:0:
32,256,115549,1,0,0:0:0:0:
352,256,115681,2,0,P|432:192|384:48,1,260
128,64,116210,5,0,0:0:0:0:
240,64,116342,1,0,0:0:0:0:
144,128,116474,1,0,0:0:0:0:
288,128,116606,1,0,0:0:0:0:
112,192,116738,1,0,0:0:0:0:
352,256,116870,6,0,P|416:224|432:160,1,130
320,176,117135,1,0,0:0:0:0:
432,176,117267,1,0,0:0:0:0:
208,128,117531,6,0,L|64:128,2,130
318,128,117928,2,0,L|382:128,1,65
446,128,118060,2,0,L|382:128,1,65
318,192,118192,2,0,L|206:192,1,65
160,192,118324,2,0,L|80:192,1,65
40,128,118456,6,0,L|120:128,1,65
160,80,118588,2,0,L|225:80,1,65
152,32,118721,2,0,L|87:32,1,65
168,32,118853,1,0,0:0:0:0:
416,208,118985,6,0,P|480:160|480:96,1,130
384,64,119249,1,0,0:0:0:0:
160,64,119381,6,0,L|96:64,2,65
232,64,119580,1,0,0:0:0:0:
312,64,119646,2,0,L|376:64,1,65
96,152,119778,2,0,L|32:152,1,65
240,144,119910,2,0,L|305:144,1,65
240,208,120042,2,0,L|175:208,1,65
384,256,120174,6,0,P|448:224|448:144,1,130
336,112,120439,1,0,0:0:0:0:
176,112,120571,1,0,0:0:0:0:
32,112,120703,1,0,0:0:0:0:
176,112,120835,1,0,0:0:0:0:
32,112,120967,1,0,0:0:0:0:
96,176,121099,6,0,P|160:224|224:208,1,130
272,208,121364,2,0,L|336:208,1,65
400,208,121496,2,0,L|480:208,1,65
400,144,121628,2,0,L|336:144,1,65
272,144,121760,6,0,L|208:144,1,65
336,80,121892,2,0,L|400:80,1,65
272,80,122025,2,0,L|208:80,1,65
142,80,122157,2,0,L|206:80,1,65
272,80,122289,2,0,L|208:80,1,65
142,80,122421,2,0,L|208:80,1,65
320,144,122553,6,0,L|384:144,1,65
224,144,122685,2,0,L|160:144,1,65
352,192,122817,2,0,L|416:192,1,65
160,208,122950,2,0,L|96:208,1,65
160,208,123082,6,0,L|240:208,1,65
288,208,123214,2,0,L|224:208,1,65
288,208,123346,2,0,L|368:208,1,65
416,208,123478,2,0,L|480:208,1,65
416,96,123610,5,0,0:0:0:0:
288,96,123677,1,0,0:0:0:0:
160,96,123743,1,0,0:0:0:0:
32,96,123809,1,0,0:0:0:0:
160,32,123875,1,0,0:0:0:0:
288,32,123941,1,0,0:0:0:0:
416,32,124007,6,0,L|480:32,1,65
416,32,124139,2,0,L|336:32,1,65
272,176,124271,6,0,L|208:176,1,65
128,176,124403,2,0,L|64:176,1,65
160,240,124536,2,0,L|224:240,1,65
304,240,124668,2,0,L|368:240,1,65
144,112,124800,6,0,L|80:112,1,65
352,112,124932,2,0,L|432:112,1,65
336,72,125064,2,0,L|240:72,1,65
352,32,125196,2,0,L|416:32,1,65
464,160,125328,2,0,L|368:160,1,65
352,160,125461,2,0,L|287:160,1,65
352,216,125593,2,0,L|417:216,1,65
352,216,125725,2,0,L|287:216,1,65
320,288,125857,6,0,L|240:288,1,65
176,288,125989,2,0,L|112:288,1,65
176,208,126121,2,0,L|256:208,1,65
304,160,126254,2,0,L|368:160,1,65
272,112,126386,2,0,L|208:112,1,65
128,64,126518,2,0,L|208:64,1,65
272,296,126650,5,0,0:0:0:0:
464,240,126716,1,0,0:0:0:0:
328,296,126782,1,0,0:0:0:0:
200,296,126848,1,0,0:0:0:0:
72,232,126914,5,0,0:0:0:0:
200,232,126980,1,0,0:0:0:0:
328,224,127047,1,0,0:0:0:0:
200,232,127113,1,0,0:0:0:0:
72,232,127179,1,0,0:0:0:0:
200,232,127245,1,0,0:0:0:0:
328,160,127311,5,0,0:0:0:0:
456,160,127377,1,0,0:0:0:0:
328,160,127443,1,0,0:0:0:0:
200,160,127509,1,0,0:0:0:0:
136,160,127575,6,0,L|72:160,1,65
136,96,127707,2,0,L|208:96,1,65
136,32,127840,2,0,L|64:32,1,65
184,32,127972,2,0,L|256:32,1,65
312,32,128104,2,0,L|384:32,1,65
312,96,128236,6,0,L|248:96,1,65
48,104,128368,1,0,0:0:0:0:
312,176,128765,1,0,0:0:0:0:
120,296,129161,1,0,0:0:0:0:
256,352,129425,5,0,0:0:0:0:
288,354,129458,1,0,0:0:0:0:
319,346,129491,1,0,0:0:0:0:
345,327,129524,1,0,0:0:0:0:
364,300,129557,1,0,0:0:0:0:
372,269,129590,1,0,0:0:0:0:
370,237,129623,1,0,0:0:0:0:
356,208,129656,1,0,0:0:0:0:
334,184,129689,1,0,0:0:0:0:
304,170,129722,1,0,0:0:0:0:
272,167,129755,1,0,0:0:0:0:
208,224,129789,5,0,0:0:0:0:
176,216,129822,1,0,0:0:0:0:
149,199,129855,1,0,0:0:0:0:
129,173,129888,1,0,0:0:0:0:
119,142,129921,1,0,0:0:0:0:
121,110,129954,1,0,0:0:0:0:
133,80,129987,1,0,0:0:0:0:
155,56,130020,1,0,0:0:0:0:
183,41,130053,1,0,0:0:0:0:
215,37,130086,1,0,0:0:0:0:
247,44,130119,1,0,0:0:0:0:
304,256,130152,5,0,0:0:0:0:
336,258,130185,1,0,0:0:0:0:
367,250,130218,1,0,0:0:0:0:
393,231,130251,1,0,0:0:0:0:
412,204,130284,1,0,0:0:0:0:
420,173,130317,1,0,0:0:0:0:
418,141,130350,1,0,0:0:0:0:
404,112,130383,1,0,0:0:0:0:
382,88,130416,1,0,0:0:0:0:
352,74,130449,1,0,0:0:0:0:
144,80,130482,5,0,0:0:0:0:
272,80,130879,1,0,0:0:0:0:
432,80,131276,1,0,0:0:0:0:
256,192,131540,6,0,L|176:192,1,65
304,192,131672,2,0,L|368:192,1,65
160,128,131804,2,0,L|80:128,1,65
384,128,131936,2,0,L|448:128,1,65
176,64,132069,2,0,P|96:112|176:224,1,260
144,144,132597,5,0,0:0:0:0:
376,152,132729,1,0,0:0:0:0:
448,208,132994,5,0,0:0:0:0:
72,216,133126,1,0,0:0:0:0:
152,64,133390,5,0,0:0:0:0:
360,64,133522,1,0,0:0:0:0:
432,136,133787,5,0,0:0:0:0:
88,144,133919,1,0,0:0:0:0:
88,208,134183,5,0,0:0:0:0:
424,224,134315,1,0,0:0:0:0:
454,212,134348,1,0,0:0:0:0:
478,191,134381,1,0,0:0:0:0:
493,162,134414,1,0,0:0:0:0:
497,130,134447,1,0,0:0:0:0:
416,64,134580,5,0,0:0:0:0:
112,56,134712,1,0,0:0:0:0:
104,176,134976,1,0,0:0:0:0:
416,176,135108,1,0,0:0:0:0:
416,272,135373,1,0,0:0:0:0:
104,264,135505,1,0,0:0:0:0:
104,160,135769,1,0,0:0:0:0:
416,160,135901,1,0,0:0:0:0:
416,72,136166,1,0,0:0:0:0:
104,64,136298,1,0,0:0:0:0:
352,72,136430,1,0,0:0:0:0:
168,64,136562,1,0,0:0:0:0:
352,72,136694,1,0,0:0:0:0:
416,136,136958,5,0,0:0:0:0:
104,128,137091,1,0,0:0:0:0:
104,200,137355,1,0,0:0:0:0:
416,208,137487,1,0,0:0:0:0:
416,272,137751,1,0,0:0:0:0:
104,264,137884,1,0,0:0:0:0:
104,136,138148,1,0,0:0:0:0:
416,144,138280,1,0,0:0:0:0:
448,142,138313,1,0,0:0:0:0:
476,126,138346,1,0,0:0:0:0:
494,99,138379,1,0,0:0:0:0:
498,67,138412,1,0,0:0:0:0:
496,224,138544,5,0,0:0:0:0:
184,208,138677,1,0,0:0:0:0:
96,128,138941,1,0,0:0:0:0:
376,120,139073,1,0,0:0:0:0:
448,72,139337,1,0,0:0:0:0:
112,48,139469,1,0,0:0:0:0:
128,216,139734,1,0,0:0:0:0:
424,216,139866,1,0,0:0:0:0:
480,136,140130,1,0,0:0:0:0:
128,120,140262,1,0,0:0:0:0:
392,104,140395,1,0,0:0:0:0:
184,96,140527,1,0,0:0:0:0:
392,104,140659,1,0,0:0:0:0:
184,96,140791,1,0,0:0:0:0:
392,104,140923,1,0,0:0:0:0:
256,192,142113,12,0,147399,0:0:0:0:
