osu file format v14

[General]
AudioFilename: audio.ogg
AudioLeadIn: 0
PreviewTime: 100845
Countdown: 0
SampleSet: Normal
StackLeniency: 0.7
Mode: 3
LetterboxInBreaks: 0
SpecialStyle: 0
WidescreenStoryboard: 1

[Editor]
Bookmarks: 15628,29541,43454,57367,71280,85193,95628,100845,114758,128671
DistanceSpacing: 0.1
BeatDivisor: 4
GridSize: 8
TimelineZoom: 2.7

[Metadata]
Title:BEYOND
TitleUnicode:BEYOND
Artist:Lime
ArtistUnicode:Lime
Creator:tyrcs
Version:Expert
Source:THE BMS OF FIGHTERS XVI -NEO DYSTOPIA-
Tags:Electronic Instrumental FUSION POP kankitsu kanki2 BOFXVI video game vgm piano house chordstream
BeatmapID:3855005
BeatmapSetID:1873425

[Difficulty]
HPDrainRate:8.2
CircleSize:7
OverallDifficulty:8.4
ApproachRate:5
SliderMultiplier:1.4
SliderTickRate:1

[Events]
//Background and Video events
0,0,"BEYOND.jpg",0,0
//Break Periods
//Storyboard Layer 0 (Background)
//Storyboard Layer 1 (Fail)
//Storyboard Layer 2 (Pass)
//Storyboard Layer 3 (Foreground)
//Storyboard Layer 4 (Overlay)
//Storyboard Sound Samples

[TimingPoints]
1715,217.391304347826,4,1,1,20,1,0
15628,-100,4,1,1,30,0,1
29541,-100,4,1,1,20,0,0
57367,-100,4,1,1,30,0,1
69541,-100,4,1,1,20,0,0
85193,-100,4,1,1,30,0,1
95628,-100,4,1,1,20,0,0
100845,-100,4,1,1,30,0,1
114758,-100,4,1,1,20,0,0

[HitObjects]
329,192,1715,5,0,0:0:0:0:
256,192,1715,1,0,0:0:0:0:
475,192,1715,1,0,0:0:0:0:
109,192,1715,1,0,0:0:0:0:
36,192,1715,1,0,0:0:0:0:
402,192,1823,1,0,0:0:0:0:
109,192,1823,1,0,0:0:0:0:
256,192,1932,1,0,0:0:0:0:
329,192,1932,1,0,0:0:0:0:
475,192,1932,1,0,0:0:0:0:
402,192,2149,1,0,0:0:0:0:
109,192,2149,1,0,0:0:0:0:
329,192,2258,1,0,0:0:0:0:
475,192,2258,1,0,0:0:0:0:
256,192,2258,1,0,0:0:0:0:
109,192,2367,1,0,0:0:0:0:
256,192,2475,1,0,0:0:0:0:
182,192,2475,1,0,0:0:0:0:
402,192,2475,1,0,0:0:0:0:
36,192,2584,1,0,0:0:0:0:
256,192,2693,1,0,0:0:0:0:
182,192,2693,1,0,0:0:0:0:
402,192,2693,1,0,0:0:0:0:
329,192,2910,1,0,0:0:0:0:
36,192,2910,1,0,0:0:0:0:
256,192,3019,1,0,0:0:0:0:
182,192,3019,1,0,0:0:0:0:
402,192,3019,1,0,0:0:0:0:
256,192,3236,1,0,0:0:0:0:
182,192,3236,1,0,0:0:0:0:
402,192,3236,1,0,0:0:0:0:
109,192,3454,1,0,0:0:0:0:
36,192,3454,1,0,0:0:0:0:
329,192,3454,1,0,0:0:0:0:
475,192,3454,1,0,0:0:0:0:
182,192,3562,1,0,0:0:0:0:
475,192,3562,1,0,0:0:0:0:
329,192,3671,1,0,0:0:0:0:
109,192,3671,1,0,0:0:0:0:
36,192,3671,1,0,0:0:0:0:
182,192,3888,1,0,0:0:0:0:
475,192,3888,1,0,0:0:0:0:
329,192,3997,1,0,0:0:0:0:
109,192,3997,1,0,0:0:0:0:
36,192,3997,1,0,0:0:0:0:
402,192,4214,1,0,0:0:0:0:
182,192,4214,1,0,0:0:0:0:
109,192,4214,1,0,0:0:0:0:
329,192,4323,1,0,0:0:0:0:
182,192,4432,1,0,0:0:0:0:
109,192,4432,1,0,0:0:0:0:
402,192,4432,1,0,0:0:0:0:
475,192,4649,1,0,0:0:0:0:
256,192,4649,1,0,0:0:0:0:
182,192,4758,1,0,0:0:0:0:
109,192,4758,1,0,0:0:0:0:
402,192,4758,1,0,0:0:0:0:
402,192,4975,1,0,0:0:0:0:
182,192,4975,1,0,0:0:0:0:
109,192,4975,1,0,0:0:0:0:
182,192,5193,1,0,0:0:0:0:
256,192,5193,1,0,0:0:0:0:
36,192,5193,1,0,0:0:0:0:
402,192,5193,1,0,0:0:0:0:
109,192,5301,1,0,0:0:0:0:
402,192,5301,1,0,0:0:0:0:
256,192,5410,1,0,0:0:0:0:
182,192,5410,1,0,0:0:0:0:
36,192,5410,1,0,0:0:0:0:
109,192,5628,1,0,0:0:0:0:
402,192,5628,1,0,0:0:0:0:
182,192,5736,1,0,0:0:0:0:
36,192,5736,1,0,0:0:0:0:
256,192,5736,1,0,0:0:0:0:
402,192,5845,1,0,0:0:0:0:
256,192,5954,1,0,0:0:0:0:
329,192,5954,1,0,0:0:0:0:
109,192,5954,1,0,0:0:0:0:
475,192,6062,1,0,0:0:0:0:
256,192,6171,1,0,0:0:0:0:
329,192,6171,1,0,0:0:0:0:
109,192,6171,1,0,0:0:0:0:
182,192,6388,1,0,0:0:0:0:
475,192,6388,1,0,0:0:0:0:
256,192,6497,1,0,0:0:0:0:
329,192,6497,1,0,0:0:0:0:
109,192,6497,1,0,0:0:0:0:
256,192,6714,1,0,0:0:0:0:
329,192,6714,1,0,0:0:0:0:
109,192,6714,1,0,0:0:0:0:
402,192,6932,1,0,0:0:0:0:
475,192,6932,1,0,0:0:0:0:
182,192,6932,1,0,0:0:0:0:
36,192,6932,1,0,0:0:0:0:
329,192,7041,1,0,0:0:0:0:
36,192,7041,1,0,0:0:0:0:
182,192,7149,1,0,0:0:0:0:
402,192,7149,1,0,0:0:0:0:
475,192,7149,1,0,0:0:0:0:
329,192,7367,1,0,0:0:0:0:
36,192,7367,1,0,0:0:0:0:
182,192,7475,1,0,0:0:0:0:
402,192,7475,1,0,0:0:0:0:
475,192,7475,1,0,0:0:0:0:
36,192,7584,1,0,0:0:0:0:
109,192,7693,1,0,0:0:0:0:
329,192,7693,1,0,0:0:0:0:
402,192,7693,1,0,0:0:0:0:
182,192,7801,1,0,0:0:0:0:
329,192,7910,1,0,0:0:0:0:
402,192,7910,1,0,0:0:0:0:
109,192,7910,1,0,0:0:0:0:
36,192,8128,1,0,0:0:0:0:
256,192,8128,1,0,0:0:0:0:
329,192,8236,1,0,0:0:0:0:
402,192,8236,1,0,0:0:0:0:
109,192,8236,1,0,0:0:0:0:
109,192,8454,1,0,0:0:0:0:
329,192,8454,1,0,0:0:0:0:
402,192,8454,1,0,0:0:0:0:
256,192,8671,1,0,0:0:0:0:
182,192,8671,1,0,0:0:0:0:
36,192,8671,1,0,0:0:0:0:
475,192,8671,1,0,0:0:0:0:
329,192,8780,1,0,0:0:0:0:
36,192,8780,1,0,0:0:0:0:
329,192,8888,1,0,0:0:0:0:
256,192,8888,1,0,0:0:0:0:
109,192,8888,1,0,0:0:0:0:
475,192,8888,1,0,0:0:0:0:
182,192,9106,1,0,0:0:0:0:
36,192,9106,1,0,0:0:0:0:
109,192,9214,1,0,0:0:0:0:
256,192,9214,1,0,0:0:0:0:
329,192,9214,1,0,0:0:0:0:
475,192,9323,1,0,0:0:0:0:
36,192,9323,1,0,0:0:0:0:
182,192,9432,1,0,0:0:0:0:
329,192,9432,1,0,0:0:0:0:
402,192,9432,1,0,0:0:0:0:
109,192,9541,1,0,0:0:0:0:
182,192,9649,1,0,0:0:0:0:
329,192,9649,1,0,0:0:0:0:
402,192,9649,1,0,0:0:0:0:
475,192,9758,1,0,0:0:0:0:
256,192,9867,1,0,0:0:0:0:
36,192,9867,1,0,0:0:0:0:
329,192,9975,1,0,0:0:0:0:
402,192,9975,1,0,0:0:0:0:
182,192,9975,1,0,0:0:0:0:
182,192,10193,1,0,0:0:0:0:
329,192,10193,1,0,0:0:0:0:
402,192,10193,1,0,0:0:0:0:
475,192,10193,1,0,0:0:0:0:
36,192,10410,1,0,0:0:0:0:
402,192,10410,1,0,0:0:0:0:
182,192,10410,1,0,0:0:0:0:
36,192,10519,1,0,0:0:0:0:
475,192,10519,1,0,0:0:0:0:
109,192,10628,1,0,0:0:0:0:
256,192,10628,1,0,0:0:0:0:
475,192,10628,1,0,0:0:0:0:
329,192,10628,1,0,0:0:0:0:
256,192,10845,1,0,0:0:0:0:
36,192,10845,1,0,0:0:0:0:
109,192,10954,1,0,0:0:0:0:
475,192,10954,1,0,0:0:0:0:
329,192,10954,1,0,0:0:0:0:
256,192,11062,1,0,0:0:0:0:
182,192,11171,1,0,0:0:0:0:
402,192,11171,1,0,0:0:0:0:
475,192,11171,1,0,0:0:0:0:
329,192,11280,1,0,0:0:0:0:
182,192,11388,1,0,0:0:0:0:
402,192,11388,1,0,0:0:0:0:
475,192,11388,1,0,0:0:0:0:
36,192,11497,1,0,0:0:0:0:
109,192,11606,1,0,0:0:0:0:
256,192,11606,1,0,0:0:0:0:
182,192,11714,1,0,0:0:0:0:
402,192,11714,1,0,0:0:0:0:
475,192,11714,1,0,0:0:0:0:
182,192,11932,1,0,0:0:0:0:
402,192,11932,1,0,0:0:0:0:
475,192,11932,1,0,0:0:0:0:
36,192,11932,1,0,0:0:0:0:
256,192,12149,1,0,0:0:0:0:
329,192,12149,1,0,0:0:0:0:
475,192,12149,1,0,0:0:0:0:
36,192,12149,1,0,0:0:0:0:
182,192,12258,1,0,0:0:0:0:
475,192,12258,1,0,0:0:0:0:
182,192,12367,1,0,0:0:0:0:
256,192,12367,1,0,0:0:0:0:
402,192,12367,1,0,0:0:0:0:
36,192,12367,1,0,0:0:0:0:
329,192,12584,1,0,0:0:0:0:
475,192,12584,1,0,0:0:0:0:
402,192,12693,1,0,0:0:0:0:
256,192,12693,1,0,0:0:0:0:
182,192,12693,1,0,0:0:0:0:
36,192,12801,1,0,0:0:0:0:
475,192,12801,1,0,0:0:0:0:
329,192,12910,1,0,0:0:0:0:
182,192,12910,1,0,0:0:0:0:
109,192,12910,1,0,0:0:0:0:
402,192,13019,1,0,0:0:0:0:
329,192,13128,1,0,0:0:0:0:
182,192,13128,1,0,0:0:0:0:
109,192,13128,1,0,0:0:0:0:
36,192,13236,1,0,0:0:0:0:
256,192,13345,1,0,0:0:0:0:
475,192,13345,1,0,0:0:0:0:
182,192,13454,1,0,0:0:0:0:
109,192,13454,1,0,0:0:0:0:
329,192,13454,1,0,0:0:0:0:
329,192,13671,1,0,0:0:0:0:
182,192,13671,1,0,0:0:0:0:
109,192,13671,1,0,0:0:0:0:
36,192,13671,1,0,0:0:0:0:
36,192,13888,1,0,0:0:0:0:
475,192,13888,1,0,0:0:0:0:
402,192,13888,1,0,0:0:0:0:
182,192,13888,1,0,0:0:0:0:
36,192,13997,1,0,0:0:0:0:
329,192,13997,1,0,0:0:0:0:
109,192,14106,1,0,0:0:0:0:
402,192,14106,1,0,0:0:0:0:
182,192,14214,1,0,0:0:0:0:
402,192,14214,1,0,0:0:0:0:
329,192,14323,1,0,0:0:0:0:
109,192,14323,1,0,0:0:0:0:
109,192,14432,1,0,0:0:0:0:
402,192,14432,1,0,0:0:0:0:
182,192,14541,1,0,0:0:0:0:
475,192,14541,1,0,0:0:0:0:
329,192,14595,1,0,0:0:0:0:
256,192,14649,1,0,0:0:0:0:
475,192,14649,1,0,0:0:0:0:
182,192,14704,1,0,0:0:0:0:
329,192,14758,1,0,0:0:0:0:
109,192,14758,1,0,0:0:0:0:
36,192,14758,1,0,0:0:0:0:
109,192,14867,1,0,0:0:0:0:
36,192,14867,1,0,0:0:0:0:
475,192,14867,1,0,0:0:0:0:
402,192,14975,1,0,0:0:0:0:
329,192,14975,1,0,0:0:0:0:
182,192,14975,1,0,0:0:0:0:
402,192,15084,1,0,0:0:0:0:
329,192,15084,1,0,0:0:0:0:
36,192,15084,1,0,0:0:0:0:
109,192,15193,1,0,0:0:0:0:
182,192,15193,1,0,0:0:0:0:
475,192,15193,1,0,0:0:0:0:
182,192,15301,1,0,0:0:0:0:
109,192,15301,1,0,0:0:0:0:
329,192,15301,1,0,0:0:0:0:
402,192,15410,1,0,0:0:0:0:
475,192,15410,1,0,0:0:0:0:
36,192,15410,1,0,0:0:0:0:
402,192,15519,1,0,0:0:0:0:
475,192,15519,1,0,0:0:0:0:
182,192,15519,1,0,0:0:0:0:
256,192,15628,5,0,0:0:0:0:
329,192,15628,1,0,0:0:0:0:
402,192,15628,1,0,0:0:0:0:
475,192,15628,1,0,0:0:0:0:
36,192,15628,1,0,0:0:0:0:
109,192,15682,1,0,0:0:0:0:
182,192,15736,1,0,0:0:0:0:
402,192,15791,1,0,0:0:0:0:
256,192,15845,1,0,0:0:0:0:
36,192,15845,1,0,0:0:0:0:
109,192,15845,1,0,0:0:0:0:
475,192,15845,1,0,0:0:0:0:
329,192,15899,1,0,0:0:0:0:
402,192,15954,1,0,0:0:0:0:
182,192,16008,1,0,0:0:0:0:
329,192,16062,1,0,0:0:0:0:
36,192,16062,1,0,0:0:0:0:
256,192,16117,1,0,0:0:0:0:
109,192,16171,1,0,0:0:0:0:
402,192,16171,1,0,0:0:0:0:
475,192,16171,1,0,0:0:0:0:
329,192,16225,1,0,0:0:0:0:
182,192,16280,1,0,0:0:0:0:
256,192,16280,1,0,0:0:0:0:
36,192,16280,1,0,0:0:0:0:
475,192,16280,1,0,0:0:0:0:
402,192,16334,1,0,0:0:0:0:
256,192,16388,1,0,0:0:0:0:
182,192,16443,1,0,0:0:0:0:
36,192,16497,1,0,0:0:0:0:
475,192,16497,1,0,0:0:0:0:
329,192,16497,1,0,0:0:0:0:
109,192,16551,1,0,0:0:0:0:
256,192,16606,1,0,0:0:0:0:
402,192,16660,1,0,0:0:0:0:
256,192,16714,1,0,0:0:0:0:
109,192,16714,1,0,0:0:0:0:
36,192,16714,1,0,0:0:0:0:
475,192,16714,1,0,0:0:0:0:
329,192,16769,1,0,0:0:0:0:
475,192,16823,1,0,0:0:0:0:
109,192,16823,1,0,0:0:0:0:
36,192,16823,1,0,0:0:0:0:
402,192,16878,1,0,0:0:0:0:
256,192,16932,1,0,0:0:0:0:
182,192,16932,1,0,0:0:0:0:
109,192,16986,1,0,0:0:0:0:
36,192,17041,1,0,0:0:0:0:
329,192,17041,1,0,0:0:0:0:
402,192,17041,1,0,0:0:0:0:
182,192,17095,1,0,0:0:0:0:
329,192,17149,1,0,0:0:0:0:
402,192,17149,1,0,0:0:0:0:
475,192,17149,1,0,0:0:0:0:
36,192,17149,1,0,0:0:0:0:
256,192,17204,1,0,0:0:0:0:
182,192,17258,1,0,0:0:0:0:
109,192,17312,1,0,0:0:0:0:
36,192,17367,1,0,0:0:0:0:
256,192,17367,1,0,0:0:0:0:
329,192,17367,1,0,0:0:0:0:
402,192,17367,1,0,0:0:0:0:
109,192,17421,1,0,0:0:0:0:
256,192,17475,1,0,0:0:0:0:
402,192,17530,1,0,0:0:0:0:
109,192,17584,1,0,0:0:0:0:
36,192,17584,1,0,0:0:0:0:
475,192,17584,1,0,0:0:0:0:
182,192,17584,1,0,0:0:0:0:
329,192,17638,1,0,0:0:0:0:
402,192,17693,1,0,0:0:0:0:
109,192,17747,1,0,0:0:0:0:
256,192,17801,1,0,0:0:0:0:
475,192,17801,1,0,0:0:0:0:
402,192,17856,1,0,0:0:0:0:
109,192,17910,1,0,0:0:0:0:
36,192,17910,1,0,0:0:0:0:
329,192,17910,1,0,0:0:0:0:
256,192,17964,1,0,0:0:0:0:
402,192,18019,1,0,0:0:0:0:
475,192,18019,1,0,0:0:0:0:
182,192,18019,1,0,0:0:0:0:
36,192,18019,1,0,0:0:0:0:
329,192,18073,1,0,0:0:0:0:
182,192,18128,1,0,0:0:0:0:
36,192,18182,1,0,0:0:0:0:
475,192,18236,1,0,0:0:0:0:
256,192,18236,1,0,0:0:0:0:
329,192,18236,1,0,0:0:0:0:
109,192,18291,1,0,0:0:0:0:
256,192,18345,1,0,0:0:0:0:
329,192,18399,1,0,0:0:0:0:
475,192,18454,1,0,0:0:0:0:
182,192,18454,1,0,0:0:0:0:
402,192,18454,1,0,0:0:0:0:
36,192,18454,1,0,0:0:0:0:
256,192,18508,1,0,0:0:0:0:
402,192,18562,1,0,0:0:0:0:
36,192,18562,1,0,0:0:0:0:
475,192,18562,1,0,0:0:0:0:
109,192,18617,1,0,0:0:0:0:
329,192,18671,1,0,0:0:0:0:
256,192,18671,1,0,0:0:0:0:
475,192,18725,1,0,0:0:0:0:
109,192,18780,1,0,0:0:0:0:
182,192,18780,1,0,0:0:0:0:
402,192,18780,1,0,0:0:0:0:
329,192,18834,1,0,0:0:0:0:
109,192,18888,1,0,0:0:0:0:
182,192,18888,1,0,0:0:0:0:
36,192,18888,1,0,0:0:0:0:
402,192,18888,1,0,0:0:0:0:
329,192,18943,1,0,0:0:0:0:
256,192,18997,1,0,0:0:0:0:
109,192,19051,1,0,0:0:0:0:
36,192,19106,1,0,0:0:0:0:
329,192,19106,1,0,0:0:0:0:
475,192,19106,1,0,0:0:0:0:
402,192,19106,1,0,0:0:0:0:
182,192,19160,1,0,0:0:0:0:
256,192,19214,1,0,0:0:0:0:
402,192,19269,1,0,0:0:0:0:
109,192,19323,1,0,0:0:0:0:
36,192,19323,1,0,0:0:0:0:
475,192,19323,1,0,0:0:0:0:
256,192,19323,1,0,0:0:0:0:
329,192,19378,1,0,0:0:0:0:
402,192,19432,1,0,0:0:0:0:
109,192,19486,1,0,0:0:0:0:
475,192,19541,1,0,0:0:0:0:
182,192,19541,1,0,0:0:0:0:
402,192,19595,1,0,0:0:0:0:
329,192,19649,1,0,0:0:0:0:
36,192,19649,1,0,0:0:0:0:
109,192,19649,1,0,0:0:0:0:
256,192,19704,1,0,0:0:0:0:
329,192,19758,1,0,0:0:0:0:
402,192,19758,1,0,0:0:0:0:
475,192,19758,1,0,0:0:0:0:
36,192,19758,1,0,0:0:0:0:
182,192,19812,1,0,0:0:0:0:
109,192,19867,1,0,0:0:0:0:
256,192,19921,1,0,0:0:0:0:
475,192,19975,1,0,0:0:0:0:
402,192,19975,1,0,0:0:0:0:
36,192,19975,1,0,0:0:0:0:
182,192,20030,1,0,0:0:0:0:
329,192,20084,1,0,0:0:0:0:
402,192,20138,1,0,0:0:0:0:
256,192,20193,1,0,0:0:0:0:
36,192,20193,1,0,0:0:0:0:
109,192,20193,1,0,0:0:0:0:
475,192,20193,1,0,0:0:0:0:
329,192,20247,1,0,0:0:0:0:
475,192,20301,1,0,0:0:0:0:
109,192,20301,1,0,0:0:0:0:
36,192,20301,1,0,0:0:0:0:
256,192,20356,1,0,0:0:0:0:
402,192,20410,1,0,0:0:0:0:
182,192,20410,1,0,0:0:0:0:
109,192,20464,1,0,0:0:0:0:
256,192,20519,1,0,0:0:0:0:
329,192,20519,1,0,0:0:0:0:
36,192,20519,1,0,0:0:0:0:
402,192,20573,1,0,0:0:0:0:
329,192,20628,1,0,0:0:0:0:
256,192,20628,1,0,0:0:0:0:
475,192,20628,1,0,0:0:0:0:
36,192,20628,1,0,0:0:0:0:
182,192,20682,1,0,0:0:0:0:
109,192,20736,1,0,0:0:0:0:
402,192,20791,1,0,0:0:0:0:
256,192,20845,1,0,0:0:0:0:
182,192,20845,1,0,0:0:0:0:
36,192,20845,1,0,0:0:0:0:
475,192,20845,1,0,0:0:0:0:
329,192,20899,1,0,0:0:0:0:
109,192,20954,1,0,0:0:0:0:
182,192,21008,1,0,0:0:0:0:
36,192,21062,1,0,0:0:0:0:
329,192,21062,1,0,0:0:0:0:
402,192,21062,1,0,0:0:0:0:
475,192,21062,1,0,0:0:0:0:
109,192,21117,1,0,0:0:0:0:
256,192,21171,1,0,0:0:0:0:
475,192,21225,1,0,0:0:0:0:
182,192,21280,1,0,0:0:0:0:
329,192,21280,1,0,0:0:0:0:
475,192,21334,1,0,0:0:0:0:
402,192,21388,1,0,0:0:0:0:
109,192,21388,1,0,0:0:0:0:
36,192,21388,1,0,0:0:0:0:
256,192,21443,1,0,0:0:0:0:
109,192,21497,1,0,0:0:0:0:
329,192,21497,1,0,0:0:0:0:
402,192,21497,1,0,0:0:0:0:
475,192,21497,1,0,0:0:0:0:
256,192,21551,1,0,0:0:0:0:
182,192,21606,1,0,0:0:0:0:
109,192,21660,1,0,0:0:0:0:
256,192,21714,1,0,0:0:0:0:
36,192,21714,1,0,0:0:0:0:
475,192,21714,1,0,0:0:0:0:
329,192,21769,1,0,0:0:0:0:
182,192,21823,1,0,0:0:0:0:
109,192,21823,1,0,0:0:0:0:
329,192,21878,1,0,0:0:0:0:
402,192,21878,1,0,0:0:0:0:
109,192,21932,1,0,0:0:0:0:
36,192,21932,1,0,0:0:0:0:
256,192,21986,1,0,0:0:0:0:
402,192,22041,1,0,0:0:0:0:
475,192,22041,1,0,0:0:0:0:
182,192,22095,1,0,0:0:0:0:
36,192,22149,1,0,0:0:0:0:
475,192,22149,1,0,0:0:0:0:
329,192,22204,1,0,0:0:0:0:
256,192,22258,1,0,0:0:0:0:
182,192,22312,1,0,0:0:0:0:
109,192,22367,1,0,0:0:0:0:
402,192,22367,1,0,0:0:0:0:
256,192,22421,1,0,0:0:0:0:
182,192,22475,1,0,0:0:0:0:
475,192,22475,1,0,0:0:0:0:
329,192,22530,1,0,0:0:0:0:
256,192,22584,1,0,0:0:0:0:
36,192,22584,1,0,0:0:0:0:
402,192,22584,1,0,0:0:0:0:
475,192,22584,1,0,0:0:0:0:
109,192,22638,1,0,0:0:0:0:
256,192,22693,1,0,0:0:0:0:
329,192,22747,1,0,0:0:0:0:
36,192,22801,1,0,0:0:0:0:
402,192,22801,1,0,0:0:0:0:
182,192,22801,1,0,0:0:0:0:
109,192,22801,1,0,0:0:0:0:
329,192,22856,1,0,0:0:0:0:
36,192,22910,1,0,0:0:0:0:
182,192,22964,1,0,0:0:0:0:
256,192,23019,1,0,0:0:0:0:
475,192,23019,1,0,0:0:0:0:
402,192,23073,1,0,0:0:0:0:
329,192,23128,1,0,0:0:0:0:
109,192,23128,1,0,0:0:0:0:
36,192,23128,1,0,0:0:0:0:
256,192,23182,1,0,0:0:0:0:
109,192,23236,1,0,0:0:0:0:
402,192,23236,1,0,0:0:0:0:
475,192,23236,1,0,0:0:0:0:
182,192,23236,1,0,0:0:0:0:
329,192,23291,1,0,0:0:0:0:
182,192,23345,1,0,0:0:0:0:
475,192,23345,1,0,0:0:0:0:
402,192,23399,1,0,0:0:0:0:
256,192,23454,1,0,0:0:0:0:
109,192,23454,1,0,0:0:0:0:
36,192,23454,1,0,0:0:0:0:
329,192,23508,1,0,0:0:0:0:
475,192,23562,1,0,0:0:0:0:
182,192,23617,1,0,0:0:0:0:
36,192,23671,1,0,0:0:0:0:
475,192,23671,1,0,0:0:0:0:
256,192,23671,1,0,0:0:0:0:
329,192,23671,1,0,0:0:0:0:
109,192,23725,1,0,0:0:0:0:
182,192,23780,1,0,0:0:0:0:
256,192,23780,1,0,0:0:0:0:
329,192,23780,1,0,0:0:0:0:
475,192,23834,1,0,0:0:0:0:
109,192,23888,1,0,0:0:0:0:
402,192,23888,1,0,0:0:0:0:
329,192,23943,1,0,0:0:0:0:
256,192,23997,1,0,0:0:0:0:
182,192,23997,1,0,0:0:0:0:
36,192,23997,1,0,0:0:0:0:
475,192,24051,1,0,0:0:0:0:
182,192,24106,1,0,0:0:0:0:
36,192,24106,1,0,0:0:0:0:
329,192,24106,1,0,0:0:0:0:
402,192,24106,1,0,0:0:0:0:
475,192,24160,1,0,0:0:0:0:
256,192,24214,1,0,0:0:0:0:
109,192,24269,1,0,0:0:0:0:
256,192,24323,1,0,0:0:0:0:
475,192,24323,1,0,0:0:0:0:
36,192,24323,1,0,0:0:0:0:
329,192,24323,1,0,0:0:0:0:
109,192,24378,1,0,0:0:0:0:
182,192,24432,1,0,0:0:0:0:
329,192,24486,1,0,0:0:0:0:
36,192,24541,1,0,0:0:0:0:
402,192,24541,1,0,0:0:0:0:
182,192,24541,1,0,0:0:0:0:
475,192,24541,1,0,0:0:0:0:
256,192,24595,1,0,0:0:0:0:
402,192,24649,1,0,0:0:0:0:
109,192,24704,1,0,0:0:0:0:
256,192,24758,1,0,0:0:0:0:
475,192,24758,1,0,0:0:0:0:
182,192,24812,1,0,0:0:0:0:
109,192,24867,1,0,0:0:0:0:
329,192,24867,1,0,0:0:0:0:
402,192,24867,1,0,0:0:0:0:
36,192,24921,1,0,0:0:0:0:
256,192,24975,1,0,0:0:0:0:
182,192,24975,1,0,0:0:0:0:
475,192,24975,1,0,0:0:0:0:
329,192,24975,1,0,0:0:0:0:
109,192,25030,1,0,0:0:0:0:
256,192,25084,1,0,0:0:0:0:
329,192,25138,1,0,0:0:0:0:
36,192,25193,1,0,0:0:0:0:
109,192,25193,1,0,0:0:0:0:
402,192,25193,1,0,0:0:0:0:
182,192,25247,1,0,0:0:0:0:
329,192,25301,1,0,0:0:0:0:
109,192,25356,1,0,0:0:0:0:
256,192,25410,1,0,0:0:0:0:
182,192,25410,1,0,0:0:0:0:
402,192,25410,1,0,0:0:0:0:
475,192,25410,1,0,0:0:0:0:
36,192,25464,1,0,0:0:0:0:
256,192,25519,1,0,0:0:0:0:
182,192,25519,1,0,0:0:0:0:
329,192,25519,1,0,0:0:0:0:
475,192,25573,1,0,0:0:0:0:
109,192,25628,1,0,0:0:0:0:
402,192,25628,1,0,0:0:0:0:
36,192,25682,1,0,0:0:0:0:
329,192,25736,1,0,0:0:0:0:
475,192,25736,1,0,0:0:0:0:
256,192,25736,1,0,0:0:0:0:
182,192,25791,1,0,0:0:0:0:
475,192,25845,1,0,0:0:0:0:
329,192,25845,1,0,0:0:0:0:
109,192,25845,1,0,0:0:0:0:
36,192,25845,1,0,0:0:0:0:
402,192,25899,1,0,0:0:0:0:
256,192,25954,1,0,0:0:0:0:
182,192,26008,1,0,0:0:0:0:
36,192,26062,1,0,0:0:0:0:
329,192,26062,1,0,0:0:0:0:
402,192,26062,1,0,0:0:0:0:
475,192,26062,1,0,0:0:0:0:
109,192,26117,1,0,0:0:0:0:
256,192,26171,1,0,0:0:0:0:
329,192,26225,1,0,0:0:0:0:
182,192,26280,1,0,0:0:0:0:
109,192,26280,1,0,0:0:0:0:
475,192,26280,1,0,0:0:0:0:
36,192,26280,1,0,0:0:0:0:
256,192,26334,1,0,0:0:0:0:
402,192,26388,1,0,0:0:0:0:
36,192,26443,1,0,0:0:0:0:
182,192,26497,1,0,0:0:0:0:
475,192,26497,1,0,0:0:0:0:
329,192,26551,1,0,0:0:0:0:
256,192,26606,1,0,0:0:0:0:
109,192,26606,1,0,0:0:0:0:
475,192,26606,1,0,0:0:0:0:
36,192,26660,1,0,0:0:0:0:
182,192,26714,1,0,0:0:0:0:
329,192,26714,1,0,0:0:0:0:
402,192,26714,1,0,0:0:0:0:
475,192,26714,1,0,0:0:0:0:
109,192,26769,1,0,0:0:0:0:
329,192,26823,1,0,0:0:0:0:
182,192,26878,1,0,0:0:0:0:
256,192,26932,1,0,0:0:0:0:
36,192,26932,1,0,0:0:0:0:
475,192,26932,1,0,0:0:0:0:
109,192,26986,1,0,0:0:0:0:
329,192,27041,1,0,0:0:0:0:
182,192,27095,1,0,0:0:0:0:
256,192,27149,1,0,0:0:0:0:
402,192,27149,1,0,0:0:0:0:
475,192,27149,1,0,0:0:0:0:
36,192,27149,1,0,0:0:0:0:
109,192,27204,1,0,0:0:0:0:
182,192,27258,1,0,0:0:0:0:
402,192,27258,1,0,0:0:0:0:
475,192,27258,1,0,0:0:0:0:
256,192,27312,1,0,0:0:0:0:
36,192,27367,1,0,0:0:0:0:
329,192,27367,1,0,0:0:0:0:
256,192,27421,1,0,0:0:0:0:
36,192,27475,1,0,0:0:0:0:
109,192,27475,1,0,0:0:0:0:
402,192,27475,1,0,0:0:0:0:
329,192,27530,1,0,0:0:0:0:
182,192,27584,1,0,0:0:0:0:
109,192,27584,1,0,0:0:0:0:
36,192,27584,1,0,0:0:0:0:
475,192,27584,1,0,0:0:0:0:
402,192,27638,1,0,0:0:0:0:
256,192,27693,1,0,0:0:0:0:
109,192,27747,1,0,0:0:0:0:
36,192,27801,1,0,0:0:0:0:
329,192,27801,1,0,0:0:0:0:
402,192,27801,1,0,0:0:0:0:
475,192,27801,1,0,0:0:0:0:
182,192,27856,1,0,0:0:0:0:
256,192,27910,1,0,0:0:0:0:
329,192,27964,1,0,0:0:0:0:
36,192,28019,1,0,0:0:0:0:
109,192,28073,1,0,0:0:0:0:
256,192,28128,1,0,0:0:0:0:
402,192,28182,1,0,0:0:0:0:
475,192,28236,1,0,0:0:0:0:
182,192,28236,1,0,0:0:0:0:
329,192,28291,1,0,0:0:0:0:
256,192,28345,1,0,0:0:0:0:
182,192,28399,1,0,0:0:0:0:
475,192,28454,1,0,0:0:0:0:
402,192,28508,1,0,0:0:0:0:
256,192,28562,1,0,0:0:0:0:
109,192,28617,1,0,0:0:0:0:
36,192,28671,1,0,0:0:0:0:
329,192,28671,1,0,0:0:0:0:
182,192,28725,1,0,0:0:0:0:
329,192,28780,1,0,0:0:0:0:
402,192,28780,1,0,0:0:0:0:
182,192,28834,1,0,0:0:0:0:
109,192,28834,1,0,0:0:0:0:
402,192,28888,1,0,0:0:0:0:
475,192,28888,1,0,0:0:0:0:
256,192,28943,1,0,0:0:0:0:
109,192,28997,1,0,0:0:0:0:
36,192,28997,1,0,0:0:0:0:
329,192,29051,1,0,0:0:0:0:
475,192,29106,1,0,0:0:0:0:
36,192,29106,1,0,0:0:0:0:
182,192,29160,1,0,0:0:0:0:
256,192,29214,1,0,0:0:0:0:
329,192,29269,1,0,0:0:0:0:
402,192,29323,1,0,0:0:0:0:
109,192,29323,1,0,0:0:0:0:
256,192,29378,1,0,0:0:0:0:
329,192,29432,1,0,0:0:0:0:
36,192,29432,1,0,0:0:0:0:
182,192,29486,1,0,0:0:0:0:
36,192,29541,1,0,0:0:0:0:
109,192,29541,1,0,0:0:0:0:
256,192,29541,1,0,0:0:0:0:
402,192,29541,1,0,0:0:0:0:
475,192,29541,1,0,0:0:0:0:
109,192,29649,1,0,0:0:0:0:
182,192,29758,1,0,0:0:0:0:
256,192,29758,1,0,0:0:0:0:
329,192,29758,1,0,0:0:0:0:
475,192,29758,1,0,0:0:0:0:
402,192,29758,1,0,0:0:0:0:
329,192,29867,1,0,0:0:0:0:
36,192,29867,1,0,0:0:0:0:
182,192,29975,1,0,0:0:0:0:
402,192,29975,1,0,0:0:0:0:
256,192,30084,1,0,0:0:0:0:
36,192,30084,1,0,0:0:0:0:
256,192,30193,1,0,0:0:0:0:
36,192,30193,1,0,0:0:0:0:
329,192,30193,1,0,0:0:0:0:
475,192,30193,1,0,0:0:0:0:
402,192,30193,1,0,0:0:0:0:
109,192,30301,1,0,0:0:0:0:
182,192,30410,1,0,0:0:0:0:
402,192,30410,1,0,0:0:0:0:
475,192,30410,1,0,0:0:0:0:
329,192,30410,1,0,0:0:0:0:
475,192,30519,1,0,0:0:0:0:
256,192,30628,1,0,0:0:0:0:
109,192,30628,1,0,0:0:0:0:
36,192,30628,1,0,0:0:0:0:
182,192,30628,1,0,0:0:0:0:
256,192,30736,1,0,0:0:0:0:
329,192,30736,1,0,0:0:0:0:
475,192,30736,1,0,0:0:0:0:
109,192,30845,1,0,0:0:0:0:
182,192,30954,1,0,0:0:0:0:
329,192,30954,1,0,0:0:0:0:
402,192,30954,1,0,0:0:0:0:
329,192,31062,1,0,0:0:0:0:
182,192,31062,1,0,0:0:0:0:
402,192,31062,1,0,0:0:0:0:
36,192,31062,1,0,0:0:0:0:
109,192,31062,1,0,0:0:0:0:
36,192,31171,1,0,0:0:0:0:
256,192,31280,1,0,0:0:0:0:
182,192,31280,1,0,0:0:0:0:
402,192,31280,1,0,0:0:0:0:
475,192,31280,1,0,0:0:0:0:
256,192,31388,1,0,0:0:0:0:
36,192,31388,1,0,0:0:0:0:
329,192,31497,1,0,0:0:0:0:
402,192,31497,1,0,0:0:0:0:
475,192,31497,1,0,0:0:0:0:
109,192,31497,1,0,0:0:0:0:
182,192,31497,1,0,0:0:0:0:
256,192,31606,1,0,0:0:0:0:
36,192,31606,1,0,0:0:0:0:
109,192,31714,1,0,0:0:0:0:
329,192,31714,1,0,0:0:0:0:
182,192,31823,1,0,0:0:0:0:
329,192,31823,1,0,0:0:0:0:
475,192,31823,1,0,0:0:0:0:
182,192,31932,1,0,0:0:0:0:
109,192,31932,1,0,0:0:0:0:
36,192,31932,1,0,0:0:0:0:
402,192,31932,1,0,0:0:0:0:
256,192,32041,1,0,0:0:0:0:
475,192,32041,1,0,0:0:0:0:
402,192,32149,1,0,0:0:0:0:
109,192,32149,1,0,0:0:0:0:
36,192,32149,1,0,0:0:0:0:
109,192,32258,1,0,0:0:0:0:
256,192,32367,1,0,0:0:0:0:
329,192,32367,1,0,0:0:0:0:
475,192,32367,1,0,0:0:0:0:
402,192,32367,1,0,0:0:0:0:
329,192,32475,1,0,0:0:0:0:
36,192,32475,1,0,0:0:0:0:
182,192,32584,1,0,0:0:0:0:
36,192,32693,1,0,0:0:0:0:
329,192,32693,1,0,0:0:0:0:
182,192,32801,1,0,0:0:0:0:
329,192,32801,1,0,0:0:0:0:
475,192,32801,1,0,0:0:0:0:
256,192,32801,1,0,0:0:0:0:
109,192,32910,1,0,0:0:0:0:
256,192,33019,1,0,0:0:0:0:
402,192,33019,1,0,0:0:0:0:
36,192,33019,1,0,0:0:0:0:
36,192,33128,1,0,0:0:0:0:
182,192,33236,1,0,0:0:0:0:
329,192,33236,1,0,0:0:0:0:
402,192,33236,1,0,0:0:0:0:
475,192,33236,1,0,0:0:0:0:
256,192,33236,1,0,0:0:0:0:
329,192,33345,1,0,0:0:0:0:
36,192,33345,1,0,0:0:0:0:
182,192,33454,1,0,0:0:0:0:
475,192,33454,1,0,0:0:0:0:
256,192,33562,1,0,0:0:0:0:
109,192,33562,1,0,0:0:0:0:
109,192,33671,1,0,0:0:0:0:
36,192,33671,1,0,0:0:0:0:
256,192,33671,1,0,0:0:0:0:
329,192,33671,1,0,0:0:0:0:
402,192,33671,1,0,0:0:0:0:
402,192,33780,1,0,0:0:0:0:
256,192,33888,1,0,0:0:0:0:
182,192,33888,1,0,0:0:0:0:
36,192,33888,1,0,0:0:0:0:
475,192,33888,1,0,0:0:0:0:
402,192,33997,1,0,0:0:0:0:
182,192,34106,1,0,0:0:0:0:
256,192,34106,1,0,0:0:0:0:
402,192,34106,1,0,0:0:0:0:
475,192,34106,1,0,0:0:0:0:
256,192,34214,1,0,0:0:0:0:
109,192,34214,1,0,0:0:0:0:
36,192,34214,1,0,0:0:0:0:
402,192,34323,1,0,0:0:0:0:
329,192,34432,1,0,0:0:0:0:
182,192,34432,1,0,0:0:0:0:
109,192,34432,1,0,0:0:0:0:
182,192,34541,1,0,0:0:0:0:
109,192,34541,1,0,0:0:0:0:
329,192,34541,1,0,0:0:0:0:
402,192,34541,1,0,0:0:0:0:
475,192,34541,1,0,0:0:0:0:
475,192,34649,1,0,0:0:0:0:
329,192,34758,1,0,0:0:0:0:
256,192,34758,1,0,0:0:0:0:
182,192,34758,1,0,0:0:0:0:
36,192,34758,1,0,0:0:0:0:
36,192,34867,1,0,0:0:0:0:
329,192,34867,1,0,0:0:0:0:
109,192,34975,1,0,0:0:0:0:
402,192,34975,1,0,0:0:0:0:
475,192,34975,1,0,0:0:0:0:
256,192,34975,1,0,0:0:0:0:
182,192,34975,1,0,0:0:0:0:
182,192,35084,1,0,0:0:0:0:
475,192,35084,1,0,0:0:0:0:
329,192,35193,1,0,0:0:0:0:
36,192,35193,1,0,0:0:0:0:
402,192,35301,1,0,0:0:0:0:
475,192,35301,1,0,0:0:0:0:
182,192,35301,1,0,0:0:0:0:
256,192,35410,1,0,0:0:0:0:
402,192,35410,1,0,0:0:0:0:
329,192,35410,1,0,0:0:0:0:
36,192,35410,1,0,0:0:0:0:
109,192,35519,1,0,0:0:0:0:
475,192,35519,1,0,0:0:0:0:
402,192,35573,1,0,0:0:0:0:
329,192,35628,1,0,0:0:0:0:
182,192,35628,1,0,0:0:0:0:
109,192,35628,1,0,0:0:0:0:
36,192,35628,1,0,0:0:0:0:
182,192,35736,1,0,0:0:0:0:
256,192,35845,1,0,0:0:0:0:
402,192,35845,1,0,0:0:0:0:
475,192,35845,1,0,0:0:0:0:
36,192,35845,1,0,0:0:0:0:
182,192,35954,1,0,0:0:0:0:
475,192,35954,1,0,0:0:0:0:
329,192,36062,1,0,0:0:0:0:
36,192,36062,1,0,0:0:0:0:
182,192,36171,1,0,0:0:0:0:
329,192,36171,1,0,0:0:0:0:
475,192,36171,1,0,0:0:0:0:
182,192,36280,1,0,0:0:0:0:
109,192,36280,1,0,0:0:0:0:
36,192,36280,1,0,0:0:0:0:
475,192,36280,1,0,0:0:0:0:
256,192,36388,1,0,0:0:0:0:
329,192,36497,1,0,0:0:0:0:
256,192,36497,1,0,0:0:0:0:
109,192,36497,1,0,0:0:0:0:
36,192,36497,1,0,0:0:0:0:
475,192,36497,1,0,0:0:0:0:
109,192,36606,1,0,0:0:0:0:
182,192,36714,1,0,0:0:0:0:
256,192,36714,1,0,0:0:0:0:
402,192,36714,1,0,0:0:0:0:
475,192,36714,1,0,0:0:0:0:
329,192,36714,1,0,0:0:0:0:
256,192,36823,1,0,0:0:0:0:
36,192,36823,1,0,0:0:0:0:
475,192,36932,1,0,0:0:0:0:
182,192,36932,1,0,0:0:0:0:
109,192,37041,1,0,0:0:0:0:
329,192,37041,1,0,0:0:0:0:
109,192,37149,1,0,0:0:0:0:
329,192,37149,1,0,0:0:0:0:
402,192,37149,1,0,0:0:0:0:
475,192,37149,1,0,0:0:0:0:
256,192,37149,1,0,0:0:0:0:
402,192,37258,1,0,0:0:0:0:
256,192,37367,1,0,0:0:0:0:
182,192,37367,1,0,0:0:0:0:
36,192,37367,1,0,0:0:0:0:
475,192,37367,1,0,0:0:0:0:
475,192,37475,1,0,0:0:0:0:
475,192,37584,1,0,0:0:0:0:
256,192,37584,1,0,0:0:0:0:
182,192,37584,1,0,0:0:0:0:
109,192,37584,1,0,0:0:0:0:
109,192,37693,1,0,0:0:0:0:
36,192,37693,1,0,0:0:0:0:
402,192,37693,1,0,0:0:0:0:
256,192,37801,1,0,0:0:0:0:
109,192,37910,1,0,0:0:0:0:
36,192,37910,1,0,0:0:0:0:
402,192,37910,1,0,0:0:0:0:
256,192,38019,1,0,0:0:0:0:
36,192,38019,1,0,0:0:0:0:
329,192,38019,1,0,0:0:0:0:
402,192,38019,1,0,0:0:0:0:
475,192,38019,1,0,0:0:0:0:
256,192,38128,1,0,0:0:0:0:
182,192,38128,1,0,0:0:0:0:
109,192,38236,1,0,0:0:0:0:
329,192,38236,1,0,0:0:0:0:
475,192,38236,1,0,0:0:0:0:
36,192,38236,1,0,0:0:0:0:
109,192,38345,1,0,0:0:0:0:
256,192,38454,1,0,0:0:0:0:
36,192,38454,1,0,0:0:0:0:
329,192,38454,1,0,0:0:0:0:
475,192,38454,1,0,0:0:0:0:
402,192,38454,1,0,0:0:0:0:
109,192,38562,1,0,0:0:0:0:
329,192,38562,1,0,0:0:0:0:
182,192,38671,1,0,0:0:0:0:
402,192,38671,1,0,0:0:0:0:
256,192,38780,1,0,0:0:0:0:
36,192,38780,1,0,0:0:0:0:
256,192,38888,1,0,0:0:0:0:
329,192,38888,1,0,0:0:0:0:
475,192,38888,1,0,0:0:0:0:
109,192,38888,1,0,0:0:0:0:
36,192,38888,1,0,0:0:0:0:
182,192,38997,1,0,0:0:0:0:
402,192,38997,1,0,0:0:0:0:
256,192,39106,1,0,0:0:0:0:
182,192,39106,1,0,0:0:0:0:
109,192,39106,1,0,0:0:0:0:
475,192,39106,1,0,0:0:0:0:
402,192,39214,1,0,0:0:0:0:
329,192,39323,1,0,0:0:0:0:
182,192,39323,1,0,0:0:0:0:
36,192,39323,1,0,0:0:0:0:
256,192,39323,1,0,0:0:0:0:
109,192,39323,1,0,0:0:0:0:
329,192,39432,1,0,0:0:0:0:
402,192,39432,1,0,0:0:0:0:
109,192,39432,1,0,0:0:0:0:
402,192,39541,1,0,0:0:0:0:
475,192,39541,1,0,0:0:0:0:
256,192,39649,1,0,0:0:0:0:
109,192,39649,1,0,0:0:0:0:
36,192,39649,1,0,0:0:0:0:
182,192,39758,1,0,0:0:0:0:
109,192,39758,1,0,0:0:0:0:
475,192,39758,1,0,0:0:0:0:
256,192,39758,1,0,0:0:0:0:
329,192,39758,1,0,0:0:0:0:
329,192,39867,1,0,0:0:0:0:
402,192,39867,1,0,0:0:0:0:
182,192,39975,1,0,0:0:0:0:
109,192,39975,1,0,0:0:0:0:
36,192,39975,1,0,0:0:0:0:
475,192,39975,1,0,0:0:0:0:
402,192,40084,1,0,0:0:0:0:
256,192,40193,1,0,0:0:0:0:
182,192,40193,1,0,0:0:0:0:
109,192,40193,1,0,0:0:0:0:
36,192,40193,1,0,0:0:0:0:
329,192,40193,1,0,0:0:0:0:
182,192,40301,1,0,0:0:0:0:
402,192,40301,1,0,0:0:0:0:
109,192,40410,1,0,0:0:0:0:
256,192,40519,1,0,0:0:0:0:
402,192,40519,1,0,0:0:0:0:
475,192,40519,1,0,0:0:0:0:
402,192,40628,1,0,0:0:0:0:
329,192,40628,1,0,0:0:0:0:
182,192,40628,1,0,0:0:0:0:
109,192,40628,1,0,0:0:0:0:
36,192,40628,1,0,0:0:0:0:
109,192,40736,1,0,0:0:0:0:
329,192,40736,1,0,0:0:0:0:
182,192,40791,1,0,0:0:0:0:
256,192,40845,1,0,0:0:0:0:
475,192,40845,1,0,0:0:0:0:
402,192,40845,1,0,0:0:0:0:
256,192,40954,1,0,0:0:0:0:
36,192,40954,1,0,0:0:0:0:
109,192,41062,1,0,0:0:0:0:
36,192,41062,1,0,0:0:0:0:
329,192,41062,1,0,0:0:0:0:
402,192,41062,1,0,0:0:0:0:
475,192,41062,1,0,0:0:0:0:
182,192,41171,1,0,0:0:0:0:
475,192,41171,1,0,0:0:0:0:
329,192,41280,1,0,0:0:0:0:
36,192,41280,1,0,0:0:0:0:
182,192,41388,1,0,0:0:0:0:
109,192,41388,1,0,0:0:0:0:
402,192,41388,1,0,0:0:0:0:
329,192,41497,1,0,0:0:0:0:
256,192,41497,1,0,0:0:0:0:
182,192,41497,1,0,0:0:0:0:
36,192,41497,1,0,0:0:0:0:
475,192,41497,1,0,0:0:0:0:
329,192,41606,1,0,0:0:0:0:
402,192,41606,1,0,0:0:0:0:
182,192,41714,1,0,0:0:0:0:
109,192,41714,1,0,0:0:0:0:
36,192,41714,1,0,0:0:0:0:
402,192,41714,1,0,0:0:0:0:
475,192,41714,1,0,0:0:0:0:
256,192,41823,1,0,0:0:0:0:
109,192,41932,1,0,0:0:0:0:
329,192,41932,1,0,0:0:0:0:
402,192,41932,1,0,0:0:0:0:
475,192,41932,1,0,0:0:0:0:
36,192,41932,1,0,0:0:0:0:
329,192,42041,1,0,0:0:0:0:
182,192,42149,1,0,0:0:0:0:
36,192,42149,1,0,0:0:0:0:
256,192,42258,1,0,0:0:0:0:
402,192,42258,1,0,0:0:0:0:
109,192,42367,1,0,0:0:0:0:
475,192,42367,1,0,0:0:0:0:
402,192,42367,1,0,0:0:0:0:
256,192,42367,1,0,0:0:0:0:
36,192,42367,1,0,0:0:0:0:
109,192,42475,1,0,0:0:0:0:
329,192,42584,1,0,0:0:0:0:
256,192,42584,1,0,0:0:0:0:
182,192,42584,1,0,0:0:0:0:
402,192,42584,1,0,0:0:0:0:
475,192,42584,1,0,0:0:0:0:
329,192,42693,1,0,0:0:0:0:
36,192,42693,1,0,0:0:0:0:
109,192,42801,1,0,0:0:0:0:
402,192,42801,1,0,0:0:0:0:
256,192,42910,1,0,0:0:0:0:
475,192,43019,1,0,0:0:0:0:
182,192,43019,1,0,0:0:0:0:
402,192,43073,1,0,0:0:0:0:
109,192,43073,1,0,0:0:0:0:
329,192,43128,1,0,0:0:0:0:
36,192,43128,1,0,0:0:0:0:
256,192,43182,1,0,0:0:0:0:
182,192,43236,1,0,0:0:0:0:
475,192,43236,1,0,0:0:0:0:
109,192,43291,1,0,0:0:0:0:
402,192,43291,1,0,0:0:0:0:
36,192,43345,1,0,0:0:0:0:
329,192,43345,1,0,0:0:0:0:
256,192,43454,1,0,0:0:0:0:
182,192,43454,1,0,0:0:0:0:
36,192,43454,1,0,0:0:0:0:
402,192,43454,1,0,0:0:0:0:
475,192,43454,1,0,0:0:0:0:
182,192,43562,1,0,0:0:0:0:
109,192,43671,1,0,0:0:0:0:
36,192,43671,1,0,0:0:0:0:
329,192,43671,1,0,0:0:0:0:
475,192,43671,1,0,0:0:0:0:
402,192,43671,1,0,0:0:0:0:
182,192,43780,1,0,0:0:0:0:
402,192,43780,1,0,0:0:0:0:
475,192,43780,1,0,0:0:0:0:
329,192,43888,1,0,0:0:0:0:
256,192,43888,1,0,0:0:0:0:
36,192,43888,1,0,0:0:0:0:
109,192,43997,1,0,0:0:0:0:
329,192,43997,1,0,0:0:0:0:
402,192,43997,1,0,0:0:0:0:
256,192,44106,1,0,0:0:0:0:
182,192,44106,1,0,0:0:0:0:
109,192,44106,1,0,0:0:0:0:
36,192,44106,1,0,0:0:0:0:
475,192,44106,1,0,0:0:0:0:
256,192,44214,1,0,0:0:0:0:
182,192,44323,1,0,0:0:0:0:
329,192,44323,1,0,0:0:0:0:
402,192,44323,1,0,0:0:0:0:
475,192,44323,1,0,0:0:0:0:
109,192,44323,1,0,0:0:0:0:
182,192,44432,1,0,0:0:0:0:
475,192,44432,1,0,0:0:0:0:
329,192,44541,1,0,0:0:0:0:
256,192,44541,1,0,0:0:0:0:
36,192,44541,1,0,0:0:0:0:
109,192,44541,1,0,0:0:0:0:
109,192,44649,1,0,0:0:0:0:
36,192,44649,1,0,0:0:0:0:
256,192,44649,1,0,0:0:0:0:
475,192,44649,1,0,0:0:0:0:
402,192,44758,1,0,0:0:0:0:
329,192,44867,1,0,0:0:0:0:
182,192,44867,1,0,0:0:0:0:
109,192,44867,1,0,0:0:0:0:
475,192,44867,1,0,0:0:0:0:
329,192,44975,1,0,0:0:0:0:
475,192,44975,1,0,0:0:0:0:
182,192,44975,1,0,0:0:0:0:
109,192,44975,1,0,0:0:0:0:
36,192,44975,1,0,0:0:0:0:
256,192,45084,1,0,0:0:0:0:
182,192,45193,1,0,0:0:0:0:
36,192,45193,1,0,0:0:0:0:
329,192,45193,1,0,0:0:0:0:
475,192,45193,1,0,0:0:0:0:
402,192,45193,1,0,0:0:0:0:
256,192,45301,1,0,0:0:0:0:
329,192,45301,1,0,0:0:0:0:
36,192,45301,1,0,0:0:0:0:
182,192,45410,1,0,0:0:0:0:
109,192,45410,1,0,0:0:0:0:
475,192,45410,1,0,0:0:0:0:
402,192,45410,1,0,0:0:0:0:
329,192,45519,1,0,0:0:0:0:
256,192,45519,1,0,0:0:0:0:
36,192,45519,1,0,0:0:0:0:
329,192,45628,1,0,0:0:0:0:
402,192,45628,1,0,0:0:0:0:
182,192,45628,1,0,0:0:0:0:
109,192,45736,1,0,0:0:0:0:
36,192,45736,1,0,0:0:0:0:
402,192,45736,1,0,0:0:0:0:
475,192,45736,1,0,0:0:0:0:
329,192,45845,1,0,0:0:0:0:
256,192,45845,1,0,0:0:0:0:
182,192,45845,1,0,0:0:0:0:
109,192,45845,1,0,0:0:0:0:
256,192,45954,1,0,0:0:0:0:
402,192,45954,1,0,0:0:0:0:
475,192,45954,1,0,0:0:0:0:
329,192,46062,1,0,0:0:0:0:
36,192,46062,1,0,0:0:0:0:
182,192,46062,1,0,0:0:0:0:
109,192,46062,1,0,0:0:0:0:
402,192,46171,1,0,0:0:0:0:
182,192,46280,1,0,0:0:0:0:
329,192,46280,1,0,0:0:0:0:
402,192,46280,1,0,0:0:0:0:
475,192,46280,1,0,0:0:0:0:
329,192,46388,1,0,0:0:0:0:
109,192,46388,1,0,0:0:0:0:
36,192,46388,1,0,0:0:0:0:
256,192,46497,1,0,0:0:0:0:
109,192,46606,1,0,0:0:0:0:
36,192,46606,1,0,0:0:0:0:
329,192,46606,1,0,0:0:0:0:
182,192,46714,1,0,0:0:0:0:
329,192,46714,1,0,0:0:0:0:
402,192,46714,1,0,0:0:0:0:
475,192,46714,1,0,0:0:0:0:
182,192,46823,1,0,0:0:0:0:
256,192,46932,1,0,0:0:0:0:
36,192,46932,1,0,0:0:0:0:
402,192,46932,1,0,0:0:0:0:
475,192,46932,1,0,0:0:0:0:
109,192,47041,1,0,0:0:0:0:
329,192,47149,1,0,0:0:0:0:
256,192,47149,1,0,0:0:0:0:
36,192,47149,1,0,0:0:0:0:
475,192,47149,1,0,0:0:0:0:
182,192,47149,1,0,0:0:0:0:
256,192,47258,1,0,0:0:0:0:
329,192,47258,1,0,0:0:0:0:
475,192,47258,1,0,0:0:0:0:
402,192,47367,1,0,0:0:0:0:
36,192,47367,1,0,0:0:0:0:
109,192,47367,1,0,0:0:0:0:
256,192,47475,1,0,0:0:0:0:
182,192,47475,1,0,0:0:0:0:
475,192,47475,1,0,0:0:0:0:
256,192,47584,1,0,0:0:0:0:
182,192,47584,1,0,0:0:0:0:
36,192,47584,1,0,0:0:0:0:
402,192,47584,1,0,0:0:0:0:
475,192,47584,1,0,0:0:0:0:
109,192,47693,1,0,0:0:0:0:
256,192,47801,1,0,0:0:0:0:
182,192,47801,1,0,0:0:0:0:
36,192,47801,1,0,0:0:0:0:
329,192,47801,1,0,0:0:0:0:
475,192,47801,1,0,0:0:0:0:
329,192,47910,1,0,0:0:0:0:
475,192,47910,1,0,0:0:0:0:
256,192,48019,1,0,0:0:0:0:
182,192,48019,1,0,0:0:0:0:
36,192,48019,1,0,0:0:0:0:
109,192,48019,1,0,0:0:0:0:
109,192,48128,1,0,0:0:0:0:
329,192,48128,1,0,0:0:0:0:
402,192,48128,1,0,0:0:0:0:
475,192,48128,1,0,0:0:0:0:
256,192,48236,1,0,0:0:0:0:
109,192,48345,1,0,0:0:0:0:
182,192,48345,1,0,0:0:0:0:
402,192,48345,1,0,0:0:0:0:
475,192,48345,1,0,0:0:0:0:
109,192,48454,1,0,0:0:0:0:
36,192,48454,1,0,0:0:0:0:
182,192,48454,1,0,0:0:0:0:
475,192,48454,1,0,0:0:0:0:
402,192,48454,1,0,0:0:0:0:
256,192,48562,1,0,0:0:0:0:
256,192,48671,1,0,0:0:0:0:
36,192,48671,1,0,0:0:0:0:
329,192,48671,1,0,0:0:0:0:
402,192,48671,1,0,0:0:0:0:
182,192,48671,1,0,0:0:0:0:
109,192,48780,1,0,0:0:0:0:
36,192,48780,1,0,0:0:0:0:
329,192,48780,1,0,0:0:0:0:
256,192,48888,1,0,0:0:0:0:
182,192,48888,1,0,0:0:0:0:
402,192,48888,1,0,0:0:0:0:
475,192,48888,1,0,0:0:0:0:
329,192,48997,1,0,0:0:0:0:
109,192,48997,1,0,0:0:0:0:
36,192,48997,1,0,0:0:0:0:
256,192,49106,1,0,0:0:0:0:
36,192,49106,1,0,0:0:0:0:
475,192,49106,1,0,0:0:0:0:
402,192,49214,1,0,0:0:0:0:
475,192,49214,1,0,0:0:0:0:
329,192,49214,1,0,0:0:0:0:
109,192,49214,1,0,0:0:0:0:
256,192,49323,1,0,0:0:0:0:
182,192,49323,1,0,0:0:0:0:
36,192,49323,1,0,0:0:0:0:
329,192,49323,1,0,0:0:0:0:
402,192,49432,1,0,0:0:0:0:
182,192,49432,1,0,0:0:0:0:
329,192,49486,1,0,0:0:0:0:
402,192,49541,1,0,0:0:0:0:
475,192,49541,1,0,0:0:0:0:
256,192,49541,1,0,0:0:0:0:
109,192,49541,1,0,0:0:0:0:
36,192,49541,1,0,0:0:0:0:
109,192,49649,1,0,0:0:0:0:
182,192,49758,1,0,0:0:0:0:
36,192,49758,1,0,0:0:0:0:
256,192,49758,1,0,0:0:0:0:
329,192,49758,1,0,0:0:0:0:
402,192,49758,1,0,0:0:0:0:
475,192,49758,1,0,0:0:0:0:
402,192,49867,1,0,0:0:0:0:
256,192,49975,1,0,0:0:0:0:
36,192,50084,1,0,0:0:0:0:
256,192,50084,1,0,0:0:0:0:
329,192,50084,1,0,0:0:0:0:
475,192,50084,1,0,0:0:0:0:
182,192,50084,1,0,0:0:0:0:
109,192,50084,1,0,0:0:0:0:
109,192,50193,1,0,0:0:0:0:
256,192,50301,1,0,0:0:0:0:
256,192,50410,1,0,0:0:0:0:
329,192,50410,1,0,0:0:0:0:
402,192,50410,1,0,0:0:0:0:
475,192,50410,1,0,0:0:0:0:
36,192,50410,1,0,0:0:0:0:
109,192,50519,1,0,0:0:0:0:
329,192,50628,1,0,0:0:0:0:
256,192,50628,1,0,0:0:0:0:
182,192,50628,1,0,0:0:0:0:
36,192,50628,1,0,0:0:0:0:
475,192,50628,1,0,0:0:0:0:
182,192,50736,1,0,0:0:0:0:
402,192,50736,1,0,0:0:0:0:
475,192,50736,1,0,0:0:0:0:
329,192,50845,1,0,0:0:0:0:
109,192,50845,1,0,0:0:0:0:
36,192,50845,1,0,0:0:0:0:
256,192,50954,1,0,0:0:0:0:
402,192,50954,1,0,0:0:0:0:
36,192,50954,1,0,0:0:0:0:
256,192,51062,1,0,0:0:0:0:
182,192,51062,1,0,0:0:0:0:
402,192,51062,1,0,0:0:0:0:
475,192,51062,1,0,0:0:0:0:
109,192,51062,1,0,0:0:0:0:
329,192,51171,1,0,0:0:0:0:
256,192,51280,1,0,0:0:0:0:
182,192,51280,1,0,0:0:0:0:
36,192,51280,1,0,0:0:0:0:
402,192,51280,1,0,0:0:0:0:
475,192,51280,1,0,0:0:0:0:
256,192,51388,1,0,0:0:0:0:
475,192,51388,1,0,0:0:0:0:
329,192,51497,1,0,0:0:0:0:
256,192,51497,1,0,0:0:0:0:
36,192,51497,1,0,0:0:0:0:
109,192,51497,1,0,0:0:0:0:
36,192,51606,1,0,0:0:0:0:
109,192,51606,1,0,0:0:0:0:
402,192,51606,1,0,0:0:0:0:
475,192,51606,1,0,0:0:0:0:
256,192,51714,1,0,0:0:0:0:
36,192,51823,1,0,0:0:0:0:
182,192,51823,1,0,0:0:0:0:
402,192,51823,1,0,0:0:0:0:
329,192,51823,1,0,0:0:0:0:
402,192,51932,1,0,0:0:0:0:
109,192,51932,1,0,0:0:0:0:
182,192,51932,1,0,0:0:0:0:
36,192,51932,1,0,0:0:0:0:
475,192,51932,1,0,0:0:0:0:
109,192,52041,1,0,0:0:0:0:
329,192,52041,1,0,0:0:0:0:
329,192,52149,1,0,0:0:0:0:
256,192,52149,1,0,0:0:0:0:
36,192,52149,1,0,0:0:0:0:
402,192,52149,1,0,0:0:0:0:
475,192,52149,1,0,0:0:0:0:
182,192,52258,1,0,0:0:0:0:
256,192,52367,1,0,0:0:0:0:
475,192,52367,1,0,0:0:0:0:
36,192,52367,1,0,0:0:0:0:
109,192,52367,1,0,0:0:0:0:
402,192,52367,1,0,0:0:0:0:
329,192,52475,1,0,0:0:0:0:
182,192,52475,1,0,0:0:0:0:
109,192,52475,1,0,0:0:0:0:
182,192,52584,1,0,0:0:0:0:
256,192,52584,1,0,0:0:0:0:
402,192,52584,1,0,0:0:0:0:
329,192,52693,1,0,0:0:0:0:
109,192,52693,1,0,0:0:0:0:
36,192,52693,1,0,0:0:0:0:
256,192,52801,1,0,0:0:0:0:
36,192,52801,1,0,0:0:0:0:
475,192,52801,1,0,0:0:0:0:
182,192,52801,1,0,0:0:0:0:
109,192,52910,1,0,0:0:0:0:
256,192,52910,1,0,0:0:0:0:
329,192,52910,1,0,0:0:0:0:
182,192,53019,1,0,0:0:0:0:
329,192,53019,1,0,0:0:0:0:
402,192,53019,1,0,0:0:0:0:
475,192,53019,1,0,0:0:0:0:
109,192,53128,1,0,0:0:0:0:
329,192,53236,1,0,0:0:0:0:
256,192,53236,1,0,0:0:0:0:
182,192,53236,1,0,0:0:0:0:
36,192,53236,1,0,0:0:0:0:
475,192,53236,1,0,0:0:0:0:
329,192,53345,1,0,0:0:0:0:
402,192,53345,1,0,0:0:0:0:
109,192,53345,1,0,0:0:0:0:
36,192,53345,1,0,0:0:0:0:
182,192,53454,1,0,0:0:0:0:
402,192,53454,1,0,0:0:0:0:
475,192,53454,1,0,0:0:0:0:
329,192,53562,1,0,0:0:0:0:
109,192,53562,1,0,0:0:0:0:
36,192,53562,1,0,0:0:0:0:
256,192,53562,1,0,0:0:0:0:
36,192,53671,1,0,0:0:0:0:
182,192,53671,1,0,0:0:0:0:
475,192,53671,1,0,0:0:0:0:
402,192,53671,1,0,0:0:0:0:
402,192,53780,1,0,0:0:0:0:
329,192,53780,1,0,0:0:0:0:
109,192,53780,1,0,0:0:0:0:
329,192,53888,1,0,0:0:0:0:
256,192,53888,1,0,0:0:0:0:
182,192,53888,1,0,0:0:0:0:
36,192,53888,1,0,0:0:0:0:
475,192,53888,1,0,0:0:0:0:
182,192,53997,1,0,0:0:0:0:
402,192,53997,1,0,0:0:0:0:
475,192,53997,1,0,0:0:0:0:
402,192,54106,1,0,0:0:0:0:
329,192,54106,1,0,0:0:0:0:
109,192,54106,1,0,0:0:0:0:
36,192,54106,1,0,0:0:0:0:
329,192,54214,1,0,0:0:0:0:
36,192,54214,1,0,0:0:0:0:
256,192,54214,1,0,0:0:0:0:
109,192,54323,1,0,0:0:0:0:
256,192,54432,1,0,0:0:0:0:
402,192,54432,1,0,0:0:0:0:
475,192,54432,1,0,0:0:0:0:
182,192,54432,1,0,0:0:0:0:
256,192,54541,1,0,0:0:0:0:
109,192,54541,1,0,0:0:0:0:
36,192,54541,1,0,0:0:0:0:
402,192,54541,1,0,0:0:0:0:
475,192,54541,1,0,0:0:0:0:
109,192,54649,1,0,0:0:0:0:
182,192,54758,1,0,0:0:0:0:
329,192,54758,1,0,0:0:0:0:
402,192,54758,1,0,0:0:0:0:
475,192,54758,1,0,0:0:0:0:
109,192,54867,1,0,0:0:0:0:
182,192,54975,1,0,0:0:0:0:
256,192,54975,1,0,0:0:0:0:
402,192,54975,1,0,0:0:0:0:
475,192,54975,1,0,0:0:0:0:
256,192,55084,1,0,0:0:0:0:
109,192,55084,1,0,0:0:0:0:
36,192,55084,1,0,0:0:0:0:
329,192,55193,1,0,0:0:0:0:
475,192,55193,1,0,0:0:0:0:
109,192,55193,1,0,0:0:0:0:
182,192,55301,1,0,0:0:0:0:
402,192,55301,1,0,0:0:0:0:
475,192,55301,1,0,0:0:0:0:
329,192,55410,1,0,0:0:0:0:
256,192,55410,1,0,0:0:0:0:
182,192,55410,1,0,0:0:0:0:
36,192,55410,1,0,0:0:0:0:
402,192,55519,1,0,0:0:0:0:
36,192,55519,1,0,0:0:0:0:
109,192,55573,1,0,0:0:0:0:
256,192,55628,1,0,0:0:0:0:
329,192,55628,1,0,0:0:0:0:
402,192,55628,1,0,0:0:0:0:
475,192,55628,1,0,0:0:0:0:
36,192,55736,1,0,0:0:0:0:
329,192,55736,1,0,0:0:0:0:
182,192,55845,1,0,0:0:0:0:
402,192,55845,1,0,0:0:0:0:
475,192,55954,1,0,0:0:0:0:
182,192,55954,1,0,0:0:0:0:
329,192,56062,1,0,0:0:0:0:
36,192,56062,1,0,0:0:0:0:
109,192,56171,1,0,0:0:0:0:
329,192,56171,1,0,0:0:0:0:
475,192,56280,1,0,0:0:0:0:
182,192,56280,1,0,0:0:0:0:
256,192,56388,1,0,0:0:0:0:
36,192,56388,1,0,0:0:0:0:
402,192,56497,1,0,0:0:0:0:
109,192,56497,1,0,0:0:0:0:
402,192,56606,1,0,0:0:0:0:
256,192,56606,1,0,0:0:0:0:
256,192,56714,1,0,0:0:0:0:
109,192,56714,1,0,0:0:0:0:
109,192,56823,1,0,0:0:0:0:
402,192,56823,1,0,0:0:0:0:
182,192,56932,1,0,0:0:0:0:
256,192,56968,1,0,0:0:0:0:
329,192,57004,1,0,0:0:0:0:
402,192,57041,1,0,0:0:0:0:
475,192,57077,1,0,0:0:0:0:
36,192,57113,1,0,0:0:0:0:
109,192,57149,1,0,0:0:0:0:
182,192,57186,1,0,0:0:0:0:
256,192,57222,1,0,0:0:0:0:
329,192,57258,1,0,0:0:0:0:
402,192,57294,1,0,0:0:0:0:
475,192,57330,1,0,0:0:0:0:
182,192,57367,1,0,0:0:0:0:
109,192,57367,1,0,0:0:0:0:
36,192,57367,1,0,0:0:0:0:
256,192,57367,1,0,0:0:0:0:
402,192,57475,1,0,0:0:0:0:
475,192,57584,1,0,0:0:0:0:
182,192,57584,1,0,0:0:0:0:
329,192,57584,1,0,0:0:0:0:
109,192,57584,1,0,0:0:0:0:
329,192,57693,1,0,0:0:0:0:
475,192,57801,1,0,0:0:0:0:
256,192,57801,1,0,0:0:0:0:
182,192,57856,1,0,0:0:0:0:
36,192,57910,1,0,0:0:0:0:
475,192,57910,1,0,0:0:0:0:
329,192,57910,1,0,0:0:0:0:
256,192,57964,1,0,0:0:0:0:
109,192,58019,1,0,0:0:0:0:
36,192,58019,1,0,0:0:0:0:
402,192,58019,1,0,0:0:0:0:
182,192,58019,1,0,0:0:0:0:
329,192,58073,1,0,0:0:0:0:
182,192,58128,1,0,0:0:0:0:
475,192,58128,1,0,0:0:0:0:
402,192,58182,1,0,0:0:0:0:
256,192,58236,1,0,0:0:0:0:
109,192,58236,1,0,0:0:0:0:
475,192,58236,1,0,0:0:0:0:
329,192,58291,1,0,0:0:0:0:
182,192,58345,1,0,0:0:0:0:
36,192,58345,1,0,0:0:0:0:
256,192,58399,1,0,0:0:0:0:
109,192,58454,1,0,0:0:0:0:
402,192,58454,1,0,0:0:0:0:
475,192,58454,1,0,0:0:0:0:
329,192,58454,1,0,0:0:0:0:
182,192,58508,1,0,0:0:0:0:
36,192,58562,1,0,0:0:0:0:
402,192,58562,1,0,0:0:0:0:
329,192,58562,1,0,0:0:0:0:
109,192,58617,1,0,0:0:0:0:
256,192,58671,1,0,0:0:0:0:
475,192,58671,1,0,0:0:0:0:
182,192,58725,1,0,0:0:0:0:
36,192,58780,1,0,0:0:0:0:
475,192,58780,1,0,0:0:0:0:
329,192,58780,1,0,0:0:0:0:
256,192,58834,1,0,0:0:0:0:
109,192,58888,1,0,0:0:0:0:
36,192,58888,1,0,0:0:0:0:
402,192,58888,1,0,0:0:0:0:
182,192,58888,1,0,0:0:0:0:
329,192,58943,1,0,0:0:0:0:
182,192,58997,1,0,0:0:0:0:
475,192,58997,1,0,0:0:0:0:
402,192,59051,1,0,0:0:0:0:
329,192,59106,1,0,0:0:0:0:
256,192,59106,1,0,0:0:0:0:
36,192,59106,1,0,0:0:0:0:
109,192,59106,1,0,0:0:0:0:
475,192,59214,1,0,0:0:0:0:
402,192,59214,1,0,0:0:0:0:
402,192,59323,1,0,0:0:0:0:
36,192,59323,1,0,0:0:0:0:
329,192,59323,1,0,0:0:0:0:
256,192,59323,1,0,0:0:0:0:
256,192,59432,1,0,0:0:0:0:
182,192,59432,1,0,0:0:0:0:
182,192,59541,1,0,0:0:0:0:
109,192,59541,1,0,0:0:0:0:
402,192,59541,1,0,0:0:0:0:
256,192,59649,1,0,0:0:0:0:
329,192,59649,1,0,0:0:0:0:
36,192,59649,1,0,0:0:0:0:
475,192,59649,1,0,0:0:0:0:
109,192,59758,1,0,0:0:0:0:
36,192,59758,1,0,0:0:0:0:
256,192,59758,1,0,0:0:0:0:
475,192,59758,1,0,0:0:0:0:
182,192,59867,1,0,0:0:0:0:
329,192,59867,1,0,0:0:0:0:
256,192,59975,1,0,0:0:0:0:
402,192,59975,1,0,0:0:0:0:
329,192,59975,1,0,0:0:0:0:
36,192,59975,1,0,0:0:0:0:
475,192,60048,1,0,0:0:0:0:
109,192,60084,1,0,0:0:0:0:
402,192,60120,1,0,0:0:0:0:
256,192,60193,1,0,0:0:0:0:
329,192,60193,1,0,0:0:0:0:
182,192,60193,1,0,0:0:0:0:
36,192,60193,1,0,0:0:0:0:
402,192,60301,1,0,0:0:0:0:
329,192,60301,1,0,0:0:0:0:
109,192,60301,1,0,0:0:0:0:
475,192,60301,1,0,0:0:0:0:
182,192,60410,1,0,0:0:0:0:
475,192,60410,1,0,0:0:0:0:
256,192,60410,1,0,0:0:0:0:
109,192,60519,1,0,0:0:0:0:
402,192,60519,1,0,0:0:0:0:
36,192,60519,1,0,0:0:0:0:
182,192,60519,1,0,0:0:0:0:
256,192,60628,1,0,0:0:0:0:
36,192,60628,1,0,0:0:0:0:
329,192,60628,1,0,0:0:0:0:
475,192,60628,1,0,0:0:0:0:
109,192,60736,1,0,0:0:0:0:
329,192,60736,1,0,0:0:0:0:
256,192,60845,1,0,0:0:0:0:
36,192,60845,1,0,0:0:0:0:
402,192,60845,1,0,0:0:0:0:
475,192,60845,1,0,0:0:0:0:
109,192,60899,1,0,0:0:0:0:
182,192,60954,1,0,0:0:0:0:
402,192,60954,1,0,0:0:0:0:
256,192,61008,1,0,0:0:0:0:
329,192,61062,1,0,0:0:0:0:
36,192,61062,1,0,0:0:0:0:
475,192,61062,1,0,0:0:0:0:
109,192,61117,1,0,0:0:0:0:
475,192,61171,1,0,0:0:0:0:
182,192,61171,1,0,0:0:0:0:
329,192,61225,1,0,0:0:0:0:
182,192,61280,1,0,0:0:0:0:
402,192,61280,1,0,0:0:0:0:
256,192,61334,1,0,0:0:0:0:
475,192,61388,1,0,0:0:0:0:
109,192,61388,1,0,0:0:0:0:
402,192,61443,1,0,0:0:0:0:
329,192,61497,1,0,0:0:0:0:
36,192,61497,1,0,0:0:0:0:
109,192,61497,1,0,0:0:0:0:
256,192,61551,1,0,0:0:0:0:
182,192,61606,1,0,0:0:0:0:
402,192,61606,1,0,0:0:0:0:
109,192,61660,1,0,0:0:0:0:
256,192,61714,1,0,0:0:0:0:
36,192,61714,1,0,0:0:0:0:
475,192,61714,1,0,0:0:0:0:
109,192,61769,1,0,0:0:0:0:
329,192,61823,1,0,0:0:0:0:
182,192,61823,1,0,0:0:0:0:
402,192,61878,1,0,0:0:0:0:
475,192,61932,1,0,0:0:0:0:
36,192,61932,1,0,0:0:0:0:
256,192,61932,1,0,0:0:0:0:
402,192,61986,1,0,0:0:0:0:
182,192,62041,1,0,0:0:0:0:
36,192,62041,1,0,0:0:0:0:
329,192,62095,1,0,0:0:0:0:
402,192,62149,1,0,0:0:0:0:
109,192,62149,1,0,0:0:0:0:
256,192,62204,1,0,0:0:0:0:
182,192,62258,1,0,0:0:0:0:
475,192,62258,1,0,0:0:0:0:
402,192,62312,1,0,0:0:0:0:
36,192,62367,1,0,0:0:0:0:
256,192,62367,1,0,0:0:0:0:
475,192,62367,1,0,0:0:0:0:
109,192,62421,1,0,0:0:0:0:
36,192,62475,1,0,0:0:0:0:
329,192,62475,1,0,0:0:0:0:
182,192,62530,1,0,0:0:0:0:
475,192,62584,1,0,0:0:0:0:
109,192,62584,1,0,0:0:0:0:
402,192,62584,1,0,0:0:0:0:
256,192,62638,1,0,0:0:0:0:
36,192,62693,1,0,0:0:0:0:
329,192,62693,1,0,0:0:0:0:
182,192,62747,1,0,0:0:0:0:
256,192,62801,1,0,0:0:0:0:
402,192,62801,1,0,0:0:0:0:
475,192,62801,1,0,0:0:0:0:
109,192,62856,1,0,0:0:0:0:
182,192,62910,1,0,0:0:0:0:
329,192,62910,1,0,0:0:0:0:
475,192,62964,1,0,0:0:0:0:
109,192,63019,1,0,0:0:0:0:
256,192,63019,1,0,0:0:0:0:
36,192,63073,1,0,0:0:0:0:
182,192,63128,1,0,0:0:0:0:
402,192,63128,1,0,0:0:0:0:
109,192,63182,1,0,0:0:0:0:
256,192,63236,1,0,0:0:0:0:
402,192,63236,1,0,0:0:0:0:
475,192,63236,1,0,0:0:0:0:
182,192,63291,1,0,0:0:0:0:
329,192,63345,1,0,0:0:0:0:
36,192,63345,1,0,0:0:0:0:
256,192,63399,1,0,0:0:0:0:
109,192,63454,1,0,0:0:0:0:
475,192,63454,1,0,0:0:0:0:
402,192,63454,1,0,0:0:0:0:
182,192,63508,1,0,0:0:0:0:
329,192,63562,1,0,0:0:0:0:
402,192,63562,1,0,0:0:0:0:
109,192,63617,1,0,0:0:0:0:
36,192,63617,1,0,0:0:0:0:
256,192,63671,1,0,0:0:0:0:
329,192,63671,1,0,0:0:0:0:
475,192,63725,1,0,0:0:0:0:
256,192,63780,1,0,0:0:0:0:
182,192,63780,1,0,0:0:0:0:
36,192,63834,1,0,0:0:0:0:
182,192,63888,1,0,0:0:0:0:
475,192,63888,1,0,0:0:0:0:
402,192,63943,1,0,0:0:0:0:
329,192,63997,1,0,0:0:0:0:
256,192,64051,1,0,0:0:0:0:
402,192,64106,1,0,0:0:0:0:
109,192,64106,1,0,0:0:0:0:
182,192,64160,1,0,0:0:0:0:
36,192,64214,1,0,0:0:0:0:
329,192,64214,1,0,0:0:0:0:
109,192,64269,1,0,0:0:0:0:
256,192,64323,1,0,0:0:0:0:
329,192,64323,1,0,0:0:0:0:
402,192,64323,1,0,0:0:0:0:
475,192,64323,1,0,0:0:0:0:
36,192,64323,1,0,0:0:0:0:
182,192,64432,1,0,0:0:0:0:
475,192,64432,1,0,0:0:0:0:
109,192,64541,1,0,0:0:0:0:
36,192,64541,1,0,0:0:0:0:
182,192,64541,1,0,0:0:0:0:
402,192,64541,1,0,0:0:0:0:
256,192,64649,1,0,0:0:0:0:
402,192,64649,1,0,0:0:0:0:
256,192,64758,1,0,0:0:0:0:
109,192,64758,1,0,0:0:0:0:
402,192,64867,1,0,0:0:0:0:
109,192,64867,1,0,0:0:0:0:
475,192,64867,1,0,0:0:0:0:
256,192,64975,1,0,0:0:0:0:
329,192,64975,1,0,0:0:0:0:
402,192,64975,1,0,0:0:0:0:
475,192,64975,1,0,0:0:0:0:
36,192,65048,1,0,0:0:0:0:
109,192,65120,1,0,0:0:0:0:
182,192,65193,1,0,0:0:0:0:
329,192,65265,1,0,0:0:0:0:
109,192,65301,1,0,0:0:0:0:
402,192,65338,1,0,0:0:0:0:
182,192,65356,1,0,0:0:0:0:
329,192,65410,1,0,0:0:0:0:
256,192,65410,1,0,0:0:0:0:
36,192,65410,1,0,0:0:0:0:
475,192,65483,1,0,0:0:0:0:
182,192,65519,1,0,0:0:0:0:
109,192,65519,1,0,0:0:0:0:
329,192,65555,1,0,0:0:0:0:
475,192,65628,1,0,0:0:0:0:
36,192,65628,1,0,0:0:0:0:
256,192,65628,1,0,0:0:0:0:
402,192,65700,1,0,0:0:0:0:
182,192,65736,1,0,0:0:0:0:
256,192,65772,1,0,0:0:0:0:
109,192,65845,1,0,0:0:0:0:
329,192,65845,1,0,0:0:0:0:
36,192,65917,1,0,0:0:0:0:
329,192,65954,1,0,0:0:0:0:
402,192,65954,1,0,0:0:0:0:
475,192,65954,1,0,0:0:0:0:
182,192,65990,1,0,0:0:0:0:
36,192,66062,1,0,0:0:0:0:
182,192,66135,1,0,0:0:0:0:
475,192,66171,1,0,0:0:0:0:
402,192,66171,1,0,0:0:0:0:
256,192,66207,1,0,0:0:0:0:
329,192,66280,1,0,0:0:0:0:
109,192,66280,1,0,0:0:0:0:
182,192,66352,1,0,0:0:0:0:
329,192,66425,1,0,0:0:0:0:
402,192,66497,1,0,0:0:0:0:
109,192,66497,1,0,0:0:0:0:
36,192,66497,1,0,0:0:0:0:
256,192,66497,1,0,0:0:0:0:
475,192,66570,1,0,0:0:0:0:
182,192,66606,1,0,0:0:0:0:
402,192,66642,1,0,0:0:0:0:
109,192,66660,1,0,0:0:0:0:
329,192,66714,1,0,0:0:0:0:
36,192,66714,1,0,0:0:0:0:
256,192,66787,1,0,0:0:0:0:
402,192,66823,1,0,0:0:0:0:
475,192,66823,1,0,0:0:0:0:
36,192,66823,1,0,0:0:0:0:
182,192,66859,1,0,0:0:0:0:
109,192,66932,1,0,0:0:0:0:
329,192,66932,1,0,0:0:0:0:
402,192,66932,1,0,0:0:0:0:
36,192,67041,1,0,0:0:0:0:
256,192,67041,1,0,0:0:0:0:
329,192,67041,1,0,0:0:0:0:
256,192,67149,1,0,0:0:0:0:
475,192,67149,1,0,0:0:0:0:
182,192,67149,1,0,0:0:0:0:
36,192,67258,1,0,0:0:0:0:
329,192,67258,1,0,0:0:0:0:
109,192,67258,1,0,0:0:0:0:
182,192,67367,1,0,0:0:0:0:
109,192,67367,1,0,0:0:0:0:
402,192,67367,1,0,0:0:0:0:
475,192,67475,1,0,0:0:0:0:
256,192,67475,1,0,0:0:0:0:
182,192,67475,1,0,0:0:0:0:
329,192,67584,1,0,0:0:0:0:
256,192,67584,1,0,0:0:0:0:
36,192,67584,1,0,0:0:0:0:
109,192,67693,1,0,0:0:0:0:
329,192,67693,1,0,0:0:0:0:
402,192,67693,1,0,0:0:0:0:
402,192,67801,1,0,0:0:0:0:
475,192,67801,1,0,0:0:0:0:
36,192,67801,1,0,0:0:0:0:
256,192,67801,1,0,0:0:0:0:
109,192,67856,1,0,0:0:0:0:
182,192,67910,1,0,0:0:0:0:
256,192,67964,1,0,0:0:0:0:
36,192,68019,1,0,0:0:0:0:
329,192,68019,1,0,0:0:0:0:
402,192,68019,1,0,0:0:0:0:
109,192,68073,1,0,0:0:0:0:
182,192,68128,1,0,0:0:0:0:
329,192,68182,1,0,0:0:0:0:
475,192,68236,1,0,0:0:0:0:
402,192,68291,1,0,0:0:0:0:
329,192,68345,1,0,0:0:0:0:
256,192,68399,1,0,0:0:0:0:
475,192,68454,1,0,0:0:0:0:
182,192,68454,1,0,0:0:0:0:
402,192,68508,1,0,0:0:0:0:
109,192,68508,1,0,0:0:0:0:
329,192,68562,1,0,0:0:0:0:
36,192,68562,1,0,0:0:0:0:
256,192,68617,1,0,0:0:0:0:
475,192,68671,1,0,0:0:0:0:
402,192,68671,1,0,0:0:0:0:
109,192,68671,1,0,0:0:0:0:
329,192,68725,1,0,0:0:0:0:
475,192,68780,1,0,0:0:0:0:
182,192,68780,1,0,0:0:0:0:
256,192,68834,1,0,0:0:0:0:
402,192,68888,1,0,0:0:0:0:
109,192,68888,1,0,0:0:0:0:
36,192,68888,1,0,0:0:0:0:
182,192,68943,1,0,0:0:0:0:
36,192,68997,1,0,0:0:0:0:
329,192,68997,1,0,0:0:0:0:
256,192,69051,1,0,0:0:0:0:
402,192,69106,1,0,0:0:0:0:
475,192,69106,1,0,0:0:0:0:
109,192,69106,1,0,0:0:0:0:
329,192,69160,1,0,0:0:0:0:
475,192,69214,1,0,0:0:0:0:
182,192,69214,1,0,0:0:0:0:
256,192,69269,1,0,0:0:0:0:
109,192,69323,1,0,0:0:0:0:
36,192,69323,1,0,0:0:0:0:
402,192,69323,1,0,0:0:0:0:
182,192,69378,1,0,0:0:0:0:
36,192,69432,1,0,0:0:0:0:
329,192,69432,1,0,0:0:0:0:
256,192,69486,1,0,0:0:0:0:
109,192,69541,1,0,0:0:0:0:
402,192,69541,1,0,0:0:0:0:
475,192,69541,1,0,0:0:0:0:
329,192,69649,1,0,0:0:0:0:
256,192,69649,1,0,0:0:0:0:
475,192,69758,1,0,0:0:0:0:
256,192,69867,1,0,0:0:0:0:
182,192,69867,1,0,0:0:0:0:
402,192,69975,1,0,0:0:0:0:
182,192,70084,1,0,0:0:0:0:
109,192,70084,1,0,0:0:0:0:
329,192,70193,1,0,0:0:0:0:
109,192,70301,1,0,0:0:0:0:
36,192,70301,1,0,0:0:0:0:
256,192,70410,1,0,0:0:0:0:
402,192,70410,1,0,0:0:0:0:
256,192,70628,1,0,0:0:0:0:
182,192,70628,1,0,0:0:0:0:
109,192,70628,1,0,0:0:0:0:
36,192,70628,1,0,0:0:0:0:
402,192,70628,1,0,0:0:0:0:
256,192,70954,1,0,0:0:0:0:
182,192,70954,1,0,0:0:0:0:
109,192,70954,1,0,0:0:0:0:
36,192,70954,1,0,0:0:0:0:
402,192,70954,1,0,0:0:0:0:
329,192,71280,1,0,0:0:0:0:
256,192,71280,1,0,0:0:0:0:
182,192,71280,1,0,0:0:0:0:
109,192,71280,1,0,0:0:0:0:
36,192,71280,1,0,0:0:0:0:
475,192,71280,1,0,0:0:0:0:
36,192,71497,1,0,0:0:0:0:
182,192,71714,1,0,0:0:0:0:
256,192,71823,1,0,0:0:0:0:
109,192,71932,1,0,0:0:0:0:
329,192,71932,1,0,0:0:0:0:
475,192,72041,1,0,0:0:0:0:
402,192,72149,1,0,0:0:0:0:
36,192,72149,1,0,0:0:0:0:
256,192,72367,1,0,0:0:0:0:
109,192,72367,1,0,0:0:0:0:
329,192,72584,1,0,0:0:0:0:
475,192,72584,1,0,0:0:0:0:
182,192,72801,1,0,0:0:0:0:
36,192,72801,1,0,0:0:0:0:
256,192,73019,1,0,0:0:0:0:
402,192,73019,1,0,0:0:0:0:
36,192,73236,1,0,0:0:0:0:
329,192,73345,1,0,0:0:0:0:
109,192,73454,1,0,0:0:0:0:
329,192,73671,1,0,0:0:0:0:
475,192,73671,1,0,0:0:0:0:
402,192,74106,1,0,0:0:0:0:
36,192,74758,1,0,0:0:0:0:
109,192,74975,1,0,0:0:0:0:
182,192,75193,1,0,0:0:0:0:
256,192,75301,1,0,0:0:0:0:
329,192,75410,1,0,0:0:0:0:
109,192,75410,1,0,0:0:0:0:
402,192,75519,1,0,0:0:0:0:
36,192,75628,1,0,0:0:0:0:
475,192,75628,1,0,0:0:0:0:
402,192,75845,1,0,0:0:0:0:
182,192,75845,1,0,0:0:0:0:
256,192,76062,1,0,0:0:0:0:
109,192,76062,1,0,0:0:0:0:
36,192,76280,1,0,0:0:0:0:
329,192,76280,1,0,0:0:0:0:
182,192,76497,1,0,0:0:0:0:
402,192,76497,1,0,0:0:0:0:
36,192,76606,1,0,0:0:0:0:
182,192,76714,1,0,0:0:0:0:
256,192,76823,1,0,0:0:0:0:
329,192,76932,1,0,0:0:0:0:
475,192,76932,1,0,0:0:0:0:
109,192,77041,1,0,0:0:0:0:
256,192,77149,1,0,0:0:0:0:
329,192,77258,1,0,0:0:0:0:
402,192,77367,1,0,0:0:0:0:
475,192,77367,1,0,0:0:0:0:
182,192,77475,1,0,0:0:0:0:
329,192,77584,1,0,0:0:0:0:
402,192,77693,1,0,0:0:0:0:
256,192,77801,1,0,0:0:0:0:
475,192,77801,1,0,0:0:0:0:
402,192,77874,1,0,0:0:0:0:
109,192,77874,1,0,0:0:0:0:
36,192,77946,1,0,0:0:0:0:
329,192,77946,1,0,0:0:0:0:
182,192,78019,1,0,0:0:0:0:
475,192,78019,1,0,0:0:0:0:
109,192,78091,1,0,0:0:0:0:
402,192,78091,1,0,0:0:0:0:
256,192,78164,1,0,0:0:0:0:
36,192,78164,1,0,0:0:0:0:
402,192,78236,1,0,0:0:0:0:
182,192,78236,1,0,0:0:0:0:
109,192,78236,1,0,0:0:0:0:
475,192,78236,1,0,0:0:0:0:
329,192,78345,1,0,0:0:0:0:
182,192,78454,1,0,0:0:0:0:
402,192,78454,1,0,0:0:0:0:
475,192,78454,1,0,0:0:0:0:
329,192,78671,1,0,0:0:0:0:
36,192,78671,1,0,0:0:0:0:
182,192,78780,1,0,0:0:0:0:
402,192,78780,1,0,0:0:0:0:
475,192,78780,1,0,0:0:0:0:
36,192,78888,1,0,0:0:0:0:
256,192,78997,1,0,0:0:0:0:
109,192,78997,1,0,0:0:0:0:
475,192,78997,1,0,0:0:0:0:
256,192,79214,1,0,0:0:0:0:
109,192,79214,1,0,0:0:0:0:
475,192,79214,1,0,0:0:0:0:
402,192,79323,1,0,0:0:0:0:
329,192,79432,1,0,0:0:0:0:
36,192,79432,1,0,0:0:0:0:
109,192,79541,1,0,0:0:0:0:
256,192,79541,1,0,0:0:0:0:
475,192,79541,1,0,0:0:0:0:
256,192,79758,1,0,0:0:0:0:
109,192,79758,1,0,0:0:0:0:
329,192,79758,1,0,0:0:0:0:
36,192,79975,1,0,0:0:0:0:
402,192,79975,1,0,0:0:0:0:
109,192,79975,1,0,0:0:0:0:
256,192,80084,1,0,0:0:0:0:
402,192,80084,1,0,0:0:0:0:
109,192,80193,1,0,0:0:0:0:
36,192,80193,1,0,0:0:0:0:
329,192,80193,1,0,0:0:0:0:
182,192,80410,1,0,0:0:0:0:
402,192,80410,1,0,0:0:0:0:
329,192,80519,1,0,0:0:0:0:
109,192,80519,1,0,0:0:0:0:
36,192,80519,1,0,0:0:0:0:
475,192,80628,1,0,0:0:0:0:
402,192,80736,1,0,0:0:0:0:
182,192,80736,1,0,0:0:0:0:
36,192,80736,1,0,0:0:0:0:
402,192,80954,1,0,0:0:0:0:
36,192,80954,1,0,0:0:0:0:
182,192,80954,1,0,0:0:0:0:
329,192,81062,1,0,0:0:0:0:
256,192,81171,1,0,0:0:0:0:
475,192,81171,1,0,0:0:0:0:
402,192,81280,1,0,0:0:0:0:
36,192,81280,1,0,0:0:0:0:
182,192,81280,1,0,0:0:0:0:
329,192,81497,1,0,0:0:0:0:
402,192,81497,1,0,0:0:0:0:
182,192,81497,1,0,0:0:0:0:
256,192,81714,1,0,0:0:0:0:
36,192,81714,1,0,0:0:0:0:
475,192,81714,1,0,0:0:0:0:
182,192,81714,1,0,0:0:0:0:
475,192,81823,1,0,0:0:0:0:
329,192,81823,1,0,0:0:0:0:
256,192,81932,1,0,0:0:0:0:
182,192,81932,1,0,0:0:0:0:
36,192,81932,1,0,0:0:0:0:
109,192,82149,1,0,0:0:0:0:
402,192,82149,1,0,0:0:0:0:
256,192,82258,1,0,0:0:0:0:
182,192,82258,1,0,0:0:0:0:
36,192,82258,1,0,0:0:0:0:
475,192,82367,1,0,0:0:0:0:
329,192,82475,1,0,0:0:0:0:
109,192,82475,1,0,0:0:0:0:
256,192,82475,1,0,0:0:0:0:
109,192,82693,1,0,0:0:0:0:
256,192,82693,1,0,0:0:0:0:
329,192,82693,1,0,0:0:0:0:
402,192,82801,1,0,0:0:0:0:
36,192,82910,1,0,0:0:0:0:
182,192,82910,1,0,0:0:0:0:
109,192,83019,1,0,0:0:0:0:
256,192,83019,1,0,0:0:0:0:
475,192,83019,1,0,0:0:0:0:
256,192,83236,1,0,0:0:0:0:
109,192,83236,1,0,0:0:0:0:
475,192,83236,1,0,0:0:0:0:
182,192,83454,1,0,0:0:0:0:
36,192,83454,1,0,0:0:0:0:
109,192,83454,1,0,0:0:0:0:
329,192,83454,1,0,0:0:0:0:
475,192,83562,1,0,0:0:0:0:
475,192,83671,1,0,0:0:0:0:
182,192,83671,1,0,0:0:0:0:
36,192,83671,1,0,0:0:0:0:
475,192,83780,1,0,0:0:0:0:
475,192,83888,1,0,0:0:0:0:
182,192,83888,1,0,0:0:0:0:
36,192,83888,1,0,0:0:0:0:
256,192,83997,1,0,0:0:0:0:
329,192,84106,1,0,0:0:0:0:
109,192,84106,1,0,0:0:0:0:
182,192,84214,1,0,0:0:0:0:
402,192,84214,1,0,0:0:0:0:
256,192,84323,1,0,0:0:0:0:
36,192,84323,1,0,0:0:0:0:
475,192,84323,1,0,0:0:0:0:
182,192,84432,1,0,0:0:0:0:
109,192,84432,1,0,0:0:0:0:
329,192,84486,1,0,0:0:0:0:
402,192,84486,1,0,0:0:0:0:
182,192,84541,1,0,0:0:0:0:
109,192,84541,1,0,0:0:0:0:
329,192,84649,1,0,0:0:0:0:
402,192,84649,1,0,0:0:0:0:
256,192,84758,1,0,0:0:0:0:
475,192,84758,1,0,0:0:0:0:
36,192,84758,1,0,0:0:0:0:
109,192,84830,1,0,0:0:0:0:
402,192,84830,1,0,0:0:0:0:
182,192,84903,1,0,0:0:0:0:
475,192,84903,1,0,0:0:0:0:
329,192,84975,1,0,0:0:0:0:
36,192,84975,1,0,0:0:0:0:
402,192,85048,1,0,0:0:0:0:
109,192,85048,1,0,0:0:0:0:
256,192,85120,1,0,0:0:0:0:
475,192,85120,1,0,0:0:0:0:
109,192,85193,1,0,0:0:0:0:
36,192,85193,1,0,0:0:0:0:
182,192,85193,1,0,0:0:0:0:
329,192,85193,1,0,0:0:0:0:
402,192,85247,1,0,0:0:0:0:
109,192,85301,1,0,0:0:0:0:
329,192,85301,1,0,0:0:0:0:
256,192,85356,1,0,0:0:0:0:
475,192,85410,1,0,0:0:0:0:
402,192,85410,1,0,0:0:0:0:
36,192,85410,1,0,0:0:0:0:
109,192,85464,1,0,0:0:0:0:
329,192,85519,1,0,0:0:0:0:
182,192,85519,1,0,0:0:0:0:
475,192,85573,1,0,0:0:0:0:
256,192,85628,1,0,0:0:0:0:
36,192,85628,1,0,0:0:0:0:
402,192,85682,1,0,0:0:0:0:
329,192,85736,1,0,0:0:0:0:
109,192,85736,1,0,0:0:0:0:
256,192,85791,1,0,0:0:0:0:
36,192,85845,1,0,0:0:0:0:
329,192,85845,1,0,0:0:0:0:
475,192,85845,1,0,0:0:0:0:
182,192,85899,1,0,0:0:0:0:
109,192,85954,1,0,0:0:0:0:
402,192,85954,1,0,0:0:0:0:
256,192,86008,1,0,0:0:0:0:
182,192,86062,1,0,0:0:0:0:
475,192,86062,1,0,0:0:0:0:
36,192,86117,1,0,0:0:0:0:
109,192,86171,1,0,0:0:0:0:
329,192,86171,1,0,0:0:0:0:
402,192,86225,1,0,0:0:0:0:
256,192,86280,1,0,0:0:0:0:
36,192,86280,1,0,0:0:0:0:
475,192,86280,1,0,0:0:0:0:
329,192,86334,1,0,0:0:0:0:
182,192,86388,1,0,0:0:0:0:
36,192,86388,1,0,0:0:0:0:
256,192,86443,1,0,0:0:0:0:
402,192,86497,1,0,0:0:0:0:
109,192,86497,1,0,0:0:0:0:
329,192,86551,1,0,0:0:0:0:
182,192,86606,1,0,0:0:0:0:
475,192,86606,1,0,0:0:0:0:
402,192,86660,1,0,0:0:0:0:
182,192,86714,1,0,0:0:0:0:
36,192,86714,1,0,0:0:0:0:
256,192,86714,1,0,0:0:0:0:
475,192,86769,1,0,0:0:0:0:
329,192,86823,1,0,0:0:0:0:
109,192,86823,1,0,0:0:0:0:
256,192,86878,1,0,0:0:0:0:
182,192,86932,1,0,0:0:0:0:
36,192,86932,1,0,0:0:0:0:
402,192,86932,1,0,0:0:0:0:
475,192,86986,1,0,0:0:0:0:
256,192,87041,1,0,0:0:0:0:
109,192,87041,1,0,0:0:0:0:
329,192,87095,1,0,0:0:0:0:
182,192,87149,1,0,0:0:0:0:
36,192,87149,1,0,0:0:0:0:
475,192,87149,1,0,0:0:0:0:
256,192,87204,1,0,0:0:0:0:
109,192,87258,1,0,0:0:0:0:
402,192,87258,1,0,0:0:0:0:
475,192,87312,1,0,0:0:0:0:
36,192,87367,1,0,0:0:0:0:
256,192,87367,1,0,0:0:0:0:
402,192,87421,1,0,0:0:0:0:
329,192,87475,1,0,0:0:0:0:
182,192,87475,1,0,0:0:0:0:
109,192,87530,1,0,0:0:0:0:
36,192,87584,1,0,0:0:0:0:
329,192,87584,1,0,0:0:0:0:
475,192,87584,1,0,0:0:0:0:
256,192,87638,1,0,0:0:0:0:
109,192,87693,1,0,0:0:0:0:
402,192,87693,1,0,0:0:0:0:
329,192,87747,1,0,0:0:0:0:
475,192,87801,1,0,0:0:0:0:
182,192,87801,1,0,0:0:0:0:
256,192,87856,1,0,0:0:0:0:
109,192,87910,1,0,0:0:0:0:
329,192,87910,1,0,0:0:0:0:
402,192,87964,1,0,0:0:0:0:
256,192,88019,1,0,0:0:0:0:
36,192,88019,1,0,0:0:0:0:
475,192,88019,1,0,0:0:0:0:
109,192,88073,1,0,0:0:0:0:
256,192,88128,1,0,0:0:0:0:
402,192,88128,1,0,0:0:0:0:
36,192,88182,1,0,0:0:0:0:
182,192,88236,1,0,0:0:0:0:
475,192,88236,1,0,0:0:0:0:
402,192,88291,1,0,0:0:0:0:
109,192,88345,1,0,0:0:0:0:
329,192,88345,1,0,0:0:0:0:
256,192,88399,1,0,0:0:0:0:
109,192,88454,1,0,0:0:0:0:
402,192,88454,1,0,0:0:0:0:
36,192,88454,1,0,0:0:0:0:
329,192,88508,1,0,0:0:0:0:
475,192,88562,1,0,0:0:0:0:
182,192,88562,1,0,0:0:0:0:
109,192,88617,1,0,0:0:0:0:
402,192,88671,1,0,0:0:0:0:
256,192,88671,1,0,0:0:0:0:
36,192,88671,1,0,0:0:0:0:
475,192,88725,1,0,0:0:0:0:
109,192,88780,1,0,0:0:0:0:
329,192,88780,1,0,0:0:0:0:
402,192,88834,1,0,0:0:0:0:
182,192,88888,1,0,0:0:0:0:
475,192,88888,1,0,0:0:0:0:
36,192,88888,1,0,0:0:0:0:
256,192,88943,1,0,0:0:0:0:
109,192,88997,1,0,0:0:0:0:
329,192,88997,1,0,0:0:0:0:
475,192,89051,1,0,0:0:0:0:
402,192,89106,1,0,0:0:0:0:
182,192,89106,1,0,0:0:0:0:
109,192,89160,1,0,0:0:0:0:
36,192,89214,1,0,0:0:0:0:
256,192,89214,1,0,0:0:0:0:
475,192,89269,1,0,0:0:0:0:
182,192,89323,1,0,0:0:0:0:
36,192,89323,1,0,0:0:0:0:
402,192,89323,1,0,0:0:0:0:
329,192,89378,1,0,0:0:0:0:
182,192,89432,1,0,0:0:0:0:
475,192,89432,1,0,0:0:0:0:
109,192,89486,1,0,0:0:0:0:
256,192,89541,1,0,0:0:0:0:
402,192,89541,1,0,0:0:0:0:
36,192,89595,1,0,0:0:0:0:
329,192,89649,1,0,0:0:0:0:
109,192,89649,1,0,0:0:0:0:
182,192,89704,1,0,0:0:0:0:
402,192,89758,1,0,0:0:0:0:
36,192,89758,1,0,0:0:0:0:
475,192,89758,1,0,0:0:0:0:
109,192,89812,1,0,0:0:0:0:
256,192,89867,1,0,0:0:0:0:
475,192,89867,1,0,0:0:0:0:
36,192,89921,1,0,0:0:0:0:
256,192,89975,1,0,0:0:0:0:
402,192,89975,1,0,0:0:0:0:
182,192,90030,1,0,0:0:0:0:
329,192,90084,1,0,0:0:0:0:
109,192,90084,1,0,0:0:0:0:
475,192,90138,1,0,0:0:0:0:
256,192,90193,1,0,0:0:0:0:
329,192,90193,1,0,0:0:0:0:
36,192,90193,1,0,0:0:0:0:
182,192,90247,1,0,0:0:0:0:
402,192,90301,1,0,0:0:0:0:
109,192,90301,1,0,0:0:0:0:
329,192,90356,1,0,0:0:0:0:
182,192,90410,1,0,0:0:0:0:
36,192,90410,1,0,0:0:0:0:
475,192,90410,1,0,0:0:0:0:
256,192,90464,1,0,0:0:0:0:
329,192,90519,1,0,0:0:0:0:
109,192,90519,1,0,0:0:0:0:
402,192,90573,1,0,0:0:0:0:
256,192,90628,1,0,0:0:0:0:
36,192,90628,1,0,0:0:0:0:
475,192,90628,1,0,0:0:0:0:
109,192,90682,1,0,0:0:0:0:
402,192,90736,1,0,0:0:0:0:
182,192,90736,1,0,0:0:0:0:
256,192,90791,1,0,0:0:0:0:
329,192,90845,1,0,0:0:0:0:
475,192,90845,1,0,0:0:0:0:
182,192,90899,1,0,0:0:0:0:
109,192,90954,1,0,0:0:0:0:
402,192,90954,1,0,0:0:0:0:
329,192,91008,1,0,0:0:0:0:
256,192,91062,1,0,0:0:0:0:
109,192,91062,1,0,0:0:0:0:
36,192,91062,1,0,0:0:0:0:
475,192,91117,1,0,0:0:0:0:
402,192,91171,1,0,0:0:0:0:
256,192,91171,1,0,0:0:0:0:
109,192,91225,1,0,0:0:0:0:
36,192,91280,1,0,0:0:0:0:
182,192,91280,1,0,0:0:0:0:
329,192,91280,1,0,0:0:0:0:
402,192,91388,1,0,0:0:0:0:
475,192,91388,1,0,0:0:0:0:
256,192,91443,1,0,0:0:0:0:
109,192,91443,1,0,0:0:0:0:
475,192,91497,1,0,0:0:0:0:
402,192,91497,1,0,0:0:0:0:
256,192,91606,1,0,0:0:0:0:
182,192,91606,1,0,0:0:0:0:
36,192,91606,1,0,0:0:0:0:
256,192,91714,1,0,0:0:0:0:
329,192,91714,1,0,0:0:0:0:
475,192,91714,1,0,0:0:0:0:
402,192,91823,1,0,0:0:0:0:
109,192,91823,1,0,0:0:0:0:
182,192,91932,1,0,0:0:0:0:
475,192,91932,1,0,0:0:0:0:
329,192,92041,1,0,0:0:0:0:
36,192,92041,1,0,0:0:0:0:
256,192,92041,1,0,0:0:0:0:
109,192,92149,1,0,0:0:0:0:
36,192,92149,1,0,0:0:0:0:
475,192,92149,1,0,0:0:0:0:
402,192,92149,1,0,0:0:0:0:
256,192,92204,1,0,0:0:0:0:
329,192,92258,1,0,0:0:0:0:
402,192,92312,1,0,0:0:0:0:
475,192,92367,1,0,0:0:0:0:
36,192,92367,1,0,0:0:0:0:
182,192,92367,1,0,0:0:0:0:
329,192,92421,1,0,0:0:0:0:
402,192,92475,1,0,0:0:0:0:
109,192,92530,1,0,0:0:0:0:
475,192,92584,1,0,0:0:0:0:
256,192,92584,1,0,0:0:0:0:
182,192,92638,1,0,0:0:0:0:
36,192,92693,1,0,0:0:0:0:
329,192,92693,1,0,0:0:0:0:
256,192,92747,1,0,0:0:0:0:
109,192,92801,1,0,0:0:0:0:
36,192,92801,1,0,0:0:0:0:
402,192,92801,1,0,0:0:0:0:
329,192,92856,1,0,0:0:0:0:
182,192,92910,1,0,0:0:0:0:
475,192,92910,1,0,0:0:0:0:
109,192,92964,1,0,0:0:0:0:
36,192,93019,1,0,0:0:0:0:
329,192,93019,1,0,0:0:0:0:
109,192,93091,1,0,0:0:0:0:
402,192,93128,1,0,0:0:0:0:
256,192,93164,1,0,0:0:0:0:
109,192,93236,1,0,0:0:0:0:
329,192,93236,1,0,0:0:0:0:
475,192,93236,1,0,0:0:0:0:
182,192,93309,1,0,0:0:0:0:
475,192,93345,1,0,0:0:0:0:
36,192,93345,1,0,0:0:0:0:
329,192,93381,1,0,0:0:0:0:
182,192,93454,1,0,0:0:0:0:
402,192,93454,1,0,0:0:0:0:
256,192,93526,1,0,0:0:0:0:
109,192,93562,1,0,0:0:0:0:
36,192,93562,1,0,0:0:0:0:
402,192,93599,1,0,0:0:0:0:
182,192,93671,1,0,0:0:0:0:
36,192,93671,1,0,0:0:0:0:
475,192,93671,1,0,0:0:0:0:
329,192,93725,1,0,0:0:0:0:
109,192,93780,1,0,0:0:0:0:
402,192,93780,1,0,0:0:0:0:
256,192,93834,1,0,0:0:0:0:
329,192,93888,1,0,0:0:0:0:
475,192,93888,1,0,0:0:0:0:
182,192,93943,1,0,0:0:0:0:
109,192,93997,1,0,0:0:0:0:
402,192,93997,1,0,0:0:0:0:
36,192,94051,1,0,0:0:0:0:
329,192,94106,1,0,0:0:0:0:
256,192,94106,1,0,0:0:0:0:
182,192,94106,1,0,0:0:0:0:
475,192,94160,1,0,0:0:0:0:
402,192,94214,1,0,0:0:0:0:
109,192,94214,1,0,0:0:0:0:
329,192,94269,1,0,0:0:0:0:
182,192,94323,1,0,0:0:0:0:
36,192,94323,1,0,0:0:0:0:
256,192,94378,1,0,0:0:0:0:
109,192,94432,1,0,0:0:0:0:
329,192,94432,1,0,0:0:0:0:
475,192,94486,1,0,0:0:0:0:
109,192,94541,1,0,0:0:0:0:
402,192,94541,1,0,0:0:0:0:
256,192,94541,1,0,0:0:0:0:
36,192,94595,1,0,0:0:0:0:
402,192,94649,1,0,0:0:0:0:
182,192,94649,1,0,0:0:0:0:
256,192,94704,1,0,0:0:0:0:
329,192,94758,1,0,0:0:0:0:
475,192,94758,1,0,0:0:0:0:
109,192,94867,1,0,0:0:0:0:
36,192,94867,1,0,0:0:0:0:
256,192,94921,1,0,0:0:0:0:
402,192,94921,1,0,0:0:0:0:
109,192,94975,1,0,0:0:0:0:
36,192,94975,1,0,0:0:0:0:
256,192,95084,1,0,0:0:0:0:
329,192,95084,1,0,0:0:0:0:
475,192,95084,1,0,0:0:0:0:
256,192,95193,1,0,0:0:0:0:
182,192,95193,1,0,0:0:0:0:
36,192,95193,1,0,0:0:0:0:
109,192,95265,1,0,0:0:0:0:
329,192,95301,1,0,0:0:0:0:
182,192,95338,1,0,0:0:0:0:
109,192,95410,1,0,0:0:0:0:
402,192,95410,1,0,0:0:0:0:
182,192,95483,1,0,0:0:0:0:
475,192,95519,1,0,0:0:0:0:
256,192,95555,1,0,0:0:0:0:
329,192,95628,1,0,0:0:0:0:
109,192,95628,1,0,0:0:0:0:
36,192,95628,1,0,0:0:0:0:
256,192,95845,1,0,0:0:0:0:
36,192,95845,1,0,0:0:0:0:
109,192,96062,1,0,0:0:0:0:
329,192,96062,1,0,0:0:0:0:
475,192,96280,1,0,0:0:0:0:
256,192,96280,1,0,0:0:0:0:
402,192,96497,1,0,0:0:0:0:
475,192,96497,1,0,0:0:0:0:
182,192,96497,1,0,0:0:0:0:
329,192,96714,1,0,0:0:0:0:
109,192,96714,1,0,0:0:0:0:
256,192,96932,1,0,0:0:0:0:
36,192,96932,1,0,0:0:0:0:
36,192,97149,1,0,0:0:0:0:
109,192,97149,1,0,0:0:0:0:
329,192,97149,1,0,0:0:0:0:
402,192,97176,1,0,0:0:0:0:
475,192,97204,1,0,0:0:0:0:
109,192,97584,1,0,0:0:0:0:
109,192,97801,1,0,0:0:0:0:
109,192,98019,1,0,0:0:0:0:
109,192,98236,1,0,0:0:0:0:
256,192,98236,1,0,0:0:0:0:
109,192,98454,1,0,0:0:0:0:
256,192,98454,1,0,0:0:0:0:
109,192,98671,1,0,0:0:0:0:
256,192,98671,1,0,0:0:0:0:
402,192,98671,1,0,0:0:0:0:
109,192,98888,1,0,0:0:0:0:
256,192,98888,1,0,0:0:0:0:
402,192,98888,1,0,0:0:0:0:
36,192,99106,1,0,0:0:0:0:
475,192,99106,1,0,0:0:0:0:
402,192,99106,1,0,0:0:0:0:
256,192,99106,1,0,0:0:0:0:
36,192,99214,1,0,0:0:0:0:
329,192,99214,1,0,0:0:0:0:
109,192,99323,1,0,0:0:0:0:
402,192,99323,1,0,0:0:0:0:
182,192,99432,1,0,0:0:0:0:
402,192,99432,1,0,0:0:0:0:
329,192,99541,1,0,0:0:0:0:
109,192,99541,1,0,0:0:0:0:
109,192,99649,1,0,0:0:0:0:
402,192,99649,1,0,0:0:0:0:
182,192,99758,1,0,0:0:0:0:
475,192,99758,1,0,0:0:0:0:
329,192,99812,1,0,0:0:0:0:
256,192,99867,1,0,0:0:0:0:
475,192,99867,1,0,0:0:0:0:
182,192,99921,1,0,0:0:0:0:
329,192,99975,1,0,0:0:0:0:
109,192,99975,1,0,0:0:0:0:
36,192,99975,1,0,0:0:0:0:
109,192,100084,1,0,0:0:0:0:
36,192,100084,1,0,0:0:0:0:
475,192,100084,1,0,0:0:0:0:
402,192,100193,1,0,0:0:0:0:
329,192,100193,1,0,0:0:0:0:
182,192,100193,1,0,0:0:0:0:
402,192,100301,1,0,0:0:0:0:
329,192,100301,1,0,0:0:0:0:
36,192,100301,1,0,0:0:0:0:
109,192,100410,1,0,0:0:0:0:
182,192,100410,1,0,0:0:0:0:
475,192,100410,1,0,0:0:0:0:
182,192,100519,1,0,0:0:0:0:
109,192,100519,1,0,0:0:0:0:
329,192,100519,1,0,0:0:0:0:
402,192,100628,1,0,0:0:0:0:
475,192,100628,1,0,0:0:0:0:
36,192,100628,1,0,0:0:0:0:
402,192,100736,1,0,0:0:0:0:
475,192,100736,1,0,0:0:0:0:
182,192,100736,1,0,0:0:0:0:
256,192,100845,1,0,0:0:0:0:
329,192,100845,1,0,0:0:0:0:
402,192,100845,1,0,0:0:0:0:
475,192,100845,1,0,0:0:0:0:
36,192,100845,1,0,0:0:0:0:
109,192,100899,1,0,0:0:0:0:
182,192,100954,1,0,0:0:0:0:
256,192,101008,1,0,0:0:0:0:
36,192,101062,1,0,0:0:0:0:
329,192,101062,1,0,0:0:0:0:
402,192,101062,1,0,0:0:0:0:
475,192,101062,1,0,0:0:0:0:
182,192,101117,1,0,0:0:0:0:
256,192,101171,1,0,0:0:0:0:
329,192,101225,1,0,0:0:0:0:
475,192,101280,1,0,0:0:0:0:
109,192,101280,1,0,0:0:0:0:
402,192,101334,1,0,0:0:0:0:
256,192,101388,1,0,0:0:0:0:
36,192,101388,1,0,0:0:0:0:
182,192,101388,1,0,0:0:0:0:
329,192,101443,1,0,0:0:0:0:
475,192,101497,1,0,0:0:0:0:
182,192,101497,1,0,0:0:0:0:
36,192,101497,1,0,0:0:0:0:
256,192,101497,1,0,0:0:0:0:
402,192,101551,1,0,0:0:0:0:
329,192,101606,1,0,0:0:0:0:
109,192,101660,1,0,0:0:0:0:
36,192,101714,1,0,0:0:0:0:
256,192,101714,1,0,0:0:0:0:
402,192,101714,1,0,0:0:0:0:
109,192,101769,1,0,0:0:0:0:
182,192,101823,1,0,0:0:0:0:
256,192,101878,1,0,0:0:0:0:
36,192,101932,1,0,0:0:0:0:
329,192,101932,1,0,0:0:0:0:
402,192,101932,1,0,0:0:0:0:
475,192,101932,1,0,0:0:0:0:
182,192,101986,1,0,0:0:0:0:
36,192,102041,1,0,0:0:0:0:
402,192,102041,1,0,0:0:0:0:
329,192,102041,1,0,0:0:0:0:
109,192,102095,1,0,0:0:0:0:
256,192,102149,1,0,0:0:0:0:
475,192,102149,1,0,0:0:0:0:
402,192,102204,1,0,0:0:0:0:
329,192,102258,1,0,0:0:0:0:
109,192,102258,1,0,0:0:0:0:
36,192,102258,1,0,0:0:0:0:
182,192,102312,1,0,0:0:0:0:
109,192,102367,1,0,0:0:0:0:
329,192,102367,1,0,0:0:0:0:
475,192,102367,1,0,0:0:0:0:
36,192,102367,1,0,0:0:0:0:
256,192,102421,1,0,0:0:0:0:
182,192,102475,1,0,0:0:0:0:
329,192,102530,1,0,0:0:0:0:
182,192,102584,1,0,0:0:0:0:
36,192,102584,1,0,0:0:0:0:
475,192,102584,1,0,0:0:0:0:
402,192,102584,1,0,0:0:0:0:
256,192,102638,1,0,0:0:0:0:
329,192,102693,1,0,0:0:0:0:
109,192,102747,1,0,0:0:0:0:
256,192,102801,1,0,0:0:0:0:
329,192,102801,1,0,0:0:0:0:
402,192,102801,1,0,0:0:0:0:
36,192,102801,1,0,0:0:0:0:
109,192,102856,1,0,0:0:0:0:
256,192,102910,1,0,0:0:0:0:
475,192,102964,1,0,0:0:0:0:
329,192,103019,1,0,0:0:0:0:
182,192,103019,1,0,0:0:0:0:
475,192,103073,1,0,0:0:0:0:
256,192,103128,1,0,0:0:0:0:
109,192,103128,1,0,0:0:0:0:
36,192,103128,1,0,0:0:0:0:
402,192,103182,1,0,0:0:0:0:
256,192,103236,1,0,0:0:0:0:
109,192,103236,1,0,0:0:0:0:
36,192,103236,1,0,0:0:0:0:
475,192,103236,1,0,0:0:0:0:
329,192,103291,1,0,0:0:0:0:
182,192,103345,1,0,0:0:0:0:
36,192,103399,1,0,0:0:0:0:
256,192,103454,1,0,0:0:0:0:
402,192,103454,1,0,0:0:0:0:
475,192,103454,1,0,0:0:0:0:
109,192,103508,1,0,0:0:0:0:
182,192,103562,1,0,0:0:0:0:
402,192,103617,1,0,0:0:0:0:
256,192,103671,1,0,0:0:0:0:
36,192,103671,1,0,0:0:0:0:
475,192,103671,1,0,0:0:0:0:
329,192,103671,1,0,0:0:0:0:
109,192,103725,1,0,0:0:0:0:
329,192,103780,1,0,0:0:0:0:
256,192,103780,1,0,0:0:0:0:
475,192,103780,1,0,0:0:0:0:
36,192,103834,1,0,0:0:0:0:
182,192,103888,1,0,0:0:0:0:
402,192,103888,1,0,0:0:0:0:
329,192,103943,1,0,0:0:0:0:
256,192,103997,1,0,0:0:0:0:
109,192,103997,1,0,0:0:0:0:
36,192,103997,1,0,0:0:0:0:
402,192,104051,1,0,0:0:0:0:
256,192,104106,1,0,0:0:0:0:
109,192,104106,1,0,0:0:0:0:
36,192,104106,1,0,0:0:0:0:
475,192,104106,1,0,0:0:0:0:
402,192,104160,1,0,0:0:0:0:
329,192,104214,1,0,0:0:0:0:
182,192,104269,1,0,0:0:0:0:
329,192,104323,1,0,0:0:0:0:
402,192,104323,1,0,0:0:0:0:
475,192,104323,1,0,0:0:0:0:
36,192,104323,1,0,0:0:0:0:
109,192,104378,1,0,0:0:0:0:
256,192,104432,1,0,0:0:0:0:
475,192,104486,1,0,0:0:0:0:
329,192,104541,1,0,0:0:0:0:
109,192,104541,1,0,0:0:0:0:
182,192,104541,1,0,0:0:0:0:
36,192,104541,1,0,0:0:0:0:
402,192,104595,1,0,0:0:0:0:
256,192,104649,1,0,0:0:0:0:
109,192,104704,1,0,0:0:0:0:
329,192,104758,1,0,0:0:0:0:
475,192,104758,1,0,0:0:0:0:
256,192,104812,1,0,0:0:0:0:
109,192,104867,1,0,0:0:0:0:
36,192,104867,1,0,0:0:0:0:
402,192,104867,1,0,0:0:0:0:
329,192,104921,1,0,0:0:0:0:
109,192,104975,1,0,0:0:0:0:
36,192,104975,1,0,0:0:0:0:
402,192,104975,1,0,0:0:0:0:
475,192,104975,1,0,0:0:0:0:
256,192,105030,1,0,0:0:0:0:
182,192,105084,1,0,0:0:0:0:
109,192,105138,1,0,0:0:0:0:
36,192,105193,1,0,0:0:0:0:
329,192,105193,1,0,0:0:0:0:
475,192,105193,1,0,0:0:0:0:
182,192,105247,1,0,0:0:0:0:
256,192,105301,1,0,0:0:0:0:
402,192,105356,1,0,0:0:0:0:
109,192,105410,1,0,0:0:0:0:
475,192,105410,1,0,0:0:0:0:
36,192,105410,1,0,0:0:0:0:
182,192,105410,1,0,0:0:0:0:
329,192,105464,1,0,0:0:0:0:
36,192,105519,1,0,0:0:0:0:
182,192,105519,1,0,0:0:0:0:
475,192,105519,1,0,0:0:0:0:
256,192,105573,1,0,0:0:0:0:
402,192,105628,1,0,0:0:0:0:
109,192,105628,1,0,0:0:0:0:
329,192,105682,1,0,0:0:0:0:
256,192,105736,1,0,0:0:0:0:
182,192,105736,1,0,0:0:0:0:
475,192,105736,1,0,0:0:0:0:
329,192,105791,1,0,0:0:0:0:
36,192,105845,1,0,0:0:0:0:
256,192,105845,1,0,0:0:0:0:
182,192,105845,1,0,0:0:0:0:
475,192,105845,1,0,0:0:0:0:
402,192,105899,1,0,0:0:0:0:
109,192,105954,1,0,0:0:0:0:
36,192,106008,1,0,0:0:0:0:
475,192,106062,1,0,0:0:0:0:
182,192,106062,1,0,0:0:0:0:
329,192,106062,1,0,0:0:0:0:
402,192,106062,1,0,0:0:0:0:
109,192,106117,1,0,0:0:0:0:
256,192,106171,1,0,0:0:0:0:
329,192,106225,1,0,0:0:0:0:
182,192,106280,1,0,0:0:0:0:
109,192,106280,1,0,0:0:0:0:
475,192,106280,1,0,0:0:0:0:
36,192,106280,1,0,0:0:0:0:
256,192,106334,1,0,0:0:0:0:
402,192,106388,1,0,0:0:0:0:
109,192,106443,1,0,0:0:0:0:
256,192,106497,1,0,0:0:0:0:
475,192,106497,1,0,0:0:0:0:
402,192,106551,1,0,0:0:0:0:
329,192,106606,1,0,0:0:0:0:
109,192,106606,1,0,0:0:0:0:
36,192,106606,1,0,0:0:0:0:
182,192,106660,1,0,0:0:0:0:
329,192,106714,1,0,0:0:0:0:
475,192,106714,1,0,0:0:0:0:
109,192,106714,1,0,0:0:0:0:
36,192,106714,1,0,0:0:0:0:
256,192,106769,1,0,0:0:0:0:
182,192,106823,1,0,0:0:0:0:
109,192,106878,1,0,0:0:0:0:
36,192,106932,1,0,0:0:0:0:
329,192,106932,1,0,0:0:0:0:
475,192,106932,1,0,0:0:0:0:
182,192,106986,1,0,0:0:0:0:
256,192,107041,1,0,0:0:0:0:
402,192,107041,1,0,0:0:0:0:
109,192,107095,1,0,0:0:0:0:
36,192,107095,1,0,0:0:0:0:
256,192,107149,1,0,0:0:0:0:
402,192,107149,1,0,0:0:0:0:
182,192,107204,1,0,0:0:0:0:
109,192,107258,1,0,0:0:0:0:
475,192,107258,1,0,0:0:0:0:
402,192,107312,1,0,0:0:0:0:
329,192,107367,1,0,0:0:0:0:
182,192,107367,1,0,0:0:0:0:
36,192,107421,1,0,0:0:0:0:
109,192,107475,1,0,0:0:0:0:
182,192,107530,1,0,0:0:0:0:
256,192,107584,1,0,0:0:0:0:
475,192,107584,1,0,0:0:0:0:
402,192,107638,1,0,0:0:0:0:
329,192,107693,1,0,0:0:0:0:
109,192,107693,1,0,0:0:0:0:
256,192,107747,1,0,0:0:0:0:
182,192,107801,1,0,0:0:0:0:
36,192,107801,1,0,0:0:0:0:
402,192,107801,1,0,0:0:0:0:
475,192,107801,1,0,0:0:0:0:
329,192,107856,1,0,0:0:0:0:
109,192,107910,1,0,0:0:0:0:
182,192,107964,1,0,0:0:0:0:
36,192,108019,1,0,0:0:0:0:
475,192,108019,1,0,0:0:0:0:
329,192,108019,1,0,0:0:0:0:
402,192,108019,1,0,0:0:0:0:
109,192,108073,1,0,0:0:0:0:
256,192,108128,1,0,0:0:0:0:
402,192,108182,1,0,0:0:0:0:
182,192,108236,1,0,0:0:0:0:
475,192,108236,1,0,0:0:0:0:
36,192,108291,1,0,0:0:0:0:
256,192,108345,1,0,0:0:0:0:
329,192,108345,1,0,0:0:0:0:
402,192,108345,1,0,0:0:0:0:
182,192,108399,1,0,0:0:0:0:
402,192,108454,1,0,0:0:0:0:
475,192,108454,1,0,0:0:0:0:
329,192,108454,1,0,0:0:0:0:
36,192,108454,1,0,0:0:0:0:
256,192,108508,1,0,0:0:0:0:
109,192,108562,1,0,0:0:0:0:
329,192,108617,1,0,0:0:0:0:
182,192,108671,1,0,0:0:0:0:
36,192,108671,1,0,0:0:0:0:
402,192,108671,1,0,0:0:0:0:
256,192,108725,1,0,0:0:0:0:
182,192,108780,1,0,0:0:0:0:
402,192,108834,1,0,0:0:0:0:
109,192,108888,1,0,0:0:0:0:
36,192,108888,1,0,0:0:0:0:
475,192,108888,1,0,0:0:0:0:
256,192,108888,1,0,0:0:0:0:
329,192,108943,1,0,0:0:0:0:
402,192,108997,1,0,0:0:0:0:
109,192,108997,1,0,0:0:0:0:
36,192,108997,1,0,0:0:0:0:
256,192,109051,1,0,0:0:0:0:
182,192,109106,1,0,0:0:0:0:
475,192,109106,1,0,0:0:0:0:
109,192,109160,1,0,0:0:0:0:
329,192,109214,1,0,0:0:0:0:
402,192,109214,1,0,0:0:0:0:
36,192,109214,1,0,0:0:0:0:
182,192,109269,1,0,0:0:0:0:
402,192,109323,1,0,0:0:0:0:
475,192,109323,1,0,0:0:0:0:
329,192,109323,1,0,0:0:0:0:
36,192,109323,1,0,0:0:0:0:
256,192,109378,1,0,0:0:0:0:
109,192,109432,1,0,0:0:0:0:
329,192,109486,1,0,0:0:0:0:
402,192,109541,1,0,0:0:0:0:
36,192,109541,1,0,0:0:0:0:
182,192,109541,1,0,0:0:0:0:
475,192,109541,1,0,0:0:0:0:
256,192,109595,1,0,0:0:0:0:
402,192,109649,1,0,0:0:0:0:
36,192,109704,1,0,0:0:0:0:
256,192,109758,1,0,0:0:0:0:
329,192,109758,1,0,0:0:0:0:
182,192,109758,1,0,0:0:0:0:
475,192,109758,1,0,0:0:0:0:
109,192,109812,1,0,0:0:0:0:
182,192,109867,1,0,0:0:0:0:
329,192,109921,1,0,0:0:0:0:
256,192,109975,1,0,0:0:0:0:
475,192,109975,1,0,0:0:0:0:
109,192,110030,1,0,0:0:0:0:
36,192,110084,1,0,0:0:0:0:
329,192,110084,1,0,0:0:0:0:
402,192,110084,1,0,0:0:0:0:
182,192,110138,1,0,0:0:0:0:
109,192,110193,1,0,0:0:0:0:
36,192,110193,1,0,0:0:0:0:
402,192,110193,1,0,0:0:0:0:
475,192,110193,1,0,0:0:0:0:
256,192,110247,1,0,0:0:0:0:
182,192,110301,1,0,0:0:0:0:
329,192,110356,1,0,0:0:0:0:
36,192,110410,1,0,0:0:0:0:
256,192,110410,1,0,0:0:0:0:
475,192,110410,1,0,0:0:0:0:
109,192,110464,1,0,0:0:0:0:
329,192,110519,1,0,0:0:0:0:
402,192,110573,1,0,0:0:0:0:
182,192,110628,1,0,0:0:0:0:
109,192,110628,1,0,0:0:0:0:
36,192,110628,1,0,0:0:0:0:
475,192,110628,1,0,0:0:0:0:
329,192,110682,1,0,0:0:0:0:
256,192,110736,1,0,0:0:0:0:
182,192,110736,1,0,0:0:0:0:
109,192,110736,1,0,0:0:0:0:
402,192,110791,1,0,0:0:0:0:
36,192,110845,1,0,0:0:0:0:
329,192,110845,1,0,0:0:0:0:
475,192,110899,1,0,0:0:0:0:
109,192,110954,1,0,0:0:0:0:
402,192,110954,1,0,0:0:0:0:
256,192,110954,1,0,0:0:0:0:
36,192,111008,1,0,0:0:0:0:
182,192,111062,1,0,0:0:0:0:
329,192,111062,1,0,0:0:0:0:
402,192,111062,1,0,0:0:0:0:
475,192,111062,1,0,0:0:0:0:
109,192,111117,1,0,0:0:0:0:
256,192,111171,1,0,0:0:0:0:
182,192,111225,1,0,0:0:0:0:
36,192,111280,1,0,0:0:0:0:
475,192,111280,1,0,0:0:0:0:
109,192,111280,1,0,0:0:0:0:
402,192,111280,1,0,0:0:0:0:
256,192,111334,1,0,0:0:0:0:
329,192,111388,1,0,0:0:0:0:
109,192,111443,1,0,0:0:0:0:
402,192,111497,1,0,0:0:0:0:
256,192,111497,1,0,0:0:0:0:
182,192,111497,1,0,0:0:0:0:
475,192,111497,1,0,0:0:0:0:
36,192,111551,1,0,0:0:0:0:
256,192,111606,1,0,0:0:0:0:
329,192,111660,1,0,0:0:0:0:
182,192,111714,1,0,0:0:0:0:
402,192,111714,1,0,0:0:0:0:
475,192,111769,1,0,0:0:0:0:
36,192,111823,1,0,0:0:0:0:
109,192,111823,1,0,0:0:0:0:
256,192,111823,1,0,0:0:0:0:
402,192,111878,1,0,0:0:0:0:
329,192,111932,1,0,0:0:0:0:
36,192,111932,1,0,0:0:0:0:
109,192,111932,1,0,0:0:0:0:
475,192,111932,1,0,0:0:0:0:
256,192,111986,1,0,0:0:0:0:
182,192,112041,1,0,0:0:0:0:
109,192,112095,1,0,0:0:0:0:
36,192,112149,1,0,0:0:0:0:
329,192,112149,1,0,0:0:0:0:
402,192,112149,1,0,0:0:0:0:
182,192,112204,1,0,0:0:0:0:
256,192,112258,1,0,0:0:0:0:
402,192,112312,1,0,0:0:0:0:
182,192,112367,1,0,0:0:0:0:
109,192,112367,1,0,0:0:0:0:
36,192,112367,1,0,0:0:0:0:
475,192,112367,1,0,0:0:0:0:
256,192,112421,1,0,0:0:0:0:
182,192,112475,1,0,0:0:0:0:
36,192,112475,1,0,0:0:0:0:
475,192,112475,1,0,0:0:0:0:
329,192,112530,1,0,0:0:0:0:
402,192,112584,1,0,0:0:0:0:
109,192,112584,1,0,0:0:0:0:
182,192,112638,1,0,0:0:0:0:
36,192,112693,1,0,0:0:0:0:
329,192,112693,1,0,0:0:0:0:
475,192,112693,1,0,0:0:0:0:
256,192,112747,1,0,0:0:0:0:
36,192,112801,1,0,0:0:0:0:
329,192,112801,1,0,0:0:0:0:
402,192,112801,1,0,0:0:0:0:
475,192,112801,1,0,0:0:0:0:
182,192,112856,1,0,0:0:0:0:
109,192,112910,1,0,0:0:0:0:
36,192,112964,1,0,0:0:0:0:
256,192,113019,1,0,0:0:0:0:
475,192,113019,1,0,0:0:0:0:
329,192,113019,1,0,0:0:0:0:
402,192,113019,1,0,0:0:0:0:
109,192,113073,1,0,0:0:0:0:
182,192,113128,1,0,0:0:0:0:
256,192,113182,1,0,0:0:0:0:
475,192,113236,1,0,0:0:0:0:
329,192,113236,1,0,0:0:0:0:
36,192,113236,1,0,0:0:0:0:
109,192,113291,1,0,0:0:0:0:
182,192,113345,1,0,0:0:0:0:
329,192,113399,1,0,0:0:0:0:
475,192,113454,1,0,0:0:0:0:
402,192,113508,1,0,0:0:0:0:
329,192,113562,1,0,0:0:0:0:
256,192,113617,1,0,0:0:0:0:
182,192,113671,1,0,0:0:0:0:
475,192,113671,1,0,0:0:0:0:
402,192,113725,1,0,0:0:0:0:
109,192,113725,1,0,0:0:0:0:
329,192,113780,1,0,0:0:0:0:
36,192,113780,1,0,0:0:0:0:
256,192,113834,1,0,0:0:0:0:
475,192,113888,1,0,0:0:0:0:
182,192,113888,1,0,0:0:0:0:
329,192,113943,1,0,0:0:0:0:
402,192,113997,1,0,0:0:0:0:
109,192,113997,1,0,0:0:0:0:
256,192,114051,1,0,0:0:0:0:
329,192,114106,1,0,0:0:0:0:
402,192,114106,1,0,0:0:0:0:
36,192,114106,1,0,0:0:0:0:
475,192,114106,1,0,0:0:0:0:
329,192,114214,1,0,0:0:0:0:
36,192,114214,1,0,0:0:0:0:
182,192,114269,1,0,0:0:0:0:
109,192,114323,1,0,0:0:0:0:
402,192,114323,1,0,0:0:0:0:
256,192,114378,1,0,0:0:0:0:
182,192,114432,1,0,0:0:0:0:
109,192,114432,1,0,0:0:0:0:
36,192,114432,1,0,0:0:0:0:
475,192,114432,1,0,0:0:0:0:
182,192,114541,1,0,0:0:0:0:
475,192,114541,1,0,0:0:0:0:
329,192,114595,1,0,0:0:0:0:
109,192,114649,1,0,0:0:0:0:
402,192,114649,1,0,0:0:0:0:
256,192,114704,1,0,0:0:0:0:
329,192,114758,1,0,0:0:0:0:
36,192,114758,1,0,0:0:0:0:
402,192,114758,1,0,0:0:0:0:
475,192,114758,1,0,0:0:0:0:
109,192,114812,1,0,0:0:0:0:
182,192,114867,1,0,0:0:0:0:
256,192,114921,1,0,0:0:0:0:
402,192,114975,1,0,0:0:0:0:
36,192,114975,1,0,0:0:0:0:
329,192,114975,1,0,0:0:0:0:
109,192,115030,1,0,0:0:0:0:
256,192,115084,1,0,0:0:0:0:
329,192,115138,1,0,0:0:0:0:
475,192,115193,1,0,0:0:0:0:
329,192,115247,1,0,0:0:0:0:
256,192,115301,1,0,0:0:0:0:
182,192,115356,1,0,0:0:0:0:
109,192,115410,1,0,0:0:0:0:
36,192,115410,1,0,0:0:0:0:
402,192,115410,1,0,0:0:0:0:
329,192,115464,1,0,0:0:0:0:
182,192,115519,1,0,0:0:0:0:
109,192,115573,1,0,0:0:0:0:
36,192,115628,1,0,0:0:0:0:
182,192,115682,1,0,0:0:0:0:
256,192,115736,1,0,0:0:0:0:
329,192,115791,1,0,0:0:0:0:
109,192,115845,1,0,0:0:0:0:
402,192,115845,1,0,0:0:0:0:
475,192,115845,1,0,0:0:0:0:
182,192,115899,1,0,0:0:0:0:
329,192,115954,1,0,0:0:0:0:
402,192,116008,1,0,0:0:0:0:
475,192,116062,1,0,0:0:0:0:
402,192,116117,1,0,0:0:0:0:
329,192,116171,1,0,0:0:0:0:
256,192,116225,1,0,0:0:0:0:
109,192,116280,1,0,0:0:0:0:
475,192,116280,1,0,0:0:0:0:
182,192,116280,1,0,0:0:0:0:
329,192,116334,1,0,0:0:0:0:
256,192,116388,1,0,0:0:0:0:
109,192,116443,1,0,0:0:0:0:
36,192,116497,1,0,0:0:0:0:
402,192,116497,1,0,0:0:0:0:
109,192,116551,1,0,0:0:0:0:
182,192,116606,1,0,0:0:0:0:
256,192,116660,1,0,0:0:0:0:
182,192,116714,1,0,0:0:0:0:
36,192,116714,1,0,0:0:0:0:
402,192,116714,1,0,0:0:0:0:
256,192,116769,1,0,0:0:0:0:
329,192,116823,1,0,0:0:0:0:
402,192,116878,1,0,0:0:0:0:
475,192,116932,1,0,0:0:0:0:
402,192,116986,1,0,0:0:0:0:
329,192,117041,1,0,0:0:0:0:
256,192,117095,1,0,0:0:0:0:
329,192,117149,1,0,0:0:0:0:
475,192,117149,1,0,0:0:0:0:
109,192,117149,1,0,0:0:0:0:
256,192,117204,1,0,0:0:0:0:
182,192,117258,1,0,0:0:0:0:
109,192,117312,1,0,0:0:0:0:
36,192,117367,1,0,0:0:0:0:
182,192,117421,1,0,0:0:0:0:
329,192,117475,1,0,0:0:0:0:
402,192,117530,1,0,0:0:0:0:
256,192,117584,1,0,0:0:0:0:
109,192,117584,1,0,0:0:0:0:
36,192,117584,1,0,0:0:0:0:
329,192,117638,1,0,0:0:0:0:
182,192,117693,1,0,0:0:0:0:
256,192,117747,1,0,0:0:0:0:
475,192,117801,1,0,0:0:0:0:
329,192,117856,1,0,0:0:0:0:
182,192,117910,1,0,0:0:0:0:
109,192,117964,1,0,0:0:0:0:
256,192,118019,1,0,0:0:0:0:
402,192,118019,1,0,0:0:0:0:
475,192,118019,1,0,0:0:0:0:
182,192,118073,1,0,0:0:0:0:
329,192,118128,1,0,0:0:0:0:
256,192,118182,1,0,0:0:0:0:
36,192,118236,1,0,0:0:0:0:
402,192,118236,1,0,0:0:0:0:
109,192,118291,1,0,0:0:0:0:
182,192,118345,1,0,0:0:0:0:
256,192,118399,1,0,0:0:0:0:
402,192,118454,1,0,0:0:0:0:
36,192,118454,1,0,0:0:0:0:
329,192,118454,1,0,0:0:0:0:
109,192,118508,1,0,0:0:0:0:
256,192,118562,1,0,0:0:0:0:
329,192,118617,1,0,0:0:0:0:
475,192,118671,1,0,0:0:0:0:
329,192,118725,1,0,0:0:0:0:
256,192,118780,1,0,0:0:0:0:
182,192,118834,1,0,0:0:0:0:
109,192,118888,1,0,0:0:0:0:
36,192,118888,1,0,0:0:0:0:
402,192,118888,1,0,0:0:0:0:
329,192,118943,1,0,0:0:0:0:
182,192,118997,1,0,0:0:0:0:
109,192,119051,1,0,0:0:0:0:
36,192,119106,1,0,0:0:0:0:
182,192,119160,1,0,0:0:0:0:
256,192,119214,1,0,0:0:0:0:
329,192,119269,1,0,0:0:0:0:
109,192,119323,1,0,0:0:0:0:
402,192,119323,1,0,0:0:0:0:
475,192,119323,1,0,0:0:0:0:
182,192,119378,1,0,0:0:0:0:
329,192,119432,1,0,0:0:0:0:
402,192,119486,1,0,0:0:0:0:
475,192,119541,1,0,0:0:0:0:
402,192,119595,1,0,0:0:0:0:
329,192,119649,1,0,0:0:0:0:
256,192,119704,1,0,0:0:0:0:
109,192,119758,1,0,0:0:0:0:
475,192,119758,1,0,0:0:0:0:
182,192,119758,1,0,0:0:0:0:
329,192,119812,1,0,0:0:0:0:
256,192,119867,1,0,0:0:0:0:
109,192,119921,1,0,0:0:0:0:
36,192,119975,1,0,0:0:0:0:
402,192,119975,1,0,0:0:0:0:
109,192,120030,1,0,0:0:0:0:
182,192,120084,1,0,0:0:0:0:
256,192,120138,1,0,0:0:0:0:
182,192,120193,1,0,0:0:0:0:
36,192,120193,1,0,0:0:0:0:
402,192,120193,1,0,0:0:0:0:
256,192,120247,1,0,0:0:0:0:
329,192,120301,1,0,0:0:0:0:
402,192,120356,1,0,0:0:0:0:
475,192,120410,1,0,0:0:0:0:
402,192,120464,1,0,0:0:0:0:
329,192,120519,1,0,0:0:0:0:
256,192,120573,1,0,0:0:0:0:
329,192,120628,1,0,0:0:0:0:
475,192,120628,1,0,0:0:0:0:
109,192,120628,1,0,0:0:0:0:
256,192,120682,1,0,0:0:0:0:
182,192,120736,1,0,0:0:0:0:
109,192,120791,1,0,0:0:0:0:
36,192,120845,1,0,0:0:0:0:
182,192,120899,1,0,0:0:0:0:
329,192,120954,1,0,0:0:0:0:
475,192,120954,1,0,0:0:0:0:
109,192,121008,1,0,0:0:0:0:
256,192,121008,1,0,0:0:0:0:
475,192,121062,1,0,0:0:0:0:
329,192,121062,1,0,0:0:0:0:
182,192,121171,1,0,0:0:0:0:
36,192,121171,1,0,0:0:0:0:
109,192,121171,1,0,0:0:0:0:
36,192,121280,1,0,0:0:0:0:
475,192,121280,1,0,0:0:0:0:
182,192,121280,1,0,0:0:0:0:
402,192,121334,1,0,0:0:0:0:
329,192,121388,1,0,0:0:0:0:
256,192,121443,1,0,0:0:0:0:
182,192,121497,1,0,0:0:0:0:
109,192,121551,1,0,0:0:0:0:
36,192,121606,1,0,0:0:0:0:
475,192,121606,1,0,0:0:0:0:
329,192,121660,1,0,0:0:0:0:
256,192,121714,1,0,0:0:0:0:
36,192,121714,1,0,0:0:0:0:
475,192,121714,1,0,0:0:0:0:
109,192,121769,1,0,0:0:0:0:
182,192,121823,1,0,0:0:0:0:
256,192,121878,1,0,0:0:0:0:
402,192,121932,1,0,0:0:0:0:
36,192,121986,1,0,0:0:0:0:
182,192,122041,1,0,0:0:0:0:
329,192,122095,1,0,0:0:0:0:
475,192,122149,1,0,0:0:0:0:
402,192,122204,1,0,0:0:0:0:
329,192,122258,1,0,0:0:0:0:
256,192,122312,1,0,0:0:0:0:
109,192,122367,1,0,0:0:0:0:
475,192,122421,1,0,0:0:0:0:
329,192,122475,1,0,0:0:0:0:
182,192,122530,1,0,0:0:0:0:
36,192,122584,1,0,0:0:0:0:
109,192,122638,1,0,0:0:0:0:
182,192,122693,1,0,0:0:0:0:
256,192,122747,1,0,0:0:0:0:
36,192,122801,1,0,0:0:0:0:
182,192,122856,1,0,0:0:0:0:
256,192,122910,1,0,0:0:0:0:
329,192,122964,1,0,0:0:0:0:
475,192,123019,1,0,0:0:0:0:
402,192,123073,1,0,0:0:0:0:
329,192,123128,1,0,0:0:0:0:
256,192,123182,1,0,0:0:0:0:
475,192,123236,1,0,0:0:0:0:
329,192,123291,1,0,0:0:0:0:
256,192,123345,1,0,0:0:0:0:
182,192,123399,1,0,0:0:0:0:
36,192,123454,1,0,0:0:0:0:
109,192,123508,1,0,0:0:0:0:
182,192,123562,1,0,0:0:0:0:
256,192,123617,1,0,0:0:0:0:
109,192,123671,1,0,0:0:0:0:
256,192,123725,1,0,0:0:0:0:
329,192,123780,1,0,0:0:0:0:
402,192,123834,1,0,0:0:0:0:
475,192,123888,1,0,0:0:0:0:
402,192,123943,1,0,0:0:0:0:
329,192,123997,1,0,0:0:0:0:
256,192,124051,1,0,0:0:0:0:
402,192,124106,1,0,0:0:0:0:
256,192,124160,1,0,0:0:0:0:
182,192,124214,1,0,0:0:0:0:
109,192,124269,1,0,0:0:0:0:
36,192,124323,1,0,0:0:0:0:
182,192,124378,1,0,0:0:0:0:
256,192,124432,1,0,0:0:0:0:
402,192,124486,1,0,0:0:0:0:
36,192,124541,1,0,0:0:0:0:
109,192,124595,1,0,0:0:0:0:
182,192,124649,1,0,0:0:0:0:
329,192,124704,1,0,0:0:0:0:
475,192,124758,1,0,0:0:0:0:
329,192,124812,1,0,0:0:0:0:
256,192,124867,1,0,0:0:0:0:
109,192,124921,1,0,0:0:0:0:
475,192,124975,1,0,0:0:0:0:
402,192,125030,1,0,0:0:0:0:
329,192,125084,1,0,0:0:0:0:
182,192,125138,1,0,0:0:0:0:
36,192,125193,1,0,0:0:0:0:
475,192,125193,1,0,0:0:0:0:
109,192,125247,1,0,0:0:0:0:
182,192,125301,1,0,0:0:0:0:
256,192,125356,1,0,0:0:0:0:
402,192,125410,1,0,0:0:0:0:
36,192,125464,1,0,0:0:0:0:
182,192,125519,1,0,0:0:0:0:
329,192,125573,1,0,0:0:0:0:
475,192,125628,1,0,0:0:0:0:
402,192,125682,1,0,0:0:0:0:
329,192,125736,1,0,0:0:0:0:
256,192,125791,1,0,0:0:0:0:
109,192,125845,1,0,0:0:0:0:
475,192,125899,1,0,0:0:0:0:
329,192,125954,1,0,0:0:0:0:
182,192,126008,1,0,0:0:0:0:
36,192,126062,1,0,0:0:0:0:
109,192,126117,1,0,0:0:0:0:
182,192,126171,1,0,0:0:0:0:
256,192,126225,1,0,0:0:0:0:
36,192,126280,1,0,0:0:0:0:
182,192,126334,1,0,0:0:0:0:
256,192,126388,1,0,0:0:0:0:
329,192,126443,1,0,0:0:0:0:
475,192,126497,1,0,0:0:0:0:
402,192,126551,1,0,0:0:0:0:
329,192,126606,1,0,0:0:0:0:
256,192,126660,1,0,0:0:0:0:
475,192,126714,1,0,0:0:0:0:
329,192,126769,1,0,0:0:0:0:
256,192,126823,1,0,0:0:0:0:
182,192,126878,1,0,0:0:0:0:
36,192,126932,1,0,0:0:0:0:
329,192,126932,1,0,0:0:0:0:
109,192,126986,1,0,0:0:0:0:
475,192,127041,1,0,0:0:0:0:
182,192,127095,1,0,0:0:0:0:
475,192,127149,1,0,0:0:0:0:
256,192,127204,1,0,0:0:0:0:
475,192,127258,1,0,0:0:0:0:
329,192,127312,1,0,0:0:0:0:
475,192,127367,1,0,0:0:0:0:
402,192,127421,1,0,0:0:0:0:
256,192,127475,1,0,0:0:0:0:
182,192,127530,1,0,0:0:0:0:
402,192,127584,1,0,0:0:0:0:
329,192,127638,1,0,0:0:0:0:
182,192,127693,1,0,0:0:0:0:
109,192,127747,1,0,0:0:0:0:
36,192,127801,1,0,0:0:0:0:
256,192,127856,1,0,0:0:0:0:
109,192,127910,1,0,0:0:0:0:
36,192,127910,1,0,0:0:0:0:
329,192,127964,1,0,0:0:0:0:
256,192,127964,1,0,0:0:0:0:
475,192,128019,1,0,0:0:0:0:
402,192,128019,1,0,0:0:0:0:
256,192,128128,1,0,0:0:0:0:
182,192,128128,1,0,0:0:0:0:
109,192,128236,1,0,0:0:0:0:
36,192,128236,1,0,0:0:0:0:
475,192,128236,1,0,0:0:0:0:
256,192,128345,1,0,0:0:0:0:
329,192,128345,1,0,0:0:0:0:
109,192,128345,1,0,0:0:0:0:
402,192,128454,1,0,0:0:0:0:
475,192,128454,1,0,0:0:0:0:
36,192,128454,1,0,0:0:0:0:
256,192,128562,1,0,0:0:0:0:
182,192,128562,1,0,0:0:0:0:
402,192,128562,1,0,0:0:0:0:
475,192,128671,1,0,0:0:0:0:
256,192,128671,1,0,0:0:0:0:
36,192,128671,1,0,0:0:0:0:
109,192,128671,1,0,0:0:0:0:
