osu file format v14

[General]
AudioFilename: audio.ogg
AudioLeadIn: 0
PreviewTime: 100845
Countdown: 0
SampleSet: Soft
StackLeniency: 0.7
Mode: 3
LetterboxInBreaks: 0
SpecialStyle: 0
WidescreenStoryboard: 1

[Editor]
DistanceSpacing: 0.1
BeatDivisor: 2
GridSize: 8
TimelineZoom: 2.5

[Metadata]
Title:BEYOND
TitleUnicode:BEYOND
Artist:Lime
ArtistUnicode:Lime
Creator:FLeVI
Version:RC Normal
Source:THE BMS OF FIGHTERS XVI -NEO DYSTOPIA-
Tags:Electronic Instrumental FUSION POP kankitsu kanki2 BOFXVI video game vgm piano house
BeatmapID:3988032
BeatmapSetID:1930076

[Difficulty]
HPDrainRate:7
CircleSize:4
OverallDifficulty:7
ApproachRate:5
SliderMultiplier:1.4
SliderTickRate:1

[Events]
//Background and Video events
0,0,"20230127_234026.jpg",0,0
//Break Periods
//Storyboard Layer 0 (Background)
//Storyboard Layer 1 (Fail)
//Storyboard Layer 2 (Pass)
//Storyboard Layer 3 (Foreground)
//Storyboard Layer 4 (Overlay)
//Storyboard Sound Samples

[TimingPoints]
1715,217.391304347826,4,2,1,30,1,0
15628,-100,4,2,1,30,0,1
29541,-100,4,2,1,30,0,0
57367,-100,4,2,1,30,0,1
71280,-100,4,2,1,30,0,0
85193,-100,4,2,1,30,0,1
95628,-100,4,2,1,30,0,0
100845,-100,4,2,1,30,0,1
114758,-100,4,2,1,30,0,0

[HitObjects]
64,192,1715,5,0,0:0:0:0:
448,192,1715,1,0,0:0:0:0:
448,192,1932,1,0,0:0:0:0:
192,192,2258,1,0,0:0:0:0:
320,192,2475,1,0,0:0:0:0:
320,192,2693,1,0,0:0:0:0:
64,192,3019,1,0,0:0:0:0:
64,192,3236,1,0,0:0:0:0:
448,192,3454,1,0,0:0:0:0:
448,192,3671,1,0,0:0:0:0:
192,192,3997,1,0,0:0:0:0:
320,192,4214,1,0,0:0:0:0:
64,192,4432,1,0,0:0:0:0:
64,192,4758,1,0,0:0:0:0:
64,192,4975,1,0,0:0:0:0:
320,192,5193,1,0,0:0:0:0:
320,192,5410,1,0,0:0:0:0:
192,192,5736,1,0,0:0:0:0:
448,192,5954,1,0,0:0:0:0:
448,192,6171,1,0,0:0:0:0:
64,192,6497,1,0,0:0:0:0:
64,192,6714,1,0,0:0:0:0:
320,192,6932,1,0,0:0:0:0:
320,192,7149,1,0,0:0:0:0:
448,192,7475,1,0,0:0:0:0:
64,192,7693,1,0,0:0:0:0:
64,192,7910,1,0,0:0:0:0:
192,192,8236,1,0,0:0:0:0:
192,192,8454,1,0,0:0:0:0:
64,192,8671,5,0,0:0:0:0:
448,192,8671,1,0,0:0:0:0:
448,192,8888,1,0,0:0:0:0:
192,192,9214,1,0,0:0:0:0:
64,192,9323,1,0,0:0:0:0:
320,192,9432,1,0,0:0:0:0:
320,192,9649,1,0,0:0:0:0:
448,192,9758,1,0,0:0:0:0:
64,192,9975,1,0,0:0:0:0:
64,192,10193,1,0,0:0:0:0:
448,192,10410,1,0,0:0:0:0:
448,192,10628,1,0,0:0:0:0:
192,192,10954,1,0,0:0:0:0:
448,192,11062,1,0,0:0:0:0:
320,192,11171,1,0,0:0:0:0:
64,192,11388,1,0,0:0:0:0:
448,192,11497,1,0,0:0:0:0:
64,192,11714,1,0,0:0:0:0:
64,192,11932,1,0,0:0:0:0:
320,192,12149,1,0,0:0:0:0:
320,192,12367,1,0,0:0:0:0:
192,192,12693,1,0,0:0:0:0:
64,192,12801,1,0,0:0:0:0:
448,192,12910,1,0,0:0:0:0:
448,192,13128,1,0,0:0:0:0:
320,192,13236,1,0,0:0:0:0:
64,192,13454,1,0,0:0:0:0:
64,192,13671,1,0,0:0:0:0:
320,192,13888,1,0,0:0:0:0:
448,192,13888,1,0,0:0:0:0:
64,192,14106,1,0,0:0:0:0:
192,192,14323,1,0,0:0:0:0:
320,192,14541,1,0,0:0:0:0:
448,192,14758,1,0,0:0:0:0:
64,192,14758,1,0,0:0:0:0:
192,192,14867,1,0,0:0:0:0:
320,192,14975,1,0,0:0:0:0:
64,192,15084,1,0,0:0:0:0:
448,192,15193,1,0,0:0:0:0:
192,192,15301,1,0,0:0:0:0:
320,192,15410,1,0,0:0:0:0:
448,192,15519,1,0,0:0:0:0:
192,192,15628,1,0,0:0:0:0:
64,192,15628,1,0,0:0:0:0:
320,192,15845,1,0,0:0:0:0:
448,192,15845,1,0,0:0:0:0:
64,192,16171,1,0,0:0:0:0:
320,192,16280,1,0,0:0:0:0:
192,192,16280,1,0,0:0:0:0:
64,192,16497,1,0,0:0:0:0:
192,192,16714,1,0,0:0:0:0:
448,192,16714,1,0,0:0:0:0:
320,192,16823,1,0,0:0:0:0:
64,192,17041,1,0,0:0:0:0:
448,192,17149,1,0,0:0:0:0:
320,192,17149,1,0,0:0:0:0:
192,192,17367,1,0,0:0:0:0:
448,192,17584,1,0,0:0:0:0:
64,192,17584,1,0,0:0:0:0:
320,192,17910,1,0,0:0:0:0:
448,192,18019,1,0,0:0:0:0:
192,192,18019,1,0,0:0:0:0:
64,192,18236,1,0,0:0:0:0:
320,192,18454,1,0,0:0:0:0:
448,192,18454,1,0,0:0:0:0:
192,192,18562,1,0,0:0:0:0:
64,192,18780,1,0,0:0:0:0:
192,192,18888,1,0,0:0:0:0:
320,192,18888,1,0,0:0:0:0:
448,192,19106,1,0,0:0:0:0:
64,192,19323,1,0,0:0:0:0:
320,192,19323,1,0,0:0:0:0:
192,192,19649,1,0,0:0:0:0:
64,192,19758,1,0,0:0:0:0:
448,192,19758,1,0,0:0:0:0:
320,192,19975,1,0,0:0:0:0:
192,192,20193,1,0,0:0:0:0:
448,192,20193,1,0,0:0:0:0:
64,192,20301,1,0,0:0:0:0:
320,192,20519,1,0,0:0:0:0:
64,192,20628,1,0,0:0:0:0:
192,192,20628,1,0,0:0:0:0:
448,192,20845,1,0,0:0:0:0:
320,192,21062,1,0,0:0:0:0:
192,192,21062,1,0,0:0:0:0:
64,192,21388,1,0,0:0:0:0:
320,192,21497,1,0,0:0:0:0:
448,192,21497,1,0,0:0:0:0:
192,192,21714,1,0,0:0:0:0:
448,192,21823,1,0,0:0:0:0:
64,192,21932,1,0,0:0:0:0:
320,192,22041,1,0,0:0:0:0:
192,192,22149,1,0,0:0:0:0:
448,192,22258,1,0,0:0:0:0:
320,192,22367,1,0,0:0:0:0:
64,192,22475,1,0,0:0:0:0:
192,192,22584,1,0,0:0:0:0:
448,192,22584,1,0,0:0:0:0:
320,192,22801,1,0,0:0:0:0:
64,192,22801,1,0,0:0:0:0:
192,192,23128,1,0,0:0:0:0:
320,192,23236,1,0,0:0:0:0:
448,192,23236,1,0,0:0:0:0:
64,192,23454,1,0,0:0:0:0:
448,192,23671,1,0,0:0:0:0:
192,192,23671,1,0,0:0:0:0:
320,192,23780,1,0,0:0:0:0:
192,192,23997,1,0,0:0:0:0:
64,192,24106,1,0,0:0:0:0:
320,192,24106,1,0,0:0:0:0:
448,192,24323,1,0,0:0:0:0:
192,192,24541,1,0,0:0:0:0:
64,192,24541,1,0,0:0:0:0:
320,192,24867,1,0,0:0:0:0:
64,192,24975,1,0,0:0:0:0:
448,192,24975,1,0,0:0:0:0:
192,192,25193,1,0,0:0:0:0:
64,192,25410,1,0,0:0:0:0:
320,192,25410,1,0,0:0:0:0:
448,192,25519,1,0,0:0:0:0:
64,192,25736,1,0,0:0:0:0:
192,192,25845,1,0,0:0:0:0:
448,192,25845,1,0,0:0:0:0:
320,192,26062,1,0,0:0:0:0:
64,192,26280,1,0,0:0:0:0:
192,192,26280,1,0,0:0:0:0:
448,192,26606,1,0,0:0:0:0:
320,192,26714,1,0,0:0:0:0:
64,192,26714,1,0,0:0:0:0:
192,192,26932,1,0,0:0:0:0:
64,192,27149,1,0,0:0:0:0:
448,192,27149,1,0,0:0:0:0:
320,192,27258,1,0,0:0:0:0:
192,192,27475,1,0,0:0:0:0:
64,192,27584,1,0,0:0:0:0:
448,192,27584,1,0,0:0:0:0:
320,192,27801,1,0,0:0:0:0:
448,192,27801,1,0,0:0:0:0:
192,192,27910,1,0,0:0:0:0:
320,192,28019,1,0,0:0:0:0:
64,192,28236,1,0,0:0:0:0:
448,192,28345,1,0,0:0:0:0:
320,192,28671,1,0,0:0:0:0:
64,192,28780,1,0,0:0:0:0:
192,192,28888,1,0,0:0:0:0:
448,192,28997,1,0,0:0:0:0:
320,192,29106,1,0,0:0:0:0:
64,192,29214,1,0,0:0:0:0:
448,192,29323,1,0,0:0:0:0:
192,192,29432,1,0,0:0:0:0:
64,192,29541,1,0,0:0:0:0:
320,192,29541,1,0,0:0:0:0:
448,192,29758,1,0,0:0:0:0:
192,192,29867,1,0,0:0:0:0:
320,192,29975,1,0,0:0:0:0:
448,192,30193,1,0,0:0:0:0:
64,192,30410,1,0,0:0:0:0:
320,192,30736,1,0,0:0:0:0:
192,192,31062,1,0,0:0:0:0:
64,192,31280,1,0,0:0:0:0:
448,192,31388,1,0,0:0:0:0:
192,192,31497,1,0,0:0:0:0:
448,192,31606,1,0,0:0:0:0:
320,192,31714,1,0,0:0:0:0:
192,192,31823,1,0,0:0:0:0:
64,192,32041,1,0,0:0:0:0:
448,192,32367,1,0,0:0:0:0:
448,192,32801,1,0,0:0:0:0:
192,192,33019,1,0,0:0:0:0:
320,192,33236,1,0,0:0:0:0:
64,192,33345,1,0,0:0:0:0:
192,192,33454,1,0,0:0:0:0:
448,192,33671,1,0,0:0:0:0:
320,192,33888,1,0,0:0:0:0:
64,192,34214,1,0,0:0:0:0:
448,192,34541,1,0,0:0:0:0:
192,192,34758,1,0,0:0:0:0:
320,192,34867,1,0,0:0:0:0:
64,192,34975,1,0,0:0:0:0:
320,192,35084,1,0,0:0:0:0:
192,192,35193,1,0,0:0:0:0:
448,192,35301,1,0,0:0:0:0:
64,192,35519,1,0,0:0:0:0:
320,192,35628,1,0,0:0:0:0:
192,192,35845,1,0,0:0:0:0:
192,192,36280,1,0,0:0:0:0:
448,192,36497,1,0,0:0:0:0:
320,192,36497,1,0,0:0:0:0:
64,192,36714,1,0,0:0:0:0:
448,192,36823,1,0,0:0:0:0:
192,192,36932,1,0,0:0:0:0:
320,192,37149,1,0,0:0:0:0:
448,192,37367,1,0,0:0:0:0:
192,192,37693,1,0,0:0:0:0:
64,192,38019,1,0,0:0:0:0:
320,192,38128,1,0,0:0:0:0:
192,192,38236,1,0,0:0:0:0:
448,192,38454,1,0,0:0:0:0:
320,192,38562,1,0,0:0:0:0:
192,192,38671,1,0,0:0:0:0:
64,192,38888,1,0,0:0:0:0:
192,192,38997,1,0,0:0:0:0:
320,192,39106,1,0,0:0:0:0:
448,192,39323,1,0,0:0:0:0:
320,192,39432,1,0,0:0:0:0:
64,192,39541,1,0,0:0:0:0:
320,192,39649,1,0,0:0:0:0:
192,192,39758,1,0,0:0:0:0:
448,192,39867,1,0,0:0:0:0:
64,192,39975,1,0,0:0:0:0:
320,192,40193,1,0,0:0:0:0:
64,192,40301,1,0,0:0:0:0:
192,192,40519,1,0,0:0:0:0:
448,192,40736,1,0,0:0:0:0:
64,192,40954,1,0,0:0:0:0:
320,192,41062,1,0,0:0:0:0:
192,192,41388,1,0,0:0:0:0:
320,192,41497,1,0,0:0:0:0:
448,192,41606,1,0,0:0:0:0:
192,192,41714,1,0,0:0:0:0:
64,192,41714,1,0,0:0:0:0:
320,192,41932,1,0,0:0:0:0:
320,192,42149,1,0,0:0:0:0:
192,192,42367,1,0,0:0:0:0:
192,192,42584,1,0,0:0:0:0:
448,192,42801,1,0,0:0:0:0:
448,192,43019,1,0,0:0:0:0:
64,192,43454,1,0,0:0:0:0:
320,192,43454,1,0,0:0:0:0:
448,192,43671,1,0,0:0:0:0:
192,192,43780,1,0,0:0:0:0:
320,192,43888,1,0,0:0:0:0:
448,192,44106,1,0,0:0:0:0:
64,192,44323,1,0,0:0:0:0:
448,192,44541,1,0,0:0:0:0:
320,192,44649,1,0,0:0:0:0:
64,192,44867,1,0,0:0:0:0:
192,192,44975,1,0,0:0:0:0:
64,192,45193,1,0,0:0:0:0:
448,192,45301,1,0,0:0:0:0:
192,192,45410,1,0,0:0:0:0:
448,192,45519,1,0,0:0:0:0:
320,192,45628,1,0,0:0:0:0:
192,192,45736,1,0,0:0:0:0:
320,192,45954,1,0,0:0:0:0:
448,192,46280,1,0,0:0:0:0:
64,192,46388,1,0,0:0:0:0:
64,192,46606,1,0,0:0:0:0:
448,192,46714,1,0,0:0:0:0:
192,192,46932,1,0,0:0:0:0:
320,192,47149,1,0,0:0:0:0:
64,192,47258,1,0,0:0:0:0:
192,192,47367,1,0,0:0:0:0:
448,192,47584,1,0,0:0:0:0:
320,192,47801,1,0,0:0:0:0:
192,192,48019,1,0,0:0:0:0:
64,192,48128,1,0,0:0:0:0:
320,192,48345,1,0,0:0:0:0:
448,192,48454,1,0,0:0:0:0:
192,192,48671,1,0,0:0:0:0:
320,192,48780,1,0,0:0:0:0:
64,192,48888,1,0,0:0:0:0:
320,192,48997,1,0,0:0:0:0:
192,192,49106,1,0,0:0:0:0:
448,192,49214,1,0,0:0:0:0:
64,192,49432,1,0,0:0:0:0:
320,192,49541,1,0,0:0:0:0:
192,192,49758,1,0,0:0:0:0:
448,192,49758,1,0,0:0:0:0:
320,192,50084,1,0,0:0:0:0:
64,192,50084,1,0,0:0:0:0:
448,192,50410,1,0,0:0:0:0:
320,192,50410,1,0,0:0:0:0:
64,192,50628,1,0,0:0:0:0:
448,192,50736,1,0,0:0:0:0:
192,192,50845,1,0,0:0:0:0:
320,192,51062,1,0,0:0:0:0:
448,192,51280,1,0,0:0:0:0:
64,192,51497,1,0,0:0:0:0:
192,192,51606,1,0,0:0:0:0:
448,192,51823,1,0,0:0:0:0:
64,192,51932,1,0,0:0:0:0:
320,192,52041,1,0,0:0:0:0:
192,192,52149,1,0,0:0:0:0:
448,192,52367,1,0,0:0:0:0:
320,192,52475,1,0,0:0:0:0:
192,192,52584,1,0,0:0:0:0:
64,192,52801,1,0,0:0:0:0:
192,192,52910,1,0,0:0:0:0:
320,192,53019,1,0,0:0:0:0:
448,192,53236,1,0,0:0:0:0:
320,192,53345,1,0,0:0:0:0:
64,192,53454,1,0,0:0:0:0:
320,192,53562,1,0,0:0:0:0:
192,192,53671,1,0,0:0:0:0:
448,192,53780,1,0,0:0:0:0:
64,192,53888,1,0,0:0:0:0:
320,192,53997,1,0,0:0:0:0:
192,192,54106,1,0,0:0:0:0:
64,192,54214,1,0,0:0:0:0:
192,192,54432,1,0,0:0:0:0:
448,192,54541,1,0,0:0:0:0:
64,192,54758,1,0,0:0:0:0:
320,192,54975,1,0,0:0:0:0:
448,192,55084,1,0,0:0:0:0:
64,192,55193,1,0,0:0:0:0:
448,192,55301,1,0,0:0:0:0:
192,192,55410,1,0,0:0:0:0:
64,192,55628,1,0,0:0:0:0:
448,192,55628,1,0,0:0:0:0:
320,192,55845,1,0,0:0:0:0:
192,192,56062,1,0,0:0:0:0:
64,192,56280,1,0,0:0:0:0:
320,192,56497,1,0,0:0:0:0:
192,192,56714,1,0,0:0:0:0:
448,192,56932,1,0,0:0:0:0:
192,192,57041,1,0,0:0:0:0:
320,192,57149,1,0,0:0:0:0:
64,192,57258,1,0,0:0:0:0:
192,192,57367,1,0,0:0:0:0:
448,192,57367,1,0,0:0:0:0:
320,192,57584,1,0,0:0:0:0:
64,192,57584,1,0,0:0:0:0:
192,192,57801,1,0,0:0:0:0:
448,192,57910,1,0,0:0:0:0:
192,192,58019,1,0,0:0:0:0:
448,192,58128,1,0,0:0:0:0:
64,192,58236,1,0,0:0:0:0:
320,192,58345,1,0,0:0:0:0:
64,192,58454,1,0,0:0:0:0:
320,192,58562,1,0,0:0:0:0:
192,192,58671,1,0,0:0:0:0:
448,192,58780,1,0,0:0:0:0:
192,192,58888,1,0,0:0:0:0:
448,192,58997,1,0,0:0:0:0:
64,192,59106,1,0,0:0:0:0:
320,192,59323,1,0,0:0:0:0:
448,192,59323,1,0,0:0:0:0:
64,192,59649,1,0,0:0:0:0:
192,192,59758,1,0,0:0:0:0:
320,192,59758,1,0,0:0:0:0:
448,192,59975,1,0,0:0:0:0:
320,192,60193,1,0,0:0:0:0:
64,192,60193,1,0,0:0:0:0:
192,192,60301,1,0,0:0:0:0:
448,192,60519,1,0,0:0:0:0:
192,192,60628,1,0,0:0:0:0:
64,192,60628,1,0,0:0:0:0:
320,192,60845,1,0,0:0:0:0:
448,192,61062,1,0,0:0:0:0:
64,192,61062,1,0,0:0:0:0:
192,192,61388,1,0,0:0:0:0:
64,192,61497,1,0,0:0:0:0:
320,192,61497,1,0,0:0:0:0:
448,192,61714,1,0,0:0:0:0:
192,192,61932,1,0,0:0:0:0:
64,192,61932,1,0,0:0:0:0:
320,192,62041,1,0,0:0:0:0:
448,192,62258,1,0,0:0:0:0:
320,192,62367,1,0,0:0:0:0:
192,192,62367,1,0,0:0:0:0:
64,192,62584,1,0,0:0:0:0:
192,192,62801,1,0,0:0:0:0:
448,192,62801,1,0,0:0:0:0:
64,192,63128,1,0,0:0:0:0:
320,192,63236,1,0,0:0:0:0:
448,192,63236,1,0,0:0:0:0:
192,192,63454,1,0,0:0:0:0:
320,192,63562,1,0,0:0:0:0:
64,192,63671,1,0,0:0:0:0:
192,192,63780,1,0,0:0:0:0:
448,192,63888,1,0,0:0:0:0:
320,192,63997,1,0,0:0:0:0:
192,192,64106,1,0,0:0:0:0:
64,192,64214,1,0,0:0:0:0:
448,192,64323,1,0,0:0:0:0:
320,192,64323,1,0,0:0:0:0:
192,192,64541,1,0,0:0:0:0:
64,192,64541,1,0,0:0:0:0:
320,192,64758,1,0,0:0:0:0:
64,192,64975,1,0,0:0:0:0:
448,192,64975,1,0,0:0:0:0:
320,192,65301,1,0,0:0:0:0:
192,192,65410,1,0,0:0:0:0:
448,192,65519,1,0,0:0:0:0:
320,192,65628,1,0,0:0:0:0:
64,192,65736,1,0,0:0:0:0:
192,192,65845,1,0,0:0:0:0:
320,192,65954,1,0,0:0:0:0:
448,192,65954,1,0,0:0:0:0:
192,192,66171,1,0,0:0:0:0:
64,192,66497,1,0,0:0:0:0:
448,192,66497,1,0,0:0:0:0:
320,192,66606,1,0,0:0:0:0:
192,192,66714,1,0,0:0:0:0:
64,192,66823,1,0,0:0:0:0:
448,192,66823,1,0,0:0:0:0:
192,192,67149,1,0,0:0:0:0:
320,192,67367,1,0,0:0:0:0:
448,192,67584,1,0,0:0:0:0:
64,192,67801,1,0,0:0:0:0:
192,192,67801,1,0,0:0:0:0:
448,192,68019,1,0,0:0:0:0:
320,192,68019,1,0,0:0:0:0:
64,192,68236,1,0,0:0:0:0:
192,192,68454,1,0,0:0:0:0:
320,192,68562,1,0,0:0:0:0:
448,192,68671,1,0,0:0:0:0:
64,192,68780,1,0,0:0:0:0:
320,192,68888,1,0,0:0:0:0:
192,192,68997,1,0,0:0:0:0:
448,192,69106,1,0,0:0:0:0:
64,192,69214,1,0,0:0:0:0:
320,192,69323,1,0,0:0:0:0:
192,192,69432,1,0,0:0:0:0:
64,192,69541,1,0,0:0:0:0:
448,192,69541,1,0,0:0:0:0:
192,192,69975,1,0,0:0:0:0:
448,192,70410,1,0,0:0:0:0:
320,192,70628,1,0,0:0:0:0:
64,192,70628,1,0,0:0:0:0:
320,192,70954,1,0,0:0:0:0:
64,192,70954,1,0,0:0:0:0:
192,192,71280,1,0,0:0:0:0:
448,192,71280,1,0,0:0:0:0:
64,192,71714,1,0,0:0:0:0:
192,192,71932,1,0,0:0:0:0:
320,192,72149,1,0,0:0:0:0:
192,192,72584,1,0,0:0:0:0:
448,192,73019,1,0,0:0:0:0:
320,192,73345,1,0,0:0:0:0:
192,192,73671,1,0,0:0:0:0:
64,192,74106,1,0,0:0:0:0:
320,192,74758,1,0,0:0:0:0:
192,192,75193,1,0,0:0:0:0:
448,192,75410,1,0,0:0:0:0:
64,192,75628,1,0,0:0:0:0:
320,192,76062,1,0,0:0:0:0:
192,192,76497,1,0,0:0:0:0:
64,192,76714,1,0,0:0:0:0:
320,192,76932,1,0,0:0:0:0:
192,192,77149,1,0,0:0:0:0:
448,192,77367,1,0,0:0:0:0:
320,192,77584,1,0,0:0:0:0:
64,192,77801,1,0,0:0:0:0:
448,192,77946,1,0,0:0:0:0:
192,192,78091,1,0,0:0:0:0:
64,192,78236,1,0,0:0:0:0:
448,192,78236,1,0,0:0:0:0:
320,192,78236,1,0,0:0:0:0:
192,192,78454,1,0,0:0:0:0:
320,192,78671,1,0,0:0:0:0:
192,192,78888,1,0,0:0:0:0:
448,192,79106,1,0,0:0:0:0:
320,192,79323,1,0,0:0:0:0:
64,192,79541,1,0,0:0:0:0:
192,192,79758,1,0,0:0:0:0:
448,192,79975,1,0,0:0:0:0:
64,192,80193,1,0,0:0:0:0:
320,192,80301,1,0,0:0:0:0:
192,192,80628,1,0,0:0:0:0:
448,192,80845,1,0,0:0:0:0:
64,192,81062,1,0,0:0:0:0:
64,192,81497,1,0,0:0:0:0:
320,192,81714,1,0,0:0:0:0:
192,192,81932,1,0,0:0:0:0:
192,192,82367,1,0,0:0:0:0:
448,192,82584,1,0,0:0:0:0:
320,192,82801,1,0,0:0:0:0:
192,192,83019,1,0,0:0:0:0:
64,192,83236,1,0,0:0:0:0:
320,192,83454,1,0,0:0:0:0:
448,192,83454,1,0,0:0:0:0:
192,192,83562,1,0,0:0:0:0:
320,192,83671,1,0,0:0:0:0:
64,192,83888,1,0,0:0:0:0:
448,192,83997,1,0,0:0:0:0:
320,192,84323,1,0,0:0:0:0:
64,192,84432,1,0,0:0:0:0:
192,192,84541,1,0,0:0:0:0:
448,192,84649,1,0,0:0:0:0:
320,192,84758,1,0,0:0:0:0:
64,192,84867,1,0,0:0:0:0:
192,192,84975,1,0,0:0:0:0:
320,192,85084,1,0,0:0:0:0:
64,192,85193,1,0,0:0:0:0:
448,192,85193,1,0,0:0:0:0:
320,192,85410,1,0,0:0:0:0:
192,192,85628,1,0,0:0:0:0:
448,192,85845,1,0,0:0:0:0:
320,192,85954,1,0,0:0:0:0:
64,192,86171,1,0,0:0:0:0:
320,192,86497,1,0,0:0:0:0:
64,192,86714,1,0,0:0:0:0:
448,192,86932,1,0,0:0:0:0:
192,192,87149,1,0,0:0:0:0:
320,192,87367,1,0,0:0:0:0:
64,192,87584,1,0,0:0:0:0:
192,192,87693,1,0,0:0:0:0:
448,192,87910,1,0,0:0:0:0:
64,192,88128,1,0,0:0:0:0:
320,192,88236,1,0,0:0:0:0:
192,192,88345,1,0,0:0:0:0:
64,192,88454,1,0,0:0:0:0:
448,192,88562,1,0,0:0:0:0:
320,192,88671,1,0,0:0:0:0:
192,192,88888,1,0,0:0:0:0:
448,192,89106,1,0,0:0:0:0:
64,192,89323,1,0,0:0:0:0:
320,192,89432,1,0,0:0:0:0:
192,192,89649,1,0,0:0:0:0:
448,192,89867,1,0,0:0:0:0:
320,192,89975,1,0,0:0:0:0:
192,192,90193,1,0,0:0:0:0:
448,192,90301,1,0,0:0:0:0:
64,192,90410,1,0,0:0:0:0:
320,192,90628,1,0,0:0:0:0:
192,192,90845,1,0,0:0:0:0:
448,192,91062,1,0,0:0:0:0:
64,192,91171,1,0,0:0:0:0:
320,192,91388,1,0,0:0:0:0:
192,192,91497,1,0,0:0:0:0:
448,192,91606,1,0,0:0:0:0:
320,192,91714,1,0,0:0:0:0:
64,192,91823,1,0,0:0:0:0:
448,192,91932,1,0,0:0:0:0:
192,192,92041,1,0,0:0:0:0:
64,192,92149,1,0,0:0:0:0:
320,192,92149,1,0,0:0:0:0:
448,192,92367,1,0,0:0:0:0:
192,192,92367,1,0,0:0:0:0:
64,192,92693,1,0,0:0:0:0:
448,192,92801,1,0,0:0:0:0:
320,192,92801,1,0,0:0:0:0:
192,192,93019,1,0,0:0:0:0:
64,192,93236,1,0,0:0:0:0:
320,192,93236,1,0,0:0:0:0:
448,192,93345,1,0,0:0:0:0:
192,192,93562,1,0,0:0:0:0:
64,192,93671,1,0,0:0:0:0:
320,192,93671,1,0,0:0:0:0:
448,192,93888,1,0,0:0:0:0:
192,192,94106,1,0,0:0:0:0:
64,192,94106,1,0,0:0:0:0:
320,192,94432,1,0,0:0:0:0:
448,192,94541,1,0,0:0:0:0:
192,192,94541,1,0,0:0:0:0:
320,192,94649,1,0,0:0:0:0:
64,192,94867,1,0,0:0:0:0:
192,192,94975,1,0,0:0:0:0:
448,192,95084,1,0,0:0:0:0:
64,192,95193,1,0,0:0:0:0:
320,192,95301,1,0,0:0:0:0:
192,192,95410,1,0,0:0:0:0:
64,192,95519,1,0,0:0:0:0:
320,192,95628,1,0,0:0:0:0:
448,192,95628,1,0,0:0:0:0:
192,192,96062,1,0,0:0:0:0:
448,192,96280,1,0,0:0:0:0:
320,192,96497,1,0,0:0:0:0:
192,192,96714,1,0,0:0:0:0:
64,192,96932,1,0,0:0:0:0:
448,192,97149,1,0,0:0:0:0:
192,192,97584,1,0,0:0:0:0:
320,192,97801,1,0,0:0:0:0:
192,192,98019,5,0,0:0:0:0:
448,192,98236,1,0,0:0:0:0:
64,192,98454,1,0,0:0:0:0:
448,192,98671,1,0,0:0:0:0:
64,192,98888,1,0,0:0:0:0:
320,192,99106,5,0,0:0:0:0:
448,192,99106,1,0,0:0:0:0:
64,192,99323,1,0,0:0:0:0:
192,192,99541,1,0,0:0:0:0:
320,192,99758,1,0,0:0:0:0:
448,192,99975,1,0,0:0:0:0:
64,192,99975,1,0,0:0:0:0:
192,192,100084,1,0,0:0:0:0:
320,192,100193,1,0,0:0:0:0:
64,192,100301,1,0,0:0:0:0:
448,192,100410,1,0,0:0:0:0:
192,192,100519,1,0,0:0:0:0:
320,192,100628,1,0,0:0:0:0:
448,192,100736,1,0,0:0:0:0:
192,192,100845,1,0,0:0:0:0:
64,192,100845,1,0,0:0:0:0:
320,192,101062,1,0,0:0:0:0:
448,192,101062,1,0,0:0:0:0:
64,192,101388,1,0,0:0:0:0:
320,192,101497,1,0,0:0:0:0:
192,192,101497,1,0,0:0:0:0:
64,192,101714,1,0,0:0:0:0:
192,192,101932,1,0,0:0:0:0:
448,192,101932,1,0,0:0:0:0:
320,192,102041,1,0,0:0:0:0:
64,192,102258,1,0,0:0:0:0:
448,192,102367,1,0,0:0:0:0:
320,192,102367,1,0,0:0:0:0:
192,192,102584,1,0,0:0:0:0:
448,192,102801,1,0,0:0:0:0:
64,192,102801,1,0,0:0:0:0:
320,192,103128,1,0,0:0:0:0:
448,192,103236,1,0,0:0:0:0:
192,192,103236,1,0,0:0:0:0:
64,192,103454,1,0,0:0:0:0:
320,192,103671,1,0,0:0:0:0:
448,192,103671,1,0,0:0:0:0:
192,192,103780,1,0,0:0:0:0:
64,192,103997,1,0,0:0:0:0:
192,192,104106,1,0,0:0:0:0:
320,192,104106,1,0,0:0:0:0:
448,192,104323,1,0,0:0:0:0:
64,192,104541,1,0,0:0:0:0:
320,192,104541,1,0,0:0:0:0:
192,192,104867,1,0,0:0:0:0:
64,192,104975,1,0,0:0:0:0:
448,192,104975,1,0,0:0:0:0:
320,192,105193,1,0,0:0:0:0:
192,192,105410,1,0,0:0:0:0:
448,192,105410,1,0,0:0:0:0:
64,192,105519,1,0,0:0:0:0:
320,192,105736,1,0,0:0:0:0:
64,192,105845,1,0,0:0:0:0:
192,192,105845,1,0,0:0:0:0:
448,192,106062,1,0,0:0:0:0:
320,192,106280,1,0,0:0:0:0:
192,192,106280,1,0,0:0:0:0:
64,192,106606,1,0,0:0:0:0:
320,192,106714,1,0,0:0:0:0:
448,192,106714,1,0,0:0:0:0:
192,192,106932,1,0,0:0:0:0:
448,192,107041,1,0,0:0:0:0:
64,192,107149,1,0,0:0:0:0:
320,192,107258,1,0,0:0:0:0:
192,192,107367,1,0,0:0:0:0:
448,192,107475,1,0,0:0:0:0:
320,192,107584,1,0,0:0:0:0:
64,192,107693,1,0,0:0:0:0:
192,192,107801,1,0,0:0:0:0:
448,192,107801,1,0,0:0:0:0:
320,192,108019,1,0,0:0:0:0:
64,192,108019,1,0,0:0:0:0:
192,192,108345,1,0,0:0:0:0:
320,192,108454,1,0,0:0:0:0:
448,192,108454,1,0,0:0:0:0:
64,192,108671,1,0,0:0:0:0:
448,192,108888,1,0,0:0:0:0:
192,192,108888,1,0,0:0:0:0:
320,192,108997,1,0,0:0:0:0:
192,192,109214,1,0,0:0:0:0:
64,192,109323,1,0,0:0:0:0:
320,192,109323,1,0,0:0:0:0:
448,192,109541,1,0,0:0:0:0:
192,192,109758,1,0,0:0:0:0:
64,192,109758,1,0,0:0:0:0:
320,192,110084,1,0,0:0:0:0:
64,192,110193,1,0,0:0:0:0:
448,192,110193,1,0,0:0:0:0:
192,192,110410,1,0,0:0:0:0:
64,192,110628,1,0,0:0:0:0:
320,192,110628,1,0,0:0:0:0:
448,192,110736,1,0,0:0:0:0:
64,192,110954,1,0,0:0:0:0:
192,192,111062,1,0,0:0:0:0:
448,192,111062,1,0,0:0:0:0:
320,192,111280,1,0,0:0:0:0:
64,192,111497,1,0,0:0:0:0:
192,192,111497,1,0,0:0:0:0:
448,192,111823,1,0,0:0:0:0:
320,192,111932,1,0,0:0:0:0:
64,192,111932,1,0,0:0:0:0:
192,192,112149,1,0,0:0:0:0:
64,192,112367,1,0,0:0:0:0:
448,192,112367,1,0,0:0:0:0:
320,192,112475,1,0,0:0:0:0:
192,192,112693,1,0,0:0:0:0:
64,192,112801,1,0,0:0:0:0:
448,192,112801,1,0,0:0:0:0:
320,192,113019,1,0,0:0:0:0:
448,192,113019,1,0,0:0:0:0:
192,192,113236,1,0,0:0:0:0:
64,192,113236,1,0,0:0:0:0:
448,192,113671,1,0,0:0:0:0:
320,192,113780,1,0,0:0:0:0:
64,192,113888,1,0,0:0:0:0:
192,192,113997,1,0,0:0:0:0:
320,192,114106,1,0,0:0:0:0:
448,192,114106,1,0,0:0:0:0:
320,192,114323,1,0,0:0:0:0:
64,192,114432,1,0,0:0:0:0:
192,192,114432,1,0,0:0:0:0:
192,192,114649,1,0,0:0:0:0:
320,192,114758,1,0,0:0:0:0:
448,192,114758,1,0,0:0:0:0:
64,192,114975,1,0,0:0:0:0:
448,192,115193,1,0,0:0:0:0:
64,192,115410,1,0,0:0:0:0:
320,192,115628,1,0,0:0:0:0:
64,192,115845,1,0,0:0:0:0:
192,192,116062,1,0,0:0:0:0:
64,192,116280,1,0,0:0:0:0:
320,192,116497,1,0,0:0:0:0:
448,192,116714,1,0,0:0:0:0:
192,192,116932,1,0,0:0:0:0:
448,192,117149,1,0,0:0:0:0:
64,192,117367,1,0,0:0:0:0:
448,192,117584,1,0,0:0:0:0:
192,192,117801,1,0,0:0:0:0:
448,192,118019,1,0,0:0:0:0:
320,192,118236,1,0,0:0:0:0:
64,192,118454,1,0,0:0:0:0:
448,192,118671,1,0,0:0:0:0:
64,192,118888,1,0,0:0:0:0:
320,192,119106,1,0,0:0:0:0:
64,192,119323,1,0,0:0:0:0:
192,192,119541,1,0,0:0:0:0:
64,192,119758,1,0,0:0:0:0:
320,192,119975,1,0,0:0:0:0:
448,192,120193,1,0,0:0:0:0:
192,192,120410,1,0,0:0:0:0:
448,192,120628,1,0,0:0:0:0:
64,192,120845,1,0,0:0:0:0:
320,192,120954,1,0,0:0:0:0:
192,192,121062,1,0,0:0:0:0:
448,192,121171,1,0,0:0:0:0:
320,192,121280,1,0,0:0:0:0:
64,192,121388,1,0,0:0:0:0:
192,192,121497,1,0,0:0:0:0:
448,192,121606,1,0,0:0:0:0:
320,192,121714,1,0,0:0:0:0:
64,192,121714,1,0,0:0:0:0:
192,192,121932,1,0,0:0:0:0:
192,192,122367,1,0,0:0:0:0:
192,192,122801,1,0,0:0:0:0:
192,192,123236,1,0,0:0:0:0:
448,192,123454,1,0,0:0:0:0:
320,192,123671,1,0,0:0:0:0:
320,192,124106,1,0,0:0:0:0:
320,192,124541,1,0,0:0:0:0:
320,192,124975,1,0,0:0:0:0:
192,192,125193,1,0,0:0:0:0:
64,192,125410,1,0,0:0:0:0:
64,192,125845,1,0,0:0:0:0:
64,192,126280,1,0,0:0:0:0:
64,192,126714,1,0,0:0:0:0:
448,192,126932,1,0,0:0:0:0:
320,192,126932,1,0,0:0:0:0:
192,192,127041,1,0,0:0:0:0:
448,192,127149,1,0,0:0:0:0:
64,192,127367,1,0,0:0:0:0:
320,192,127475,5,0,0:0:0:0:
448,192,127801,1,0,0:0:0:0:
64,192,127910,1,0,0:0:0:0:
320,192,128019,1,0,0:0:0:0:
192,192,128128,1,0,0:0:0:0:
64,192,128236,1,0,0:0:0:0:
448,192,128345,1,0,0:0:0:0:
192,192,128454,1,0,0:0:0:0:
320,192,128562,1,0,0:0:0:0:
448,192,128671,5,0,0:0:0:0:
64,192,128671,1,0,0:0:0:0:
