osu file format v14

[General]
AudioFilename: audio.ogg
AudioLeadIn: 0
PreviewTime: 100845
Countdown: 0
SampleSet: Soft
StackLeniency: 0.7
Mode: 3
LetterboxInBreaks: 0
SpecialStyle: 0
WidescreenStoryboard: 1

[Editor]
DistanceSpacing: 0.1
BeatDivisor: 4
GridSize: 8
TimelineZoom: 2.6

[Metadata]
Title:BEYOND
TitleUnicode:BEYOND
Artist:Lime
ArtistUnicode:Lime
Creator:FLeVI
Version:LN Extra
Source:THE BMS OF FIGHTERS XVI -NEO DYSTOPIA-
Tags:Electronic Instrumental FUSION POP kankitsu kanki2 BOFXVI video game vgm piano house
BeatmapID:3988024
BeatmapSetID:1930076

[Difficulty]
HPDrainRate:8.3
CircleSize:4
OverallDifficulty:7.5
ApproachRate:5
SliderMultiplier:1.4
SliderTickRate:1

[Events]
//Background and Video events
0,0,"20230127_235651.jpg",0,0
//Break Periods
//Storyboard Layer 0 (Background)
//Storyboard Layer 1 (Fail)
//Storyboard Layer 2 (Pass)
//Storyboard Layer 3 (Foreground)
//Storyboard Layer 4 (Overlay)
//Storyboard Sound Samples

[TimingPoints]
1715,217.391304347826,4,2,1,30,1,0
15628,-100,4,2,1,30,0,1
29541,-100,4,2,1,30,0,0
57367,-100,4,2,1,30,0,1
71280,-100,4,2,1,30,0,0
85193,-100,4,2,1,30,0,1
95628,-100,4,2,1,30,0,0
100845,-100,4,2,1,30,0,1
114758,-100,4,2,1,30,0,0

[HitObjects]
64,192,1715,128,0,1932:0:0:0:0:
320,192,1715,128,0,1823:0:0:0:0:
448,192,1715,128,0,1823:0:0:0:0:
320,192,1932,128,0,2149:0:0:0:0:
448,192,1932,128,0,2149:0:0:0:0:
192,192,2149,128,0,2258:0:0:0:0:
320,192,2258,128,0,2367:0:0:0:0:
448,192,2258,128,0,2367:0:0:0:0:
192,192,2475,128,0,2584:0:0:0:0:
448,192,2475,128,0,2584:0:0:0:0:
192,192,2693,128,0,2910:0:0:0:0:
448,192,2693,128,0,2910:0:0:0:0:
320,192,2910,128,0,3019:0:0:0:0:
192,192,3019,128,0,3128:0:0:0:0:
448,192,3019,128,0,3128:0:0:0:0:
192,192,3236,128,0,3454:0:0:0:0:
448,192,3236,128,0,3345:0:0:0:0:
448,192,3454,128,0,3562:0:0:0:0:
64,192,3454,128,0,3562:0:0:0:0:
320,192,3562,128,0,3671:0:0:0:0:
64,192,3671,128,0,3888:0:0:0:0:
448,192,3671,128,0,3888:0:0:0:0:
192,192,3888,128,0,3997:0:0:0:0:
64,192,3997,128,0,4106:0:0:0:0:
448,192,3997,128,0,4106:0:0:0:0:
320,192,4214,128,0,4323:0:0:0:0:
64,192,4214,128,0,4323:0:0:0:0:
64,192,4432,128,0,4649:0:0:0:0:
192,192,4432,128,0,4649:0:0:0:0:
448,192,4649,128,0,4758:0:0:0:0:
192,192,4758,128,0,4867:0:0:0:0:
64,192,4758,128,0,4867:0:0:0:0:
64,192,4975,128,0,5084:0:0:0:0:
192,192,4975,128,0,5193:0:0:0:0:
320,192,5193,128,0,5301:0:0:0:0:
64,192,5193,128,0,5301:0:0:0:0:
192,192,5301,128,0,5410:0:0:0:0:
64,192,5410,128,0,5628:0:0:0:0:
448,192,5410,128,0,5628:0:0:0:0:
320,192,5628,128,0,5736:0:0:0:0:
448,192,5736,128,0,5845:0:0:0:0:
64,192,5736,128,0,5845:0:0:0:0:
320,192,5845,128,0,5954:0:0:0:0:
192,192,5954,128,0,6062:0:0:0:0:
448,192,5954,128,0,6062:0:0:0:0:
192,192,6171,128,0,6388:0:0:0:0:
448,192,6171,128,0,6388:0:0:0:0:
64,192,6388,128,0,6497:0:0:0:0:
192,192,6497,128,0,6606:0:0:0:0:
448,192,6497,128,0,6606:0:0:0:0:
192,192,6714,128,0,6932:0:0:0:0:
448,192,6714,128,0,6823:0:0:0:0:
448,192,6932,128,0,7041:0:0:0:0:
64,192,6932,128,0,7041:0:0:0:0:
320,192,7041,128,0,7149:0:0:0:0:
448,192,7149,128,0,7367:0:0:0:0:
64,192,7149,128,0,7367:0:0:0:0:
192,192,7367,128,0,7475:0:0:0:0:
448,192,7475,128,0,7584:0:0:0:0:
64,192,7475,128,0,7584:0:0:0:0:
192,192,7584,128,0,7693:0:0:0:0:
64,192,7693,128,0,7801:0:0:0:0:
320,192,7693,128,0,7801:0:0:0:0:
320,192,7910,128,0,8128:0:0:0:0:
64,192,7910,128,0,8128:0:0:0:0:
448,192,8128,128,0,8236:0:0:0:0:
320,192,8236,128,0,8345:0:0:0:0:
64,192,8236,128,0,8345:0:0:0:0:
320,192,8454,128,0,8562:0:0:0:0:
64,192,8454,128,0,8562:0:0:0:0:
192,192,8671,128,0,8888:0:0:0:0:
320,192,8671,128,0,8780:0:0:0:0:
448,192,8671,128,0,8780:0:0:0:0:
64,192,8780,128,0,8888:0:0:0:0:
320,192,8888,128,0,9106:0:0:0:0:
448,192,8888,128,0,9106:0:0:0:0:
192,192,8997,1,0,0:0:0:0:
64,192,9106,128,0,9214:0:0:0:0:
320,192,9214,128,0,9323:0:0:0:0:
448,192,9214,128,0,9323:0:0:0:0:
64,192,9323,128,0,9432:0:0:0:0:
192,192,9432,128,0,9541:0:0:0:0:
448,192,9432,128,0,9541:0:0:0:0:
320,192,9541,1,0,0:0:0:0:
192,192,9649,128,0,9867:0:0:0:0:
448,192,9649,128,0,9867:0:0:0:0:
64,192,9758,1,0,0:0:0:0:
320,192,9867,128,0,9975:0:0:0:0:
192,192,9975,128,0,10084:0:0:0:0:
448,192,9975,128,0,10084:0:0:0:0:
64,192,10084,1,0,0:0:0:0:
192,192,10193,128,0,10410:0:0:0:0:
448,192,10193,128,0,10301:0:0:0:0:
320,192,10301,1,0,0:0:0:0:
448,192,10410,128,0,10519:0:0:0:0:
64,192,10410,128,0,10519:0:0:0:0:
320,192,10519,128,0,10628:0:0:0:0:
64,192,10628,128,0,10845:0:0:0:0:
448,192,10628,128,0,10845:0:0:0:0:
192,192,10736,1,0,0:0:0:0:
320,192,10845,128,0,10954:0:0:0:0:
64,192,10954,128,0,11062:0:0:0:0:
448,192,10954,128,0,11062:0:0:0:0:
192,192,11062,1,0,0:0:0:0:
320,192,11171,128,0,11280:0:0:0:0:
64,192,11171,128,0,11280:0:0:0:0:
448,192,11280,1,0,0:0:0:0:
64,192,11388,128,0,11606:0:0:0:0:
192,192,11388,128,0,11606:0:0:0:0:
320,192,11497,1,0,0:0:0:0:
448,192,11606,128,0,11714:0:0:0:0:
192,192,11714,128,0,11823:0:0:0:0:
64,192,11714,128,0,11823:0:0:0:0:
320,192,11823,1,0,0:0:0:0:
64,192,11932,128,0,12041:0:0:0:0:
192,192,11932,128,0,12149:0:0:0:0:
448,192,12041,1,0,0:0:0:0:
320,192,12149,128,0,12258:0:0:0:0:
64,192,12149,128,0,13780:0:0:0:0:
192,192,12258,128,0,12367:0:0:0:0:
448,192,12367,128,0,12584:0:0:0:0:
320,192,12475,1,0,0:0:0:0:
192,192,12584,128,0,12693:0:0:0:0:
448,192,12693,128,0,12801:0:0:0:0:
192,192,12801,128,0,12910:0:0:0:0:
320,192,12910,128,0,13019:0:0:0:0:
448,192,13019,1,0,0:0:0:0:
192,192,13128,128,0,13345:0:0:0:0:
448,192,13236,1,0,0:0:0:0:
320,192,13345,1,0,0:0:0:0:
448,192,13454,128,0,13562:0:0:0:0:
192,192,13562,1,0,0:0:0:0:
320,192,13671,128,0,13888:0:0:0:0:
192,192,13780,1,0,0:0:0:0:
64,192,13888,128,0,13997:0:0:0:0:
192,192,13888,128,0,13997:0:0:0:0:
448,192,13888,128,0,14323:0:0:0:0:
320,192,13997,128,0,14214:0:0:0:0:
192,192,14106,128,0,14486:0:0:0:0:
64,192,14214,128,0,14486:0:0:0:0:
320,192,14323,128,0,14541:0:0:0:0:
448,192,14432,128,0,14595:0:0:0:0:
64,192,14541,128,0,14595:0:0:0:0:
192,192,14541,128,0,14595:0:0:0:0:
320,192,14595,128,0,14649:0:0:0:0:
448,192,14649,128,0,14704:0:0:0:0:
64,192,14649,128,0,14704:0:0:0:0:
192,192,14704,128,0,14758:0:0:0:0:
320,192,14758,128,0,14812:0:0:0:0:
448,192,14758,128,0,14867:0:0:0:0:
320,192,14867,128,0,14975:0:0:0:0:
192,192,14867,128,0,14921:0:0:0:0:
192,192,14975,128,0,15084:0:0:0:0:
64,192,14975,128,0,15030:0:0:0:0:
320,192,15084,128,0,15138:0:0:0:0:
448,192,15084,128,0,15193:0:0:0:0:
192,192,15193,128,0,15247:0:0:0:0:
64,192,15193,128,0,15301:0:0:0:0:
320,192,15301,128,0,15356:0:0:0:0:
192,192,15301,128,0,15410:0:0:0:0:
448,192,15410,128,0,15464:0:0:0:0:
320,192,15410,128,0,15519:0:0:0:0:
448,192,15519,128,0,15628:0:0:0:0:
64,192,15519,128,0,15573:0:0:0:0:
320,192,15628,128,0,15682:0:0:0:0:
192,192,15628,128,0,15736:0:0:0:0:
64,192,15628,128,0,15736:0:0:0:0:
320,192,15736,128,0,15845:0:0:0:0:
448,192,15845,128,0,16008:0:0:0:0:
192,192,15845,128,0,15899:0:0:0:0:
64,192,15845,128,0,15954:0:0:0:0:
320,192,15954,128,0,16062:0:0:0:0:
192,192,16008,128,0,16117:0:0:0:0:
64,192,16062,128,0,16171:0:0:0:0:
448,192,16117,128,0,16225:0:0:0:0:
320,192,16171,128,0,16280:0:0:0:0:
192,192,16171,128,0,16225:0:0:0:0:
448,192,16280,128,0,16388:0:0:0:0:
192,192,16280,128,0,16388:0:0:0:0:
64,192,16280,128,0,16334:0:0:0:0:
320,192,16388,128,0,16443:0:0:0:0:
320,192,16497,128,0,16606:0:0:0:0:
64,192,16497,128,0,16551:0:0:0:0:
64,192,16606,128,0,16714:0:0:0:0:
448,192,16714,128,0,16878:0:0:0:0:
192,192,16714,128,0,16769:0:0:0:0:
320,192,16714,128,0,16823:0:0:0:0:
192,192,16823,128,0,16932:0:0:0:0:
64,192,16823,128,0,16878:0:0:0:0:
320,192,16878,128,0,16986:0:0:0:0:
448,192,16932,128,0,17041:0:0:0:0:
64,192,16986,128,0,17095:0:0:0:0:
320,192,17041,128,0,17149:0:0:0:0:
192,192,17041,128,0,17095:0:0:0:0:
192,192,17149,128,0,17204:0:0:0:0:
448,192,17149,128,0,17258:0:0:0:0:
64,192,17149,128,0,17258:0:0:0:0:
320,192,17258,128,0,17367:0:0:0:0:
448,192,17367,128,0,17475:0:0:0:0:
192,192,17367,128,0,17421:0:0:0:0:
192,192,17475,128,0,17584:0:0:0:0:
64,192,17584,128,0,17693:0:0:0:0:
320,192,17584,128,0,17747:0:0:0:0:
448,192,17584,128,0,17638:0:0:0:0:
192,192,17693,128,0,17801:0:0:0:0:
64,192,17747,128,0,17856:0:0:0:0:
448,192,17801,128,0,17910:0:0:0:0:
320,192,17856,128,0,17964:0:0:0:0:
192,192,17910,128,0,18019:0:0:0:0:
64,192,17910,128,0,17964:0:0:0:0:
64,192,18019,128,0,18128:0:0:0:0:
448,192,18019,128,0,18128:0:0:0:0:
320,192,18019,128,0,18073:0:0:0:0:
192,192,18128,128,0,18182:0:0:0:0:
192,192,18236,128,0,18345:0:0:0:0:
320,192,18236,128,0,18291:0:0:0:0:
320,192,18345,128,0,18454:0:0:0:0:
64,192,18454,128,0,18508:0:0:0:0:
192,192,18454,128,0,18562:0:0:0:0:
448,192,18454,128,0,18617:0:0:0:0:
64,192,18562,128,0,18671:0:0:0:0:
320,192,18562,128,0,18617:0:0:0:0:
192,192,18617,128,0,18725:0:0:0:0:
448,192,18671,128,0,18780:0:0:0:0:
320,192,18725,128,0,18834:0:0:0:0:
64,192,18780,128,0,18834:0:0:0:0:
192,192,18780,128,0,18888:0:0:0:0:
448,192,18888,128,0,18997:0:0:0:0:
320,192,18888,128,0,18943:0:0:0:0:
64,192,18888,128,0,18997:0:0:0:0:
192,192,18997,128,0,19106:0:0:0:0:
64,192,19106,128,0,19214:0:0:0:0:
448,192,19106,128,0,19160:0:0:0:0:
448,192,19214,128,0,19323:0:0:0:0:
64,192,19323,128,0,19432:0:0:0:0:
192,192,19323,128,0,19486:0:0:0:0:
320,192,19323,128,0,19378:0:0:0:0:
448,192,19432,128,0,19541:0:0:0:0:
320,192,19486,128,0,19595:0:0:0:0:
64,192,19541,128,0,19649:0:0:0:0:
192,192,19595,128,0,19704:0:0:0:0:
448,192,19649,128,0,19758:0:0:0:0:
320,192,19649,128,0,19704:0:0:0:0:
64,192,19758,128,0,19867:0:0:0:0:
320,192,19758,128,0,19867:0:0:0:0:
192,192,19758,128,0,19812:0:0:0:0:
448,192,19867,128,0,19921:0:0:0:0:
448,192,19975,128,0,20084:0:0:0:0:
64,192,19975,128,0,20030:0:0:0:0:
64,192,20084,128,0,20193:0:0:0:0:
320,192,20193,128,0,20301:0:0:0:0:
192,192,20193,128,0,20247:0:0:0:0:
448,192,20193,128,0,20356:0:0:0:0:
192,192,20301,128,0,20410:0:0:0:0:
64,192,20301,128,0,20356:0:0:0:0:
320,192,20356,128,0,20464:0:0:0:0:
448,192,20410,128,0,20519:0:0:0:0:
64,192,20464,128,0,20573:0:0:0:0:
320,192,20519,128,0,20628:0:0:0:0:
192,192,20519,128,0,20573:0:0:0:0:
192,192,20628,128,0,20736:0:0:0:0:
448,192,20628,128,0,20682:0:0:0:0:
320,192,20736,128,0,20845:0:0:0:0:
448,192,20845,128,0,20954:0:0:0:0:
64,192,20845,128,0,20899:0:0:0:0:
64,192,20954,128,0,21062:0:0:0:0:
320,192,21062,128,0,21117:0:0:0:0:
192,192,21062,128,0,21225:0:0:0:0:
448,192,21062,128,0,21171:0:0:0:0:
64,192,21171,128,0,21280:0:0:0:0:
320,192,21225,128,0,21334:0:0:0:0:
192,192,21280,128,0,21388:0:0:0:0:
448,192,21334,128,0,21443:0:0:0:0:
64,192,21388,128,0,21497:0:0:0:0:
320,192,21388,128,0,21443:0:0:0:0:
192,192,21497,128,0,21606:0:0:0:0:
320,192,21497,128,0,21606:0:0:0:0:
448,192,21497,128,0,21551:0:0:0:0:
64,192,21606,128,0,21660:0:0:0:0:
448,192,21714,128,0,21769:0:0:0:0:
64,192,21714,128,0,21823:0:0:0:0:
320,192,21823,128,0,21878:0:0:0:0:
448,192,21823,128,0,21878:0:0:0:0:
192,192,21878,128,0,21932:0:0:0:0:
64,192,21932,128,0,22041:0:0:0:0:
320,192,21932,128,0,21986:0:0:0:0:
448,192,22041,128,0,22149:0:0:0:0:
192,192,22041,128,0,22095:0:0:0:0:
192,192,22149,128,0,22258:0:0:0:0:
64,192,22149,128,0,22204:0:0:0:0:
320,192,22258,128,0,22312:0:0:0:0:
448,192,22258,128,0,22367:0:0:0:0:
192,192,22367,128,0,22421:0:0:0:0:
320,192,22367,128,0,22475:0:0:0:0:
192,192,22475,128,0,22584:0:0:0:0:
64,192,22475,128,0,22530:0:0:0:0:
64,192,22584,128,0,22693:0:0:0:0:
320,192,22584,128,0,22638:0:0:0:0:
448,192,22584,128,0,22693:0:0:0:0:
320,192,22693,128,0,22801:0:0:0:0:
192,192,22801,128,0,22910:0:0:0:0:
448,192,22801,128,0,22964:0:0:0:0:
64,192,22801,128,0,22856:0:0:0:0:
320,192,22910,128,0,23019:0:0:0:0:
64,192,22964,128,0,23073:0:0:0:0:
192,192,23019,128,0,23128:0:0:0:0:
448,192,23073,128,0,23182:0:0:0:0:
320,192,23128,128,0,23236:0:0:0:0:
64,192,23128,128,0,23182:0:0:0:0:
64,192,23236,128,0,23345:0:0:0:0:
192,192,23236,128,0,23291:0:0:0:0:
448,192,23236,128,0,23345:0:0:0:0:
320,192,23345,128,0,23399:0:0:0:0:
320,192,23454,128,0,23562:0:0:0:0:
64,192,23454,128,0,23508:0:0:0:0:
64,192,23562,128,0,23671:0:0:0:0:
192,192,23671,128,0,23780:0:0:0:0:
448,192,23671,128,0,23834:0:0:0:0:
320,192,23671,128,0,23725:0:0:0:0:
64,192,23780,128,0,23888:0:0:0:0:
320,192,23780,128,0,23834:0:0:0:0:
192,192,23834,128,0,23943:0:0:0:0:
448,192,23888,128,0,23997:0:0:0:0:
320,192,23943,128,0,24051:0:0:0:0:
64,192,23997,128,0,24106:0:0:0:0:
192,192,23997,128,0,24051:0:0:0:0:
192,192,24106,128,0,24160:0:0:0:0:
448,192,24106,128,0,24214:0:0:0:0:
320,192,24106,128,0,24214:0:0:0:0:
64,192,24214,128,0,24323:0:0:0:0:
192,192,24323,128,0,24432:0:0:0:0:
448,192,24323,128,0,24378:0:0:0:0:
448,192,24432,128,0,24541:0:0:0:0:
320,192,24541,128,0,24704:0:0:0:0:
192,192,24541,128,0,24649:0:0:0:0:
64,192,24541,128,0,24595:0:0:0:0:
448,192,24649,128,0,24758:0:0:0:0:
64,192,24704,128,0,24812:0:0:0:0:
192,192,24758,128,0,24867:0:0:0:0:
320,192,24812,128,0,24921:0:0:0:0:
448,192,24867,128,0,24975:0:0:0:0:
64,192,24867,128,0,24921:0:0:0:0:
64,192,24975,128,0,25084:0:0:0:0:
192,192,24975,128,0,25084:0:0:0:0:
320,192,24975,128,0,25030:0:0:0:0:
448,192,25084,128,0,25138:0:0:0:0:
448,192,25193,128,0,25301:0:0:0:0:
192,192,25193,128,0,25247:0:0:0:0:
192,192,25301,128,0,25410:0:0:0:0:
320,192,25410,128,0,25573:0:0:0:0:
448,192,25410,128,0,25519:0:0:0:0:
64,192,25410,128,0,25464:0:0:0:0:
64,192,25519,128,0,25628:0:0:0:0:
192,192,25519,128,0,25573:0:0:0:0:
448,192,25573,128,0,25682:0:0:0:0:
320,192,25628,128,0,25736:0:0:0:0:
192,192,25682,128,0,25791:0:0:0:0:
448,192,25736,128,0,25845:0:0:0:0:
64,192,25736,128,0,25791:0:0:0:0:
192,192,25845,128,0,25899:0:0:0:0:
64,192,25845,128,0,25954:0:0:0:0:
320,192,25845,128,0,25954:0:0:0:0:
448,192,25954,128,0,26062:0:0:0:0:
320,192,26062,128,0,26171:0:0:0:0:
192,192,26062,128,0,26117:0:0:0:0:
192,192,26171,128,0,26280:0:0:0:0:
448,192,26280,128,0,26388:0:0:0:0:
320,192,26280,128,0,26443:0:0:0:0:
64,192,26280,128,0,26334:0:0:0:0:
192,192,26388,128,0,26497:0:0:0:0:
64,192,26443,128,0,26551:0:0:0:0:
448,192,26497,128,0,26606:0:0:0:0:
320,192,26551,128,0,26660:0:0:0:0:
192,192,26606,128,0,26714:0:0:0:0:
64,192,26606,128,0,26660:0:0:0:0:
64,192,26714,128,0,26823:0:0:0:0:
320,192,26714,128,0,26769:0:0:0:0:
448,192,26714,128,0,26823:0:0:0:0:
192,192,26823,128,0,26878:0:0:0:0:
192,192,26932,128,0,27041:0:0:0:0:
448,192,26932,128,0,26986:0:0:0:0:
448,192,27041,128,0,27149:0:0:0:0:
192,192,27149,128,0,27312:0:0:0:0:
64,192,27149,128,0,27258:0:0:0:0:
320,192,27149,128,0,27204:0:0:0:0:
320,192,27258,128,0,27367:0:0:0:0:
448,192,27258,128,0,27312:0:0:0:0:
64,192,27312,128,0,27421:0:0:0:0:
192,192,27367,128,0,27475:0:0:0:0:
448,192,27421,128,0,27530:0:0:0:0:
64,192,27475,128,0,27584:0:0:0:0:
320,192,27475,128,0,27530:0:0:0:0:
320,192,27584,128,0,27693:0:0:0:0:
192,192,27584,128,0,27638:0:0:0:0:
448,192,27584,128,0,27693:0:0:0:0:
64,192,27693,128,0,27801:0:0:0:0:
192,192,27801,128,0,27910:0:0:0:0:
320,192,27801,128,0,27856:0:0:0:0:
448,192,27801,128,0,27910:0:0:0:0:
64,192,27910,128,0,27964:0:0:0:0:
320,192,27964,128,0,28019:0:0:0:0:
64,192,28019,128,0,28128:0:0:0:0:
448,192,28128,128,0,28236:0:0:0:0:
64,192,28236,128,0,28562:0:0:0:0:
192,192,28345,128,0,28562:0:0:0:0:
448,192,28454,128,0,28671:0:0:0:0:
320,192,28562,128,0,28671:0:0:0:0:
64,192,28671,128,0,28780:0:0:0:0:
192,192,28671,128,0,28780:0:0:0:0:
448,192,28780,128,0,28834:0:0:0:0:
320,192,28780,128,0,28834:0:0:0:0:
192,192,28834,128,0,28888:0:0:0:0:
64,192,28888,128,0,28943:0:0:0:0:
448,192,28888,128,0,28997:0:0:0:0:
192,192,28997,128,0,29051:0:0:0:0:
64,192,28997,128,0,29106:0:0:0:0:
448,192,29106,128,0,29160:0:0:0:0:
320,192,29106,128,0,29214:0:0:0:0:
448,192,29214,128,0,29323:0:0:0:0:
64,192,29214,128,0,29269:0:0:0:0:
64,192,29323,128,0,29432:0:0:0:0:
192,192,29323,128,0,29378:0:0:0:0:
448,192,29432,128,0,29541:0:0:0:0:
320,192,29432,128,0,29486:0:0:0:0:
320,192,29541,128,0,29649:0:0:0:0:
64,192,29541,128,0,29595:0:0:0:0:
192,192,29541,128,0,29649:0:0:0:0:
64,192,29758,128,0,29867:0:0:0:0:
448,192,29758,128,0,29812:0:0:0:0:
320,192,29867,128,0,29975:0:0:0:0:
192,192,29975,128,0,30193:0:0:0:0:
448,192,30084,128,0,30138:0:0:0:0:
320,192,30084,128,0,30138:0:0:0:0:
448,192,30193,128,0,30301:0:0:0:0:
64,192,30193,128,0,30247:0:0:0:0:
320,192,30410,128,0,30519:0:0:0:0:
192,192,30410,128,0,30464:0:0:0:0:
448,192,30464,128,0,30736:0:0:0:0:
64,192,30628,128,0,30682:0:0:0:0:
192,192,30628,128,0,30682:0:0:0:0:
64,192,30736,128,0,30845:0:0:0:0:
320,192,30736,128,0,30791:0:0:0:0:
320,192,30954,128,0,31008:0:0:0:0:
448,192,30954,128,0,31008:0:0:0:0:
448,192,31062,128,0,31280:0:0:0:0:
192,192,31062,128,0,31117:0:0:0:0:
64,192,31062,128,0,31117:0:0:0:0:
192,192,31280,128,0,31388:0:0:0:0:
64,192,31280,128,0,31334:0:0:0:0:
448,192,31388,128,0,31497:0:0:0:0:
64,192,31497,128,0,31606:0:0:0:0:
320,192,31497,128,0,31551:0:0:0:0:
448,192,31606,128,0,31714:0:0:0:0:
192,192,31714,128,0,31823:0:0:0:0:
320,192,31823,128,0,31932:0:0:0:0:
64,192,31823,128,0,31878:0:0:0:0:
192,192,31932,128,0,31986:0:0:0:0:
64,192,31932,128,0,31986:0:0:0:0:
448,192,32041,128,0,32367:0:0:0:0:
320,192,32149,128,0,32204:0:0:0:0:
64,192,32149,128,0,32204:0:0:0:0:
192,192,32367,128,0,32421:0:0:0:0:
64,192,32367,128,0,32421:0:0:0:0:
320,192,32367,128,0,32421:0:0:0:0:
192,192,32475,128,0,32530:0:0:0:0:
448,192,32475,128,0,32530:0:0:0:0:
320,192,32693,128,0,32747:0:0:0:0:
64,192,32693,128,0,32747:0:0:0:0:
192,192,32801,128,0,32856:0:0:0:0:
320,192,32801,128,0,32856:0:0:0:0:
448,192,32801,128,0,32856:0:0:0:0:
64,192,33019,128,0,33073:0:0:0:0:
320,192,33019,128,0,33073:0:0:0:0:
448,192,33236,128,0,33291:0:0:0:0:
192,192,33236,128,0,33345:0:0:0:0:
64,192,33345,128,0,33454:0:0:0:0:
320,192,33454,128,0,33671:0:0:0:0:
192,192,33562,128,0,33617:0:0:0:0:
64,192,33562,128,0,33617:0:0:0:0:
448,192,33671,128,0,33780:0:0:0:0:
192,192,33671,128,0,33725:0:0:0:0:
320,192,33888,128,0,33997:0:0:0:0:
64,192,33888,128,0,33943:0:0:0:0:
448,192,33943,128,0,34269:0:0:0:0:
192,192,34106,128,0,34160:0:0:0:0:
64,192,34106,128,0,34160:0:0:0:0:
320,192,34214,128,0,34269:0:0:0:0:
192,192,34214,128,0,34323:0:0:0:0:
64,192,34432,128,0,34486:0:0:0:0:
448,192,34432,128,0,34486:0:0:0:0:
320,192,34541,128,0,34595:0:0:0:0:
448,192,34541,128,0,34595:0:0:0:0:
192,192,34541,128,0,34649:0:0:0:0:
64,192,34595,128,0,34758:0:0:0:0:
448,192,34758,128,0,34812:0:0:0:0:
320,192,34758,128,0,34867:0:0:0:0:
192,192,34867,128,0,34975:0:0:0:0:
448,192,34975,128,0,35084:0:0:0:0:
64,192,34975,128,0,35030:0:0:0:0:
192,192,35084,128,0,35193:0:0:0:0:
320,192,35193,128,0,35301:0:0:0:0:
64,192,35301,128,0,35410:0:0:0:0:
448,192,35301,128,0,35356:0:0:0:0:
320,192,35410,128,0,35464:0:0:0:0:
448,192,35410,128,0,35464:0:0:0:0:
192,192,35519,128,0,35573:0:0:0:0:
320,192,35573,128,0,35628:0:0:0:0:
192,192,35628,128,0,35845:0:0:0:0:
64,192,35628,128,0,35682:0:0:0:0:
448,192,35845,128,0,35899:0:0:0:0:
320,192,35845,128,0,35899:0:0:0:0:
64,192,35845,128,0,35899:0:0:0:0:
192,192,36062,128,0,36117:0:0:0:0:
64,192,36280,128,0,36334:0:0:0:0:
320,192,36280,128,0,36334:0:0:0:0:
448,192,36280,128,0,36334:0:0:0:0:
192,192,36497,128,0,36606:0:0:0:0:
320,192,36497,128,0,36551:0:0:0:0:
448,192,36497,128,0,36606:0:0:0:0:
64,192,36714,128,0,36823:0:0:0:0:
320,192,36714,128,0,36769:0:0:0:0:
448,192,36823,128,0,36932:0:0:0:0:
192,192,36932,128,0,37149:0:0:0:0:
64,192,37041,128,0,37095:0:0:0:0:
448,192,37041,128,0,37095:0:0:0:0:
320,192,37149,128,0,37258:0:0:0:0:
448,192,37149,128,0,37204:0:0:0:0:
192,192,37367,128,0,37475:0:0:0:0:
320,192,37367,128,0,37421:0:0:0:0:
64,192,37421,128,0,37693:0:0:0:0:
320,192,37584,128,0,37638:0:0:0:0:
448,192,37584,128,0,37638:0:0:0:0:
192,192,37693,128,0,37801:0:0:0:0:
448,192,37693,128,0,37747:0:0:0:0:
320,192,37910,128,0,37964:0:0:0:0:
64,192,37910,128,0,37964:0:0:0:0:
448,192,38019,128,0,38128:0:0:0:0:
64,192,38019,128,0,38073:0:0:0:0:
320,192,38128,128,0,38236:0:0:0:0:
64,192,38236,128,0,38345:0:0:0:0:
448,192,38236,128,0,38291:0:0:0:0:
192,192,38291,128,0,38454:0:0:0:0:
320,192,38454,128,0,38562:0:0:0:0:
64,192,38454,128,0,38508:0:0:0:0:
448,192,38562,128,0,38671:0:0:0:0:
192,192,38671,128,0,38780:0:0:0:0:
320,192,38780,128,0,38834:0:0:0:0:
64,192,38780,128,0,38834:0:0:0:0:
320,192,38888,128,0,38997:0:0:0:0:
448,192,38888,128,0,38943:0:0:0:0:
192,192,38997,128,0,39106:0:0:0:0:
64,192,39106,128,0,39323:0:0:0:0:
448,192,39106,128,0,39160:0:0:0:0:
320,192,39323,128,0,39378:0:0:0:0:
448,192,39323,128,0,39432:0:0:0:0:
320,192,39432,128,0,39541:0:0:0:0:
64,192,39432,128,0,39486:0:0:0:0:
192,192,39541,128,0,39649:0:0:0:0:
64,192,39649,128,0,39704:0:0:0:0:
320,192,39649,128,0,39758:0:0:0:0:
64,192,39758,128,0,39867:0:0:0:0:
448,192,39758,128,0,39812:0:0:0:0:
192,192,39867,128,0,39975:0:0:0:0:
320,192,39975,128,0,40084:0:0:0:0:
448,192,40030,128,0,40193:0:0:0:0:
64,192,40193,128,0,40301:0:0:0:0:
192,192,40193,128,0,40247:0:0:0:0:
320,192,40301,128,0,40410:0:0:0:0:
448,192,40519,128,0,40628:0:0:0:0:
192,192,40519,128,0,40573:0:0:0:0:
192,192,40628,128,0,40682:0:0:0:0:
64,192,40628,128,0,40682:0:0:0:0:
320,192,40736,128,0,40845:0:0:0:0:
448,192,40791,128,0,40954:0:0:0:0:
64,192,40845,128,0,40899:0:0:0:0:
192,192,40845,128,0,40899:0:0:0:0:
320,192,40954,128,0,41062:0:0:0:0:
448,192,41062,128,0,41280:0:0:0:0:
64,192,41062,128,0,41117:0:0:0:0:
192,192,41171,128,0,41225:0:0:0:0:
64,192,41171,128,0,41225:0:0:0:0:
320,192,41388,128,0,41497:0:0:0:0:
448,192,41388,128,0,41443:0:0:0:0:
448,192,41497,128,0,41551:0:0:0:0:
64,192,41497,128,0,41606:0:0:0:0:
192,192,41606,128,0,41714:0:0:0:0:
64,192,41714,128,0,41823:0:0:0:0:
320,192,41714,128,0,41823:0:0:0:0:
448,192,41769,128,0,41932:0:0:0:0:
320,192,41932,128,0,42041:0:0:0:0:
192,192,41932,128,0,41986:0:0:0:0:
64,192,42149,128,0,42258:0:0:0:0:
192,192,42204,128,0,42367:0:0:0:0:
448,192,42258,128,0,42312:0:0:0:0:
64,192,42367,128,0,42475:0:0:0:0:
448,192,42367,128,0,42421:0:0:0:0:
320,192,42584,128,0,42693:0:0:0:0:
448,192,42584,128,0,42638:0:0:0:0:
192,192,42638,128,0,42801:0:0:0:0:
320,192,42801,128,0,42910:0:0:0:0:
64,192,42801,128,0,42856:0:0:0:0:
448,192,43019,128,0,43128:0:0:0:0:
320,192,43073,128,0,43182:0:0:0:0:
192,192,43128,128,0,43236:0:0:0:0:
64,192,43182,128,0,43291:0:0:0:0:
448,192,43236,128,0,43291:0:0:0:0:
320,192,43291,128,0,43345:0:0:0:0:
192,192,43345,128,0,43399:0:0:0:0:
448,192,43454,128,0,43562:0:0:0:0:
64,192,43454,128,0,43508:0:0:0:0:
320,192,43454,128,0,43562:0:0:0:0:
192,192,43562,128,0,43617:0:0:0:0:
64,192,43671,128,0,43780:0:0:0:0:
448,192,43671,128,0,43725:0:0:0:0:
320,192,43780,128,0,43888:0:0:0:0:
192,192,43888,128,0,44106:0:0:0:0:
448,192,43997,128,0,44051:0:0:0:0:
320,192,43997,128,0,44051:0:0:0:0:
448,192,44106,128,0,44214:0:0:0:0:
64,192,44106,128,0,44160:0:0:0:0:
192,192,44214,128,0,44269:0:0:0:0:
320,192,44323,128,0,44432:0:0:0:0:
64,192,44323,128,0,44378:0:0:0:0:
448,192,44378,128,0,44649:0:0:0:0:
192,192,44432,128,0,44486:0:0:0:0:
64,192,44541,128,0,44595:0:0:0:0:
320,192,44541,128,0,44595:0:0:0:0:
64,192,44649,128,0,44758:0:0:0:0:
192,192,44649,128,0,44704:0:0:0:0:
448,192,44758,128,0,44812:0:0:0:0:
320,192,44867,128,0,44921:0:0:0:0:
64,192,44867,128,0,44921:0:0:0:0:
320,192,44975,128,0,45193:0:0:0:0:
448,192,44975,128,0,45030:0:0:0:0:
64,192,45084,128,0,45138:0:0:0:0:
192,192,45193,128,0,45301:0:0:0:0:
448,192,45193,128,0,45247:0:0:0:0:
64,192,45301,128,0,45410:0:0:0:0:
320,192,45410,128,0,45519:0:0:0:0:
448,192,45410,128,0,45464:0:0:0:0:
192,192,45519,128,0,45628:0:0:0:0:
448,192,45628,128,0,45736:0:0:0:0:
64,192,45736,128,0,45845:0:0:0:0:
320,192,45736,128,0,45791:0:0:0:0:
192,192,45845,128,0,45899:0:0:0:0:
320,192,45845,128,0,45899:0:0:0:0:
448,192,45954,128,0,46280:0:0:0:0:
320,192,46062,128,0,46117:0:0:0:0:
64,192,46062,128,0,46117:0:0:0:0:
192,192,46171,128,0,46225:0:0:0:0:
192,192,46280,128,0,46334:0:0:0:0:
64,192,46280,128,0,46334:0:0:0:0:
320,192,46280,128,0,46334:0:0:0:0:
320,192,46388,128,0,46443:0:0:0:0:
448,192,46388,128,0,46443:0:0:0:0:
192,192,46497,128,0,46551:0:0:0:0:
320,192,46606,128,0,46660:0:0:0:0:
64,192,46606,128,0,46660:0:0:0:0:
192,192,46714,128,0,46769:0:0:0:0:
320,192,46714,128,0,46769:0:0:0:0:
448,192,46714,128,0,46769:0:0:0:0:
64,192,46823,128,0,46878:0:0:0:0:
448,192,46932,128,0,46986:0:0:0:0:
192,192,46932,128,0,46986:0:0:0:0:
320,192,47041,128,0,47095:0:0:0:0:
448,192,47149,128,0,47204:0:0:0:0:
64,192,47149,128,0,47258:0:0:0:0:
192,192,47258,128,0,47367:0:0:0:0:
320,192,47367,128,0,47584:0:0:0:0:
192,192,47475,128,0,47530:0:0:0:0:
64,192,47475,128,0,47530:0:0:0:0:
448,192,47584,128,0,47693:0:0:0:0:
64,192,47584,128,0,47638:0:0:0:0:
192,192,47693,128,0,47747:0:0:0:0:
320,192,47801,128,0,47910:0:0:0:0:
64,192,47801,128,0,47856:0:0:0:0:
448,192,47856,128,0,48182:0:0:0:0:
192,192,47910,128,0,47964:0:0:0:0:
320,192,48019,128,0,48073:0:0:0:0:
64,192,48019,128,0,48073:0:0:0:0:
320,192,48128,128,0,48182:0:0:0:0:
192,192,48128,128,0,48236:0:0:0:0:
64,192,48236,128,0,48291:0:0:0:0:
448,192,48345,128,0,48399:0:0:0:0:
320,192,48345,128,0,48399:0:0:0:0:
448,192,48454,128,0,48508:0:0:0:0:
64,192,48454,128,0,48562:0:0:0:0:
192,192,48508,128,0,48671:0:0:0:0:
320,192,48562,128,0,48617:0:0:0:0:
448,192,48671,128,0,48780:0:0:0:0:
64,192,48671,128,0,48725:0:0:0:0:
192,192,48780,128,0,48888:0:0:0:0:
320,192,48888,128,0,48997:0:0:0:0:
448,192,48888,128,0,48943:0:0:0:0:
64,192,48997,128,0,49106:0:0:0:0:
192,192,49106,128,0,49214:0:0:0:0:
64,192,49214,128,0,49323:0:0:0:0:
448,192,49214,128,0,49269:0:0:0:0:
320,192,49323,128,0,49378:0:0:0:0:
448,192,49323,128,0,49378:0:0:0:0:
192,192,49432,128,0,49486:0:0:0:0:
320,192,49486,128,0,49541:0:0:0:0:
192,192,49541,128,0,49758:0:0:0:0:
64,192,49541,128,0,49595:0:0:0:0:
448,192,49649,128,0,49704:0:0:0:0:
64,192,49758,128,0,49812:0:0:0:0:
320,192,49758,128,0,49867:0:0:0:0:
448,192,49758,128,0,49867:0:0:0:0:
64,192,49867,128,0,49921:0:0:0:0:
320,192,49975,128,0,50030:0:0:0:0:
64,192,50084,128,0,50193:0:0:0:0:
192,192,50084,128,0,50193:0:0:0:0:
448,192,50084,128,0,50138:0:0:0:0:
448,192,50193,128,0,50247:0:0:0:0:
192,192,50301,128,0,50356:0:0:0:0:
64,192,50410,128,0,50519:0:0:0:0:
320,192,50410,128,0,50464:0:0:0:0:
448,192,50410,128,0,50519:0:0:0:0:
192,192,50519,128,0,50573:0:0:0:0:
64,192,50628,128,0,50736:0:0:0:0:
320,192,50628,128,0,50682:0:0:0:0:
448,192,50736,128,0,50845:0:0:0:0:
192,192,50845,128,0,51062:0:0:0:0:
64,192,50954,128,0,51008:0:0:0:0:
448,192,50954,128,0,51008:0:0:0:0:
320,192,51062,128,0,51171:0:0:0:0:
448,192,51062,128,0,51117:0:0:0:0:
64,192,51171,128,0,51225:0:0:0:0:
192,192,51280,128,0,51388:0:0:0:0:
448,192,51280,128,0,51334:0:0:0:0:
320,192,51334,128,0,51606:0:0:0:0:
64,192,51497,128,0,51551:0:0:0:0:
448,192,51497,128,0,51551:0:0:0:0:
64,192,51606,128,0,51714:0:0:0:0:
192,192,51606,128,0,51660:0:0:0:0:
448,192,51714,128,0,51769:0:0:0:0:
320,192,51823,128,0,51878:0:0:0:0:
64,192,51823,128,0,51878:0:0:0:0:
448,192,51932,128,0,52041:0:0:0:0:
320,192,51932,128,0,51986:0:0:0:0:
192,192,52041,128,0,52149:0:0:0:0:
448,192,52149,128,0,52258:0:0:0:0:
64,192,52149,128,0,52204:0:0:0:0:
320,192,52204,128,0,52367:0:0:0:0:
192,192,52258,128,0,52312:0:0:0:0:
64,192,52367,128,0,52475:0:0:0:0:
448,192,52367,128,0,52421:0:0:0:0:
192,192,52475,128,0,52584:0:0:0:0:
320,192,52584,128,0,52747:0:0:0:0:
192,192,52693,128,0,52747:0:0:0:0:
64,192,52693,128,0,52747:0:0:0:0:
192,192,52801,128,0,52910:0:0:0:0:
448,192,52801,128,0,52856:0:0:0:0:
320,192,52910,128,0,53019:0:0:0:0:
448,192,53019,128,0,53182:0:0:0:0:
64,192,53019,128,0,53073:0:0:0:0:
192,192,53128,128,0,53182:0:0:0:0:
320,192,53236,128,0,53291:0:0:0:0:
448,192,53236,128,0,53345:0:0:0:0:
320,192,53345,128,0,53454:0:0:0:0:
64,192,53345,128,0,53399:0:0:0:0:
192,192,53454,128,0,53562:0:0:0:0:
64,192,53562,128,0,53617:0:0:0:0:
320,192,53562,128,0,53671:0:0:0:0:
64,192,53671,128,0,53780:0:0:0:0:
448,192,53671,128,0,53725:0:0:0:0:
192,192,53780,128,0,53888:0:0:0:0:
320,192,53888,128,0,53997:0:0:0:0:
448,192,53888,128,0,53943:0:0:0:0:
64,192,53997,128,0,54106:0:0:0:0:
320,192,54106,128,0,54214:0:0:0:0:
192,192,54106,128,0,54160:0:0:0:0:
448,192,54214,128,0,54323:0:0:0:0:
64,192,54323,128,0,54378:0:0:0:0:
320,192,54432,128,0,54486:0:0:0:0:
192,192,54432,128,0,54486:0:0:0:0:
448,192,54541,128,0,54595:0:0:0:0:
192,192,54541,128,0,54649:0:0:0:0:
64,192,54595,128,0,55193:0:0:0:0:
320,192,54649,128,0,54704:0:0:0:0:
192,192,54758,128,0,54812:0:0:0:0:
448,192,54758,128,0,54812:0:0:0:0:
192,192,54867,128,0,54921:0:0:0:0:
448,192,54975,128,0,55030:0:0:0:0:
320,192,54975,128,0,55030:0:0:0:0:
192,192,55084,128,0,55138:0:0:0:0:
448,192,55084,128,0,55138:0:0:0:0:
320,192,55193,128,0,55464:0:0:0:0:
192,192,55301,128,0,55356:0:0:0:0:
64,192,55301,128,0,55356:0:0:0:0:
448,192,55410,128,0,55464:0:0:0:0:
64,192,55410,128,0,55464:0:0:0:0:
192,192,55519,128,0,55573:0:0:0:0:
320,192,55573,128,0,55628:0:0:0:0:
64,192,55628,128,0,55791:0:0:0:0:
448,192,55628,128,0,55682:0:0:0:0:
192,192,55628,128,0,55736:0:0:0:0:
320,192,55736,128,0,55791:0:0:0:0:
192,192,55845,128,0,55899:0:0:0:0:
448,192,55954,128,0,56008:0:0:0:0:
64,192,56062,128,0,56117:0:0:0:0:
192,192,56171,128,0,56225:0:0:0:0:
320,192,56280,128,0,56334:0:0:0:0:
64,192,56388,128,0,56443:0:0:0:0:
448,192,56497,128,0,56551:0:0:0:0:
192,192,56606,128,0,56660:0:0:0:0:
448,192,56714,128,0,56769:0:0:0:0:
64,192,56823,128,0,56878:0:0:0:0:
320,192,56932,128,0,57013:0:0:0:0:
448,192,56986,128,0,57068:0:0:0:0:
192,192,57041,128,0,57122:0:0:0:0:
64,192,57095,128,0,57176:0:0:0:0:
448,192,57149,128,0,57231:0:0:0:0:
320,192,57204,128,0,57285:0:0:0:0:
64,192,57258,128,0,57339:0:0:0:0:
192,192,57312,128,0,57394:0:0:0:0:
448,192,57367,128,0,57747:0:0:0:0:
320,192,57367,128,0,57475:0:0:0:0:
64,192,57475,128,0,57530:0:0:0:0:
64,192,57584,128,0,57693:0:0:0:0:
320,192,57584,128,0,57693:0:0:0:0:
192,192,57693,128,0,57747:0:0:0:0:
64,192,57747,128,0,57801:0:0:0:0:
320,192,57801,128,0,57856:0:0:0:0:
448,192,57801,128,0,57856:0:0:0:0:
192,192,57856,128,0,57964:0:0:0:0:
320,192,57910,128,0,57964:0:0:0:0:
448,192,57910,128,0,58019:0:0:0:0:
64,192,58019,128,0,58073:0:0:0:0:
192,192,58019,128,0,58073:0:0:0:0:
320,192,58073,128,0,58182:0:0:0:0:
192,192,58128,128,0,58182:0:0:0:0:
64,192,58128,128,0,58236:0:0:0:0:
320,192,58236,128,0,58291:0:0:0:0:
448,192,58236,128,0,58291:0:0:0:0:
64,192,58291,128,0,58399:0:0:0:0:
320,192,58345,128,0,58454:0:0:0:0:
448,192,58345,128,0,58399:0:0:0:0:
64,192,58454,128,0,58508:0:0:0:0:
192,192,58454,128,0,58508:0:0:0:0:
448,192,58508,128,0,58617:0:0:0:0:
192,192,58562,128,0,58671:0:0:0:0:
64,192,58562,128,0,58617:0:0:0:0:
448,192,58671,128,0,58725:0:0:0:0:
320,192,58671,128,0,58725:0:0:0:0:
192,192,58725,128,0,58834:0:0:0:0:
448,192,58780,128,0,58888:0:0:0:0:
320,192,58780,128,0,58834:0:0:0:0:
192,192,58888,128,0,58943:0:0:0:0:
64,192,58888,128,0,58943:0:0:0:0:
320,192,58943,128,0,59051:0:0:0:0:
64,192,58997,128,0,59106:0:0:0:0:
192,192,58997,128,0,59051:0:0:0:0:
320,192,59106,128,0,59160:0:0:0:0:
448,192,59106,128,0,59160:0:0:0:0:
320,192,59214,128,0,59323:0:0:0:0:
64,192,59323,128,0,59432:0:0:0:0:
192,192,59323,128,0,59432:0:0:0:0:
448,192,59323,128,0,59378:0:0:0:0:
320,192,59432,128,0,59541:0:0:0:0:
448,192,59486,128,0,59595:0:0:0:0:
64,192,59541,128,0,59649:0:0:0:0:
192,192,59595,128,0,59704:0:0:0:0:
320,192,59649,128,0,59758:0:0:0:0:
448,192,59649,128,0,59704:0:0:0:0:
448,192,59758,128,0,59867:0:0:0:0:
192,192,59758,128,0,59812:0:0:0:0:
64,192,59758,128,0,59867:0:0:0:0:
320,192,59867,128,0,59921:0:0:0:0:
64,192,59975,128,0,60048:0:0:0:0:
320,192,59975,128,0,60120:0:0:0:0:
448,192,60048,128,0,60120:0:0:0:0:
192,192,60120,128,0,60193:0:0:0:0:
320,192,60193,128,0,60301:0:0:0:0:
448,192,60193,128,0,60301:0:0:0:0:
64,192,60193,128,0,60247:0:0:0:0:
192,192,60301,128,0,60410:0:0:0:0:
64,192,60301,128,0,60356:0:0:0:0:
448,192,60356,128,0,60464:0:0:0:0:
320,192,60410,128,0,60519:0:0:0:0:
64,192,60464,128,0,60573:0:0:0:0:
192,192,60519,128,0,60628:0:0:0:0:
448,192,60519,128,0,60573:0:0:0:0:
320,192,60628,128,0,60682:0:0:0:0:
64,192,60628,128,0,60845:0:0:0:0:
448,192,60628,128,0,60736:0:0:0:0:
192,192,60736,128,0,60845:0:0:0:0:
448,192,60845,128,0,60954:0:0:0:0:
320,192,60845,128,0,60899:0:0:0:0:
320,192,60954,128,0,61062:0:0:0:0:
64,192,61062,128,0,61171:0:0:0:0:
448,192,61062,128,0,61117:0:0:0:0:
192,192,61062,128,0,61171:0:0:0:0:
320,192,61171,128,0,61280:0:0:0:0:
64,192,61225,128,0,61334:0:0:0:0:
448,192,61280,128,0,61388:0:0:0:0:
192,192,61334,128,0,61443:0:0:0:0:
320,192,61388,128,0,61497:0:0:0:0:
64,192,61388,128,0,61443:0:0:0:0:
448,192,61497,128,0,61606:0:0:0:0:
64,192,61497,128,0,61606:0:0:0:0:
192,192,61497,128,0,61551:0:0:0:0:
320,192,61606,128,0,61660:0:0:0:0:
320,192,61714,128,0,61769:0:0:0:0:
192,192,61714,128,0,61769:0:0:0:0:
192,192,61823,128,0,61878:0:0:0:0:
448,192,61932,128,0,61986:0:0:0:0:
64,192,61932,128,0,61986:0:0:0:0:
320,192,61932,128,0,62041:0:0:0:0:
192,192,62041,128,0,62149:0:0:0:0:
448,192,62041,128,0,62095:0:0:0:0:
64,192,62095,128,0,62204:0:0:0:0:
320,192,62149,128,0,62258:0:0:0:0:
448,192,62204,128,0,62312:0:0:0:0:
64,192,62258,128,0,62367:0:0:0:0:
192,192,62258,128,0,62312:0:0:0:0:
192,192,62367,128,0,62475:0:0:0:0:
448,192,62367,128,0,62421:0:0:0:0:
320,192,62367,128,0,62475:0:0:0:0:
64,192,62475,128,0,62530:0:0:0:0:
448,192,62584,128,0,62638:0:0:0:0:
192,192,62584,128,0,62693:0:0:0:0:
448,192,62693,128,0,62747:0:0:0:0:
192,192,62801,128,0,62910:0:0:0:0:
320,192,62801,128,0,62856:0:0:0:0:
64,192,62801,128,0,62910:0:0:0:0:
448,192,62910,128,0,63019:0:0:0:0:
320,192,62964,128,0,63073:0:0:0:0:
64,192,63019,128,0,63128:0:0:0:0:
192,192,63073,128,0,63182:0:0:0:0:
320,192,63128,128,0,63236:0:0:0:0:
448,192,63128,128,0,63182:0:0:0:0:
448,192,63236,128,0,63345:0:0:0:0:
192,192,63236,128,0,63291:0:0:0:0:
64,192,63236,128,0,63345:0:0:0:0:
320,192,63345,128,0,63399:0:0:0:0:
192,192,63454,128,0,63508:0:0:0:0:
320,192,63454,128,0,63562:0:0:0:0:
448,192,63562,128,0,63617:0:0:0:0:
64,192,63562,128,0,63617:0:0:0:0:
192,192,63617,128,0,63671:0:0:0:0:
448,192,63671,128,0,63725:0:0:0:0:
320,192,63671,128,0,63780:0:0:0:0:
192,192,63780,128,0,63834:0:0:0:0:
64,192,63780,128,0,63888:0:0:0:0:
448,192,63888,128,0,63997:0:0:0:0:
320,192,63888,128,0,63943:0:0:0:0:
192,192,63997,128,0,64051:0:0:0:0:
320,192,63997,128,0,64106:0:0:0:0:
192,192,64106,128,0,64214:0:0:0:0:
64,192,64106,128,0,64160:0:0:0:0:
448,192,64214,128,0,64323:0:0:0:0:
320,192,64214,128,0,64269:0:0:0:0:
64,192,64323,128,0,64541:0:0:0:0:
192,192,64323,128,0,64378:0:0:0:0:
320,192,64323,128,0,64432:0:0:0:0:
192,192,64432,128,0,64649:0:0:0:0:
448,192,64541,128,0,64704:0:0:0:0:
320,192,64541,128,0,64595:0:0:0:0:
64,192,64649,128,0,64758:0:0:0:0:
320,192,64704,128,0,64758:0:0:0:0:
192,192,64758,128,0,64867:0:0:0:0:
448,192,64812,128,0,64867:0:0:0:0:
320,192,64867,128,0,64975:0:0:0:0:
64,192,64975,128,0,65084:0:0:0:0:
192,192,64975,128,0,65084:0:0:0:0:
448,192,64975,128,0,65030:0:0:0:0:
320,192,65084,128,0,65193:0:0:0:0:
64,192,65193,128,0,65265:0:0:0:0:
192,192,65265,128,0,65338:0:0:0:0:
448,192,65301,128,0,65356:0:0:0:0:
64,192,65338,128,0,65410:0:0:0:0:
320,192,65356,128,0,65410:0:0:0:0:
192,192,65410,128,0,65483:0:0:0:0:
448,192,65410,128,0,65555:0:0:0:0:
320,192,65483,128,0,65628:0:0:0:0:
64,192,65555,128,0,65700:0:0:0:0:
448,192,65628,128,0,65700:0:0:0:0:
192,192,65628,128,0,65772:0:0:0:0:
320,192,65700,128,0,65845:0:0:0:0:
64,192,65772,128,0,65899:0:0:0:0:
448,192,65845,128,0,65917:0:0:0:0:
320,192,65917,128,0,65990:0:0:0:0:
192,192,65954,128,0,66008:0:0:0:0:
64,192,65954,128,0,66008:0:0:0:0:
448,192,65990,128,0,66062:0:0:0:0:
320,192,66062,128,0,66207:0:0:0:0:
64,192,66135,128,0,66280:0:0:0:0:
192,192,66207,128,0,66352:0:0:0:0:
448,192,66280,128,0,66425:0:0:0:0:
320,192,66352,128,0,66425:0:0:0:0:
64,192,66425,128,0,66497:0:0:0:0:
448,192,66497,128,0,66570:0:0:0:0:
320,192,66497,128,0,66570:0:0:0:0:
192,192,66497,128,0,66642:0:0:0:0:
64,192,66570,128,0,66714:0:0:0:0:
448,192,66642,128,0,66769:0:0:0:0:
192,192,66714,128,0,66787:0:0:0:0:
64,192,66787,128,0,66932:0:0:0:0:
320,192,66823,128,0,66878:0:0:0:0:
448,192,66823,128,0,66878:0:0:0:0:
192,192,66859,128,0,66932:0:0:0:0:
448,192,66932,128,0,67041:0:0:0:0:
320,192,66986,128,0,67095:0:0:0:0:
192,192,67041,128,0,67149:0:0:0:0:
448,192,67149,128,0,67204:0:0:0:0:
64,192,67149,128,0,67258:0:0:0:0:
192,192,67204,128,0,67312:0:0:0:0:
320,192,67258,128,0,67367:0:0:0:0:
448,192,67312,128,0,67421:0:0:0:0:
192,192,67367,128,0,67584:0:0:0:0:
64,192,67367,128,0,67475:0:0:0:0:
448,192,67475,128,0,67693:0:0:0:0:
64,192,67584,128,0,67747:0:0:0:0:
320,192,67584,128,0,67638:0:0:0:0:
320,192,67693,128,0,67801:0:0:0:0:
448,192,67801,128,0,67910:0:0:0:0:
64,192,67801,128,0,67910:0:0:0:0:
192,192,67801,128,0,67856:0:0:0:0:
192,192,67910,128,0,68019:0:0:0:0:
64,192,68019,128,0,68128:0:0:0:0:
320,192,68019,128,0,68128:0:0:0:0:
448,192,68019,128,0,68073:0:0:0:0:
192,192,68128,128,0,68236:0:0:0:0:
448,192,68182,128,0,68291:0:0:0:0:
320,192,68236,128,0,68345:0:0:0:0:
64,192,68291,128,0,68399:0:0:0:0:
448,192,68345,128,0,68454:0:0:0:0:
192,192,68345,128,0,68399:0:0:0:0:
320,192,68454,128,0,68508:0:0:0:0:
64,192,68454,128,0,68508:0:0:0:0:
192,192,68508,128,0,68562:0:0:0:0:
320,192,68562,128,0,68617:0:0:0:0:
448,192,68562,128,0,68617:0:0:0:0:
192,192,68617,128,0,68671:0:0:0:0:
64,192,68671,128,0,68725:0:0:0:0:
448,192,68671,128,0,68888:0:0:0:0:
64,192,68780,128,0,68997:0:0:0:0:
192,192,68780,128,0,68834:0:0:0:0:
320,192,68888,128,0,68943:0:0:0:0:
192,192,68888,128,0,69106:0:0:0:0:
320,192,68997,128,0,69214:0:0:0:0:
448,192,68997,128,0,69051:0:0:0:0:
448,192,69106,128,0,69323:0:0:0:0:
64,192,69106,128,0,69160:0:0:0:0:
64,192,69214,128,0,69432:0:0:0:0:
192,192,69214,128,0,69269:0:0:0:0:
192,192,69323,128,0,69432:0:0:0:0:
320,192,69323,128,0,69378:0:0:0:0:
320,192,69432,128,0,69541:0:0:0:0:
448,192,69432,128,0,69486:0:0:0:0:
448,192,69541,128,0,69595:0:0:0:0:
64,192,69541,128,0,69649:0:0:0:0:
192,192,69541,128,0,69649:0:0:0:0:
320,192,69649,128,0,69704:0:0:0:0:
192,192,69704,128,0,69758:0:0:0:0:
448,192,69758,128,0,69812:0:0:0:0:
64,192,69867,128,0,69975:0:0:0:0:
320,192,69975,128,0,70030:0:0:0:0:
192,192,70084,128,0,70193:0:0:0:0:
448,192,70193,128,0,70301:0:0:0:0:
64,192,70301,128,0,70410:0:0:0:0:
320,192,70410,128,0,70519:0:0:0:0:
192,192,70519,1,0,0:0:0:0:
320,192,70628,128,0,70736:0:0:0:0:
448,192,70628,128,0,70736:0:0:0:0:
64,192,70628,128,0,70682:0:0:0:0:
192,192,70736,128,0,70791:0:0:0:0:
64,192,70791,128,0,70845:0:0:0:0:
320,192,70845,128,0,70899:0:0:0:0:
192,192,70954,128,0,71062:0:0:0:0:
64,192,70954,128,0,71062:0:0:0:0:
448,192,70954,128,0,71008:0:0:0:0:
320,192,71062,128,0,71117:0:0:0:0:
192,192,71171,128,0,71225:0:0:0:0:
448,192,71280,128,0,71714:0:0:0:0:
64,192,71280,128,0,72041:0:0:0:0:
320,192,71280,128,0,71334:0:0:0:0:
192,192,71497,128,0,71551:0:0:0:0:
320,192,71714,128,0,71932:0:0:0:0:
192,192,71823,128,0,72041:0:0:0:0:
448,192,71932,128,0,72258:0:0:0:0:
320,192,72041,128,0,72258:0:0:0:0:
192,192,72149,128,0,72693:0:0:0:0:
64,192,72149,128,0,72475:0:0:0:0:
448,192,72367,128,0,72693:0:0:0:0:
320,192,72367,128,0,72475:0:0:0:0:
64,192,72584,128,0,73562:0:0:0:0:
320,192,72584,128,0,72910:0:0:0:0:
448,192,72801,128,0,72910:0:0:0:0:
192,192,72801,128,0,73236:0:0:0:0:
320,192,73019,128,0,73236:0:0:0:0:
448,192,73019,128,0,73345:0:0:0:0:
192,192,73345,128,0,73562:0:0:0:0:
320,192,73345,128,0,73671:0:0:0:0:
64,192,73671,128,0,73997:0:0:0:0:
192,192,73671,128,0,74106:0:0:0:0:
64,192,74106,128,0,74758:0:0:0:0:
320,192,74758,128,0,74812:0:0:0:0:
192,192,74975,128,0,75030:0:0:0:0:
448,192,75193,128,0,75410:0:0:0:0:
64,192,75301,128,0,75519:0:0:0:0:
192,192,75410,128,0,75736:0:0:0:0:
448,192,75519,128,0,75736:0:0:0:0:
320,192,75628,128,0,76171:0:0:0:0:
64,192,75628,128,0,75954:0:0:0:0:
192,192,75845,128,0,75954:0:0:0:0:
448,192,75845,128,0,76171:0:0:0:0:
192,192,76062,128,0,76388:0:0:0:0:
64,192,76062,128,0,76388:0:0:0:0:
320,192,76280,128,0,76497:0:0:0:0:
448,192,76280,128,0,76823:0:0:0:0:
64,192,76497,128,0,76714:0:0:0:0:
192,192,76497,128,0,76606:0:0:0:0:
320,192,76606,128,0,76823:0:0:0:0:
192,192,76714,128,0,76932:0:0:0:0:
64,192,76823,128,0,77258:0:0:0:0:
448,192,76932,128,0,77149:0:0:0:0:
320,192,76932,128,0,77041:0:0:0:0:
192,192,77041,128,0,77258:0:0:0:0:
320,192,77149,128,0,77367:0:0:0:0:
448,192,77258,128,0,77693:0:0:0:0:
192,192,77367,128,0,77475:0:0:0:0:
64,192,77367,128,0,77584:0:0:0:0:
320,192,77475,128,0,77693:0:0:0:0:
192,192,77584,128,0,77801:0:0:0:0:
64,192,77693,128,0,77874:0:0:0:0:
448,192,77801,128,0,77874:0:0:0:0:
320,192,77801,128,0,77946:0:0:0:0:
192,192,77874,128,0,78019:0:0:0:0:
64,192,77946,128,0,78019:0:0:0:0:
448,192,77946,128,0,78091:0:0:0:0:
320,192,78019,128,0,78164:0:0:0:0:
192,192,78091,128,0,78164:0:0:0:0:
64,192,78091,128,0,78164:0:0:0:0:
448,192,78164,128,0,78236:0:0:0:0:
192,192,78236,128,0,78454:0:0:0:0:
64,192,78236,128,0,78345:0:0:0:0:
320,192,78236,128,0,78345:0:0:0:0:
64,192,78454,128,0,78671:0:0:0:0:
448,192,78454,1,0,0:0:0:0:
320,192,78671,128,0,78780:0:0:0:0:
64,192,78780,128,0,78888:0:0:0:0:
192,192,78780,128,0,78888:0:0:0:0:
448,192,78888,128,0,78997:0:0:0:0:
320,192,78888,1,0,0:0:0:0:
192,192,78997,128,0,79106:0:0:0:0:
64,192,78997,128,0,79214:0:0:0:0:
448,192,79106,128,0,79323:0:0:0:0:
192,192,79214,128,0,79432:0:0:0:0:
320,192,79323,128,0,79541:0:0:0:0:
64,192,79323,1,0,0:0:0:0:
192,192,79541,128,0,79649:0:0:0:0:
64,192,79541,128,0,79758:0:0:0:0:
192,192,79758,128,0,79975:0:0:0:0:
320,192,79758,128,0,79975:0:0:0:0:
448,192,79975,128,0,80084:0:0:0:0:
64,192,79975,128,0,80301:0:0:0:0:
448,192,80193,128,0,80410:0:0:0:0:
320,192,80193,1,0,0:0:0:0:
192,192,80301,128,0,80628:0:0:0:0:
448,192,80519,128,0,80628:0:0:0:0:
320,192,80628,128,0,81062:0:0:0:0:
64,192,80628,1,0,0:0:0:0:
192,192,80736,128,0,80845:0:0:0:0:
64,192,80954,128,0,81171:0:0:0:0:
448,192,81062,128,0,81714:0:0:0:0:
192,192,81062,1,0,0:0:0:0:
64,192,81280,128,0,81388:0:0:0:0:
64,192,81497,128,0,81606:0:0:0:0:
192,192,81497,1,0,0:0:0:0:
320,192,81714,128,0,81823:0:0:0:0:
320,192,81932,128,0,82149:0:0:0:0:
448,192,81932,1,0,0:0:0:0:
192,192,82149,128,0,82258:0:0:0:0:
320,192,82258,128,0,82367:0:0:0:0:
64,192,82367,128,0,82584:0:0:0:0:
448,192,82367,1,0,0:0:0:0:
192,192,82475,128,0,82584:0:0:0:0:
320,192,82584,128,0,82801:0:0:0:0:
192,192,82693,128,0,82910:0:0:0:0:
448,192,82801,128,0,83019:0:0:0:0:
64,192,82801,1,0,0:0:0:0:
192,192,83019,128,0,83128:0:0:0:0:
64,192,83019,128,0,83236:0:0:0:0:
320,192,83236,128,0,83345:0:0:0:0:
192,192,83236,128,0,83454:0:0:0:0:
320,192,83454,128,0,83562:0:0:0:0:
448,192,83454,128,0,83562:0:0:0:0:
64,192,83454,128,0,83508:0:0:0:0:
192,192,83562,128,0,83617:0:0:0:0:
448,192,83617,128,0,83671:0:0:0:0:
192,192,83671,128,0,83780:0:0:0:0:
320,192,83780,128,0,83888:0:0:0:0:
192,192,83888,128,0,84214:0:0:0:0:
64,192,83997,128,0,84214:0:0:0:0:
448,192,84106,128,0,84323:0:0:0:0:
320,192,84214,128,0,84323:0:0:0:0:
64,192,84323,128,0,84432:0:0:0:0:
192,192,84323,128,0,84432:0:0:0:0:
448,192,84432,128,0,84486:0:0:0:0:
320,192,84432,128,0,84486:0:0:0:0:
192,192,84486,128,0,84541:0:0:0:0:
64,192,84541,128,0,84595:0:0:0:0:
448,192,84541,128,0,84649:0:0:0:0:
192,192,84649,128,0,84704:0:0:0:0:
64,192,84649,128,0,84758:0:0:0:0:
448,192,84758,128,0,84830:0:0:0:0:
320,192,84758,128,0,84903:0:0:0:0:
192,192,84830,128,0,84903:0:0:0:0:
448,192,84903,128,0,84975:0:0:0:0:
192,192,84975,128,0,85120:0:0:0:0:
64,192,84975,128,0,85048:0:0:0:0:
320,192,85048,128,0,85120:0:0:0:0:
64,192,85120,128,0,85193:0:0:0:0:
192,192,85193,128,0,85301:0:0:0:0:
320,192,85193,128,0,85301:0:0:0:0:
448,192,85193,128,0,85247:0:0:0:0:
448,192,85301,128,0,85356:0:0:0:0:
64,192,85410,128,0,85519:0:0:0:0:
320,192,85410,128,0,85519:0:0:0:0:
192,192,85410,128,0,85464:0:0:0:0:
448,192,85519,128,0,85628:0:0:0:0:
192,192,85573,128,0,85682:0:0:0:0:
320,192,85628,128,0,85736:0:0:0:0:
64,192,85682,128,0,85791:0:0:0:0:
448,192,85736,128,0,85845:0:0:0:0:
192,192,85736,128,0,85791:0:0:0:0:
192,192,85845,128,0,86062:0:0:0:0:
320,192,85845,128,0,85899:0:0:0:0:
64,192,85845,128,0,85954:0:0:0:0:
448,192,85954,128,0,86171:0:0:0:0:
64,192,86062,128,0,86117:0:0:0:0:
320,192,86062,128,0,86117:0:0:0:0:
320,192,86171,128,0,86280:0:0:0:0:
64,192,86280,128,0,86388:0:0:0:0:
448,192,86280,128,0,86388:0:0:0:0:
192,192,86280,128,0,86334:0:0:0:0:
192,192,86388,128,0,86497:0:0:0:0:
320,192,86388,128,0,86443:0:0:0:0:
448,192,86443,128,0,86551:0:0:0:0:
64,192,86497,128,0,86606:0:0:0:0:
320,192,86551,128,0,86660:0:0:0:0:
448,192,86606,128,0,86714:0:0:0:0:
192,192,86606,128,0,86660:0:0:0:0:
192,192,86714,128,0,86823:0:0:0:0:
64,192,86714,128,0,86769:0:0:0:0:
320,192,86714,128,0,86878:0:0:0:0:
448,192,86823,128,0,86878:0:0:0:0:
64,192,86932,128,0,86986:0:0:0:0:
448,192,86932,128,0,87041:0:0:0:0:
64,192,87041,128,0,87095:0:0:0:0:
192,192,87149,128,0,87258:0:0:0:0:
320,192,87149,128,0,87204:0:0:0:0:
448,192,87149,128,0,87258:0:0:0:0:
64,192,87258,128,0,87367:0:0:0:0:
320,192,87312,128,0,87421:0:0:0:0:
448,192,87367,128,0,87475:0:0:0:0:
192,192,87421,128,0,87530:0:0:0:0:
64,192,87475,128,0,87584:0:0:0:0:
320,192,87475,128,0,87530:0:0:0:0:
320,192,87584,128,0,87801:0:0:0:0:
448,192,87584,128,0,87693:0:0:0:0:
192,192,87584,128,0,87638:0:0:0:0:
64,192,87693,128,0,87910:0:0:0:0:
448,192,87801,128,0,87856:0:0:0:0:
192,192,87801,128,0,87856:0:0:0:0:
192,192,87910,128,0,88019:0:0:0:0:
448,192,88019,128,0,88128:0:0:0:0:
64,192,88019,128,0,88073:0:0:0:0:
320,192,88019,128,0,88128:0:0:0:0:
64,192,88128,128,0,88236:0:0:0:0:
192,192,88128,128,0,88182:0:0:0:0:
320,192,88182,128,0,88291:0:0:0:0:
448,192,88236,128,0,88345:0:0:0:0:
192,192,88291,128,0,88399:0:0:0:0:
320,192,88345,128,0,88454:0:0:0:0:
64,192,88345,128,0,88399:0:0:0:0:
64,192,88454,128,0,88562:0:0:0:0:
192,192,88454,128,0,88508:0:0:0:0:
448,192,88454,128,0,88617:0:0:0:0:
320,192,88562,128,0,88617:0:0:0:0:
320,192,88671,128,0,88780:0:0:0:0:
64,192,88671,128,0,88725:0:0:0:0:
64,192,88780,128,0,88834:0:0:0:0:
192,192,88888,128,0,88997:0:0:0:0:
320,192,88888,128,0,88997:0:0:0:0:
448,192,88888,128,0,88943:0:0:0:0:
64,192,88997,128,0,89106:0:0:0:0:
448,192,89051,128,0,89160:0:0:0:0:
320,192,89106,128,0,89214:0:0:0:0:
192,192,89160,128,0,89269:0:0:0:0:
64,192,89214,128,0,89323:0:0:0:0:
448,192,89214,128,0,89269:0:0:0:0:
320,192,89323,128,0,89432:0:0:0:0:
448,192,89323,128,0,89541:0:0:0:0:
192,192,89323,128,0,89378:0:0:0:0:
64,192,89432,128,0,89649:0:0:0:0:
192,192,89541,128,0,89595:0:0:0:0:
320,192,89541,128,0,89595:0:0:0:0:
320,192,89649,128,0,89758:0:0:0:0:
64,192,89758,128,0,89812:0:0:0:0:
448,192,89758,128,0,89867:0:0:0:0:
192,192,89758,128,0,89867:0:0:0:0:
64,192,89867,128,0,89975:0:0:0:0:
320,192,89867,128,0,89921:0:0:0:0:
448,192,89921,128,0,90030:0:0:0:0:
192,192,89975,128,0,90084:0:0:0:0:
320,192,90030,128,0,90138:0:0:0:0:
64,192,90084,128,0,90193:0:0:0:0:
448,192,90084,128,0,90138:0:0:0:0:
320,192,90193,128,0,90356:0:0:0:0:
192,192,90193,128,0,90247:0:0:0:0:
448,192,90193,128,0,90301:0:0:0:0:
64,192,90301,128,0,90356:0:0:0:0:
448,192,90410,128,0,90464:0:0:0:0:
64,192,90410,128,0,90519:0:0:0:0:
448,192,90519,128,0,90573:0:0:0:0:
320,192,90628,128,0,90736:0:0:0:0:
64,192,90628,128,0,90736:0:0:0:0:
192,192,90628,128,0,90682:0:0:0:0:
448,192,90736,128,0,90845:0:0:0:0:
192,192,90791,128,0,90899:0:0:0:0:
64,192,90845,128,0,90954:0:0:0:0:
320,192,90899,128,0,91008:0:0:0:0:
448,192,90954,128,0,91062:0:0:0:0:
192,192,90954,128,0,91008:0:0:0:0:
192,192,91062,128,0,91280:0:0:0:0:
64,192,91062,128,0,91171:0:0:0:0:
320,192,91062,128,0,91117:0:0:0:0:
448,192,91171,128,0,91334:0:0:0:0:
320,192,91280,128,0,91334:0:0:0:0:
64,192,91280,128,0,91388:0:0:0:0:
320,192,91388,128,0,91443:0:0:0:0:
448,192,91388,128,0,91443:0:0:0:0:
192,192,91443,128,0,91497:0:0:0:0:
64,192,91497,128,0,91606:0:0:0:0:
448,192,91497,128,0,91551:0:0:0:0:
320,192,91606,128,0,91714:0:0:0:0:
192,192,91606,128,0,91660:0:0:0:0:
448,192,91714,128,0,91823:0:0:0:0:
64,192,91714,128,0,91769:0:0:0:0:
192,192,91823,128,0,91878:0:0:0:0:
64,192,91823,128,0,91932:0:0:0:0:
320,192,91932,128,0,91986:0:0:0:0:
192,192,91932,128,0,92041:0:0:0:0:
320,192,92041,128,0,92149:0:0:0:0:
448,192,92041,128,0,92095:0:0:0:0:
448,192,92149,128,0,92475:0:0:0:0:
64,192,92149,128,0,92204:0:0:0:0:
192,192,92149,128,0,92204:0:0:0:0:
64,192,92258,128,0,92312:0:0:0:0:
192,192,92367,128,0,92421:0:0:0:0:
320,192,92367,128,0,92421:0:0:0:0:
64,192,92475,128,0,92530:0:0:0:0:
320,192,92584,128,0,92638:0:0:0:0:
448,192,92693,128,0,92747:0:0:0:0:
192,192,92693,128,0,92801:0:0:0:0:
320,192,92801,128,0,92874:0:0:0:0:
64,192,92801,128,0,92856:0:0:0:0:
448,192,92874,128,0,93019:0:0:0:0:
320,192,92946,128,0,93091:0:0:0:0:
64,192,93019,128,0,93091:0:0:0:0:
192,192,93019,128,0,93164:0:0:0:0:
448,192,93091,128,0,93236:0:0:0:0:
320,192,93164,128,0,93236:0:0:0:0:
192,192,93236,128,0,93309:0:0:0:0:
64,192,93236,128,0,93381:0:0:0:0:
320,192,93309,128,0,93454:0:0:0:0:
192,192,93381,128,0,93526:0:0:0:0:
64,192,93454,128,0,93599:0:0:0:0:
448,192,93526,128,0,93599:0:0:0:0:
320,192,93599,128,0,93671:0:0:0:0:
448,192,93671,128,0,93780:0:0:0:0:
192,192,93671,128,0,93725:0:0:0:0:
64,192,93671,128,0,93780:0:0:0:0:
192,192,93780,128,0,93888:0:0:0:0:
448,192,93888,128,0,93943:0:0:0:0:
320,192,93888,128,0,93943:0:0:0:0:
320,192,93997,128,0,94106:0:0:0:0:
64,192,94106,128,0,94214:0:0:0:0:
448,192,94106,128,0,94214:0:0:0:0:
192,192,94106,128,0,94160:0:0:0:0:
320,192,94214,128,0,94323:0:0:0:0:
192,192,94269,128,0,94378:0:0:0:0:
64,192,94323,128,0,94432:0:0:0:0:
448,192,94378,128,0,94486:0:0:0:0:
320,192,94432,128,0,94541:0:0:0:0:
192,192,94432,128,0,94486:0:0:0:0:
64,192,94541,128,0,94649:0:0:0:0:
192,192,94541,128,0,94649:0:0:0:0:
448,192,94541,128,0,94595:0:0:0:0:
448,192,94649,128,0,94758:0:0:0:0:
320,192,94649,128,0,94704:0:0:0:0:
64,192,94758,128,0,94867:0:0:0:0:
320,192,94867,128,0,94921:0:0:0:0:
192,192,94867,128,0,94921:0:0:0:0:
448,192,94921,128,0,94975:0:0:0:0:
64,192,94975,128,0,95030:0:0:0:0:
192,192,94975,128,0,95084:0:0:0:0:
320,192,95084,128,0,95193:0:0:0:0:
448,192,95084,128,0,95138:0:0:0:0:
192,192,95193,128,0,95247:0:0:0:0:
64,192,95193,128,0,95356:0:0:0:0:
448,192,95247,128,0,95356:0:0:0:0:
320,192,95301,128,0,95464:0:0:0:0:
192,192,95356,128,0,95410:0:0:0:0:
448,192,95410,128,0,95519:0:0:0:0:
64,192,95464,128,0,95519:0:0:0:0:
192,192,95519,128,0,95573:0:0:0:0:
320,192,95573,128,0,95628:0:0:0:0:
192,192,95628,128,0,95736:0:0:0:0:
64,192,95628,128,0,95736:0:0:0:0:
448,192,95628,128,0,95682:0:0:0:0:
320,192,95736,128,0,95791:0:0:0:0:
192,192,95845,128,0,95899:0:0:0:0:
64,192,96062,128,0,96388:0:0:0:0:
320,192,96062,128,0,96823:0:0:0:0:
192,192,96280,128,0,96388:0:0:0:0:
448,192,96280,128,0,96606:0:0:0:0:
192,192,96497,128,0,97041:0:0:0:0:
64,192,96497,128,0,96606:0:0:0:0:
448,192,96714,128,0,96823:0:0:0:0:
64,192,96714,128,0,97041:0:0:0:0:
320,192,96932,128,0,97095:0:0:0:0:
448,192,96932,128,0,97068:0:0:0:0:
64,192,97149,128,0,97231:0:0:0:0:
192,192,97149,128,0,98997:0:0:0:0:
448,192,97176,128,0,97258:0:0:0:0:
320,192,97204,128,0,97285:0:0:0:0:
64,192,97584,128,0,97638:0:0:0:0:
64,192,97801,128,0,97874:0:0:0:0:
64,192,98019,128,0,98091:0:0:0:0:
64,192,98236,128,0,98327:0:0:0:0:
448,192,98236,128,0,98327:0:0:0:0:
64,192,98454,128,0,98544:0:0:0:0:
448,192,98454,128,0,98544:0:0:0:0:
64,192,98671,128,0,98780:0:0:0:0:
448,192,98671,128,0,98780:0:0:0:0:
320,192,98671,128,0,98780:0:0:0:0:
64,192,98888,128,0,98997:0:0:0:0:
320,192,98888,128,0,98997:0:0:0:0:
448,192,98888,128,0,98997:0:0:0:0:
64,192,99106,128,0,99214:0:0:0:0:
192,192,99106,128,0,99214:0:0:0:0:
448,192,99106,128,0,99541:0:0:0:0:
320,192,99214,128,0,99432:0:0:0:0:
192,192,99323,128,0,99704:0:0:0:0:
64,192,99432,128,0,99704:0:0:0:0:
320,192,99541,128,0,99758:0:0:0:0:
448,192,99649,128,0,99812:0:0:0:0:
64,192,99758,128,0,99812:0:0:0:0:
192,192,99758,128,0,99812:0:0:0:0:
320,192,99812,128,0,99867:0:0:0:0:
448,192,99867,128,0,99921:0:0:0:0:
64,192,99867,128,0,99921:0:0:0:0:
192,192,99921,128,0,99975:0:0:0:0:
320,192,99975,128,0,100030:0:0:0:0:
448,192,99975,128,0,100084:0:0:0:0:
320,192,100084,128,0,100193:0:0:0:0:
192,192,100084,128,0,100138:0:0:0:0:
192,192,100193,128,0,100301:0:0:0:0:
64,192,100193,128,0,100247:0:0:0:0:
448,192,100301,128,0,100356:0:0:0:0:
320,192,100301,128,0,100410:0:0:0:0:
192,192,100410,128,0,100519:0:0:0:0:
448,192,100410,128,0,100464:0:0:0:0:
64,192,100464,128,0,100573:0:0:0:0:
320,192,100519,128,0,100628:0:0:0:0:
192,192,100573,128,0,100682:0:0:0:0:
448,192,100628,128,0,100736:0:0:0:0:
320,192,100682,128,0,100791:0:0:0:0:
64,192,100736,128,0,100791:0:0:0:0:
448,192,100791,128,0,100845:0:0:0:0:
320,192,100845,128,0,100899:0:0:0:0:
192,192,100845,128,0,100954:0:0:0:0:
64,192,100845,128,0,100954:0:0:0:0:
320,192,100954,128,0,101062:0:0:0:0:
448,192,101062,128,0,101171:0:0:0:0:
192,192,101062,128,0,101117:0:0:0:0:
64,192,101062,128,0,101225:0:0:0:0:
320,192,101171,128,0,101280:0:0:0:0:
192,192,101225,128,0,101334:0:0:0:0:
64,192,101280,128,0,101388:0:0:0:0:
448,192,101334,128,0,101443:0:0:0:0:
320,192,101388,128,0,101497:0:0:0:0:
192,192,101388,128,0,101443:0:0:0:0:
448,192,101497,128,0,101606:0:0:0:0:
192,192,101497,128,0,101606:0:0:0:0:
64,192,101497,128,0,101551:0:0:0:0:
320,192,101606,128,0,101660:0:0:0:0:
320,192,101714,128,0,101823:0:0:0:0:
64,192,101714,128,0,101769:0:0:0:0:
64,192,101823,128,0,101932:0:0:0:0:
448,192,101932,128,0,102095:0:0:0:0:
192,192,101932,128,0,101986:0:0:0:0:
320,192,101932,128,0,102041:0:0:0:0:
192,192,102041,128,0,102149:0:0:0:0:
64,192,102041,128,0,102095:0:0:0:0:
320,192,102095,128,0,102204:0:0:0:0:
448,192,102149,128,0,102258:0:0:0:0:
64,192,102204,128,0,102312:0:0:0:0:
320,192,102258,128,0,102367:0:0:0:0:
192,192,102258,128,0,102312:0:0:0:0:
192,192,102367,128,0,102421:0:0:0:0:
448,192,102367,128,0,102475:0:0:0:0:
64,192,102367,128,0,102475:0:0:0:0:
320,192,102475,128,0,102584:0:0:0:0:
448,192,102584,128,0,102693:0:0:0:0:
192,192,102584,128,0,102638:0:0:0:0:
192,192,102693,128,0,102801:0:0:0:0:
64,192,102801,128,0,102910:0:0:0:0:
320,192,102801,128,0,102964:0:0:0:0:
448,192,102801,128,0,102856:0:0:0:0:
192,192,102910,128,0,103019:0:0:0:0:
64,192,102964,128,0,103073:0:0:0:0:
448,192,103019,128,0,103128:0:0:0:0:
320,192,103073,128,0,103182:0:0:0:0:
192,192,103128,128,0,103236:0:0:0:0:
64,192,103128,128,0,103182:0:0:0:0:
64,192,103236,128,0,103345:0:0:0:0:
448,192,103236,128,0,103345:0:0:0:0:
320,192,103236,128,0,103291:0:0:0:0:
192,192,103345,128,0,103399:0:0:0:0:
192,192,103454,128,0,103562:0:0:0:0:
320,192,103454,128,0,103508:0:0:0:0:
320,192,103562,128,0,103671:0:0:0:0:
64,192,103671,128,0,103725:0:0:0:0:
192,192,103671,128,0,103780:0:0:0:0:
448,192,103671,128,0,103834:0:0:0:0:
64,192,103780,128,0,103888:0:0:0:0:
320,192,103780,128,0,103834:0:0:0:0:
192,192,103834,128,0,103943:0:0:0:0:
448,192,103888,128,0,103997:0:0:0:0:
320,192,103943,128,0,104051:0:0:0:0:
64,192,103997,128,0,104051:0:0:0:0:
192,192,103997,128,0,104106:0:0:0:0:
448,192,104106,128,0,104214:0:0:0:0:
320,192,104106,128,0,104160:0:0:0:0:
64,192,104106,128,0,104214:0:0:0:0:
192,192,104214,128,0,104323:0:0:0:0:
64,192,104323,128,0,104432:0:0:0:0:
448,192,104323,128,0,104378:0:0:0:0:
448,192,104432,128,0,104541:0:0:0:0:
64,192,104541,128,0,104704:0:0:0:0:
192,192,104541,128,0,104649:0:0:0:0:
320,192,104541,128,0,104595:0:0:0:0:
448,192,104649,128,0,104758:0:0:0:0:
320,192,104704,128,0,104812:0:0:0:0:
64,192,104758,128,0,104867:0:0:0:0:
192,192,104812,128,0,104921:0:0:0:0:
448,192,104867,128,0,104975:0:0:0:0:
320,192,104867,128,0,104921:0:0:0:0:
64,192,104975,128,0,105084:0:0:0:0:
320,192,104975,128,0,105084:0:0:0:0:
192,192,104975,128,0,105030:0:0:0:0:
448,192,105084,128,0,105138:0:0:0:0:
448,192,105193,128,0,105301:0:0:0:0:
64,192,105193,128,0,105247:0:0:0:0:
64,192,105301,128,0,105410:0:0:0:0:
320,192,105410,128,0,105519:0:0:0:0:
192,192,105410,128,0,105464:0:0:0:0:
448,192,105410,128,0,105573:0:0:0:0:
192,192,105519,128,0,105628:0:0:0:0:
64,192,105519,128,0,105573:0:0:0:0:
320,192,105573,128,0,105682:0:0:0:0:
448,192,105628,128,0,105736:0:0:0:0:
64,192,105682,128,0,105791:0:0:0:0:
320,192,105736,128,0,105845:0:0:0:0:
192,192,105736,128,0,105791:0:0:0:0:
192,192,105845,128,0,105954:0:0:0:0:
448,192,105845,128,0,105899:0:0:0:0:
320,192,105954,128,0,106062:0:0:0:0:
448,192,106062,128,0,106171:0:0:0:0:
64,192,106062,128,0,106117:0:0:0:0:
64,192,106171,128,0,106280:0:0:0:0:
320,192,106280,128,0,106334:0:0:0:0:
192,192,106280,128,0,106388:0:0:0:0:
448,192,106280,128,0,106443:0:0:0:0:
64,192,106388,128,0,106497:0:0:0:0:
320,192,106443,128,0,106551:0:0:0:0:
192,192,106497,128,0,106606:0:0:0:0:
448,192,106551,128,0,106660:0:0:0:0:
64,192,106606,128,0,106714:0:0:0:0:
320,192,106606,128,0,106660:0:0:0:0:
192,192,106714,128,0,106823:0:0:0:0:
320,192,106714,128,0,106823:0:0:0:0:
448,192,106714,128,0,106769:0:0:0:0:
64,192,106823,128,0,106878:0:0:0:0:
448,192,106932,128,0,106986:0:0:0:0:
64,192,106932,128,0,107041:0:0:0:0:
320,192,107041,128,0,107095:0:0:0:0:
448,192,107041,128,0,107095:0:0:0:0:
192,192,107095,128,0,107149:0:0:0:0:
64,192,107149,128,0,107258:0:0:0:0:
320,192,107149,128,0,107204:0:0:0:0:
448,192,107258,128,0,107367:0:0:0:0:
192,192,107258,128,0,107312:0:0:0:0:
192,192,107367,128,0,107475:0:0:0:0:
64,192,107367,128,0,107421:0:0:0:0:
320,192,107475,128,0,107530:0:0:0:0:
448,192,107475,128,0,107584:0:0:0:0:
192,192,107584,128,0,107638:0:0:0:0:
320,192,107584,128,0,107693:0:0:0:0:
192,192,107693,128,0,107801:0:0:0:0:
64,192,107693,128,0,107747:0:0:0:0:
64,192,107801,128,0,107910:0:0:0:0:
320,192,107801,128,0,107856:0:0:0:0:
448,192,107801,128,0,107910:0:0:0:0:
320,192,107910,128,0,108019:0:0:0:0:
192,192,108019,128,0,108182:0:0:0:0:
448,192,108019,128,0,108128:0:0:0:0:
64,192,108019,128,0,108073:0:0:0:0:
320,192,108128,128,0,108236:0:0:0:0:
64,192,108182,128,0,108291:0:0:0:0:
192,192,108236,128,0,108345:0:0:0:0:
448,192,108291,128,0,108399:0:0:0:0:
320,192,108345,128,0,108454:0:0:0:0:
64,192,108345,128,0,108399:0:0:0:0:
64,192,108454,128,0,108562:0:0:0:0:
192,192,108454,128,0,108508:0:0:0:0:
448,192,108454,128,0,108562:0:0:0:0:
320,192,108562,128,0,108617:0:0:0:0:
320,192,108671,128,0,108780:0:0:0:0:
64,192,108671,128,0,108725:0:0:0:0:
64,192,108780,128,0,108888:0:0:0:0:
192,192,108888,128,0,108997:0:0:0:0:
448,192,108888,128,0,109051:0:0:0:0:
320,192,108888,128,0,108943:0:0:0:0:
64,192,108997,128,0,109106:0:0:0:0:
320,192,108997,128,0,109051:0:0:0:0:
192,192,109051,128,0,109160:0:0:0:0:
448,192,109106,128,0,109214:0:0:0:0:
320,192,109160,128,0,109269:0:0:0:0:
64,192,109214,128,0,109323:0:0:0:0:
192,192,109214,128,0,109269:0:0:0:0:
192,192,109323,128,0,109378:0:0:0:0:
448,192,109323,128,0,109432:0:0:0:0:
320,192,109323,128,0,109432:0:0:0:0:
64,192,109432,128,0,109541:0:0:0:0:
192,192,109541,128,0,109649:0:0:0:0:
448,192,109541,128,0,109595:0:0:0:0:
448,192,109649,128,0,109758:0:0:0:0:
320,192,109758,128,0,109921:0:0:0:0:
192,192,109758,128,0,109867:0:0:0:0:
64,192,109758,128,0,109812:0:0:0:0:
448,192,109867,128,0,109975:0:0:0:0:
64,192,109921,128,0,110030:0:0:0:0:
192,192,109975,128,0,110084:0:0:0:0:
320,192,110030,128,0,110138:0:0:0:0:
448,192,110084,128,0,110193:0:0:0:0:
64,192,110084,128,0,110138:0:0:0:0:
64,192,110193,128,0,110301:0:0:0:0:
192,192,110193,128,0,110301:0:0:0:0:
320,192,110193,128,0,110247:0:0:0:0:
448,192,110301,128,0,110356:0:0:0:0:
448,192,110410,128,0,110519:0:0:0:0:
192,192,110410,128,0,110464:0:0:0:0:
192,192,110519,128,0,110628:0:0:0:0:
320,192,110628,128,0,110791:0:0:0:0:
448,192,110628,128,0,110736:0:0:0:0:
64,192,110628,128,0,110682:0:0:0:0:
64,192,110736,128,0,110845:0:0:0:0:
192,192,110736,128,0,110791:0:0:0:0:
448,192,110791,128,0,110899:0:0:0:0:
320,192,110845,128,0,110954:0:0:0:0:
192,192,110899,128,0,111008:0:0:0:0:
448,192,110954,128,0,111062:0:0:0:0:
64,192,110954,128,0,111008:0:0:0:0:
192,192,111062,128,0,111117:0:0:0:0:
64,192,111062,128,0,111171:0:0:0:0:
320,192,111062,128,0,111171:0:0:0:0:
448,192,111171,128,0,111280:0:0:0:0:
320,192,111280,128,0,111388:0:0:0:0:
192,192,111280,128,0,111334:0:0:0:0:
192,192,111388,128,0,111497:0:0:0:0:
448,192,111497,128,0,111660:0:0:0:0:
320,192,111497,128,0,111606:0:0:0:0:
64,192,111497,128,0,111551:0:0:0:0:
192,192,111606,128,0,111714:0:0:0:0:
64,192,111660,128,0,111769:0:0:0:0:
448,192,111714,128,0,111823:0:0:0:0:
320,192,111769,128,0,111878:0:0:0:0:
192,192,111823,128,0,111932:0:0:0:0:
64,192,111823,128,0,111878:0:0:0:0:
64,192,111932,128,0,112041:0:0:0:0:
320,192,111932,128,0,111986:0:0:0:0:
448,192,111932,128,0,112041:0:0:0:0:
192,192,112041,128,0,112095:0:0:0:0:
192,192,112149,128,0,112258:0:0:0:0:
448,192,112149,128,0,112204:0:0:0:0:
448,192,112258,128,0,112367:0:0:0:0:
192,192,112367,128,0,112530:0:0:0:0:
64,192,112367,128,0,112475:0:0:0:0:
320,192,112367,128,0,112421:0:0:0:0:
320,192,112475,128,0,112584:0:0:0:0:
448,192,112475,128,0,112530:0:0:0:0:
64,192,112530,128,0,112638:0:0:0:0:
192,192,112584,128,0,112693:0:0:0:0:
448,192,112638,128,0,112747:0:0:0:0:
64,192,112693,128,0,112801:0:0:0:0:
320,192,112693,128,0,112747:0:0:0:0:
320,192,112801,128,0,112910:0:0:0:0:
192,192,112801,128,0,112856:0:0:0:0:
448,192,112801,128,0,112910:0:0:0:0:
64,192,112910,128,0,113019:0:0:0:0:
192,192,113019,128,0,113128:0:0:0:0:
448,192,113019,128,0,113128:0:0:0:0:
320,192,113019,128,0,113073:0:0:0:0:
320,192,113128,128,0,113236:0:0:0:0:
192,192,113236,128,0,113399:0:0:0:0:
64,192,113236,128,0,113345:0:0:0:0:
448,192,113236,128,0,113291:0:0:0:0:
320,192,113345,128,0,113454:0:0:0:0:
448,192,113399,128,0,113508:0:0:0:0:
192,192,113454,128,0,113562:0:0:0:0:
64,192,113508,128,0,113617:0:0:0:0:
320,192,113562,128,0,113671:0:0:0:0:
448,192,113562,128,0,113617:0:0:0:0:
64,192,113671,128,0,113725:0:0:0:0:
192,192,113671,128,0,113725:0:0:0:0:
448,192,113725,128,0,113780:0:0:0:0:
320,192,113780,128,0,113834:0:0:0:0:
192,192,113780,128,0,113834:0:0:0:0:
64,192,113834,128,0,113888:0:0:0:0:
320,192,113888,128,0,113943:0:0:0:0:
448,192,113888,128,0,113943:0:0:0:0:
192,192,113997,128,0,114051:0:0:0:0:
64,192,113997,128,0,114051:0:0:0:0:
320,192,114106,128,0,114160:0:0:0:0:
448,192,114106,128,0,114160:0:0:0:0:
64,192,114106,128,0,114214:0:0:0:0:
448,192,114214,128,0,114269:0:0:0:0:
320,192,114214,128,0,114269:0:0:0:0:
192,192,114323,128,0,114378:0:0:0:0:
320,192,114323,128,0,114378:0:0:0:0:
64,192,114432,128,0,114486:0:0:0:0:
192,192,114432,128,0,114486:0:0:0:0:
448,192,114432,128,0,114541:0:0:0:0:
192,192,114541,128,0,114595:0:0:0:0:
64,192,114541,128,0,114595:0:0:0:0:
320,192,114649,128,0,114704:0:0:0:0:
192,192,114649,128,0,114704:0:0:0:0:
64,192,114758,128,0,114867:0:0:0:0:
320,192,114758,128,0,114812:0:0:0:0:
448,192,114758,128,0,114867:0:0:0:0:
192,192,114867,128,0,114975:0:0:0:0:
320,192,114975,128,0,115084:0:0:0:0:
448,192,114975,128,0,115030:0:0:0:0:
64,192,115084,128,0,115193:0:0:0:0:
448,192,115138,128,0,115247:0:0:0:0:
320,192,115193,128,0,115301:0:0:0:0:
192,192,115247,128,0,115356:0:0:0:0:
64,192,115301,128,0,115410:0:0:0:0:
320,192,115410,128,0,115464:0:0:0:0:
448,192,115410,128,0,115519:0:0:0:0:
192,192,115519,128,0,115628:0:0:0:0:
320,192,115628,128,0,115736:0:0:0:0:
64,192,115736,128,0,115845:0:0:0:0:
448,192,115845,128,0,115954:0:0:0:0:
192,192,115845,128,0,115899:0:0:0:0:
320,192,115954,128,0,116062:0:0:0:0:
192,192,116008,128,0,116117:0:0:0:0:
64,192,116062,128,0,116171:0:0:0:0:
320,192,116117,128,0,116225:0:0:0:0:
448,192,116171,128,0,116280:0:0:0:0:
192,192,116280,128,0,116334:0:0:0:0:
64,192,116280,128,0,116388:0:0:0:0:
320,192,116388,128,0,116497:0:0:0:0:
448,192,116497,128,0,116606:0:0:0:0:
64,192,116497,128,0,116606:0:0:0:0:
192,192,116606,128,0,116714:0:0:0:0:
448,192,116714,128,0,116823:0:0:0:0:
320,192,116714,128,0,116769:0:0:0:0:
64,192,116823,128,0,116932:0:0:0:0:
320,192,116878,128,0,116986:0:0:0:0:
192,192,116932,128,0,117041:0:0:0:0:
448,192,116986,128,0,117095:0:0:0:0:
64,192,117041,128,0,117149:0:0:0:0:
320,192,117149,128,0,117258:0:0:0:0:
448,192,117149,128,0,117204:0:0:0:0:
192,192,117258,128,0,117367:0:0:0:0:
448,192,117367,128,0,117475:0:0:0:0:
64,192,117475,128,0,117584:0:0:0:0:
320,192,117584,128,0,117693:0:0:0:0:
192,192,117584,128,0,117638:0:0:0:0:
448,192,117693,128,0,117801:0:0:0:0:
192,192,117747,128,0,117856:0:0:0:0:
320,192,117801,128,0,117910:0:0:0:0:
64,192,117856,128,0,117964:0:0:0:0:
192,192,117910,128,0,118019:0:0:0:0:
448,192,118019,128,0,118128:0:0:0:0:
320,192,118019,128,0,118073:0:0:0:0:
64,192,118128,128,0,118236:0:0:0:0:
192,192,118236,128,0,118345:0:0:0:0:
448,192,118236,128,0,118345:0:0:0:0:
320,192,118345,128,0,118454:0:0:0:0:
192,192,118454,128,0,118562:0:0:0:0:
64,192,118454,128,0,118508:0:0:0:0:
448,192,118562,128,0,118671:0:0:0:0:
64,192,118617,128,0,118725:0:0:0:0:
192,192,118671,128,0,118780:0:0:0:0:
320,192,118725,128,0,118834:0:0:0:0:
448,192,118780,128,0,118888:0:0:0:0:
192,192,118888,128,0,118943:0:0:0:0:
64,192,118888,128,0,118997:0:0:0:0:
320,192,118997,128,0,119106:0:0:0:0:
192,192,119106,128,0,119214:0:0:0:0:
448,192,119214,128,0,119323:0:0:0:0:
64,192,119323,128,0,119432:0:0:0:0:
320,192,119323,128,0,119378:0:0:0:0:
192,192,119432,128,0,119541:0:0:0:0:
320,192,119486,128,0,119595:0:0:0:0:
448,192,119541,128,0,119649:0:0:0:0:
192,192,119595,128,0,119704:0:0:0:0:
64,192,119649,128,0,119758:0:0:0:0:
320,192,119758,128,0,119812:0:0:0:0:
448,192,119758,128,0,119867:0:0:0:0:
192,192,119867,128,0,119975:0:0:0:0:
64,192,119975,128,0,120084:0:0:0:0:
448,192,119975,128,0,120084:0:0:0:0:
320,192,120084,128,0,120193:0:0:0:0:
64,192,120193,128,0,120301:0:0:0:0:
192,192,120193,128,0,120247:0:0:0:0:
448,192,120301,128,0,120410:0:0:0:0:
192,192,120356,128,0,120464:0:0:0:0:
320,192,120410,128,0,120519:0:0:0:0:
64,192,120464,128,0,120573:0:0:0:0:
448,192,120519,128,0,120628:0:0:0:0:
192,192,120628,128,0,120736:0:0:0:0:
64,192,120628,128,0,120682:0:0:0:0:
320,192,120736,128,0,120845:0:0:0:0:
64,192,120845,128,0,120954:0:0:0:0:
448,192,120954,128,0,121008:0:0:0:0:
320,192,120954,128,0,121008:0:0:0:0:
192,192,121008,128,0,121062:0:0:0:0:
64,192,121062,128,0,121117:0:0:0:0:
448,192,121062,128,0,121171:0:0:0:0:
320,192,121171,128,0,121225:0:0:0:0:
192,192,121171,128,0,121280:0:0:0:0:
64,192,121280,128,0,121388:0:0:0:0:
448,192,121280,128,0,121334:0:0:0:0:
448,192,121388,128,0,121497:0:0:0:0:
320,192,121388,128,0,121443:0:0:0:0:
320,192,121497,128,0,121606:0:0:0:0:
192,192,121497,128,0,121551:0:0:0:0:
192,192,121606,128,0,121714:0:0:0:0:
64,192,121606,128,0,121660:0:0:0:0:
64,192,121714,128,0,121823:0:0:0:0:
320,192,121714,128,0,121823:0:0:0:0:
448,192,121714,128,0,121769:0:0:0:0:
192,192,121823,128,0,121932:0:0:0:0:
448,192,121932,128,0,122041:0:0:0:0:
64,192,122041,128,0,122149:0:0:0:0:
192,192,122095,128,0,122204:0:0:0:0:
448,192,122149,128,0,122258:0:0:0:0:
320,192,122204,128,0,122312:0:0:0:0:
64,192,122258,128,0,122367:0:0:0:0:
192,192,122367,128,0,122475:0:0:0:0:
448,192,122475,128,0,122584:0:0:0:0:
64,192,122584,128,0,122693:0:0:0:0:
320,192,122693,128,0,122801:0:0:0:0:
192,192,122801,128,0,122910:0:0:0:0:
448,192,122910,128,0,123019:0:0:0:0:
320,192,122964,128,0,123073:0:0:0:0:
64,192,123019,128,0,123128:0:0:0:0:
192,192,123073,128,0,123182:0:0:0:0:
320,192,123128,128,0,123236:0:0:0:0:
64,192,123236,128,0,123345:0:0:0:0:
448,192,123345,128,0,123454:0:0:0:0:
192,192,123454,128,0,123562:0:0:0:0:
320,192,123562,128,0,123671:0:0:0:0:
64,192,123671,128,0,123780:0:0:0:0:
448,192,123780,128,0,123888:0:0:0:0:
320,192,123834,128,0,123943:0:0:0:0:
192,192,123888,128,0,123997:0:0:0:0:
64,192,123943,128,0,124051:0:0:0:0:
448,192,123997,128,0,124106:0:0:0:0:
320,192,124106,128,0,124214:0:0:0:0:
64,192,124214,128,0,124323:0:0:0:0:
448,192,124323,128,0,124432:0:0:0:0:
192,192,124432,128,0,124541:0:0:0:0:
320,192,124541,128,0,124649:0:0:0:0:
448,192,124595,128,0,124704:0:0:0:0:
64,192,124649,128,0,124758:0:0:0:0:
192,192,124704,128,0,124812:0:0:0:0:
448,192,124758,128,0,124867:0:0:0:0:
320,192,124867,128,0,124975:0:0:0:0:
64,192,124975,128,0,125084:0:0:0:0:
448,192,125084,128,0,125193:0:0:0:0:
64,192,125193,128,0,126823:0:0:0:0:
192,192,125193,128,0,125301:0:0:0:0:
320,192,125301,128,0,125410:0:0:0:0:
448,192,125410,128,0,125519:0:0:0:0:
192,192,125519,128,0,125628:0:0:0:0:
320,192,125573,128,0,125682:0:0:0:0:
448,192,125628,128,0,125736:0:0:0:0:
192,192,125682,128,0,125791:0:0:0:0:
320,192,125736,128,0,125845:0:0:0:0:
448,192,125845,128,0,125954:0:0:0:0:
192,192,125954,128,0,126062:0:0:0:0:
448,192,126062,128,0,126171:0:0:0:0:
320,192,126171,128,0,126280:0:0:0:0:
192,192,126280,128,0,126388:0:0:0:0:
448,192,126388,128,0,126497:0:0:0:0:
320,192,126443,128,0,126551:0:0:0:0:
192,192,126497,128,0,126606:0:0:0:0:
448,192,126551,128,0,126660:0:0:0:0:
320,192,126606,128,0,126714:0:0:0:0:
192,192,126714,128,0,126823:0:0:0:0:
448,192,126823,128,0,126932:0:0:0:0:
320,192,126932,128,0,127041:0:0:0:0:
192,192,126932,128,0,126986:0:0:0:0:
64,192,126932,128,0,127041:0:0:0:0:
448,192,127041,128,0,127095:0:0:0:0:
192,192,127095,128,0,127149:0:0:0:0:
448,192,127149,128,0,127258:0:0:0:0:
64,192,127258,128,0,127367:0:0:0:0:
448,192,127367,128,0,127693:0:0:0:0:
320,192,127475,128,0,127693:0:0:0:0:
64,192,127584,128,0,127801:0:0:0:0:
192,192,127693,128,0,127801:0:0:0:0:
320,192,127801,128,0,127856:0:0:0:0:
448,192,127801,128,0,127856:0:0:0:0:
192,192,127856,128,0,127910:0:0:0:0:
64,192,127910,128,0,127964:0:0:0:0:
448,192,127910,128,0,127964:0:0:0:0:
320,192,127964,128,0,128019:0:0:0:0:
64,192,128019,128,0,128128:0:0:0:0:
192,192,128019,128,0,128073:0:0:0:0:
320,192,128128,128,0,128182:0:0:0:0:
448,192,128128,128,0,128236:0:0:0:0:
64,192,128236,128,0,128291:0:0:0:0:
192,192,128236,128,0,128345:0:0:0:0:
64,192,128345,128,0,128454:0:0:0:0:
320,192,128345,128,0,128399:0:0:0:0:
320,192,128454,128,0,128562:0:0:0:0:
448,192,128454,128,0,128508:0:0:0:0:
448,192,128562,128,0,128671:0:0:0:0:
192,192,128562,128,0,128617:0:0:0:0:
192,192,128671,128,0,128780:0:0:0:0:
320,192,128671,128,0,128725:0:0:0:0:
64,192,128671,128,0,128780:0:0:0:0:
