osu file format v14

[General]
AudioFilename: audio.mp3
AudioLeadIn: 0
PreviewTime: 76300
Countdown: 0
SampleSet: Normal
StackLeniency: 0.7
Mode: 1
LetterboxInBreaks: 0
WidescreenStoryboard: 0

[Editor]
Bookmarks: 2618,13168,23717,34267,44816,55365,76464,87014,97563,108113,123937
DistanceSpacing: 1.3
BeatDivisor: 4
GridSize: 32
TimelineZoom: 2.4

[Metadata]
Title:8bit Voyager
TitleUnicode:8bit Voyager
Artist:Lime
ArtistUnicode:Lime
Creator:komasy
Version:Muzukashii
Source:osu!
Tags:Featured Artist FA Instrumental Electronic Chiptune kawaiicore Kankitsu BOFXV19 BOFXV THE BMS OF FIGHTERS eXtreme Violence 15th LilAcubens Revival MUSYNC MUSYNX
BeatmapID:2748993
BeatmapSetID:1326923

[Difficulty]
HPDrainRate:6
CircleSize:7
OverallDifficulty:4.6
ApproachRate:10
SliderMultiplier:1.4
SliderTickRate:1

[Events]
//Background and Video events
0,0,"bg.png",0,-35
//Break Periods
2,2818,10575
//Storyboard Layer 0 (Background)
//Storyboard Layer 1 (Fail)
//Storyboard Layer 2 (Pass)
//Storyboard Layer 3 (Foreground)
//Storyboard Layer 4 (Overlay)
//Storyboard Sound Samples

[TimingPoints]
1300,329.67032967033,4,1,0,100,1,0
2699,-111.111111111111,4,1,0,70,0,0
10940,-100,4,1,0,90,0,0
13166,-100,4,1,0,100,0,0
23717,-99.8965072185216,4,1,0,100,0,1
32783,-99.8965072185216,4,1,0,100,0,0
34267,-99.8965072185216,4,1,0,100,0,1
44816,-99.8965072185216,4,1,0,100,0,0
54127,-100,4,1,0,80,0,0
55363,-100,4,1,0,100,0,0
55695,-90.9090909090909,4,1,0,100,0,1
57343,-90.9090909090909,4,1,0,100,0,0
57589,-100,4,1,0,100,0,0
58168,-90.9090909090909,4,1,0,100,0,1
60146,-90.9090909090909,4,1,0,100,0,0
60228,-100,4,1,0,100,0,0
60970,-90.9090909090909,4,1,0,100,0,1
62618,-90.9090909090909,4,1,0,100,0,0
62701,-100,4,1,0,100,0,0
63442,-90.9090909090909,4,1,0,100,0,1
65420,-90.9090909090909,4,1,0,100,0,0
65503,-100,4,1,0,100,0,0
66245,-99.8349727899782,4,1,0,100,0,1
74981,-100,4,1,0,100,0,0
76464,-90.9090909090909,4,1,0,100,0,1
84376,-90.9090909090909,4,1,0,100,0,0
87014,-90.9090909090909,4,1,0,100,0,1
94926,-90.9090909090909,4,1,0,100,0,0
95008,-100,4,1,0,60,0,0
97563,-111.111111111111,4,1,0,50,0,0
106629,-100,4,1,0,100,0,0
108113,-100,4,1,0,100,0,1
118662,-100,4,1,0,100,0,0
118745,-111.111111111111,4,1,0,100,0,0
120805,-100,4,1,0,100,0,0
121300,-90.9090909090909,4,1,0,100,0,1
123937,-99.8965072185216,4,1,0,100,0,0
133003,-90.9090909090909,4,1,0,100,0,1
134486,-90.9090909090909,4,1,0,100,0,0

[HitObjects]
352,96,1300,5,8,0:0:0:0:
352,96,1629,1,8,0:0:0:0:
352,96,1959,1,8,0:0:0:0:
160,96,2124,1,0,0:0:0:0:
160,96,2206,1,0,0:0:0:0:
352,96,2289,1,8,0:0:0:0:
160,288,2618,1,4,0:0:0:0:
160,96,11025,5,0,0:0:0:0:
352,96,11190,1,8,0:0:0:0:
352,96,11272,1,8,0:0:0:0:
352,96,11354,1,8,0:0:0:0:
352,96,11519,1,8,0:0:0:0:
160,288,11684,1,4,0:0:0:0:
160,288,12343,1,4,0:0:0:0:
352,96,12673,1,8,0:0:0:0:
160,96,12838,1,0,0:0:0:0:
352,96,13003,1,8,0:0:0:0:
160,288,13168,1,4,0:0:0:0:
160,96,13497,1,0,0:0:0:0:
160,96,13827,1,0,0:0:0:0:
160,96,14074,1,0,0:0:0:0:
352,96,14321,1,8,0:0:0:0:
160,96,14486,1,0,0:0:0:0:
160,96,14816,1,0,0:0:0:0:
160,96,15146,1,0,0:0:0:0:
160,96,15393,1,0,0:0:0:0:
160,96,15475,1,0,0:0:0:0:
352,96,15640,1,8,0:0:0:0:
160,96,15805,1,0,0:0:0:0:
352,96,16135,1,8,0:0:0:0:
352,96,16464,1,8,0:0:0:0:
352,96,16712,1,8,0:0:0:0:
160,96,16959,1,0,0:0:0:0:
352,96,17124,1,8,0:0:0:0:
352,96,17453,1,8,0:0:0:0:
352,96,17783,1,8,0:0:0:0:
352,96,18030,1,8,0:0:0:0:
352,96,18113,1,8,0:0:0:0:
160,96,18278,5,0,0:0:0:0:
352,288,18442,1,12,0:0:0:0:
160,96,18937,1,0,0:0:0:0:
352,96,19102,1,8,0:0:0:0:
160,96,19267,1,0,0:0:0:0:
160,96,19431,1,0,0:0:0:0:
352,96,19761,1,8,0:0:0:0:
160,96,20091,1,0,0:0:0:0:
160,96,20256,1,0,0:0:0:0:
352,96,20420,1,8,0:0:0:0:
352,96,20585,1,8,0:0:0:0:
160,96,20750,1,0,0:0:0:0:
352,96,21080,1,8,0:0:0:0:
352,96,21162,1,8,0:0:0:0:
352,96,21245,1,8,0:0:0:0:
160,96,21409,1,0,0:0:0:0:
352,96,21739,1,8,0:0:0:0:
352,96,21821,1,8,0:0:0:0:
352,96,21904,1,8,0:0:0:0:
160,96,22069,1,0,0:0:0:0:
160,96,22234,1,0,0:0:0:0:
352,288,22398,5,12,0:0:0:0:
352,96,22728,1,8,0:0:0:0:
352,96,23058,1,8,0:0:0:0:
160,96,23223,1,0,0:0:0:0:
160,96,23305,1,0,0:0:0:0:
352,96,23387,1,8,0:0:0:0:
160,288,23717,1,4,0:0:0:0:
160,96,24212,1,0,0:0:0:0:
160,96,24294,1,0,0:0:0:0:
160,96,24376,1,0,0:0:0:0:
352,96,24541,1,8,0:0:0:0:
160,96,24706,1,0,0:0:0:0:
352,96,24871,1,8,0:0:0:0:
160,96,25201,1,0,0:0:0:0:
352,96,25530,1,8,0:0:0:0:
352,96,25613,1,8,0:0:0:0:
352,96,25695,1,8,0:0:0:0:
160,96,25860,1,0,0:0:0:0:
352,96,26025,1,8,0:0:0:0:
352,96,26190,1,8,0:0:0:0:
160,96,26354,1,0,0:0:0:0:
160,96,26849,1,0,0:0:0:0:
160,96,26931,1,0,0:0:0:0:
160,96,27014,1,0,0:0:0:0:
352,96,27179,1,8,0:0:0:0:
160,96,27343,1,0,0:0:0:0:
352,96,27508,1,8,0:0:0:0:
352,96,27838,1,8,0:0:0:0:
160,96,28168,1,0,0:0:0:0:
160,96,28250,1,0,0:0:0:0:
160,96,28332,1,0,0:0:0:0:
352,96,28497,1,8,0:0:0:0:
352,96,28580,1,8,0:0:0:0:
352,96,28662,1,8,0:0:0:0:
160,96,28827,1,0,0:0:0:0:
160,96,28992,1,0,0:0:0:0:
352,288,29321,1,12,0:0:0:0:
160,96,29651,1,0,0:0:0:0:
160,96,29734,1,0,0:0:0:0:
160,96,29816,1,0,0:0:0:0:
160,96,29981,1,0,0:0:0:0:
352,96,30146,1,8,0:0:0:0:
160,96,30475,1,0,0:0:0:0:
352,96,30805,1,8,0:0:0:0:
160,96,30970,1,0,0:0:0:0:
352,96,31135,1,8,0:0:0:0:
352,96,31217,1,8,0:0:0:0:
352,96,31300,1,8,0:0:0:0:
160,96,31464,1,0,0:0:0:0:
352,96,31629,1,8,0:0:0:0:
160,96,31959,1,0,0:0:0:0:
352,96,32124,1,8,0:0:0:0:
160,96,32289,1,0,0:0:0:0:
160,96,32371,1,0,0:0:0:0:
160,96,32453,1,0,0:0:0:0:
352,96,32618,1,8,0:0:0:0:
160,288,32783,1,4,0:0:0:0:
352,96,33113,1,8,0:0:0:0:
160,288,33442,1,4,0:0:0:0:
160,96,33772,1,0,0:0:0:0:
352,96,34102,1,8,0:0:0:0:
160,288,34267,1,4,0:0:0:0:
160,96,34761,1,0,0:0:0:0:
160,96,34843,1,0,0:0:0:0:
160,96,34926,1,0,0:0:0:0:
352,96,35091,1,8,0:0:0:0:
160,96,35256,1,0,0:0:0:0:
352,96,35420,1,8,0:0:0:0:
160,96,35750,1,0,0:0:0:0:
352,96,36080,1,8,0:0:0:0:
352,96,36162,1,8,0:0:0:0:
352,96,36245,1,8,0:0:0:0:
160,96,36409,1,0,0:0:0:0:
352,96,36574,1,8,0:0:0:0:
352,96,36739,1,8,0:0:0:0:
160,96,36904,1,0,0:0:0:0:
160,96,37398,1,0,0:0:0:0:
160,96,37481,1,0,0:0:0:0:
160,96,37563,1,0,0:0:0:0:
160,96,37728,1,0,0:0:0:0:
352,96,37893,1,8,0:0:0:0:
352,96,38058,1,8,0:0:0:0:
160,288,38223,1,4,0:0:0:0:
352,96,38387,1,8,0:0:0:0:
352,96,38717,1,8,0:0:0:0:
160,288,38882,1,4,0:0:0:0:
352,96,39047,1,8,0:0:0:0:
352,96,39129,1,8,0:0:0:0:
352,96,39212,1,8,0:0:0:0:
160,96,39376,1,0,0:0:0:0:
160,96,39459,1,0,0:0:0:0:
160,96,39541,1,0,0:0:0:0:
352,288,39871,1,12,0:0:0:0:
160,96,40201,1,0,0:0:0:0:
160,96,40283,1,0,0:0:0:0:
160,96,40365,1,0,0:0:0:0:
160,96,40530,1,0,0:0:0:0:
352,96,40695,1,8,0:0:0:0:
160,96,41025,1,0,0:0:0:0:
352,96,41354,1,8,0:0:0:0:
160,96,41519,1,0,0:0:0:0:
352,96,41684,1,8,0:0:0:0:
352,96,41849,1,8,0:0:0:0:
160,96,42014,1,0,0:0:0:0:
352,288,42179,1,12,0:0:0:0:
160,96,42508,1,0,0:0:0:0:
352,96,42673,1,8,0:0:0:0:
160,96,42838,1,0,0:0:0:0:
160,96,42920,1,0,0:0:0:0:
160,96,43003,1,0,0:0:0:0:
352,96,43168,1,8,0:0:0:0:
160,288,43332,1,4,0:0:0:0:
352,96,43662,1,8,0:0:0:0:
352,96,43992,1,8,0:0:0:0:
160,288,44157,1,4,0:0:0:0:
160,96,44321,1,0,0:0:0:0:
160,96,44404,1,0,0:0:0:0:
352,96,44486,1,8,0:0:0:0:
160,288,44816,1,4,0:0:0:0:
352,96,45146,1,8,0:0:0:0:
352,96,45805,1,8,0:0:0:0:
352,96,46464,1,8,0:0:0:0:
352,96,47124,1,8,0:0:0:0:
160,96,47289,1,0,0:0:0:0:
160,288,47453,1,4,0:0:0:0:
352,96,47783,1,8,0:0:0:0:
352,96,48442,1,8,0:0:0:0:
352,96,49102,1,8,0:0:0:0:
352,96,49596,1,8,0:0:0:0:
352,96,49761,1,8,0:0:0:0:
160,288,50091,5,4,0:0:0:0:
160,96,50420,1,0,0:0:0:0:
160,96,50585,1,0,0:0:0:0:
352,96,50750,1,8,0:0:0:0:
160,96,50915,1,0,0:0:0:0:
160,96,51080,1,0,0:0:0:0:
160,288,51409,1,12,0:0:0:0:
160,96,51739,1,0,0:0:0:0:
160,96,51904,1,0,0:0:0:0:
352,96,52069,1,8,0:0:0:0:
352,96,52234,1,8,0:0:0:0:
160,96,52398,1,0,0:0:0:0:
160,96,52728,1,0,0:0:0:0:
160,96,52810,1,0,0:0:0:0:
160,96,52893,1,0,0:0:0:0:
352,96,53058,1,8,0:0:0:0:
160,96,53387,1,0,0:0:0:0:
160,96,53470,1,0,0:0:0:0:
160,96,53552,1,0,0:0:0:0:
352,96,53717,1,8,0:0:0:0:
352,96,53882,1,8,0:0:0:0:
160,288,54047,1,4,0:0:0:0:
352,96,54376,1,8,0:0:0:0:
160,96,54541,1,0,0:0:0:0:
352,288,55036,1,12,0:0:0:0:
160,96,55365,5,0,0:0:0:0:
160,96,55448,1,0,0:0:0:0:
160,96,55530,1,0,0:0:0:0:
352,288,55695,1,12,0:0:0:0:
160,288,55942,1,4,0:0:0:0:
160,288,56190,1,4,0:0:0:0:
352,288,56437,1,12,0:0:0:0:
160,288,56684,1,4,0:0:0:0:
352,288,56931,1,12,0:0:0:0:
352,288,57179,1,12,0:0:0:0:
352,96,57343,1,8,0:0:0:0:
160,96,57838,1,0,0:0:0:0:
160,96,57920,1,0,0:0:0:0:
160,96,58003,1,0,0:0:0:0:
352,288,58168,1,12,0:0:0:0:
160,288,58415,1,4,0:0:0:0:
352,288,58662,1,12,0:0:0:0:
352,288,58909,1,12,0:0:0:0:
160,288,59157,1,4,0:0:0:0:
160,288,59404,1,4,0:0:0:0:
352,288,59651,1,12,0:0:0:0:
160,288,59898,1,4,0:0:0:0:
160,96,60146,1,0,0:0:0:0:
160,96,60640,1,0,0:0:0:0:
160,96,60723,1,0,0:0:0:0:
160,96,60805,1,0,0:0:0:0:
352,288,60970,1,12,0:0:0:0:
160,288,61217,1,4,0:0:0:0:
160,288,61464,1,4,0:0:0:0:
352,288,61712,1,12,0:0:0:0:
160,288,61959,1,4,0:0:0:0:
352,288,62206,1,12,0:0:0:0:
352,288,62453,1,12,0:0:0:0:
352,96,62618,1,8,0:0:0:0:
160,96,63113,1,0,0:0:0:0:
160,96,63195,1,0,0:0:0:0:
160,96,63278,1,0,0:0:0:0:
352,288,63442,1,12,0:0:0:0:
160,288,63690,1,4,0:0:0:0:
352,288,63937,1,12,0:0:0:0:
352,288,64184,1,12,0:0:0:0:
160,288,64431,1,4,0:0:0:0:
160,288,64679,1,4,0:0:0:0:
352,288,64926,1,12,0:0:0:0:
160,288,65173,1,4,0:0:0:0:
352,96,65420,5,8,0:0:0:0:
160,96,65915,1,0,0:0:0:0:
160,96,65997,1,0,0:0:0:0:
160,96,66080,1,0,0:0:0:0:
352,288,66245,1,12,0:0:0:0:
160,96,66492,1,0,0:0:0:0:
160,96,66574,1,0,0:0:0:0:
352,96,66739,1,8,0:0:0:0:
352,96,66986,1,8,0:0:0:0:
160,96,67234,1,0,0:0:0:0:
352,96,67481,1,8,0:0:0:0:
160,96,67563,1,0,0:0:0:0:
352,96,67728,1,8,0:0:0:0:
160,96,68223,1,0,0:0:0:0:
352,96,68387,1,8,0:0:0:0:
160,96,68552,1,0,0:0:0:0:
352,96,68717,1,8,0:0:0:0:
160,96,68964,1,0,0:0:0:0:
352,96,69212,1,8,0:0:0:0:
352,96,69459,1,8,0:0:0:0:
352,96,69541,1,8,0:0:0:0:
160,96,69706,1,0,0:0:0:0:
160,96,69953,1,0,0:0:0:0:
352,96,70201,1,8,0:0:0:0:
160,96,70448,1,0,0:0:0:0:
352,96,70860,1,8,0:0:0:0:
160,96,71190,1,0,0:0:0:0:
160,96,71272,1,0,0:0:0:0:
160,96,71354,1,0,0:0:0:0:
352,288,71519,1,12,0:0:0:0:
160,96,71767,1,0,0:0:0:0:
160,96,71849,1,0,0:0:0:0:
352,96,72014,1,8,0:0:0:0:
352,96,72261,1,8,0:0:0:0:
160,96,72508,1,0,0:0:0:0:
352,96,72756,1,8,0:0:0:0:
160,96,72838,1,0,0:0:0:0:
352,96,73003,1,8,0:0:0:0:
352,96,73497,5,8,0:0:0:0:
160,96,73662,1,0,0:0:0:0:
160,96,73745,1,0,0:0:0:0:
160,96,73827,1,0,0:0:0:0:
352,288,73992,1,12,0:0:0:0:
160,288,74239,1,4,0:0:0:0:
352,288,74486,1,12,0:0:0:0:
352,288,74734,1,12,0:0:0:0:
160,288,74981,1,4,0:0:0:0:
160,96,75228,1,0,0:0:0:0:
352,96,75475,1,8,0:0:0:0:
160,96,75723,1,0,0:0:0:0:
352,288,76464,1,12,0:0:0:0:
160,96,76629,1,0,0:0:0:0:
160,96,76712,1,0,0:0:0:0:
160,96,76794,1,0,0:0:0:0:
352,96,76959,1,8,0:0:0:0:
160,96,77124,1,0,0:0:0:0:
352,96,77453,1,8,0:0:0:0:
160,96,77618,1,0,0:0:0:0:
352,96,77783,1,8,0:0:0:0:
352,96,77865,1,8,0:0:0:0:
352,96,77948,1,8,0:0:0:0:
160,96,78113,1,0,0:0:0:0:
160,96,78442,1,0,0:0:0:0:
352,96,78607,1,8,0:0:0:0:
160,96,78772,1,0,0:0:0:0:
160,96,78854,1,0,0:0:0:0:
352,96,78937,1,8,0:0:0:0:
352,96,79267,1,8,0:0:0:0:
160,96,79596,1,0,0:0:0:0:
352,96,79926,1,8,0:0:0:0:
160,96,80091,1,0,0:0:0:0:
160,96,80173,1,0,0:0:0:0:
352,96,80256,1,8,0:0:0:0:
352,96,80585,1,8,0:0:0:0:
352,96,80915,1,8,0:0:0:0:
352,96,80997,1,8,0:0:0:0:
160,96,81080,1,0,0:0:0:0:
160,96,81409,1,0,0:0:0:0:
160,96,81574,1,0,0:0:0:0:
352,96,81739,1,8,0:0:0:0:
160,96,81904,1,0,0:0:0:0:
160,96,81986,1,0,0:0:0:0:
160,96,82069,1,0,0:0:0:0:
352,96,82234,1,8,0:0:0:0:
160,96,82398,1,0,0:0:0:0:
352,96,82728,1,8,0:0:0:0:
352,96,82810,1,8,0:0:0:0:
352,96,82893,1,8,0:0:0:0:
352,96,82975,1,8,0:0:0:0:
160,96,83387,1,0,0:0:0:0:
352,96,83552,1,8,0:0:0:0:
160,96,83717,1,0,0:0:0:0:
160,96,83800,1,0,0:0:0:0:
160,96,83882,1,0,0:0:0:0:
352,96,84047,1,8,0:0:0:0:
352,288,84376,1,12,0:0:0:0:
160,96,84706,1,0,0:0:0:0:
160,96,84789,1,0,0:0:0:0:
160,96,84871,1,0,0:0:0:0:
352,288,85036,1,12,0:0:0:0:
160,96,85365,1,0,0:0:0:0:
160,96,85448,1,0,0:0:0:0:
160,96,85530,1,0,0:0:0:0:
352,288,85695,1,12,0:0:0:0:
352,96,86025,1,8,0:0:0:0:
352,288,86354,1,12,0:0:0:0:
160,96,86519,1,0,0:0:0:0:
160,96,86602,1,0,0:0:0:0:
352,96,86684,1,8,0:0:0:0:
352,288,87014,1,12,0:0:0:0:
160,96,87179,1,0,0:0:0:0:
160,96,87261,1,0,0:0:0:0:
160,96,87343,1,0,0:0:0:0:
352,96,87508,1,8,0:0:0:0:
160,96,87673,1,0,0:0:0:0:
352,96,88003,1,8,0:0:0:0:
160,96,88168,1,0,0:0:0:0:
352,96,88332,1,8,0:0:0:0:
352,96,88415,1,8,0:0:0:0:
352,96,88497,1,8,0:0:0:0:
160,96,88662,1,0,0:0:0:0:
160,96,88992,1,0,0:0:0:0:
160,96,89074,1,0,0:0:0:0:
160,96,89157,1,0,0:0:0:0:
160,96,89321,1,0,0:0:0:0:
352,288,89486,1,12,0:0:0:0:
352,288,89816,1,12,0:0:0:0:
160,96,90146,1,0,0:0:0:0:
352,96,90475,1,8,0:0:0:0:
160,96,90640,1,0,0:0:0:0:
352,288,90805,1,12,0:0:0:0:
352,288,91135,1,12,0:0:0:0:
352,96,91464,1,8,0:0:0:0:
352,96,91629,1,8,0:0:0:0:
160,96,91794,1,0,0:0:0:0:
352,288,92289,1,12,0:0:0:0:
160,96,92453,1,0,0:0:0:0:
160,96,92536,1,0,0:0:0:0:
160,96,92618,1,0,0:0:0:0:
160,96,92783,1,0,0:0:0:0:
352,96,92948,1,8,0:0:0:0:
352,96,93113,1,8,0:0:0:0:
352,96,93195,1,8,0:0:0:0:
352,96,93278,1,8,0:0:0:0:
352,96,93442,1,8,0:0:0:0:
256,192,93607,12,0,94596,0:0:0:0:
160,288,94926,5,4,0:0:0:0:
352,96,95256,5,8,0:0:0:0:
352,96,95420,1,8,0:0:0:0:
352,96,95585,1,8,0:0:0:0:
352,96,95750,1,8,0:0:0:0:
352,96,95915,1,8,0:0:0:0:
352,96,96080,1,8,0:0:0:0:
352,96,96245,1,8,0:0:0:0:
160,96,96574,1,0,0:0:0:0:
352,96,96739,1,8,0:0:0:0:
160,288,97563,1,4,0:0:0:0:
352,96,97893,1,8,0:0:0:0:
352,96,98552,1,8,0:0:0:0:
352,96,99212,1,8,0:0:0:0:
352,96,99871,1,8,0:0:0:0:
352,96,100530,1,8,0:0:0:0:
352,96,101190,1,8,0:0:0:0:
352,96,101849,1,8,0:0:0:0:
352,96,102508,1,8,0:0:0:0:
160,96,103003,1,0,0:0:0:0:
352,96,103168,1,8,0:0:0:0:
352,96,103827,1,8,0:0:0:0:
352,96,104486,1,8,0:0:0:0:
352,96,105146,1,8,0:0:0:0:
352,96,105805,5,8,0:0:0:0:
160,96,105970,1,0,0:0:0:0:
352,96,106135,1,8,0:0:0:0:
352,96,106217,1,8,0:0:0:0:
352,96,106300,1,8,0:0:0:0:
352,96,106464,1,8,0:0:0:0:
160,288,106629,1,4,0:0:0:0:
352,96,106959,1,8,0:0:0:0:
160,288,107289,1,4,0:0:0:0:
160,96,107618,1,0,0:0:0:0:
160,96,107701,1,0,0:0:0:0:
352,96,107783,1,8,0:0:0:0:
160,288,108113,1,4,0:0:0:0:
160,96,108607,1,0,0:0:0:0:
160,96,108690,1,0,0:0:0:0:
160,96,108772,1,0,0:0:0:0:
352,96,108937,1,8,0:0:0:0:
160,96,109102,1,0,0:0:0:0:
352,96,109267,1,8,0:0:0:0:
160,96,109596,1,0,0:0:0:0:
352,96,109926,1,8,0:0:0:0:
352,96,110008,1,8,0:0:0:0:
352,96,110091,1,8,0:0:0:0:
160,96,110256,1,0,0:0:0:0:
352,96,110420,1,8,0:0:0:0:
352,96,110585,1,8,0:0:0:0:
160,96,110750,1,0,0:0:0:0:
160,96,111245,1,0,0:0:0:0:
160,96,111327,1,0,0:0:0:0:
160,96,111409,1,0,0:0:0:0:
160,96,111574,1,0,0:0:0:0:
352,96,111739,1,8,0:0:0:0:
352,96,111904,1,8,0:0:0:0:
160,288,112069,1,4,0:0:0:0:
352,96,112234,1,8,0:0:0:0:
352,96,112563,1,8,0:0:0:0:
160,288,112728,1,4,0:0:0:0:
352,96,112893,1,8,0:0:0:0:
352,96,112975,1,8,0:0:0:0:
352,96,113058,1,8,0:0:0:0:
160,96,113223,1,0,0:0:0:0:
160,96,113305,1,0,0:0:0:0:
160,96,113387,1,0,0:0:0:0:
352,288,113717,1,12,0:0:0:0:
160,96,114047,1,0,0:0:0:0:
160,96,114129,1,0,0:0:0:0:
160,96,114212,1,0,0:0:0:0:
160,96,114376,1,0,0:0:0:0:
352,96,114541,1,8,0:0:0:0:
160,96,114871,1,0,0:0:0:0:
352,96,115201,1,8,0:0:0:0:
160,96,115365,1,0,0:0:0:0:
352,96,115530,1,8,0:0:0:0:
352,96,115695,1,8,0:0:0:0:
160,96,115860,1,0,0:0:0:0:
352,288,116025,1,12,0:0:0:0:
160,96,116354,1,0,0:0:0:0:
352,96,116519,1,8,0:0:0:0:
160,96,116684,1,0,0:0:0:0:
160,96,116767,1,0,0:0:0:0:
160,96,116849,1,0,0:0:0:0:
352,96,117014,1,8,0:0:0:0:
160,288,117179,1,4,0:0:0:0:
352,96,117508,1,8,0:0:0:0:
352,96,117838,1,8,0:0:0:0:
160,96,118003,1,0,0:0:0:0:
160,96,118168,1,0,0:0:0:0:
160,96,118250,5,0,0:0:0:0:
352,96,118332,1,8,0:0:0:0:
160,288,118662,5,4,0:0:0:0:
160,96,120805,5,0,0:0:0:0:
160,96,120887,1,0,0:0:0:0:
352,96,120970,1,8,0:0:0:0:
160,96,121135,1,0,0:0:0:0:
352,288,121300,1,12,0:0:0:0:
160,96,121629,1,0,0:0:0:0:
352,96,121794,1,8,0:0:0:0:
160,96,121959,1,0,0:0:0:0:
160,96,122041,1,0,0:0:0:0:
160,96,122124,1,0,0:0:0:0:
352,96,122289,1,8,0:0:0:0:
160,288,122453,1,4,0:0:0:0:
352,96,122783,1,8,0:0:0:0:
160,96,122948,1,0,0:0:0:0:
352,96,123113,1,8,0:0:0:0:
160,96,123278,1,0,0:0:0:0:
160,96,123442,1,0,0:0:0:0:
160,96,123525,1,0,0:0:0:0:
352,96,123607,1,8,0:0:0:0:
160,288,123937,1,4,0:0:0:0:
160,96,124267,1,0,0:0:0:0:
160,96,124596,1,0,0:0:0:0:
160,96,124843,1,0,0:0:0:0:
352,96,125091,1,8,0:0:0:0:
160,96,125256,1,0,0:0:0:0:
160,96,125585,1,0,0:0:0:0:
160,96,125915,1,0,0:0:0:0:
160,96,126162,1,0,0:0:0:0:
160,96,126245,1,0,0:0:0:0:
352,96,126409,1,8,0:0:0:0:
160,288,126574,1,4,0:0:0:0:
352,96,126904,1,8,0:0:0:0:
352,96,127234,1,8,0:0:0:0:
352,96,127481,1,8,0:0:0:0:
160,96,127728,1,0,0:0:0:0:
352,96,127893,1,8,0:0:0:0:
352,96,128223,1,8,0:0:0:0:
352,96,128552,1,8,0:0:0:0:
352,96,128800,1,8,0:0:0:0:
352,96,128882,1,8,0:0:0:0:
160,96,129047,5,0,0:0:0:0:
352,288,129212,1,12,0:0:0:0:
160,96,129706,1,0,0:0:0:0:
352,96,129871,1,8,0:0:0:0:
160,96,130036,1,0,0:0:0:0:
160,96,130201,1,0,0:0:0:0:
352,288,130530,1,12,0:0:0:0:
160,96,130860,1,0,0:0:0:0:
160,96,131025,1,0,0:0:0:0:
352,96,131190,1,8,0:0:0:0:
352,96,131354,1,8,0:0:0:0:
160,96,131519,1,0,0:0:0:0:
352,96,131849,1,8,0:0:0:0:
352,96,131931,1,8,0:0:0:0:
352,96,132014,1,8,0:0:0:0:
160,96,132179,1,0,0:0:0:0:
352,96,132508,1,8,0:0:0:0:
352,96,132591,1,8,0:0:0:0:
352,96,132673,1,8,0:0:0:0:
160,96,132838,1,0,0:0:0:0:
160,288,133003,1,4,0:0:0:0:
352,96,133497,1,8,0:0:0:0:
160,288,133662,1,4,0:0:0:0:
352,96,134157,1,8,0:0:0:0:
352,96,134321,1,8,0:0:0:0:
160,288,134486,1,4,0:0:0:0:
