osu file format v14

[General]
AudioFilename: audio.mp3
AudioLeadIn: 0
PreviewTime: 23385
Countdown: 0
SampleSet: Soft
StackLeniency: 0.7
Mode: 3
LetterboxInBreaks: 0
SpecialStyle: 0
WidescreenStoryboard: 0

[Editor]
Bookmarks: 13166
DistanceSpacing: 1.3
BeatDivisor: 4
GridSize: 32
TimelineZoom: 1.4

[Metadata]
Title:8bit Voyager
TitleUnicode:8bit Voyager
Artist:Lime
ArtistUnicode:Lime
Creator:Syadow-
Version:_VK's Normal
Source:BOFXV
Tags:MUSYNX musync kankitsu video game instrumental electronic chiptune kawaiicore featured artist fa the bms of fighters extreme violence 2019 BOFXV19 GroundbreakinG GdbG Sweet & Sour LilAcubens Revival _VianK_ MJHs Kyousuke- Kanon Matsubara 8-bit
BeatmapID:2908313
BeatmapSetID:1408692

[Difficulty]
HPDrainRate:7
CircleSize:5
OverallDifficulty:7.5
ApproachRate:5
SliderMultiplier:1.4
SliderTickRate:1

[Events]
//Background and Video events
0,0,"voya.jpg",0,0
//Break Periods
//Storyboard Layer 0 (Background)
//Storyboard Layer 1 (Fail)
//Storyboard Layer 2 (Pass)
//Storyboard Layer 3 (Foreground)
//Storyboard Layer 4 (Overlay)
//Storyboard Sound Samples
Sample,18769,0,"Snaph.wav",85
Sample,19429,0,"Snaph.wav",85
Sample,20088,0,"Snaph.wav",85
Sample,20747,0,"Snaph.wav",85
Sample,55940,0,"CrashShort.wav",55
Sample,56434,0,"CrashShort.wav",55
Sample,56929,0,"CrashShort.wav",55
Sample,58412,0,"CrashShort.wav",55
Sample,58907,0,"CrashShort.wav",55
Sample,59401,0,"CrashShort.wav",55
Sample,59896,0,"CrashShort.wav",55
Sample,61214,0,"CrashShort.wav",55
Sample,61709,0,"CrashShort.wav",55
Sample,62203,0,"CrashShort.wav",55
Sample,63687,0,"CrashShort.wav",55
Sample,64181,0,"CrashShort.wav",55
Sample,64676,0,"CrashShort.wav",55
Sample,66077,0,"SnareClap.wav",60
Sample,87176,0,"SnareClap.wav",60
Sample,87506,0,"SnareClap.wav",60
Sample,87835,0,"SnareClap.wav",60
Sample,88165,0,"SnareClap.wav",60
Sample,88495,0,"SnareClap.wav",60
Sample,88824,0,"SnareClap.wav",60
Sample,129539,0,"Snaph.wav",65
Sample,130198,0,"Snaph.wav",65
Sample,130857,0,"Snaph.wav",65
Sample,131517,0,"Snaph.wav",65

[TimingPoints]
2616,329.67032967033,4,2,1,55,1,0
13165,-100,4,2,1,60,0,0
23714,-100,4,2,1,70,0,1
44813,-100,4,2,1,60,0,0
76462,-100,4,2,1,65,0,0
93605,-100,4,2,1,38,0,0
94924,-100,4,2,1,50,0,0
97561,-100,4,2,1,55,0,0
108110,-100,4,2,1,75,0,1
118659,-100,4,2,1,65,0,0
121297,-100,4,2,1,75,0,1
123934,-100,4,2,1,65,0,0

[HitObjects]
153,192,1297,5,0,0:0:0:65:SnareClap.wav
358,192,1297,1,0,0:0:0:0:
153,192,1626,1,0,0:0:0:65:SnareClap.wav
358,192,1626,1,0,0:0:0:0:
153,192,1956,1,0,0:0:0:65:SnareClap.wav
358,192,1956,1,0,0:0:0:0:
51,192,2121,1,2,0:0:0:0:
256,192,2286,1,0,0:0:0:45:Snare.wav
460,192,2286,128,0,2616:0:0:0:0:
51,192,2616,1,0,0:0:0:70:Boom.wav
153,192,2616,1,0,0:0:0:0:
256,192,2780,1,0,0:0:0:0:
460,192,2945,1,0,0:0:0:0:
51,192,3275,1,0,0:0:0:0:
153,192,3440,1,0,0:0:0:0:
358,192,3605,1,0,0:0:0:0:
460,192,3769,128,0,4099:0:0:0:0:
256,192,4099,1,0,0:0:0:0:
51,192,4429,128,0,4758:0:0:0:0:
460,192,4758,1,0,0:0:0:0:
358,192,4923,1,0,0:0:0:0:
256,192,5088,1,0,0:0:0:0:
153,192,5253,1,0,0:0:0:0:
358,192,5418,1,0,0:0:0:0:
460,192,5583,1,0,0:0:0:0:
51,192,5912,1,0,0:0:0:0:
153,192,6077,1,0,0:0:0:0:
358,192,6242,1,0,0:0:0:0:
460,192,6407,128,0,6736:0:0:0:0:
256,192,6736,1,0,0:0:0:0:
153,192,6901,1,0,0:0:0:0:
51,192,7066,128,0,7396:0:0:0:0:
256,192,7396,1,0,0:0:0:0:
358,192,7561,1,0,0:0:0:0:
460,192,7725,1,0,0:0:0:0:
153,192,7890,1,0,0:0:0:0:
358,192,8055,1,0,0:0:0:0:
460,192,8220,1,0,0:0:0:0:
51,192,8550,1,0,0:0:0:0:
153,192,8714,1,0,0:0:0:0:
358,192,8879,1,0,0:0:0:0:
460,192,9044,128,0,9374:0:0:0:0:
256,192,9374,1,0,0:0:0:0:
51,192,9703,128,0,10033:0:0:0:0:
460,192,10033,1,0,0:0:0:0:
358,192,10198,1,0,0:0:0:0:
256,192,10363,1,0,0:0:0:0:
153,192,10528,1,0,0:0:0:0:
358,192,10692,1,0,0:0:0:0:
460,192,10857,128,0,11187:0:0:0:0:
51,192,11022,1,0,0:0:0:0:
153,192,11187,1,0,0:0:0:0:
256,192,11352,1,0,0:0:0:0:
358,192,11517,1,0,0:0:0:0:
51,192,11681,128,2,12011:0:0:0:0:
460,192,11681,128,4,12011:0:0:0:0:
153,192,12341,128,2,12670:0:0:0:0:
358,192,12341,128,4,12670:0:0:0:0:
256,192,12670,1,0,0:0:0:0:
51,192,12835,1,0,0:0:0:0:
460,192,13000,1,0,0:0:0:0:
153,192,13165,1,2,0:0:0:0:
256,192,13165,1,4,0:0:0:0:
51,192,13495,1,2,0:0:0:0:
358,192,13495,1,0,0:0:0:85:Snaph.wav
153,192,13824,1,2,0:0:0:0:
460,192,13824,1,0,0:0:0:0:
256,192,14072,1,2,0:0:0:0:
358,192,14072,1,0,0:0:0:0:
51,192,14319,1,2,0:0:0:0:
153,192,14319,1,0,0:0:0:0:
358,192,14484,1,2,0:0:0:0:
460,192,14484,1,0,0:0:0:0:
51,192,14813,1,2,0:0:0:0:
358,192,14813,1,0,0:0:0:85:Snaph.wav
153,192,15143,1,2,0:0:0:0:
256,192,15143,1,0,0:0:0:0:
51,192,15390,1,2,0:0:0:0:
460,192,15390,1,0,0:0:0:0:
256,192,15637,1,2,0:0:0:0:
358,192,15637,1,0,0:0:0:0:
51,192,15802,1,2,0:0:0:0:
153,192,15802,1,0,0:0:0:0:
358,192,16132,1,2,0:0:0:0:
460,192,16132,1,0,0:0:0:85:Snaph.wav
51,192,16462,1,2,0:0:0:0:
256,192,16462,1,0,0:0:0:0:
153,192,16709,1,2,0:0:0:0:
358,192,16709,1,0,0:0:0:0:
256,192,16956,1,2,0:0:0:0:
460,192,16956,1,0,0:0:0:0:
51,192,17121,1,2,0:0:0:0:
153,192,17121,1,0,0:0:0:0:
256,192,17451,1,2,0:0:0:0:
460,192,17451,1,0,0:0:0:85:Snaph.wav
51,192,17780,1,2,0:0:0:0:
358,192,17780,1,0,0:0:0:0:
153,192,18028,1,2,0:0:0:0:
460,192,18028,1,0,0:0:0:0:
256,192,18275,1,2,0:0:0:0:
358,192,18275,1,0,0:0:0:0:
51,192,18440,1,2,0:0:0:0:
460,192,18440,1,4,0:0:0:0:
153,192,18605,1,2,0:0:0:0:
256,192,18769,1,2,0:0:0:0:
358,192,18934,1,2,0:0:0:0:
460,192,19099,1,2,0:0:0:0:
358,192,19264,1,2,0:0:0:0:
256,192,19429,1,2,0:0:0:0:
153,192,19594,1,2,0:0:0:0:
51,192,19758,1,2,0:0:0:0:
256,192,19923,1,2,0:0:0:0:
153,192,20088,1,2,0:0:0:0:
358,192,20253,1,2,0:0:0:0:
256,192,20418,1,2,0:0:0:0:
460,192,20583,1,2,0:0:0:0:
358,192,20747,1,2,0:0:0:0:
153,192,20912,1,2,0:0:0:0:
51,192,21077,1,2,0:0:0:0:
460,192,21077,128,0,22396:0:0:0:0:
256,192,21242,1,2,0:0:0:0:
358,192,21407,1,2,0:0:0:0:
153,192,21572,1,2,0:0:0:0:
256,192,21736,1,2,0:0:0:0:
51,192,21901,1,2,0:0:0:0:
153,192,22066,1,2,0:0:0:0:
256,192,22231,1,2,0:0:0:0:
51,192,22396,1,0,0:0:0:60:SnareClap2.wav
358,192,22396,1,0,0:0:0:0:
51,192,22725,1,0,0:0:0:60:SnareClap2.wav
358,192,22725,1,0,0:0:0:0:
51,192,23055,1,0,0:0:0:60:SnareClap2.wav
358,192,23055,1,0,0:0:0:0:
153,192,23220,1,2,0:0:0:0:
51,192,23302,1,2,0:0:0:0:
256,192,23385,128,0,23714:0:0:0:45:Snare.wav
460,192,23385,128,0,23714:0:0:0:0:
51,192,23714,1,2,0:0:0:0:
153,192,23714,1,4,0:0:0:0:
358,192,24044,1,8,0:0:0:0:
460,192,24044,1,0,0:0:0:0:
51,192,24374,1,2,0:0:0:0:
256,192,24374,1,0,0:0:0:0:
153,192,24703,1,8,0:0:0:0:
358,192,24703,1,0,0:0:0:0:
256,192,25033,1,2,0:0:0:0:
460,192,25033,1,0,0:0:0:0:
51,192,25363,1,8,0:0:0:0:
358,192,25363,1,0,0:0:0:0:
153,192,25692,1,2,0:0:0:0:
256,192,25692,1,0,0:0:0:0:
358,192,26022,1,8,0:0:0:0:
460,192,26022,1,0,0:0:0:0:
51,192,26352,1,2,0:0:0:0:
153,192,26352,1,0,0:0:0:0:
256,192,26681,1,8,0:0:0:0:
358,192,26681,1,0,0:0:0:0:
51,192,27011,1,2,0:0:0:0:
460,192,27011,1,0,0:0:0:0:
153,192,27341,1,8,0:0:0:0:
358,192,27341,1,0,0:0:0:0:
256,192,27670,1,2,0:0:0:0:
460,192,27670,1,0,0:0:0:0:
51,192,28000,1,8,0:0:0:0:
358,192,28000,1,0,0:0:0:0:
153,192,28330,1,2,0:0:0:0:
256,192,28330,1,0,0:0:0:0:
51,192,28659,1,8,0:0:0:0:
460,192,28659,1,0,0:0:0:0:
256,192,28824,1,2,0:0:0:0:
153,192,28989,1,2,0:0:0:0:
358,192,28989,1,0,0:0:0:0:
256,192,29319,1,8,0:0:0:0:
460,192,29319,128,4,29648:0:0:0:0:
51,192,29648,1,2,0:0:0:0:
358,192,29648,1,0,0:0:0:0:
153,192,29978,1,8,0:0:0:0:
256,192,29978,1,0,0:0:0:0:
51,192,30308,1,2,0:0:0:0:
460,192,30308,1,0,0:0:0:0:
256,192,30637,1,8,0:0:0:0:
358,192,30637,1,0,0:0:0:0:
51,192,30967,1,2,0:0:0:0:
153,192,30967,1,0,0:0:0:0:
358,192,31297,1,8,0:0:0:0:
460,192,31297,1,0,0:0:0:0:
51,192,31626,1,2,0:0:0:0:
256,192,31626,1,0,0:0:0:0:
153,192,31956,1,8,0:0:0:0:
460,192,31956,1,0,0:0:0:0:
256,192,32286,1,2,0:0:0:0:
358,192,32286,1,0,0:0:0:0:
51,192,32616,1,8,0:0:0:0:
153,192,32616,1,0,0:0:0:0:
358,192,32780,1,2,0:0:0:0:
460,192,32780,1,4,0:0:0:0:
256,192,33110,1,0,0:0:0:0:
51,192,33275,1,0,0:0:0:0:
153,192,33275,1,0,0:0:0:0:
358,192,33440,1,2,0:0:0:0:
460,192,33440,128,4,33769:0:0:0:0:
51,192,33769,128,0,34099:0:0:0:0:
256,192,34099,1,0,0:0:0:0:
358,192,34264,1,2,0:0:0:0:
460,192,34264,1,4,0:0:0:0:
51,192,34594,1,8,0:0:0:0:
153,192,34594,1,0,0:0:0:0:
256,192,34923,1,2,0:0:0:0:
460,192,34923,1,0,0:0:0:0:
153,192,35253,1,8,0:0:0:0:
358,192,35253,1,0,0:0:0:0:
51,192,35583,1,2,0:0:0:0:
256,192,35583,1,0,0:0:0:0:
153,192,35912,1,8,0:0:0:0:
460,192,35912,1,0,0:0:0:0:
256,192,36242,1,2,0:0:0:0:
358,192,36242,1,0,0:0:0:0:
51,192,36572,1,8,0:0:0:0:
153,192,36572,1,0,0:0:0:0:
358,192,36901,1,2,0:0:0:0:
460,192,36901,1,0,0:0:0:0:
153,192,37231,1,8,0:0:0:0:
256,192,37231,1,0,0:0:0:0:
51,192,37561,1,2,0:0:0:0:
460,192,37561,1,0,0:0:0:0:
153,192,37890,1,8,0:0:0:0:
358,192,37890,1,0,0:0:0:0:
51,192,38220,1,2,0:0:0:0:
460,192,38220,128,4,38879:0:0:0:0:
256,192,38550,1,0,0:0:0:0:
51,192,38879,128,2,39374:0:0:0:0:
153,192,38879,1,4,0:0:0:0:
358,192,39209,1,0,0:0:0:0:
256,192,39374,128,2,39868:0:0:0:0:
153,192,39868,1,2,0:0:0:0:
460,192,39868,128,4,40198:0:0:0:0:
51,192,40198,1,2,0:0:0:0:
358,192,40198,1,0,0:0:0:0:
153,192,40528,1,8,0:0:0:0:
256,192,40528,1,0,0:0:0:0:
51,192,40857,1,2,0:0:0:0:
460,192,40857,1,0,0:0:0:0:
256,192,41187,1,8,0:0:0:0:
358,192,41187,1,0,0:0:0:0:
51,192,41517,1,2,0:0:0:0:
153,192,41517,1,0,0:0:0:0:
256,192,41846,1,8,0:0:0:0:
460,192,41846,1,0,0:0:0:0:
51,192,42176,1,2,0:0:0:0:
153,192,42176,1,4,0:0:0:0:
256,192,42341,1,2,0:0:0:0:
153,192,42423,1,2,0:0:0:0:
51,192,42506,1,8,0:0:0:0:
358,192,42670,1,2,0:0:0:0:
460,192,42670,1,0,0:0:0:0:
256,192,42835,1,2,0:0:0:0:
358,192,42918,1,2,0:0:0:0:
460,192,43000,1,2,0:0:0:0:
51,192,43165,1,8,0:0:0:0:
153,192,43165,1,0,0:0:0:0:
358,192,43330,1,2,0:0:0:0:
460,192,43330,1,4,0:0:0:0:
256,192,43659,1,0,0:0:0:0:
256,192,43989,1,0,0:0:0:0:
51,192,44154,1,2,0:0:0:0:
460,192,44154,1,4,0:0:0:0:
153,192,44319,1,2,0:0:0:0:
256,192,44484,1,0,0:0:0:45:Snare.wav
460,192,44484,1,0,0:0:0:0:
358,192,44648,1,2,0:0:0:0:
51,192,44813,1,2,0:0:0:0:
153,192,44813,1,4,0:0:0:0:
256,192,44978,1,0,0:0:0:0:
358,192,45143,1,0,0:0:0:60:SnareClap2.wav
460,192,45143,1,0,0:0:0:0:
51,192,45473,1,0,0:0:0:0:
153,192,45637,1,0,0:0:0:0:
358,192,45802,1,0,0:0:0:60:SnareClap2.wav
460,192,45802,1,0,0:0:0:0:
256,192,45967,1,0,0:0:0:0:
256,192,46297,1,0,0:0:0:0:
51,192,46462,1,0,0:0:0:60:SnareClap2.wav
153,192,46462,1,0,0:0:0:0:
358,192,46626,1,0,0:0:0:0:
358,192,46956,1,0,0:0:0:0:
51,192,47121,1,0,0:0:0:60:SnareClap2.wav
256,192,47121,1,0,0:0:0:0:
153,192,47286,1,2,0:0:0:0:
358,192,47286,1,0,0:0:0:0:
51,192,47451,1,2,0:0:0:0:
460,192,47451,1,4,0:0:0:0:
256,192,47616,1,0,0:0:0:0:
358,192,47780,1,0,0:0:0:60:SnareClap2.wav
460,192,47780,1,0,0:0:0:0:
51,192,48110,1,0,0:0:0:0:
153,192,48275,1,0,0:0:0:0:
358,192,48440,1,0,0:0:0:60:SnareClap2.wav
460,192,48440,1,0,0:0:0:0:
256,192,48605,1,0,0:0:0:0:
256,192,48934,1,0,0:0:0:0:
51,192,49099,1,0,0:0:0:60:SnareClap2.wav
153,192,49099,1,0,0:0:0:0:
358,192,49264,1,0,0:0:0:0:
153,192,49594,1,0,0:0:0:0:
256,192,49758,1,0,0:0:0:60:SnareClap2.wav
460,192,49758,1,0,0:0:0:0:
153,192,49923,1,0,0:0:0:0:
51,192,50088,1,2,0:0:0:0:
460,192,50088,1,4,0:0:0:0:
256,192,50253,1,2,0:0:0:0:
460,192,50418,1,2,0:0:0:0:
153,192,50583,1,2,0:0:0:0:
358,192,50747,1,2,0:0:0:0:
51,192,50912,1,2,0:0:0:0:
256,192,51077,1,2,0:0:0:0:
460,192,51242,1,2,0:0:0:0:
153,192,51407,1,2,0:0:0:0:
256,192,51407,1,4,0:0:0:0:
51,192,51572,1,2,0:0:0:0:
358,192,51736,1,2,0:0:0:0:
153,192,51901,1,2,0:0:0:0:
460,192,52066,1,2,0:0:0:0:
256,192,52231,1,2,0:0:0:0:
51,192,52396,1,2,0:0:0:0:
256,192,52561,1,2,0:0:0:0:
51,192,52725,1,2,0:0:0:0:
460,192,52725,128,4,53385:0:0:0:0:
358,192,52890,1,2,0:0:0:0:
256,192,53055,1,2,0:0:0:0:
153,192,53220,1,2,0:0:0:0:
51,192,53385,128,2,54044:0:0:0:0:
153,192,53550,1,2,0:0:0:0:
256,192,53714,1,2,0:0:0:0:
358,192,53879,1,2,0:0:0:0:
153,192,54044,1,2,0:0:0:0:
460,192,54044,1,4,0:0:0:0:
256,192,54374,1,0,0:0:0:75:SnareClap2.wav
153,192,54539,1,2,0:0:0:0:
358,192,54539,1,0,0:0:0:0:
153,192,54868,1,2,0:0:0:0:
358,192,54868,1,0,0:0:0:0:
256,192,55033,128,0,55363:0:0:0:60:Snare3.wav
51,192,55363,128,2,55692:0:0:0:0:
460,192,55363,1,0,0:0:0:0:
358,192,55528,1,2,0:0:0:0:
153,192,55692,1,2,0:0:0:0:
256,192,55692,1,0,0:0:0:55:CrashShort.wav
358,192,55940,1,2,0:0:0:0:
51,192,56187,1,2,0:0:0:0:
153,192,56187,1,0,0:0:0:55:CrashShort.wav
460,192,56434,1,2,0:0:0:0:
153,192,56681,1,2,0:0:0:0:
256,192,56681,1,0,0:0:0:55:CrashShort.wav
358,192,56929,1,2,0:0:0:0:
51,192,57176,1,2,0:0:0:0:
153,192,57176,1,0,0:0:0:55:CrashShort.wav
256,192,57341,1,0,0:0:0:60:Snare2.wav
358,192,57341,128,0,57835:0:0:0:0:
51,192,57835,1,2,0:0:0:0:
460,192,57835,128,0,58165:0:0:0:0:
153,192,58000,1,2,0:0:0:0:
256,192,58165,1,2,0:0:0:0:
358,192,58165,1,0,0:0:0:55:CrashShort.wav
153,192,58412,1,2,0:0:0:0:
358,192,58659,1,2,0:0:0:0:
460,192,58659,1,0,0:0:0:55:CrashShort.wav
51,192,58907,1,2,0:0:0:0:
256,192,59154,1,2,0:0:0:0:
358,192,59154,1,0,0:0:0:55:CrashShort.wav
153,192,59401,1,2,0:0:0:0:
358,192,59648,1,2,0:0:0:0:
460,192,59648,1,0,0:0:0:55:CrashShort.wav
256,192,59896,1,2,0:0:0:0:
51,192,60143,128,2,60637:0:0:0:0:
153,192,60143,1,0,0:0:0:0:
358,192,60637,1,2,0:0:0:0:
460,192,60637,128,0,60967:0:0:0:0:
256,192,60802,1,2,0:0:0:0:
51,192,60967,1,2,0:0:0:0:
153,192,60967,1,0,0:0:0:55:CrashShort.wav
460,192,61214,1,2,0:0:0:0:
153,192,61462,1,2,0:0:0:0:
256,192,61462,1,0,0:0:0:55:CrashShort.wav
358,192,61709,1,2,0:0:0:0:
51,192,61956,1,2,0:0:0:0:
153,192,61956,1,0,0:0:0:55:CrashShort.wav
460,192,62203,1,2,0:0:0:0:
153,192,62451,1,2,0:0:0:0:
256,192,62451,1,0,0:0:0:55:CrashShort.wav
358,192,62698,1,0,0:0:0:0:
460,192,62698,128,0,63110:0:0:0:0:
51,192,63110,128,2,63440:0:0:0:0:
153,192,63110,1,0,0:0:0:0:
256,192,63275,1,2,0:0:0:0:
358,192,63440,1,2,0:0:0:0:
460,192,63440,1,0,0:0:0:55:CrashShort.wav
51,192,63687,1,2,0:0:0:0:
256,192,63934,1,2,0:0:0:0:
358,192,63934,1,0,0:0:0:55:CrashShort.wav
153,192,64181,1,2,0:0:0:0:
358,192,64429,1,2,0:0:0:0:
460,192,64429,1,0,0:0:0:55:CrashShort.wav
51,192,64676,1,2,0:0:0:0:
256,192,64923,1,2,0:0:0:0:
358,192,64923,1,0,0:0:0:55:CrashShort.wav
51,192,65170,1,2,0:0:0:0:
153,192,65170,1,0,0:0:0:55:CrashShort.wav
460,192,65418,128,0,65583:0:0:0:75:SnareClap2.wav
358,192,65583,128,0,65747:0:0:0:0:
256,192,65747,128,0,65912:0:0:0:0:
51,192,65912,1,2,0:0:0:0:
460,192,65912,128,0,66242:0:0:0:0:
153,192,66077,1,2,0:0:0:0:
256,192,66242,1,2,0:0:0:0:
358,192,66242,1,4,0:0:0:0:
51,192,66572,1,2,0:0:0:0:
460,192,66572,1,0,0:0:0:0:
153,192,66901,1,8,0:0:0:0:
358,192,66901,1,0,0:0:0:0:
256,192,67231,1,2,0:0:0:0:
460,192,67231,1,0,0:0:0:0:
51,192,67561,1,8,0:0:0:0:
153,192,67561,1,0,0:0:0:0:
256,192,67890,1,2,0:0:0:0:
460,192,67890,1,0,0:0:0:0:
51,192,68220,1,8,0:0:0:0:
358,192,68220,1,0,0:0:0:0:
153,192,68550,1,2,0:0:0:0:
256,192,68550,1,0,0:0:0:0:
358,192,68879,1,8,0:0:0:0:
460,192,68879,1,0,0:0:0:0:
51,192,69209,1,2,0:0:0:0:
256,192,69209,1,0,0:0:0:0:
153,192,69539,1,8,0:0:0:0:
358,192,69539,1,0,0:0:0:0:
256,192,69868,1,2,0:0:0:0:
460,192,69868,1,0,0:0:0:0:
51,192,70198,1,8,0:0:0:0:
358,192,70198,1,0,0:0:0:0:
153,192,70528,1,2,0:0:0:0:
256,192,70528,1,0,0:0:0:0:
358,192,70857,1,8,0:0:0:0:
460,192,70857,1,0,0:0:0:0:
51,192,71187,1,2,0:0:0:0:
256,192,71187,1,0,0:0:0:0:
153,192,71517,1,8,0:0:0:0:
460,192,71517,1,4,0:0:0:0:
51,192,71846,1,2,0:0:0:0:
358,192,71846,1,0,0:0:0:0:
153,192,72176,1,8,0:0:0:0:
256,192,72176,1,0,0:0:0:0:
51,192,72506,1,2,0:0:0:0:
460,192,72506,1,0,0:0:0:0:
153,192,72835,1,8,0:0:0:0:
358,192,72835,1,0,0:0:0:0:
256,192,73165,1,2,0:0:0:0:
460,192,73165,1,0,0:0:0:0:
51,192,73495,1,8,0:0:0:0:
358,192,73495,1,0,0:0:0:0:
256,192,73659,1,2,0:0:0:0:
153,192,73824,1,2,0:0:0:0:
460,192,73824,1,0,0:0:0:0:
51,192,73989,1,2,0:0:0:0:
358,192,73989,1,4,0:0:0:0:
153,192,74236,1,2,0:0:0:0:
460,192,74236,1,0,0:0:0:55:CrashShort.wav
51,192,74484,1,2,0:0:0:0:
256,192,74484,1,0,0:0:0:55:CrashShort.wav
153,192,74731,1,2,0:0:0:0:
358,192,74731,1,0,0:0:0:55:CrashShort.wav
256,192,74978,128,2,75225:0:0:0:0:
460,192,74978,1,4,0:0:0:0:
51,192,75225,1,0,0:0:0:0:
256,192,75473,128,0,75720:0:0:0:0:
460,192,75720,1,0,0:0:0:0:
51,192,75967,128,0,76462:0:0:0:0:
153,192,76132,1,0,0:0:0:0:
256,192,76297,1,0,0:0:0:0:
358,192,76462,1,2,0:0:0:0:
460,192,76462,1,4,0:0:0:0:
153,192,76626,1,0,0:0:0:0:
460,192,76791,1,8,0:0:0:0:
358,192,76956,1,0,0:0:0:0:
153,192,77121,1,2,0:0:0:0:
460,192,77286,1,0,0:0:0:0:
153,192,77451,1,8,0:0:0:0:
358,192,77616,1,0,0:0:0:0:
51,192,77780,1,2,0:0:0:0:
256,192,78110,1,8,0:0:0:0:
358,192,78275,1,0,0:0:0:0:
460,192,78440,1,2,0:0:0:0:
153,192,78605,1,0,0:0:0:0:
256,192,78769,1,8,0:0:0:0:
358,192,78934,128,0,79594:0:0:0:0:
51,192,79264,128,0,79594:0:0:0:0:
460,192,79594,128,0,79923:0:0:0:0:
153,192,79923,1,0,0:0:0:0:
256,192,80088,1,8,0:0:0:0:
358,192,80253,128,0,80912:0:0:0:0:
51,192,80583,128,0,80912:0:0:0:0:
460,192,80912,128,0,81242:0:0:0:0:
51,192,81242,1,0,0:0:0:0:
153,192,81407,1,8,0:0:0:0:
256,192,81572,1,0,0:0:0:0:
358,192,81736,1,2,0:0:0:0:
153,192,81901,1,0,0:0:0:0:
51,192,82066,1,8,0:0:0:0:
358,192,82231,1,0,0:0:0:0:
153,192,82396,1,2,0:0:0:0:
51,192,82561,1,0,0:0:0:0:
256,192,82725,1,8,0:0:0:0:
460,192,82890,1,0,0:0:0:0:
51,192,83055,1,2,0:0:0:0:
153,192,83220,1,0,0:0:0:0:
358,192,83385,1,8,0:0:0:0:
460,192,83550,1,0,0:0:0:0:
153,192,83714,1,2,0:0:0:0:
51,192,83879,1,0,0:0:0:0:
358,192,84044,1,8,0:0:0:0:
460,192,84209,1,0,0:0:0:0:
51,192,84374,1,2,0:0:0:0:
153,192,84374,1,4,0:0:0:0:
256,192,84703,1,0,0:0:0:60:SnareClap.wav
153,192,84786,1,0,0:0:0:60:SnareClap.wav
51,192,84868,1,0,0:0:0:60:SnareClap.wav
358,192,85033,1,2,0:0:0:0:
460,192,85033,1,4,0:0:0:0:
256,192,85363,1,0,0:0:0:60:SnareClap.wav
358,192,85445,1,0,0:0:0:60:SnareClap.wav
460,192,85528,1,0,0:0:0:60:SnareClap.wav
51,192,85692,1,2,0:0:0:0:
153,192,85692,1,0,0:0:0:60:SnareClap2.wav
51,192,86022,1,0,0:0:0:60:SnareClap2.wav
153,192,86022,1,0,0:0:0:0:
51,192,86352,1,0,0:0:0:60:SnareClap2.wav
153,192,86352,1,0,0:0:0:0:
256,192,86517,1,2,0:0:0:0:
358,192,86681,1,0,0:0:0:45:Snare.wav
460,192,86681,1,0,0:0:0:0:
256,192,86846,1,2,0:0:0:0:
51,192,87011,1,2,0:0:0:0:
153,192,87011,1,4,0:0:0:0:
460,192,87176,1,2,0:0:0:0:
256,192,87341,1,2,0:0:0:0:
51,192,87506,1,2,0:0:0:0:
256,192,87670,1,2,0:0:0:0:
460,192,87835,1,2,0:0:0:0:
51,192,88000,1,2,0:0:0:0:
256,192,88165,1,2,0:0:0:0:
460,192,88330,128,2,89319:0:0:0:0:
358,192,88495,1,2,0:0:0:0:
153,192,88659,1,2,0:0:0:0:
51,192,88824,1,2,0:0:0:0:
256,192,88989,128,2,89319:0:0:0:0:
358,192,89319,1,2,0:0:0:0:
51,192,89484,1,0,0:0:0:60:SnareClap.wav
153,192,89484,1,0,0:0:0:50:CrashShort.wav
51,192,89813,1,0,0:0:0:60:SnareClap.wav
153,192,89813,1,0,0:0:0:50:CrashShort.wav
256,192,89978,1,2,0:0:0:0:
358,192,90143,128,2,90473:0:0:0:0:
460,192,90143,128,0,90473:0:0:0:60:SnareClap.wav
51,192,90473,1,2,0:0:0:0:
153,192,90473,1,0,0:0:0:60:SnareClap.wav
256,192,90637,1,2,0:0:0:0:
358,192,90802,1,0,0:0:0:60:SnareClap.wav
460,192,90802,1,0,0:0:0:50:CrashShort.wav
358,192,91132,1,0,0:0:0:60:SnareClap.wav
460,192,91132,1,0,0:0:0:50:CrashShort.wav
256,192,91297,1,2,0:0:0:0:
51,192,91462,128,2,91791:0:0:0:0:
153,192,91462,128,0,91791:0:0:0:60:SnareClap.wav
358,192,91791,1,2,0:0:0:0:
460,192,91791,1,0,0:0:0:60:SnareClap.wav
256,192,91956,1,2,0:0:0:0:
51,192,92121,1,2,0:0:0:0:
153,192,92121,1,0,0:0:0:60:SnareClap.wav
460,192,92286,1,6,0:0:0:0:
358,192,92451,1,2,0:0:0:0:
256,192,92616,1,2,0:0:0:0:
153,192,92780,1,2,0:0:0:0:
51,192,92945,128,2,93275:0:0:0:0:
460,192,92945,128,0,93275:0:0:0:0:
256,192,93275,1,2,0:0:0:0:
358,192,93440,1,2,0:0:0:0:
51,192,93605,128,2,94099:0:0:0:0:
460,192,93605,1,4,0:0:0:0:
153,192,93769,1,2,0:0:0:0:
358,192,93934,1,2,0:0:0:0:
256,192,94099,128,2,94594:0:0:0:0:
460,192,94264,1,2,0:0:0:0:
51,192,94429,1,2,0:0:0:0:
460,192,94594,128,2,94923:0:0:0:0:
153,192,94758,1,2,0:0:0:0:
51,192,94923,128,2,95253:0:0:0:0:
358,192,94923,128,0,95253:0:0:0:55:Finish.wav
153,192,95418,1,0,0:0:0:0:
358,192,95583,1,0,0:0:0:0:
51,192,95747,1,0,0:0:0:0:
256,192,95912,1,0,0:0:0:0:
460,192,96077,1,0,0:0:0:0:
51,192,96242,1,0,0:0:0:0:
358,192,96572,1,0,0:0:0:0:
460,192,96654,1,0,0:0:0:0:
51,192,96736,1,0,0:0:0:0:
358,192,97066,1,0,0:0:0:0:
460,192,97148,1,0,0:0:0:0:
153,192,97231,1,0,0:0:0:0:
358,192,97396,1,0,0:0:0:0:
51,192,97561,1,0,0:0:0:0:
460,192,97561,1,0,0:0:0:0:
256,192,97890,1,0,0:0:0:65:Snaph.wav
153,192,98220,1,0,0:0:0:0:
256,192,98550,1,0,0:0:0:65:Snaph.wav
358,192,98879,1,0,0:0:0:0:
256,192,99209,1,0,0:0:0:65:Snaph.wav
460,192,99539,1,0,0:0:0:0:
256,192,99868,1,0,0:0:0:65:Snaph.wav
51,192,100198,1,0,0:0:0:0:
256,192,100528,1,0,0:0:0:65:Snaph.wav
358,192,100857,1,0,0:0:0:0:
256,192,101187,1,0,0:0:0:65:Snaph.wav
153,192,101517,1,0,0:0:0:0:
256,192,101846,1,0,0:0:0:65:Snaph.wav
460,192,102176,1,0,0:0:0:0:
256,192,102506,1,0,0:0:0:65:Snaph.wav
51,192,102835,1,0,0:0:0:0:
256,192,103165,128,0,103495:0:0:0:65:Snaph.wav
460,192,103495,1,0,0:0:0:0:
256,192,103824,1,0,0:0:0:65:Snaph.wav
51,192,104154,1,0,0:0:0:0:
256,192,104484,1,0,0:0:0:65:Snaph.wav
153,192,104813,1,0,0:0:0:0:
256,192,105143,1,0,0:0:0:65:Snaph.wav
358,192,105473,1,0,0:0:0:0:
256,192,105802,1,0,0:0:0:65:Snaph.wav
153,192,105967,128,0,106297:0:0:0:0:
460,192,106132,1,0,0:0:0:0:
358,192,106297,128,0,106626:0:0:0:0:
51,192,106462,1,0,0:0:0:0:
153,192,106626,1,2,0:0:0:0:
256,192,106626,1,4,0:0:0:0:
460,192,106956,128,0,107286:0:0:0:0:
256,192,107286,1,2,0:0:0:0:
358,192,107286,1,4,0:0:0:0:
153,192,107616,1,2,0:0:0:0:
51,192,107698,1,2,0:0:0:0:
358,192,107780,1,0,0:0:0:45:Snare.wav
460,192,107780,128,0,108110:0:0:0:0:
256,192,107945,1,2,0:0:0:0:
51,192,108110,1,2,0:0:0:0:
153,192,108110,1,4,0:0:0:0:
358,192,108440,1,8,0:0:0:0:
460,192,108440,1,0,0:0:0:0:
51,192,108769,1,2,0:0:0:0:
256,192,108769,1,0,0:0:0:0:
153,192,109099,1,8,0:0:0:0:
358,192,109099,1,0,0:0:0:0:
256,192,109429,1,2,0:0:0:0:
460,192,109429,1,0,0:0:0:0:
51,192,109758,1,8,0:0:0:0:
358,192,109758,1,0,0:0:0:0:
153,192,110088,1,2,0:0:0:0:
256,192,110088,1,0,0:0:0:0:
358,192,110418,1,8,0:0:0:0:
460,192,110418,1,0,0:0:0:0:
51,192,110747,1,2,0:0:0:0:
153,192,110747,1,0,0:0:0:0:
256,192,111077,1,8,0:0:0:0:
358,192,111077,1,0,0:0:0:0:
51,192,111407,1,2,0:0:0:0:
460,192,111407,1,0,0:0:0:0:
153,192,111736,1,8,0:0:0:0:
358,192,111736,1,0,0:0:0:0:
51,192,112066,128,2,112725:0:0:0:0:
256,192,112066,1,4,0:0:0:0:
358,192,112396,1,0,0:0:0:0:
256,192,112725,1,2,0:0:0:0:
460,192,112725,128,4,113385:0:0:0:0:
153,192,113055,1,0,0:0:0:0:
51,192,113385,128,2,113714:0:0:0:0:
256,192,113385,1,0,0:0:0:0:
358,192,113550,1,2,0:0:0:0:
153,192,113714,128,8,114044:0:0:0:0:
460,192,113714,1,4,0:0:0:0:
256,192,114044,1,2,0:0:0:0:
358,192,114044,1,0,0:0:0:0:
153,192,114374,1,8,0:0:0:0:
460,192,114374,1,0,0:0:0:0:
51,192,114703,1,2,0:0:0:0:
256,192,114703,1,0,0:0:0:0:
153,192,115033,1,8,0:0:0:0:
460,192,115033,1,0,0:0:0:0:
256,192,115363,1,2,0:0:0:0:
358,192,115363,1,0,0:0:0:0:
51,192,115692,1,8,0:0:0:0:
153,192,115692,1,0,0:0:0:0:
358,192,116022,1,2,0:0:0:0:
460,192,116022,1,4,0:0:0:0:
256,192,116187,1,2,0:0:0:0:
358,192,116269,1,2,0:0:0:0:
460,192,116352,1,2,0:0:0:0:
51,192,116517,1,2,0:0:0:0:
153,192,116517,1,0,0:0:0:0:
256,192,116681,1,2,0:0:0:0:
153,192,116764,1,2,0:0:0:0:
51,192,116846,1,2,0:0:0:0:
358,192,117011,1,2,0:0:0:0:
460,192,117011,1,0,0:0:0:0:
51,192,117176,1,2,0:0:0:0:
153,192,117176,1,4,0:0:0:0:
256,192,117506,1,0,0:0:0:0:
256,192,117835,1,0,0:0:0:0:
51,192,118000,1,2,0:0:0:0:
460,192,118000,1,0,0:0:0:0:
358,192,118165,1,2,0:0:0:0:
51,192,118330,1,0,0:0:0:45:Snare.wav
256,192,118330,1,0,0:0:0:0:
153,192,118495,1,2,0:0:0:0:
358,192,118659,1,2,0:0:0:0:
460,192,118659,1,4,0:0:0:0:
153,192,118824,1,0,0:0:0:0:
51,192,118989,1,0,0:0:0:0:
460,192,119154,1,0,0:0:0:0:
153,192,119319,1,0,0:0:0:0:
51,192,119484,1,0,0:0:0:0:
256,192,119648,1,0,0:0:0:0:
358,192,119813,128,0,120143:0:0:0:0:
51,192,120143,1,0,0:0:0:0:
51,192,120473,128,0,120802:0:0:0:0:
460,192,120802,1,2,0:0:0:0:
153,192,120967,1,8,0:0:0:0:
358,192,120967,1,0,0:0:0:65:Snaph.wav
256,192,121132,1,0,0:0:0:0:
51,192,121297,1,2,0:0:0:0:
460,192,121297,1,0,0:0:0:0:
153,192,121462,1,2,0:0:0:0:
256,192,121626,1,2,0:0:0:0:
460,192,121791,1,2,0:0:0:0:
358,192,121956,1,2,0:0:0:0:
256,192,122121,1,2,0:0:0:0:
51,192,122286,1,2,0:0:0:0:
153,192,122286,1,0,0:0:0:0:
358,192,122451,1,2,0:0:0:0:
460,192,122451,128,4,122780:0:0:0:0:
51,192,122780,1,0,0:0:0:0:
51,192,123110,128,0,123605:0:0:0:0:
460,192,123440,1,2,0:0:0:0:
256,192,123605,1,0,0:0:0:45:Snare.wav
358,192,123605,1,0,0:0:0:0:
153,192,123769,1,2,0:0:0:0:
51,192,123934,1,2,0:0:0:0:
460,192,123934,1,4,0:0:0:0:
153,192,124264,1,2,0:0:0:0:
256,192,124264,1,0,0:0:0:65:Snaph.wav
51,192,124594,1,2,0:0:0:0:
358,192,124594,1,0,0:0:0:0:
153,192,124841,1,2,0:0:0:0:
256,192,124841,1,0,0:0:0:0:
358,192,125088,1,2,0:0:0:0:
460,192,125088,1,0,0:0:0:0:
51,192,125253,1,2,0:0:0:0:
256,192,125253,1,0,0:0:0:0:
153,192,125583,1,2,0:0:0:0:
460,192,125583,1,0,0:0:0:65:Snaph.wav
256,192,125912,1,2,0:0:0:0:
358,192,125912,1,0,0:0:0:0:
51,192,126159,1,2,0:0:0:0:
460,192,126159,1,0,0:0:0:0:
153,192,126407,1,2,0:0:0:0:
256,192,126407,1,0,0:0:0:0:
358,192,126572,1,2,0:0:0:0:
460,192,126572,1,4,0:0:0:0:
51,192,126901,1,2,0:0:0:0:
153,192,126901,1,0,0:0:0:65:Snaph.wav
256,192,127231,1,2,0:0:0:0:
460,192,127231,1,0,0:0:0:0:
153,192,127478,1,2,0:0:0:0:
358,192,127478,1,0,0:0:0:0:
51,192,127725,1,2,0:0:0:0:
256,192,127725,1,0,0:0:0:0:
358,192,127890,1,2,0:0:0:0:
460,192,127890,1,0,0:0:0:0:
51,192,128220,1,2,0:0:0:0:
256,192,128220,1,0,0:0:0:65:Snaph.wav
153,192,128550,1,2,0:0:0:0:
460,192,128550,1,0,0:0:0:0:
51,192,128797,1,2,0:0:0:0:
358,192,128797,1,0,0:0:0:0:
153,192,129044,1,2,0:0:0:0:
256,192,129044,1,0,0:0:0:0:
51,192,129209,1,2,0:0:0:0:
460,192,129209,1,4,0:0:0:0:
358,192,129374,1,2,0:0:0:0:
153,192,129539,1,2,0:0:0:0:
256,192,129703,1,2,0:0:0:0:
51,192,129868,1,2,0:0:0:0:
460,192,130033,1,2,0:0:0:0:
153,192,130198,1,2,0:0:0:0:
358,192,130363,1,2,0:0:0:0:
51,192,130528,1,2,0:0:0:0:
460,192,130528,1,4,0:0:0:0:
256,192,130692,1,2,0:0:0:0:
153,192,130857,1,2,0:0:0:0:
358,192,131022,1,2,0:0:0:0:
51,192,131187,1,2,0:0:0:0:
460,192,131352,1,2,0:0:0:0:
358,192,131517,1,2,0:0:0:0:
153,192,131681,1,2,0:0:0:0:
51,192,131846,1,2,0:0:0:0:
460,192,131846,128,4,132506:0:0:0:0:
358,192,132011,1,2,0:0:0:0:
256,192,132176,1,2,0:0:0:0:
153,192,132341,1,2,0:0:0:0:
51,192,132506,128,2,133000:0:0:0:0:
358,192,132670,1,2,0:0:0:0:
256,192,132835,1,2,0:0:0:0:
153,192,133000,1,2,0:0:0:0:
460,192,133000,128,4,133495:0:0:0:0:
153,192,133330,1,0,0:0:0:0:
256,192,133495,1,0,0:0:0:0:
51,192,133659,128,2,133989:0:0:0:0:
358,192,133659,1,4,0:0:0:0:
358,192,133989,1,0,0:0:0:0:
256,192,134154,1,0,0:0:0:0:
153,192,134319,1,0,0:0:0:0:
358,192,134484,1,2,0:0:0:0:
460,192,134484,1,0,0:0:0:55:Finish.wav
