osu file format v14

[General]
AudioFilename: audio.mp3
AudioLeadIn: 0
PreviewTime: 23385
Countdown: 0
SampleSet: Soft
StackLeniency: 0.7
Mode: 3
LetterboxInBreaks: 0
SpecialStyle: 0
WidescreenStoryboard: 0

[Editor]
Bookmarks: 13166,55363,65913,73990,97561
DistanceSpacing: 1.3
BeatDivisor: 4
GridSize: 32
TimelineZoom: 2.099999

[Metadata]
Title:8bit Voyager
TitleUnicode:8bit Voyager
Artist:Lime
ArtistUnicode:Lime
Creator:Syadow-
Version:Insane
Source:BOFXV
Tags:MUSYNX musync kankitsu video game instrumental electronic chiptune kawaiicore featured artist fa the bms of fighters extreme violence 2019 BOFXV19 GroundbreakinG GdbG Sweet & Sour LilAcubens Revival _VianK_ MJHs Kyousuke- Kanon Matsubara 8-bit
BeatmapID:2904501
BeatmapSetID:1408692

[Difficulty]
HPDrainRate:8
CircleSize:5
OverallDifficulty:8
ApproachRate:5
SliderMultiplier:1.4
SliderTickRate:1

[Events]
//Background and Video events
0,0,"voya.jpg",0,0
//Break Periods
//Storyboard Layer 0 (Background)
//Storyboard Layer 1 (Fail)
//Storyboard Layer 2 (Pass)
//Storyboard Layer 3 (Foreground)
//Storyboard Layer 4 (Overlay)
//Storyboard Sound Samples

[TimingPoints]
2616,329.67032967033,4,2,1,55,1,0
13165,-100,4,2,1,60,0,0
22396,-45.4545454545455,4,2,1,60,0,0
22478,-166.666666666667,4,2,1,60,0,0
22725,-45.4545454545455,4,2,1,60,0,0
22808,-166.666666666667,4,2,1,60,0,0
23055,-71.4285714285714,4,2,1,60,0,0
23137,-166.666666666667,4,2,1,60,0,0
23220,-100,4,2,1,60,0,0
23550,-200,4,2,1,60,0,0
23632,-66.6666666666667,4,2,1,60,0,0
23714,-142.857142857143,4,2,1,70,0,1
23797,-111.111111111111,4,2,1,70,0,1
23879,-90.9090909090909,4,2,1,70,0,1
23962,-76.9230769230769,4,2,1,70,0,1
24044,-100,4,2,1,70,0,1
44813,-100,4,2,1,60,0,0
55033,-57.1428571428571,4,2,1,60,0,0
55116,-133.333333333333,4,2,1,60,0,0
55363,-100,4,2,1,60,0,0
55692,-66.6666666666667,4,2,1,60,0,0
55775,-133.333333333333,4,2,1,60,0,0
55940,-100,4,2,1,60,0,0
56187,-66.6666666666667,4,2,1,60,0,0
56269,-133.333333333333,4,2,1,60,0,0
56434,-100,4,2,1,60,0,0
56681,-66.6666666666667,4,2,1,60,0,0
56764,-133.333333333333,4,2,1,60,0,0
56929,-100,4,2,1,60,0,0
58165,-66.6666666666667,4,2,1,60,0,0
58247,-133.333333333333,4,2,1,60,0,0
58412,-100,4,2,1,60,0,0
58659,-66.6666666666667,4,2,1,60,0,0
58742,-133.333333333333,4,2,1,60,0,0
58907,-100,4,2,1,60,0,0
59154,-66.6666666666667,4,2,1,60,0,0
59236,-133.333333333333,4,2,1,60,0,0
59401,-100,4,2,1,60,0,0
59648,-66.6666666666667,4,2,1,60,0,0
59731,-133.333333333333,4,2,1,60,0,0
59896,-100,4,2,1,60,0,0
60967,-66.6666666666667,4,2,1,60,0,0
61050,-133.333333333333,4,2,1,60,0,0
61214,-100,4,2,1,60,0,0
61462,-66.6666666666667,4,2,1,60,0,0
61544,-133.333333333333,4,2,1,60,0,0
61709,-100,4,2,1,60,0,0
61956,-66.6666666666667,4,2,1,60,0,0
62039,-133.333333333333,4,2,1,60,0,0
62203,-100,4,2,1,60,0,0
63440,-66.6666666666667,4,2,1,60,0,0
63522,-133.333333333333,4,2,1,60,0,0
63687,-100,4,2,1,60,0,0
63934,-66.6666666666667,4,2,1,60,0,0
64017,-133.333333333333,4,2,1,60,0,0
64181,-100,4,2,1,60,0,0
64429,-66.6666666666667,4,2,1,60,0,0
64511,-133.333333333333,4,2,1,60,0,0
64676,-100,4,2,1,60,0,0
64923,-66.6666666666667,4,2,1,60,0,0
65006,-133.333333333333,4,2,1,60,0,0
65170,-100,4,2,1,60,0,0
73989,-133.333333333333,4,2,1,60,0,0
74154,-66.6666666666667,4,2,1,60,0,0
74236,-100,4,2,1,60,0,0
74484,-133.333333333333,4,2,1,60,0,0
74648,-66.6666666666667,4,2,1,60,0,0
74731,-100,4,2,1,60,0,0
74978,-66.6666666666667,4,2,1,60,0,0
75061,-133.333333333333,4,2,1,60,0,0
75225,-100,4,2,1,60,0,0
75473,-66.6666666666667,4,2,1,60,0,0
75555,-133.333333333333,4,2,1,60,0,0
75720,-100,4,2,1,60,0,0
76462,-100,4,2,1,65,0,0
84374,-62.5,4,2,1,65,0,0
84456,-142.857142857143,4,2,1,65,0,0
84539,-125,4,2,1,65,0,0
84621,-111.111111111111,4,2,1,65,0,0
84703,-100,4,2,1,65,0,0
85033,-62.5,4,2,1,65,0,0
85116,-142.857142857143,4,2,1,65,0,0
85198,-125,4,2,1,65,0,0
85280,-111.111111111111,4,2,1,65,0,0
85363,-100,4,2,1,65,0,0
93605,-100,4,2,1,38,0,0
94923,-100,4,2,1,50,0,0
95253,-83.3333333333333,4,2,1,50,0,0
95335,-125,4,2,1,50,0,0
95418,-76.9230769230769,4,2,1,50,0,0
95500,-142.857142857143,4,2,1,50,0,0
95583,-71.4285714285714,4,2,1,50,0,0
95665,-166.666666666667,4,2,1,50,0,0
95747,-66.6666666666667,4,2,1,50,0,0
95830,-200,4,2,1,50,0,0
95912,-62.5,4,2,1,50,0,0
95994,-250,4,2,1,50,0,0
96077,-58.8235294117647,4,2,1,50,0,0
96159,-333.333333333333,4,2,1,50,0,0
96242,-58.8235294117647,4,2,1,50,0,0
96324,-333.333333333333,4,2,1,50,0,0
96407,-100,4,2,1,50,0,0
96736,-58.8235294117647,4,2,1,50,0,0
96819,-333.333333333333,4,2,1,50,0,0
96901,-100,4,2,1,50,0,0
97066,-66.6666666666667,4,2,1,50,0,0
97107,-200,4,2,1,50,0,0
97148,-66.6666666666667,4,2,1,50,0,0
97189,-200,4,2,1,50,0,0
97231,-66.6666666666667,4,2,1,50,0,0
97272,-200,4,2,1,50,0,0
97313,-66.6666666666667,4,2,1,50,0,0
97354,-200,4,2,1,50,0,0
97396,-100,4,2,1,50,0,0
97561,-76.9230769230769,4,2,1,55,0,0
97643,-90.9090909090909,4,2,1,55,0,0
97725,-111.111111111111,4,2,1,55,0,0
97808,-142.857142857143,4,2,1,55,0,0
97890,-100,4,2,1,55,0,0
106626,-76.9230769230769,4,2,1,55,0,0
106709,-90.9090909090909,4,2,1,55,0,0
106791,-111.111111111111,4,2,1,55,0,0
106874,-142.857142857143,4,2,1,55,0,0
106956,-100,4,2,1,55,0,0
107286,-76.9230769230769,4,2,1,55,0,0
107368,-90.9090909090909,4,2,1,55,0,0
107451,-111.111111111111,4,2,1,55,0,0
107533,-142.857142857143,4,2,1,55,0,0
107616,-100,4,2,1,55,0,0
107945,-200,4,2,1,55,0,0
108028,-66.6666666666667,4,2,1,55,0,0
108110,-142.857142857143,4,2,1,75,0,1
108192,-111.111111111111,4,2,1,75,0,1
108275,-90.9090909090909,4,2,1,75,0,1
108357,-76.9230769230769,4,2,1,75,0,1
108440,-100,4,2,1,75,0,1
118659,-100,4,2,1,65,0,0
121297,-100,4,2,1,75,0,1
123934,-100,4,2,1,65,0,0

[HitObjects]
51,192,1297,5,0,0:0:0:65:SnareClap.wav
153,192,1297,1,0,0:0:0:0:
358,192,1462,1,2,0:0:0:0:
460,192,1462,1,0,0:0:0:0:
51,192,1626,1,0,0:0:0:65:SnareClap.wav
153,192,1626,1,0,0:0:0:0:
358,192,1791,1,2,0:0:0:0:
460,192,1791,1,0,0:0:0:0:
51,192,1956,1,0,0:0:0:65:SnareClap.wav
153,192,1956,1,0,0:0:0:0:
358,192,2121,1,2,0:0:0:0:
460,192,2121,1,0,0:0:0:0:
51,192,2203,1,2,0:0:0:0:
256,192,2203,1,0,0:0:0:0:
153,192,2286,1,0,0:0:0:45:Snare.wav
358,192,2286,1,0,0:0:0:0:
460,192,2286,1,0,0:0:0:0:
153,192,2451,1,2,0:0:0:0:
51,192,2616,1,0,0:0:0:70:Boom.wav
256,192,2616,1,0,0:0:0:0:
460,192,2616,1,0,0:0:0:0:
358,192,2780,128,0,2945:0:0:0:0:
153,192,2945,128,0,3110:0:0:0:0:
460,192,3275,128,0,3440:0:0:0:0:
51,192,3440,128,0,3605:0:0:0:0:
256,192,3605,128,0,3769:0:0:0:0:
358,192,3769,128,0,3934:0:0:0:0:
153,192,4099,128,0,4264:0:0:0:0:
256,192,4429,128,0,4594:0:0:0:0:
51,192,4758,1,0,0:0:0:0:
358,192,4923,1,0,0:0:0:0:
256,192,5088,1,0,0:0:0:0:
153,192,5418,128,0,5583:0:0:0:0:
358,192,5583,128,0,5747:0:0:0:0:
51,192,5912,128,0,6077:0:0:0:0:
460,192,6077,128,0,6242:0:0:0:0:
256,192,6242,128,0,6407:0:0:0:0:
358,192,6407,128,0,6572:0:0:0:0:
153,192,6736,128,0,6901:0:0:0:0:
358,192,6901,128,0,7066:0:0:0:0:
256,192,7066,128,0,7231:0:0:0:0:
460,192,7396,1,0,0:0:0:0:
51,192,7561,1,0,0:0:0:0:
256,192,7725,1,0,0:0:0:0:
358,192,8055,128,0,8220:0:0:0:0:
153,192,8220,128,0,8385:0:0:0:0:
460,192,8550,128,0,8714:0:0:0:0:
51,192,8714,128,0,8879:0:0:0:0:
256,192,8879,128,0,9044:0:0:0:0:
358,192,9044,128,0,9209:0:0:0:0:
153,192,9374,128,0,9539:0:0:0:0:
358,192,9703,128,0,9868:0:0:0:0:
51,192,10033,1,0,0:0:0:0:
256,192,10198,1,0,0:0:0:0:
460,192,10363,1,0,0:0:0:0:
256,192,10692,128,0,10857:0:0:0:0:
51,192,10857,128,0,11022:0:0:0:0:
460,192,11022,1,0,0:0:0:0:
358,192,11063,1,0,0:0:0:0:
256,192,11105,1,0,0:0:0:0:
153,192,11146,1,0,0:0:0:0:
51,192,11187,1,0,0:0:0:0:
358,192,11269,1,0,0:0:0:0:
153,192,11352,1,0,0:0:0:0:
256,192,11434,1,0,0:0:0:0:
358,192,11517,1,0,0:0:0:0:
460,192,11599,1,0,0:0:0:0:
51,192,11681,1,2,0:0:0:0:
153,192,11681,1,4,0:0:0:0:
256,192,11681,1,0,0:0:0:0:
358,192,11747,1,0,0:0:0:0:
153,192,11813,1,0,0:0:0:0:
460,192,11879,1,0,0:0:0:0:
256,192,11945,1,0,0:0:0:0:
51,192,12011,1,0,0:0:0:0:
153,192,12176,1,0,0:0:0:0:
256,192,12341,1,2,0:0:0:0:
358,192,12341,1,4,0:0:0:0:
460,192,12341,1,0,0:0:0:0:
51,192,12407,1,0,0:0:0:0:
358,192,12473,1,0,0:0:0:0:
153,192,12539,1,0,0:0:0:0:
460,192,12605,1,0,0:0:0:0:
51,192,12670,1,0,0:0:0:0:
256,192,12670,1,0,0:0:0:0:
153,192,12835,1,0,0:0:0:0:
358,192,12835,1,0,0:0:0:0:
51,192,13000,1,0,0:0:0:0:
460,192,13000,1,0,0:0:0:0:
358,192,13041,1,0,0:0:0:0:
256,192,13083,1,0,0:0:0:0:
153,192,13124,1,0,0:0:0:0:
51,192,13165,1,2,0:0:0:0:
358,192,13165,1,4,0:0:0:0:
460,192,13165,1,0,0:0:0:0:
153,192,13330,128,0,13495:0:0:0:0:
358,192,13495,128,2,13659:0:0:0:0:
460,192,13495,1,0,0:0:0:85:Snaph.wav
256,192,13659,1,0,0:0:0:0:
51,192,13824,128,2,13989:0:0:0:0:
153,192,13824,1,0,0:0:0:0:
460,192,13989,1,0,0:0:0:0:
256,192,14072,1,2,0:0:0:0:
358,192,14072,1,0,0:0:0:0:
51,192,14154,1,0,0:0:0:85:Snaph.wav
153,192,14154,1,0,0:0:0:0:
358,192,14319,128,2,14484:0:0:0:0:
460,192,14319,1,0,0:0:0:0:
51,192,14484,1,2,0:0:0:0:
256,192,14484,1,0,0:0:0:0:
153,192,14648,128,0,14813:0:0:0:0:
358,192,14813,1,2,0:0:0:0:
460,192,14813,1,0,0:0:0:85:Snaph.wav
256,192,14978,128,0,15143:0:0:0:0:
51,192,15143,1,2,0:0:0:0:
358,192,15143,1,0,0:0:0:0:
153,192,15225,1,0,0:0:0:0:
460,192,15308,1,0,0:0:0:0:
256,192,15390,1,2,0:0:0:0:
358,192,15390,1,0,0:0:0:0:
51,192,15473,1,0,0:0:0:85:Snaph.wav
153,192,15473,1,0,0:0:0:0:
256,192,15637,1,2,0:0:0:0:
460,192,15637,1,0,0:0:0:0:
153,192,15720,1,0,0:0:0:0:
51,192,15802,1,2,0:0:0:0:
460,192,15802,1,0,0:0:0:0:
256,192,15967,128,0,16132:0:0:0:0:
51,192,16132,128,2,16297:0:0:0:0:
153,192,16132,1,0,0:0:0:85:Snaph.wav
358,192,16297,1,0,0:0:0:0:
256,192,16462,1,2,0:0:0:0:
460,192,16462,128,0,16626:0:0:0:0:
51,192,16626,1,0,0:0:0:0:
256,192,16709,1,2,0:0:0:0:
358,192,16709,1,0,0:0:0:0:
153,192,16791,1,0,0:0:0:85:Snaph.wav
460,192,16791,1,0,0:0:0:0:
51,192,16956,1,2,0:0:0:0:
256,192,16956,128,0,17121:0:0:0:0:
358,192,17121,1,2,0:0:0:0:
460,192,17121,1,0,0:0:0:0:
153,192,17286,128,0,17451:0:0:0:0:
51,192,17451,1,2,0:0:0:0:
256,192,17451,128,0,17616:0:0:0:85:Snaph.wav
358,192,17616,128,0,17780:0:0:0:0:
153,192,17780,1,2,0:0:0:0:
460,192,17780,1,0,0:0:0:0:
358,192,17945,1,0,0:0:0:0:
51,192,18028,1,2,0:0:0:0:
153,192,18028,1,0,0:0:0:0:
256,192,18110,1,0,0:0:0:85:Snaph.wav
460,192,18110,1,0,0:0:0:0:
153,192,18275,1,2,0:0:0:0:
358,192,18275,1,0,0:0:0:0:
51,192,18440,1,2,0:0:0:0:
256,192,18440,1,4,0:0:0:0:
460,192,18440,1,0,0:0:0:0:
51,192,18605,1,2,0:0:0:0:
460,192,18605,1,0,0:0:0:0:
153,192,18769,1,2,0:0:0:0:
358,192,18769,1,0,0:0:0:85:Snaph.wav
153,192,18934,1,2,0:0:0:0:
358,192,18934,1,0,0:0:0:0:
51,192,19099,1,2,0:0:0:0:
256,192,19099,1,0,0:0:0:0:
51,192,19264,1,2,0:0:0:0:
256,192,19264,1,0,0:0:0:0:
358,192,19429,1,2,0:0:0:0:
460,192,19429,1,0,0:0:0:85:Snaph.wav
358,192,19594,1,2,0:0:0:0:
460,192,19594,1,0,0:0:0:0:
51,192,19758,1,2,0:0:0:0:
153,192,19758,1,0,0:0:0:0:
51,192,19923,1,2,0:0:0:0:
153,192,19923,1,0,0:0:0:0:
256,192,20088,1,2,0:0:0:0:
460,192,20088,1,0,0:0:0:85:Snaph.wav
256,192,20253,1,2,0:0:0:0:
460,192,20253,1,0,0:0:0:0:
153,192,20418,1,2,0:0:0:0:
358,192,20418,1,0,0:0:0:0:
153,192,20583,1,2,0:0:0:0:
358,192,20583,1,0,0:0:0:0:
51,192,20747,1,2,0:0:0:0:
256,192,20747,1,0,0:0:0:85:Snaph.wav
51,192,20912,1,2,0:0:0:0:
256,192,20912,1,0,0:0:0:0:
358,192,21077,1,2,0:0:0:0:
460,192,21077,1,0,0:0:0:0:
153,192,21159,1,2,0:0:0:0:
358,192,21242,1,2,0:0:0:0:
460,192,21242,1,0,0:0:0:0:
256,192,21324,1,2,0:0:0:0:
51,192,21407,1,2,0:0:0:0:
153,192,21407,1,0,0:0:0:0:
358,192,21489,1,2,0:0:0:0:
51,192,21572,1,2,0:0:0:0:
153,192,21572,1,0,0:0:0:0:
256,192,21654,1,2,0:0:0:0:
358,192,21736,1,2,0:0:0:0:
460,192,21736,1,0,0:0:0:0:
51,192,21819,1,2,0:0:0:0:
358,192,21901,1,2,0:0:0:0:
460,192,21901,1,0,0:0:0:0:
256,192,21984,1,2,0:0:0:0:
51,192,22066,1,2,0:0:0:0:
153,192,22066,1,0,0:0:0:0:
460,192,22148,1,2,0:0:0:0:
51,192,22231,1,2,0:0:0:0:
153,192,22231,1,0,0:0:0:0:
256,192,22313,1,2,0:0:0:0:
358,192,22396,1,0,0:0:0:60:SnareClap2.wav
460,192,22396,1,0,0:0:0:0:
358,192,22725,1,0,0:0:0:60:SnareClap2.wav
460,192,22725,1,0,0:0:0:0:
358,192,23055,1,0,0:0:0:60:SnareClap2.wav
460,192,23055,1,0,0:0:0:0:
51,192,23220,1,2,0:0:0:0:
153,192,23220,1,0,0:0:0:0:
256,192,23302,1,2,0:0:0:0:
358,192,23385,128,0,23550:0:0:0:45:Snare.wav
460,192,23385,1,0,0:0:0:0:
256,192,23550,128,2,23714:0:0:0:0:
153,192,23550,1,0,0:0:0:0:
51,192,23714,1,2,0:0:0:0:
358,192,23714,1,4,0:0:0:0:
460,192,23714,128,0,24044:0:0:0:0:
256,192,24044,1,8,0:0:0:0:
358,192,24044,1,0,0:0:0:0:
51,192,24209,1,0,0:0:0:0:
153,192,24209,1,0,0:0:0:0:
256,192,24291,1,0,0:0:0:0:
358,192,24374,1,2,0:0:0:0:
460,192,24374,1,0,0:0:0:0:
51,192,24539,1,0,0:0:0:0:
153,192,24539,1,0,0:0:0:0:
256,192,24703,1,8,0:0:0:0:
460,192,24703,1,0,0:0:0:0:
51,192,24868,1,0,0:0:0:0:
153,192,24868,128,0,25198:0:0:0:0:
358,192,25033,1,2,0:0:0:0:
256,192,25198,1,0,0:0:0:0:
460,192,25198,1,0,0:0:0:0:
51,192,25363,1,8,0:0:0:0:
358,192,25363,1,0,0:0:0:0:
153,192,25528,1,0,0:0:0:0:
256,192,25528,1,0,0:0:0:0:
358,192,25610,1,0,0:0:0:0:
51,192,25692,1,2,0:0:0:0:
460,192,25692,1,0,0:0:0:0:
51,192,25857,1,0,0:0:0:0:
153,192,25857,1,0,0:0:0:0:
358,192,26022,1,8,0:0:0:0:
460,192,26022,1,0,0:0:0:0:
51,192,26187,1,0,0:0:0:0:
256,192,26187,1,0,0:0:0:0:
153,192,26352,128,2,26681:0:0:0:0:
460,192,26352,1,0,0:0:0:0:
358,192,26517,1,0,0:0:0:0:
256,192,26681,1,8,0:0:0:0:
460,192,26681,1,0,0:0:0:0:
51,192,26846,1,0,0:0:0:0:
358,192,26846,1,0,0:0:0:0:
256,192,26929,1,0,0:0:0:0:
51,192,27011,1,2,0:0:0:0:
153,192,27011,1,0,0:0:0:0:
358,192,27176,1,0,0:0:0:0:
460,192,27176,1,0,0:0:0:0:
51,192,27341,1,8,0:0:0:0:
256,192,27341,1,0,0:0:0:0:
153,192,27506,1,0,0:0:0:0:
460,192,27506,128,0,27835:0:0:0:0:
256,192,27670,1,2,0:0:0:0:
51,192,27835,1,0,0:0:0:0:
358,192,27835,1,0,0:0:0:0:
153,192,28000,1,8,0:0:0:0:
460,192,28000,1,0,0:0:0:0:
256,192,28165,1,0,0:0:0:0:
358,192,28165,1,0,0:0:0:0:
153,192,28247,1,0,0:0:0:0:
358,192,28330,1,2,0:0:0:0:
460,192,28330,1,0,0:0:0:0:
153,192,28495,1,0,0:0:0:0:
256,192,28550,1,0,0:0:0:0:
358,192,28605,1,0,0:0:0:0:
51,192,28659,1,8,0:0:0:0:
460,192,28659,1,0,0:0:0:0:
51,192,28824,1,2,0:0:0:0:
153,192,28879,1,2,0:0:0:0:
256,192,28934,1,2,0:0:0:0:
358,192,28989,128,2,29319:0:0:0:0:
460,192,28989,1,0,0:0:0:0:
153,192,29154,1,0,0:0:0:0:
51,192,29319,1,8,0:0:0:0:
256,192,29319,1,4,0:0:0:0:
460,192,29319,1,0,0:0:0:0:
358,192,29484,1,0,0:0:0:0:
51,192,29648,1,2,0:0:0:0:
153,192,29648,1,0,0:0:0:0:
460,192,29731,1,0,0:0:0:0:
153,192,29813,1,0,0:0:0:0:
256,192,29813,1,0,0:0:0:0:
51,192,29896,1,0,0:0:0:0:
358,192,29978,1,8,0:0:0:0:
460,192,29978,1,0,0:0:0:0:
51,192,30143,128,0,30473:0:0:0:0:
153,192,30143,1,0,0:0:0:0:
256,192,30308,1,2,0:0:0:0:
358,192,30473,1,0,0:0:0:0:
460,192,30473,1,0,0:0:0:0:
153,192,30637,1,8,0:0:0:0:
256,192,30637,1,0,0:0:0:0:
51,192,30802,1,0,0:0:0:0:
460,192,30802,1,0,0:0:0:0:
256,192,30967,1,2,0:0:0:0:
358,192,30967,1,0,0:0:0:0:
51,192,31132,1,0,0:0:0:0:
153,192,31132,1,0,0:0:0:0:
358,192,31214,1,0,0:0:0:0:
460,192,31214,1,0,0:0:0:0:
153,192,31297,1,8,0:0:0:0:
256,192,31297,1,0,0:0:0:0:
51,192,31462,1,0,0:0:0:0:
358,192,31462,1,0,0:0:0:0:
256,192,31626,1,2,0:0:0:0:
460,192,31626,128,0,31791:0:0:0:0:
51,192,31791,1,0,0:0:0:0:
153,192,31791,1,0,0:0:0:0:
256,192,31874,1,0,0:0:0:0:
358,192,31874,1,0,0:0:0:0:
153,192,31956,1,8,0:0:0:0:
460,192,31956,1,0,0:0:0:0:
51,192,32121,128,0,32286:0:0:0:0:
256,192,32121,1,0,0:0:0:0:
358,192,32286,1,2,0:0:0:0:
460,192,32286,1,0,0:0:0:0:
51,192,32368,1,0,0:0:0:0:
153,192,32368,1,0,0:0:0:0:
256,192,32451,1,0,0:0:0:0:
358,192,32451,1,0,0:0:0:0:
51,192,32533,1,0,0:0:0:0:
153,192,32533,1,0,0:0:0:0:
358,192,32616,1,8,0:0:0:0:
460,192,32616,1,0,0:0:0:0:
51,192,32780,128,2,33110:0:0:0:0:
256,192,32780,1,4,0:0:0:0:
460,192,32780,128,0,33110:0:0:0:0:
153,192,33110,1,0,0:0:0:0:
358,192,33110,1,0,0:0:0:0:
153,192,33275,1,0,0:0:0:0:
358,192,33275,1,0,0:0:0:0:
51,192,33440,1,2,0:0:0:0:
256,192,33440,128,4,33605:0:0:0:0:
460,192,33440,1,0,0:0:0:0:
153,192,33605,1,0,0:0:0:0:
358,192,33605,1,0,0:0:0:0:
51,192,33769,1,0,0:0:0:0:
358,192,33852,1,0,0:0:0:0:
460,192,33852,1,0,0:0:0:0:
51,192,33934,1,0,0:0:0:60:Snare3.wav
153,192,33934,1,0,0:0:0:0:
256,192,34017,1,0,0:0:0:0:
358,192,34099,1,0,0:0:0:0:
460,192,34099,1,0,0:0:0:0:
153,192,34181,1,0,0:0:0:0:
51,192,34264,128,2,34594:0:0:0:0:
256,192,34264,1,4,0:0:0:0:
460,192,34264,1,0,0:0:0:0:
153,192,34594,1,8,0:0:0:0:
256,192,34594,1,0,0:0:0:0:
358,192,34758,1,0,0:0:0:0:
460,192,34758,1,0,0:0:0:0:
256,192,34841,1,0,0:0:0:0:
51,192,34923,1,2,0:0:0:0:
153,192,34923,1,0,0:0:0:0:
358,192,35088,1,0,0:0:0:0:
460,192,35088,1,0,0:0:0:0:
51,192,35253,1,8,0:0:0:0:
256,192,35253,1,0,0:0:0:0:
153,192,35418,128,0,35747:0:0:0:0:
460,192,35418,1,0,0:0:0:0:
358,192,35583,1,2,0:0:0:0:
51,192,35747,1,0,0:0:0:0:
256,192,35747,1,0,0:0:0:0:
358,192,35912,1,8,0:0:0:0:
460,192,35912,1,0,0:0:0:0:
153,192,36077,1,0,0:0:0:0:
256,192,36077,1,0,0:0:0:0:
358,192,36159,1,2,0:0:0:0:
51,192,36242,1,2,0:0:0:0:
460,192,36242,1,0,0:0:0:0:
256,192,36407,1,0,0:0:0:0:
358,192,36407,1,0,0:0:0:0:
51,192,36572,1,8,0:0:0:0:
153,192,36572,1,0,0:0:0:0:
256,192,36736,1,2,0:0:0:0:
460,192,36736,1,0,0:0:0:0:
51,192,36901,1,2,0:0:0:0:
358,192,36901,128,0,37231:0:0:0:0:
153,192,37066,1,0,0:0:0:0:
51,192,37231,1,8,0:0:0:0:
256,192,37231,1,0,0:0:0:0:
153,192,37396,1,0,0:0:0:0:
460,192,37396,1,0,0:0:0:0:
256,192,37478,1,0,0:0:0:0:
358,192,37561,1,2,0:0:0:0:
460,192,37561,1,0,0:0:0:0:
51,192,37725,1,0,0:0:0:0:
153,192,37725,1,0,0:0:0:0:
256,192,37890,1,8,0:0:0:0:
460,192,37890,1,0,0:0:0:0:
153,192,38055,1,0,0:0:0:0:
358,192,38055,1,0,0:0:0:0:
51,192,38220,1,2,0:0:0:0:
256,192,38220,1,4,0:0:0:0:
460,192,38220,1,0,0:0:0:0:
153,192,38385,128,0,38550:0:0:0:0:
358,192,38714,1,0,0:0:0:0:
256,192,38797,1,0,0:0:0:0:
51,192,38879,1,2,0:0:0:0:
153,192,38879,1,4,0:0:0:0:
460,192,38879,1,0,0:0:0:0:
358,192,39044,1,0,0:0:0:0:
256,192,39099,1,0,0:0:0:0:
153,192,39154,1,0,0:0:0:0:
51,192,39209,1,0,0:0:0:0:
460,192,39374,1,2,0:0:0:0:
358,192,39429,1,2,0:0:0:0:
256,192,39484,1,2,0:0:0:0:
51,192,39539,1,2,0:0:0:0:
153,192,39539,1,0,0:0:0:0:
358,192,39621,1,2,0:0:0:0:
460,192,39621,1,0,0:0:0:0:
51,192,39703,1,2,0:0:0:0:
153,192,39703,1,0,0:0:0:0:
256,192,39786,1,2,0:0:0:0:
51,192,39868,1,2,0:0:0:0:
358,192,39868,1,4,0:0:0:0:
460,192,39868,1,0,0:0:0:0:
358,192,40198,1,2,0:0:0:0:
460,192,40198,1,0,0:0:0:0:
256,192,40280,1,0,0:0:0:0:
51,192,40363,1,0,0:0:0:0:
153,192,40363,1,0,0:0:0:0:
460,192,40445,1,0,0:0:0:0:
51,192,40528,1,8,0:0:0:0:
256,192,40528,1,0,0:0:0:0:
153,192,40692,1,0,0:0:0:0:
460,192,40692,128,0,41022:0:0:0:0:
256,192,40857,1,2,0:0:0:0:
51,192,41022,1,0,0:0:0:0:
153,192,41022,1,0,0:0:0:0:
358,192,41187,1,8,0:0:0:0:
460,192,41187,1,0,0:0:0:0:
256,192,41269,1,0,0:0:0:0:
51,192,41352,128,0,41681:0:0:0:0:
153,192,41352,1,0,0:0:0:0:
256,192,41517,1,2,0:0:0:0:
358,192,41681,128,0,41846:0:0:0:0:
460,192,41681,1,0,0:0:0:0:
51,192,41846,1,8,0:0:0:0:
256,192,41846,128,0,42011:0:0:0:0:
153,192,42011,128,0,42176:0:0:0:0:
460,192,42011,1,0,0:0:0:0:
51,192,42176,128,2,42341:0:0:0:0:
358,192,42176,1,4,0:0:0:0:
460,192,42176,128,0,42341:0:0:0:0:
153,192,42341,1,2,0:0:0:0:
256,192,42341,1,0,0:0:0:0:
358,192,42423,1,2,0:0:0:0:
460,192,42423,1,0,0:0:0:0:
153,192,42506,1,8,0:0:0:0:
256,192,42506,1,0,0:0:0:0:
51,192,42670,128,2,42835:0:0:0:0:
153,192,42670,128,0,42835:0:0:0:0:
358,192,42835,1,2,0:0:0:0:
460,192,42835,1,0,0:0:0:0:
153,192,42918,1,2,0:0:0:0:
256,192,42918,1,0,0:0:0:0:
358,192,43000,1,2,0:0:0:0:
460,192,43000,1,0,0:0:0:0:
51,192,43083,1,0,0:0:0:0:
256,192,43083,1,0,0:0:0:0:
153,192,43165,128,8,43330:0:0:0:0:
358,192,43165,128,0,43330:0:0:0:0:
51,192,43330,1,2,0:0:0:0:
256,192,43330,1,4,0:0:0:0:
460,192,43330,1,0,0:0:0:0:
256,192,43659,128,0,43824:0:0:0:0:
460,192,43659,128,0,43824:0:0:0:0:
51,192,43824,1,0,0:0:0:0:
153,192,43907,1,0,0:0:0:0:
256,192,43989,128,0,44154:0:0:0:0:
460,192,43989,128,0,44154:0:0:0:0:
51,192,44154,1,2,0:0:0:0:
153,192,44154,1,4,0:0:0:0:
358,192,44319,1,2,0:0:0:0:
460,192,44319,1,0,0:0:0:0:
256,192,44401,1,2,0:0:0:0:
51,192,44484,128,0,44648:0:0:0:45:Snare.wav
153,192,44484,128,0,44648:0:0:0:0:
358,192,44484,1,0,0:0:0:0:
358,192,44648,128,2,44813:0:0:0:0:
460,192,44648,128,0,44813:0:0:0:0:
51,192,44813,1,2,0:0:0:0:
153,192,44813,1,4,0:0:0:0:
256,192,44813,1,0,0:0:0:0:
256,192,44978,128,0,45143:0:0:0:0:
358,192,45143,128,0,45308:0:0:0:60:SnareClap2.wav
153,192,45473,128,0,45637:0:0:0:0:
358,192,45637,128,0,45802:0:0:0:0:
256,192,45802,128,0,45967:0:0:0:60:SnareClap2.wav
51,192,45967,128,0,46132:0:0:0:0:
460,192,46297,128,0,46462:0:0:0:0:
153,192,46626,128,0,46791:0:0:0:0:
256,192,46956,1,0,0:0:0:0:
358,192,47121,1,0,0:0:0:60:SnareClap2.wav
460,192,47121,1,0,0:0:0:0:
51,192,47286,1,2,0:0:0:0:
153,192,47286,1,0,0:0:0:0:
51,192,47451,1,2,0:0:0:0:
256,192,47451,1,4,0:0:0:0:
460,192,47451,1,0,0:0:0:0:
358,192,47616,128,0,47780:0:0:0:0:
460,192,47780,128,0,47945:0:0:0:60:SnareClap2.wav
153,192,48110,128,0,48275:0:0:0:0:
358,192,48275,128,0,48440:0:0:0:0:
256,192,48440,128,0,48605:0:0:0:60:SnareClap2.wav
51,192,48605,128,0,48769:0:0:0:0:
256,192,48934,128,0,49099:0:0:0:0:
153,192,49099,128,0,49264:0:0:0:60:SnareClap2.wav
460,192,49264,128,0,49429:0:0:0:0:
153,192,49594,1,0,0:0:0:0:
358,192,49758,1,0,0:0:0:60:SnareClap2.wav
153,192,49923,1,0,0:0:0:0:
51,192,50088,1,2,0:0:0:0:
256,192,50088,1,4,0:0:0:0:
460,192,50088,1,0,0:0:0:0:
153,192,50253,1,2,0:0:0:0:
358,192,50253,1,0,0:0:0:0:
256,192,50418,1,2,0:0:0:0:
460,192,50418,1,0,0:0:0:0:
256,192,50583,1,2,0:0:0:0:
460,192,50583,1,0,0:0:0:0:
51,192,50747,1,2,0:0:0:0:
153,192,50747,1,0,0:0:0:0:
51,192,50912,1,2,0:0:0:0:
153,192,50912,1,0,0:0:0:0:
358,192,51077,1,2,0:0:0:0:
460,192,51077,1,0,0:0:0:0:
358,192,51242,1,2,0:0:0:0:
460,192,51242,1,0,0:0:0:0:
51,192,51407,1,2,0:0:0:0:
256,192,51407,1,4,0:0:0:0:
460,192,51407,1,0,0:0:0:0:
153,192,51572,1,2,0:0:0:0:
358,192,51572,1,0,0:0:0:0:
51,192,51736,1,2,0:0:0:0:
256,192,51736,1,0,0:0:0:0:
51,192,51901,1,2,0:0:0:0:
256,192,51901,1,0,0:0:0:0:
358,192,52066,1,2,0:0:0:0:
460,192,52066,1,0,0:0:0:0:
358,192,52231,1,2,0:0:0:0:
460,192,52231,1,0,0:0:0:0:
51,192,52396,1,2,0:0:0:0:
153,192,52396,1,0,0:0:0:0:
51,192,52561,1,2,0:0:0:0:
153,192,52561,1,0,0:0:0:0:
358,192,52725,1,2,0:0:0:0:
460,192,52725,1,4,0:0:0:0:
256,192,52808,1,2,0:0:0:0:
51,192,52890,1,2,0:0:0:0:
153,192,52890,1,0,0:0:0:0:
358,192,52973,1,2,0:0:0:0:
460,192,52973,1,0,0:0:0:0:
51,192,53055,1,2,0:0:0:0:
153,192,53055,1,0,0:0:0:0:
256,192,53137,1,2,0:0:0:0:
358,192,53220,1,2,0:0:0:0:
460,192,53220,1,0,0:0:0:0:
51,192,53302,1,2,0:0:0:0:
153,192,53302,1,0,0:0:0:0:
358,192,53385,1,2,0:0:0:0:
460,192,53385,1,0,0:0:0:0:
256,192,53467,1,2,0:0:0:0:
51,192,53550,1,2,0:0:0:0:
153,192,53550,1,0,0:0:0:0:
358,192,53632,1,2,0:0:0:0:
460,192,53632,1,0,0:0:0:0:
51,192,53714,1,2,0:0:0:0:
153,192,53714,1,0,0:0:0:0:
256,192,53797,1,2,0:0:0:0:
358,192,53879,1,2,0:0:0:0:
460,192,53879,1,0,0:0:0:0:
51,192,53962,1,2,0:0:0:0:
153,192,53962,1,0,0:0:0:0:
256,192,54044,1,2,0:0:0:0:
358,192,54044,1,4,0:0:0:0:
460,192,54044,1,0,0:0:0:0:
51,192,54209,1,0,0:0:0:0:
153,192,54291,1,0,0:0:0:0:
256,192,54374,1,0,0:0:0:75:SnareClap2.wav
460,192,54374,1,0,0:0:0:0:
51,192,54539,1,2,0:0:0:0:
358,192,54539,1,0,0:0:0:0:
256,192,54621,1,0,0:0:0:0:
153,192,54703,1,0,0:0:0:0:
460,192,54786,1,0,0:0:0:0:
256,192,54868,1,2,0:0:0:0:
153,192,54951,1,0,0:0:0:0:
51,192,55033,1,0,0:0:0:60:Snare3.wav
358,192,55033,1,0,0:0:0:0:
460,192,55033,1,0,0:0:0:0:
358,192,55363,1,2,0:0:0:0:
460,192,55363,1,0,0:0:0:0:
51,192,55445,1,2,0:0:0:0:
153,192,55445,1,0,0:0:0:0:
256,192,55528,1,2,0:0:0:0:
358,192,55528,1,0,0:0:0:0:
51,192,55610,1,2,0:0:0:0:
153,192,55610,1,0,0:0:0:0:
358,192,55692,128,2,55940:0:0:0:0:
460,192,55692,128,0,55940:0:0:0:55:CrashShort.wav
51,192,55940,1,2,0:0:0:0:
153,192,55940,1,0,0:0:0:55:CrashShort.wav
256,192,56187,128,2,56434:0:0:0:0:
358,192,56187,128,0,56434:0:0:0:55:CrashShort.wav
51,192,56434,1,2,0:0:0:0:
460,192,56434,1,0,0:0:0:55:CrashShort.wav
153,192,56681,128,2,56929:0:0:0:0:
256,192,56681,128,0,56929:0:0:0:55:CrashShort.wav
358,192,56929,1,2,0:0:0:0:
460,192,56929,1,0,0:0:0:55:CrashShort.wav
51,192,57176,128,2,57341:0:0:0:0:
153,192,57176,128,0,57341:0:0:0:55:CrashShort.wav
256,192,57341,1,0,0:0:0:60:Snare2.wav
358,192,57341,1,0,0:0:0:0:
460,192,57341,1,0,0:0:0:0:
153,192,57423,1,0,0:0:0:0:
256,192,57506,1,0,0:0:0:0:
358,192,57588,1,0,0:0:0:0:
51,192,57670,1,0,0:0:0:0:
153,192,57753,1,0,0:0:0:0:
358,192,57835,1,2,0:0:0:0:
460,192,57835,1,0,0:0:0:0:
51,192,57918,1,2,0:0:0:0:
256,192,57918,1,0,0:0:0:0:
358,192,58000,1,2,0:0:0:0:
460,192,58000,1,0,0:0:0:0:
51,192,58083,1,2,0:0:0:0:
153,192,58083,1,0,0:0:0:0:
256,192,58165,128,2,58412:0:0:0:0:
460,192,58165,128,0,58412:0:0:0:55:CrashShort.wav
153,192,58412,1,2,0:0:0:0:
358,192,58412,1,0,0:0:0:55:CrashShort.wav
51,192,58659,128,2,58907:0:0:0:0:
256,192,58659,128,0,58907:0:0:0:55:CrashShort.wav
153,192,58907,1,2,0:0:0:0:
358,192,58907,1,0,0:0:0:55:CrashShort.wav
256,192,59154,128,2,59401:0:0:0:0:
460,192,59154,128,0,59401:0:0:0:55:CrashShort.wav
51,192,59401,1,2,0:0:0:0:
153,192,59401,1,0,0:0:0:55:CrashShort.wav
358,192,59648,128,2,59896:0:0:0:0:
460,192,59648,128,0,59896:0:0:0:55:CrashShort.wav
51,192,59896,1,2,0:0:0:0:
256,192,59896,1,0,0:0:0:55:CrashShort.wav
51,192,60143,1,2,0:0:0:0:
153,192,60143,1,0,0:0:0:0:
460,192,60143,1,0,0:0:0:0:
358,192,60308,1,0,0:0:0:0:
256,192,60374,1,0,0:0:0:0:
153,192,60440,1,0,0:0:0:0:
460,192,60528,1,0,0:0:0:0:
51,192,60637,1,2,0:0:0:0:
256,192,60637,1,0,0:0:0:0:
358,192,60720,1,2,0:0:0:0:
460,192,60720,1,0,0:0:0:0:
51,192,60802,1,2,0:0:0:0:
153,192,60802,1,0,0:0:0:0:
256,192,60885,1,2,0:0:0:0:
358,192,60885,1,0,0:0:0:0:
51,192,60967,128,2,61214:0:0:0:0:
153,192,60967,128,0,61214:0:0:0:55:CrashShort.wav
358,192,61214,1,2,0:0:0:0:
460,192,61214,1,0,0:0:0:55:CrashShort.wav
51,192,61462,128,2,61709:0:0:0:0:
256,192,61462,128,0,61709:0:0:0:55:CrashShort.wav
153,192,61709,1,2,0:0:0:0:
460,192,61709,1,0,0:0:0:55:CrashShort.wav
358,192,61956,128,2,62203:0:0:0:0:
460,192,61956,128,0,62203:0:0:0:55:CrashShort.wav
51,192,62203,1,2,0:0:0:0:
256,192,62203,1,0,0:0:0:55:CrashShort.wav
153,192,62451,128,2,62616:0:0:0:0:
460,192,62451,128,0,62616:0:0:0:55:CrashShort.wav
51,192,62616,1,0,0:0:0:60:Snare2.wav
256,192,62616,1,0,0:0:0:0:
358,192,62616,1,0,0:0:0:0:
153,192,62698,1,0,0:0:0:0:
460,192,62780,1,0,0:0:0:0:
358,192,62863,1,0,0:0:0:0:
256,192,62945,1,0,0:0:0:0:
153,192,63028,1,0,0:0:0:0:
358,192,63110,1,2,0:0:0:0:
460,192,63110,1,0,0:0:0:0:
51,192,63192,1,2,0:0:0:0:
153,192,63192,1,0,0:0:0:0:
256,192,63275,1,2,0:0:0:0:
460,192,63275,1,0,0:0:0:0:
51,192,63357,1,2,0:0:0:0:
153,192,63357,1,0,0:0:0:0:
256,192,63440,128,2,63687:0:0:0:0:
460,192,63440,128,0,63687:0:0:0:55:CrashShort.wav
153,192,63687,1,2,0:0:0:0:
358,192,63687,1,0,0:0:0:55:CrashShort.wav
51,192,63934,128,2,64181:0:0:0:0:
256,192,63934,128,0,64181:0:0:0:55:CrashShort.wav
358,192,64181,1,2,0:0:0:0:
460,192,64181,1,0,0:0:0:55:CrashShort.wav
153,192,64429,128,2,64676:0:0:0:0:
460,192,64429,128,0,64676:0:0:0:55:CrashShort.wav
51,192,64676,1,2,0:0:0:0:
256,192,64676,1,0,0:0:0:55:CrashShort.wav
358,192,64923,128,2,65170:0:0:0:0:
460,192,64923,128,0,65170:0:0:0:55:CrashShort.wav
51,192,65170,1,2,0:0:0:0:
153,192,65170,1,0,0:0:0:55:CrashShort.wav
256,192,65418,1,0,0:0:0:75:SnareClap2.wav
358,192,65418,1,0,0:0:0:0:
51,192,65583,1,0,0:0:0:0:
460,192,65583,1,0,0:0:0:0:
358,192,65665,1,0,0:0:0:0:
153,192,65747,1,0,0:0:0:0:
256,192,65789,1,0,0:0:0:0:
358,192,65830,1,0,0:0:0:0:
460,192,65871,1,0,0:0:0:0:
51,192,65912,1,2,0:0:0:0:
153,192,65912,1,0,0:0:0:0:
256,192,65995,1,2,0:0:0:0:
358,192,65995,1,0,0:0:0:60:SnareClap.wav
51,192,66077,1,2,0:0:0:0:
153,192,66077,1,0,0:0:0:60:SnareClap.wav
358,192,66159,1,2,0:0:0:0:
460,192,66159,1,0,0:0:0:60:SnareClap.wav
51,192,66242,128,2,66407:0:0:0:0:
256,192,66242,128,4,66407:0:0:0:0:
460,192,66407,1,0,0:0:0:0:
256,192,66489,1,0,0:0:0:0:
358,192,66489,1,0,0:0:0:0:
51,192,66572,1,2,0:0:0:0:
153,192,66572,1,0,0:0:0:0:
358,192,66736,128,0,66901:0:0:0:0:
460,192,66736,128,0,66901:0:0:0:0:
51,192,66901,1,8,0:0:0:0:
153,192,66901,1,0,0:0:0:0:
256,192,66984,1,0,0:0:0:0:
460,192,66984,1,0,0:0:0:0:
358,192,67066,1,0,0:0:0:0:
153,192,67231,128,2,67396:0:0:0:0:
460,192,67231,128,0,67396:0:0:0:0:
51,192,67396,1,0,0:0:0:0:
256,192,67478,1,0,0:0:0:0:
358,192,67478,1,0,0:0:0:0:
153,192,67561,1,8,0:0:0:0:
460,192,67561,1,0,0:0:0:0:
51,192,67725,128,0,67890:0:0:0:0:
358,192,67725,128,0,67890:0:0:0:0:
153,192,67890,1,2,0:0:0:0:
460,192,67890,1,0,0:0:0:0:
256,192,68055,128,0,68220:0:0:0:0:
153,192,68220,1,8,0:0:0:0:
460,192,68220,1,0,0:0:0:0:
256,192,68385,1,0,0:0:0:60:SnareClap.wav
358,192,68385,1,0,0:0:0:0:
51,192,68467,1,0,0:0:0:60:SnareClap.wav
153,192,68467,1,0,0:0:0:0:
358,192,68550,1,2,0:0:0:0:
460,192,68550,1,0,0:0:0:0:
153,192,68632,1,0,0:0:0:60:SnareClap.wav
256,192,68632,1,0,0:0:0:0:
51,192,68714,128,0,68879:0:0:0:0:
460,192,68714,128,0,68879:0:0:0:0:
256,192,68879,1,8,0:0:0:0:
358,192,68879,1,0,0:0:0:0:
51,192,68962,1,0,0:0:0:0:
153,192,68962,1,0,0:0:0:0:
358,192,69044,1,0,0:0:0:0:
256,192,69209,128,2,69374:0:0:0:0:
460,192,69209,128,0,69374:0:0:0:0:
51,192,69374,1,0,0:0:0:0:
153,192,69456,1,0,0:0:0:0:
358,192,69456,1,0,0:0:0:0:
256,192,69539,1,8,0:0:0:0:
460,192,69539,1,0,0:0:0:0:
51,192,69703,128,0,69868:0:0:0:0:
153,192,69703,128,0,69868:0:0:0:0:
358,192,69868,1,2,0:0:0:0:
460,192,69868,1,0,0:0:0:0:
51,192,69951,1,0,0:0:0:0:
256,192,69951,1,0,0:0:0:0:
153,192,70033,1,0,0:0:0:0:
358,192,70198,128,8,70363:0:0:0:0:
460,192,70198,128,0,70363:0:0:0:0:
51,192,70363,1,0,0:0:0:0:
153,192,70445,1,0,0:0:0:0:
256,192,70445,1,0,0:0:0:0:
358,192,70528,1,2,0:0:0:0:
460,192,70528,1,0,0:0:0:0:
51,192,70692,128,0,70857:0:0:0:0:
256,192,70857,1,8,0:0:0:0:
460,192,70857,1,0,0:0:0:0:
358,192,71022,1,0,0:0:0:0:
256,192,71105,1,0,0:0:0:0:
51,192,71187,1,2,0:0:0:0:
153,192,71187,1,0,0:0:0:0:
358,192,71269,1,0,0:0:0:60:SnareClap.wav
460,192,71269,1,0,0:0:0:0:
51,192,71352,1,0,0:0:0:60:SnareClap.wav
153,192,71352,1,0,0:0:0:0:
358,192,71434,1,0,0:0:0:60:SnareClap.wav
460,192,71434,1,0,0:0:0:0:
51,192,71517,128,8,71681:0:0:0:0:
256,192,71517,128,4,71681:0:0:0:0:
358,192,71681,1,0,0:0:0:0:
153,192,71764,1,0,0:0:0:0:
256,192,71764,1,0,0:0:0:0:
51,192,71846,1,2,0:0:0:0:
460,192,71846,1,0,0:0:0:0:
153,192,72011,128,0,72176:0:0:0:0:
358,192,72011,128,0,72176:0:0:0:0:
51,192,72176,1,8,0:0:0:0:
460,192,72176,1,0,0:0:0:0:
256,192,72258,1,0,0:0:0:0:
358,192,72258,1,0,0:0:0:0:
153,192,72341,1,0,0:0:0:0:
256,192,72506,128,2,72670:0:0:0:0:
460,192,72506,128,0,72670:0:0:0:0:
51,192,72670,1,0,0:0:0:0:
153,192,72753,1,0,0:0:0:0:
358,192,72753,1,0,0:0:0:0:
256,192,72835,1,8,0:0:0:0:
460,192,72835,1,0,0:0:0:0:
51,192,73000,128,0,73165:0:0:0:0:
153,192,73000,128,0,73165:0:0:0:0:
358,192,73165,1,2,0:0:0:0:
460,192,73165,1,0,0:0:0:0:
256,192,73330,128,0,73495:0:0:0:0:
51,192,73495,1,8,0:0:0:0:
358,192,73495,1,0,0:0:0:0:
460,192,73659,1,2,0:0:0:0:
358,192,73714,1,2,0:0:0:0:
256,192,73769,1,2,0:0:0:0:
51,192,73824,1,2,0:0:0:0:
153,192,73824,1,0,0:0:0:0:
358,192,73907,1,2,0:0:0:0:
460,192,73907,1,0,0:0:0:0:
51,192,73989,1,2,0:0:0:0:
153,192,73989,1,4,0:0:0:0:
256,192,73989,1,0,0:0:0:0:
153,192,74236,1,2,0:0:0:0:
358,192,74236,1,0,0:0:0:55:CrashShort.wav
460,192,74236,1,0,0:0:0:0:
256,192,74484,1,2,0:0:0:0:
358,192,74484,1,0,0:0:0:55:CrashShort.wav
460,192,74484,1,0,0:0:0:0:
51,192,74731,1,2,0:0:0:0:
153,192,74731,1,0,0:0:0:55:CrashShort.wav
358,192,74731,1,0,0:0:0:0:
51,192,74978,128,2,75225:0:0:0:0:
256,192,74978,128,4,75225:0:0:0:0:
460,192,74978,1,0,0:0:0:0:
153,192,75225,1,0,0:0:0:0:
358,192,75225,1,0,0:0:0:0:
256,192,75473,128,0,75720:0:0:0:0:
460,192,75473,128,0,75720:0:0:0:0:
153,192,75720,1,0,0:0:0:0:
358,192,75720,1,0,0:0:0:0:
51,192,75967,1,0,0:0:0:0:
460,192,75967,1,0,0:0:0:0:
153,192,76008,1,0,0:0:0:0:
256,192,76050,1,0,0:0:0:0:
358,192,76091,1,0,0:0:0:0:
460,192,76132,1,0,0:0:0:0:
51,192,76214,1,0,0:0:0:0:
153,192,76297,1,0,0:0:0:0:
256,192,76379,1,0,0:0:0:0:
51,192,76462,1,2,0:0:0:0:
358,192,76462,1,4,0:0:0:0:
460,192,76462,1,0,0:0:0:0:
153,192,76544,1,0,0:0:0:0:
256,192,76626,1,0,0:0:0:0:
460,192,76626,1,0,0:0:0:0:
51,192,76709,1,0,0:0:0:0:
256,192,76791,1,8,0:0:0:0:
358,192,76791,1,0,0:0:0:0:
153,192,76874,1,0,0:0:0:0:
51,192,76956,1,0,0:0:0:0:
460,192,76956,1,0,0:0:0:0:
358,192,77039,1,0,0:0:0:0:
153,192,77121,1,2,0:0:0:0:
256,192,77121,1,0,0:0:0:0:
51,192,77203,1,0,0:0:0:0:
460,192,77203,1,0,0:0:0:0:
358,192,77286,1,0,0:0:0:0:
51,192,77368,1,0,0:0:0:0:
153,192,77368,1,0,0:0:0:0:
358,192,77451,1,8,0:0:0:0:
460,192,77451,1,0,0:0:0:0:
51,192,77533,1,0,0:0:0:0:
256,192,77533,1,0,0:0:0:0:
153,192,77616,1,0,0:0:0:0:
460,192,77616,1,0,0:0:0:0:
358,192,77698,1,0,0:0:0:0:
51,192,77780,1,2,0:0:0:0:
153,192,77780,1,0,0:0:0:0:
256,192,77863,1,0,0:0:0:0:
358,192,77945,1,0,0:0:0:0:
460,192,77945,1,0,0:0:0:0:
153,192,78028,1,0,0:0:0:0:
256,192,78110,1,8,0:0:0:0:
460,192,78110,1,0,0:0:0:0:
51,192,78192,1,0,0:0:0:0:
153,192,78275,1,0,0:0:0:0:
358,192,78275,1,0,0:0:0:0:
256,192,78357,1,0,0:0:0:0:
153,192,78440,1,2,0:0:0:0:
460,192,78440,1,0,0:0:0:0:
51,192,78522,1,0,0:0:0:0:
358,192,78605,1,0,0:0:0:0:
460,192,78605,1,0,0:0:0:0:
256,192,78687,1,0,0:0:0:0:
51,192,78769,1,8,0:0:0:0:
153,192,78769,1,0,0:0:0:0:
358,192,78852,1,0,0:0:0:0:
51,192,78934,128,0,79264:0:0:0:0:
460,192,78934,1,0,0:0:0:0:
153,192,79099,1,2,0:0:0:0:
256,192,79099,1,0,0:0:0:0:
358,192,79264,128,0,79429:0:0:0:0:
460,192,79264,1,0,0:0:0:0:
51,192,79429,1,8,0:0:0:0:
153,192,79429,1,0,0:0:0:0:
256,192,79594,128,0,79923:0:0:0:0:
460,192,79594,1,0,0:0:0:0:
51,192,79758,1,2,0:0:0:0:
358,192,79758,1,0,0:0:0:0:
153,192,79923,1,0,0:0:0:0:
460,192,79923,128,0,80088:0:0:0:0:
51,192,80088,1,8,0:0:0:0:
358,192,80088,1,0,0:0:0:0:
256,192,80170,1,0,0:0:0:0:
153,192,80253,128,0,80583:0:0:0:0:
460,192,80253,1,0,0:0:0:0:
51,192,80418,1,2,0:0:0:0:
358,192,80418,1,0,0:0:0:0:
256,192,80583,128,0,80747:0:0:0:0:
460,192,80583,1,0,0:0:0:0:
51,192,80747,1,8,0:0:0:0:
358,192,80747,1,0,0:0:0:0:
153,192,80912,1,0,0:0:0:0:
256,192,80953,1,0,0:0:0:0:
358,192,80995,128,0,81242:0:0:0:0:
153,192,81077,1,2,0:0:0:0:
51,192,81077,1,0,0:0:0:0:
51,192,81242,1,0,0:0:0:0:
460,192,81242,1,0,0:0:0:0:
153,192,81324,1,0,0:0:0:0:
256,192,81407,1,8,0:0:0:0:
460,192,81407,1,0,0:0:0:0:
358,192,81489,1,0,0:0:0:0:
51,192,81572,1,0,0:0:0:0:
153,192,81572,1,0,0:0:0:0:
256,192,81654,1,0,0:0:0:0:
358,192,81736,1,2,0:0:0:0:
460,192,81736,1,0,0:0:0:0:
153,192,81819,1,0,0:0:0:0:
51,192,81901,1,0,0:0:0:0:
358,192,81901,1,0,0:0:0:0:
256,192,81984,1,0,0:0:0:0:
153,192,82066,1,8,0:0:0:0:
460,192,82066,1,0,0:0:0:0:
358,192,82148,1,0,0:0:0:0:
51,192,82231,1,0,0:0:0:0:
256,192,82231,1,0,0:0:0:0:
460,192,82313,1,0,0:0:0:0:
51,192,82396,1,2,0:0:0:0:
153,192,82396,1,0,0:0:0:0:
358,192,82478,1,0,0:0:0:0:
460,192,82478,1,0,0:0:0:0:
256,192,82561,1,0,0:0:0:0:
51,192,82643,1,0,0:0:0:0:
153,192,82643,1,0,0:0:0:0:
358,192,82725,1,8,0:0:0:0:
460,192,82725,1,0,0:0:0:0:
51,192,82808,1,0,0:0:0:0:
153,192,82890,1,0,0:0:0:0:
256,192,82890,1,0,0:0:0:0:
358,192,82973,1,0,0:0:0:0:
460,192,82973,1,0,0:0:0:0:
51,192,83055,1,2,0:0:0:0:
153,192,83055,1,0,0:0:0:0:
256,192,83137,1,0,0:0:0:0:
358,192,83220,1,0,0:0:0:0:
460,192,83302,1,0,0:0:0:0:
51,192,83385,1,8,0:0:0:0:
256,192,83385,1,0,0:0:0:0:
358,192,83467,1,0,0:0:0:0:
153,192,83550,1,0,0:0:0:0:
256,192,83632,1,0,0:0:0:0:
358,192,83714,1,2,0:0:0:0:
460,192,83714,1,0,0:0:0:0:
51,192,83797,1,0,0:0:0:0:
256,192,83879,1,0,0:0:0:0:
460,192,83879,1,0,0:0:0:0:
153,192,83962,1,0,0:0:0:0:
358,192,83962,1,0,0:0:0:0:
51,192,84044,1,8,0:0:0:0:
256,192,84044,1,0,0:0:0:0:
358,192,84126,1,0,0:0:0:0:
153,192,84209,1,0,0:0:0:0:
460,192,84209,1,0,0:0:0:0:
256,192,84291,1,0,0:0:0:0:
51,192,84374,1,2,0:0:0:0:
153,192,84374,128,4,84703:0:0:0:0:
358,192,84374,1,0,0:0:0:0:
358,192,84703,1,0,0:0:0:60:SnareClap.wav
460,192,84703,1,0,0:0:0:0:
51,192,84786,1,0,0:0:0:60:SnareClap.wav
153,192,84786,1,0,0:0:0:0:
256,192,84868,1,0,0:0:0:60:SnareClap.wav
358,192,84868,1,0,0:0:0:0:
51,192,84951,1,0,0:0:0:60:SnareClap.wav
153,192,84951,1,0,0:0:0:0:
256,192,85033,1,2,0:0:0:0:
358,192,85033,128,4,85363:0:0:0:0:
460,192,85033,1,0,0:0:0:0:
51,192,85363,1,0,0:0:0:60:SnareClap.wav
153,192,85363,1,0,0:0:0:0:
358,192,85445,1,0,0:0:0:60:SnareClap.wav
460,192,85445,1,0,0:0:0:0:
153,192,85528,1,0,0:0:0:60:SnareClap.wav
256,192,85528,1,0,0:0:0:0:
358,192,85610,1,0,0:0:0:60:SnareClap.wav
460,192,85610,1,0,0:0:0:0:
51,192,85692,128,2,85857:0:0:0:0:
153,192,85692,1,0,0:0:0:60:SnareClap2.wav
460,192,85857,1,0,0:0:0:0:
358,192,85940,1,0,0:0:0:0:
51,192,86022,128,0,86187:0:0:0:60:SnareClap2.wav
256,192,86022,1,0,0:0:0:0:
358,192,86187,1,0,0:0:0:0:
460,192,86269,1,0,0:0:0:0:
51,192,86352,128,0,86517:0:0:0:60:SnareClap2.wav
256,192,86352,1,0,0:0:0:0:
153,192,86517,1,2,0:0:0:0:
256,192,86599,1,2,0:0:0:0:
51,192,86681,1,0,0:0:0:45:Snare.wav
358,192,86681,128,0,86846:0:0:0:0:
460,192,86681,128,0,86846:0:0:0:0:
153,192,86846,1,2,0:0:0:0:
256,192,86846,1,0,0:0:0:0:
51,192,87011,1,2,0:0:0:0:
358,192,87011,1,4,0:0:0:0:
460,192,87011,1,0,0:0:0:0:
153,192,87094,1,0,0:0:0:0:
256,192,87176,1,2,0:0:0:0:
358,192,87176,1,0,0:0:0:60:SnareClap.wav
153,192,87258,1,0,0:0:0:0:
256,192,87341,1,2,0:0:0:0:
460,192,87341,1,0,0:0:0:0:
51,192,87423,1,0,0:0:0:0:
153,192,87506,1,2,0:0:0:0:
358,192,87506,1,0,0:0:0:60:SnareClap.wav
460,192,87588,1,0,0:0:0:0:
51,192,87670,1,2,0:0:0:0:
153,192,87670,1,0,0:0:0:0:
256,192,87753,1,0,0:0:0:0:
358,192,87835,1,2,0:0:0:0:
460,192,87835,1,0,0:0:0:60:SnareClap.wav
256,192,87918,1,0,0:0:0:0:
51,192,88000,1,2,0:0:0:0:
153,192,88000,1,0,0:0:0:0:
358,192,88083,1,0,0:0:0:0:
153,192,88165,1,2,0:0:0:0:
460,192,88165,1,0,0:0:0:60:SnareClap.wav
256,192,88247,1,0,0:0:0:0:
51,192,88330,1,2,0:0:0:0:
358,192,88330,1,0,0:0:0:0:
460,192,88412,1,2,0:0:0:0:
51,192,88495,1,2,0:0:0:0:
153,192,88495,1,0,0:0:0:60:SnareClap.wav
256,192,88577,1,2,0:0:0:0:
358,192,88659,1,2,0:0:0:0:
460,192,88659,1,0,0:0:0:0:
51,192,88742,1,2,0:0:0:0:
153,192,88742,1,0,0:0:0:0:
256,192,88824,1,2,0:0:0:0:
460,192,88824,1,0,0:0:0:60:SnareClap.wav
51,192,88907,1,2,0:0:0:0:
153,192,88907,1,0,0:0:0:0:
358,192,88989,1,2,0:0:0:0:
460,192,88989,1,0,0:0:0:0:
256,192,89030,1,2,0:0:0:0:
153,192,89072,1,2,0:0:0:0:
51,192,89113,1,2,0:0:0:0:
460,192,89154,1,2,0:0:0:0:
358,192,89154,1,0,0:0:0:60:SnareClap.wav
153,192,89236,1,2,0:0:0:0:
51,192,89319,1,2,0:0:0:0:
256,192,89319,1,0,0:0:0:0:
358,192,89401,1,0,0:0:0:0:
51,192,89484,128,0,89813:0:0:0:60:SnareClap.wav
153,192,89484,128,0,89813:0:0:0:50:CrashShort.wav
460,192,89484,1,0,0:0:0:0:
256,192,89813,1,0,0:0:0:60:SnareClap.wav
358,192,89813,128,0,89978:0:0:0:50:CrashShort.wav
460,192,89813,128,0,89978:0:0:0:0:
51,192,89978,1,2,0:0:0:0:
153,192,89978,1,0,0:0:0:0:
256,192,90143,1,2,0:0:0:0:
358,192,90143,1,0,0:0:0:60:SnareClap.wav
153,192,90225,1,2,0:0:0:0:
51,192,90308,1,2,0:0:0:0:
460,192,90308,1,0,0:0:0:0:
256,192,90390,1,2,0:0:0:0:
358,192,90390,1,0,0:0:0:0:
153,192,90473,1,2,0:0:0:0:
460,192,90473,1,0,0:0:0:60:SnareClap.wav
51,192,90637,1,2,0:0:0:0:
153,192,90637,1,0,0:0:0:0:
256,192,90720,1,0,0:0:0:0:
51,192,90802,1,0,0:0:0:60:SnareClap.wav
358,192,90802,128,0,91132:0:0:0:50:CrashShort.wav
460,192,90802,128,0,91132:0:0:0:0:
51,192,91132,128,0,91297:0:0:0:60:SnareClap.wav
153,192,91132,128,0,91297:0:0:0:50:CrashShort.wav
256,192,91132,1,0,0:0:0:0:
358,192,91297,1,2,0:0:0:0:
460,192,91297,1,0,0:0:0:0:
51,192,91462,1,2,0:0:0:0:
256,192,91462,1,0,0:0:0:60:SnareClap.wav
358,192,91544,1,2,0:0:0:0:
153,192,91626,1,2,0:0:0:0:
460,192,91626,1,0,0:0:0:0:
51,192,91709,1,2,0:0:0:0:
256,192,91709,1,0,0:0:0:0:
358,192,91791,1,2,0:0:0:0:
460,192,91791,1,0,0:0:0:60:SnareClap.wav
51,192,91956,1,2,0:0:0:0:
256,192,91956,1,0,0:0:0:0:
358,192,92121,1,2,0:0:0:0:
460,192,92121,1,0,0:0:0:60:SnareClap.wav
51,192,92286,1,2,0:0:0:0:
153,192,92286,1,4,0:0:0:0:
256,192,92286,1,0,0:0:0:0:
358,192,92368,1,2,0:0:0:0:
460,192,92368,1,0,0:0:0:0:
51,192,92451,1,2,0:0:0:0:
153,192,92451,1,0,0:0:0:0:
358,192,92533,1,2,0:0:0:0:
460,192,92533,1,0,0:0:0:0:
153,192,92616,1,2,0:0:0:0:
256,192,92616,1,0,0:0:0:0:
51,192,92698,1,2,0:0:0:0:
358,192,92780,1,2,0:0:0:0:
460,192,92780,1,0,0:0:0:0:
153,192,92863,1,2,0:0:0:0:
256,192,92945,1,2,0:0:0:0:
358,192,92945,1,0,0:0:0:0:
51,192,93028,1,2,0:0:0:0:
153,192,93028,1,0,0:0:0:0:
358,192,93110,1,2,0:0:0:0:
460,192,93110,1,0,0:0:0:0:
51,192,93192,1,2,0:0:0:0:
153,192,93192,1,0,0:0:0:0:
256,192,93275,1,2,0:0:0:0:
460,192,93275,1,0,0:0:0:0:
51,192,93357,1,2,0:0:0:0:
153,192,93440,1,2,0:0:0:0:
358,192,93440,1,0,0:0:0:0:
460,192,93522,1,2,0:0:0:0:
51,192,93605,1,2,0:0:0:0:
256,192,93605,1,4,0:0:0:0:
358,192,93659,1,2,0:0:0:0:
460,192,93714,1,2,0:0:0:0:
51,192,93769,1,2,0:0:0:0:
153,192,93824,1,2,0:0:0:0:
256,192,93879,1,2,0:0:0:0:
358,192,93934,1,2,0:0:0:0:
460,192,93934,1,0,0:0:0:0:
153,192,93989,1,2,0:0:0:0:
51,192,94044,1,2,0:0:0:0:
460,192,94099,1,2,0:0:0:0:
358,192,94154,1,2,0:0:0:0:
256,192,94209,1,2,0:0:0:0:
51,192,94264,1,2,0:0:0:0:
153,192,94264,1,0,0:0:0:0:
358,192,94319,1,2,0:0:0:0:
460,192,94374,1,2,0:0:0:0:
153,192,94429,1,2,0:0:0:0:
256,192,94484,1,2,0:0:0:0:
358,192,94539,1,2,0:0:0:0:
51,192,94594,1,2,0:0:0:0:
460,192,94594,1,0,0:0:0:0:
153,192,94648,1,2,0:0:0:0:
358,192,94703,1,2,0:0:0:0:
256,192,94758,1,2,0:0:0:0:
153,192,94813,1,2,0:0:0:0:
51,192,94868,1,2,0:0:0:0:
256,192,94923,1,2,0:0:0:0:
358,192,94923,1,0,0:0:0:55:Finish.wav
460,192,94923,1,0,0:0:0:0:
153,192,95253,1,0,0:0:0:0:
153,192,95418,1,0,0:0:0:0:
153,192,95583,1,0,0:0:0:0:
153,192,95747,1,0,0:0:0:0:
153,192,95912,1,0,0:0:0:0:
153,192,96077,1,0,0:0:0:0:
153,192,96242,128,0,96407:0:0:0:0:
153,192,96572,1,0,0:0:0:0:
256,192,96654,1,0,0:0:0:0:
153,192,96736,128,0,96901:0:0:0:0:
460,192,97066,1,0,0:0:0:0:
358,192,97148,1,0,0:0:0:0:
256,192,97231,1,0,0:0:0:0:
358,192,97313,1,0,0:0:0:0:
51,192,97396,1,0,0:0:0:0:
153,192,97478,1,0,0:0:0:0:
256,192,97561,1,0,0:0:0:0:
358,192,97561,1,0,0:0:0:0:
460,192,97561,128,0,97890:0:0:0:0:
51,192,97890,1,0,0:0:0:65:Snaph.wav
358,192,98055,1,0,0:0:0:0:
256,192,98137,1,0,0:0:0:0:
153,192,98220,1,0,0:0:0:0:
358,192,98385,1,0,0:0:0:0:
51,192,98550,1,0,0:0:0:65:Snaph.wav
256,192,98714,128,0,99044:0:0:0:0:
358,192,99044,1,0,0:0:0:0:
153,192,99209,1,0,0:0:0:65:Snaph.wav
460,192,99374,1,0,0:0:0:0:
256,192,99456,1,0,0:0:0:0:
460,192,99539,1,0,0:0:0:0:
153,192,99703,1,0,0:0:0:0:
358,192,99868,1,0,0:0:0:65:Snaph.wav
51,192,100033,1,0,0:0:0:0:
256,192,100198,128,0,100528:0:0:0:0:
460,192,100528,1,0,0:0:0:65:Snaph.wav
153,192,100692,1,0,0:0:0:0:
256,192,100775,1,0,0:0:0:0:
358,192,100857,1,0,0:0:0:0:
153,192,101022,1,0,0:0:0:0:
51,192,101187,1,0,0:0:0:65:Snaph.wav
460,192,101352,128,0,101681:0:0:0:0:
153,192,101681,1,0,0:0:0:0:
256,192,101846,1,0,0:0:0:65:Snaph.wav
358,192,102011,1,0,0:0:0:0:
153,192,102094,1,0,0:0:0:0:
358,192,102176,1,0,0:0:0:0:
51,192,102341,1,0,0:0:0:0:
153,192,102396,1,0,0:0:0:0:
256,192,102451,1,0,0:0:0:0:
358,192,102506,1,0,0:0:0:65:Snaph.wav
460,192,102670,1,0,0:0:0:0:
358,192,102725,1,0,0:0:0:0:
256,192,102780,1,0,0:0:0:0:
153,192,102835,1,0,0:0:0:0:
358,192,103165,1,0,0:0:0:65:Snaph.wav
51,192,103495,1,0,0:0:0:0:
153,192,103577,1,0,0:0:0:0:
358,192,103659,1,0,0:0:0:0:
256,192,103742,1,0,0:0:0:0:
153,192,103824,1,0,0:0:0:65:Snaph.wav
460,192,103989,128,0,104319:0:0:0:0:
51,192,104319,1,0,0:0:0:0:
358,192,104484,1,0,0:0:0:65:Snaph.wav
256,192,104648,1,0,0:0:0:0:
153,192,104978,1,0,0:0:0:0:
256,192,105061,1,0,0:0:0:0:
358,192,105143,1,0,0:0:0:65:Snaph.wav
153,192,105308,1,0,0:0:0:0:
460,192,105473,128,0,105637:0:0:0:0:
256,192,105637,1,0,0:0:0:0:
358,192,105720,1,0,0:0:0:0:
460,192,105802,1,0,0:0:0:65:Snaph.wav
51,192,105967,1,0,0:0:0:0:
153,192,106008,1,0,0:0:0:0:
256,192,106050,1,0,0:0:0:0:
358,192,106091,1,0,0:0:0:0:
51,192,106132,1,0,0:0:0:0:
460,192,106132,1,0,0:0:0:0:
153,192,106214,1,0,0:0:0:0:
256,192,106297,1,0,0:0:0:0:
358,192,106297,1,0,0:0:0:0:
51,192,106379,1,0,0:0:0:0:
153,192,106379,1,0,0:0:0:0:
358,192,106462,1,0,0:0:0:0:
460,192,106462,1,0,0:0:0:0:
51,192,106544,1,0,0:0:0:0:
153,192,106544,1,0,0:0:0:0:
256,192,106626,1,2,0:0:0:0:
358,192,106626,128,4,106956:0:0:0:0:
460,192,106626,128,0,106956:0:0:0:0:
153,192,106956,1,0,0:0:0:0:
51,192,107286,1,2,0:0:0:0:
153,192,107286,128,4,107616:0:0:0:0:
256,192,107286,128,0,107616:0:0:0:0:
358,192,107616,1,2,0:0:0:0:
460,192,107616,1,0,0:0:0:0:
51,192,107698,1,2,0:0:0:0:
153,192,107698,1,0,0:0:0:0:
256,192,107780,128,0,107945:0:0:0:45:Snare.wav
358,192,107780,1,0,0:0:0:0:
460,192,107780,1,0,0:0:0:0:
51,192,107945,1,2,0:0:0:0:
358,192,107945,128,0,108110:0:0:0:0:
51,192,108110,128,2,108440:0:0:0:0:
153,192,108110,1,4,0:0:0:0:
460,192,108110,1,0,0:0:0:0:
153,192,108440,1,8,0:0:0:0:
358,192,108440,1,0,0:0:0:0:
256,192,108605,1,0,0:0:0:0:
460,192,108605,1,0,0:0:0:0:
153,192,108687,1,0,0:0:0:0:
358,192,108769,1,2,0:0:0:0:
460,192,108769,1,0,0:0:0:0:
153,192,108934,1,0,0:0:0:0:
256,192,108934,1,0,0:0:0:0:
51,192,109099,1,8,0:0:0:0:
358,192,109099,1,0,0:0:0:0:
153,192,109264,1,0,0:0:0:0:
460,192,109264,128,0,109594:0:0:0:0:
256,192,109429,1,2,0:0:0:0:
153,192,109594,1,0,0:0:0:0:
358,192,109594,1,0,0:0:0:0:
51,192,109758,1,8,0:0:0:0:
256,192,109758,1,0,0:0:0:0:
358,192,109923,1,0,0:0:0:0:
460,192,109923,1,0,0:0:0:0:
153,192,110006,1,0,0:0:0:0:
256,192,110088,1,2,0:0:0:0:
460,192,110088,1,0,0:0:0:0:
256,192,110253,1,0,0:0:0:0:
358,192,110253,1,0,0:0:0:0:
51,192,110418,1,8,0:0:0:0:
153,192,110418,1,0,0:0:0:0:
153,192,110583,1,0,0:0:0:0:
358,192,110583,1,0,0:0:0:0:
256,192,110747,128,2,111077:0:0:0:0:
460,192,110747,1,0,0:0:0:0:
358,192,110912,1,0,0:0:0:0:
51,192,111077,1,8,0:0:0:0:
153,192,111077,1,0,0:0:0:0:
358,192,111242,1,0,0:0:0:0:
460,192,111242,1,0,0:0:0:0:
153,192,111324,1,0,0:0:0:0:
358,192,111407,1,2,0:0:0:0:
460,192,111407,1,0,0:0:0:0:
153,192,111572,1,0,0:0:0:0:
256,192,111572,1,0,0:0:0:0:
51,192,111736,1,8,0:0:0:0:
358,192,111736,1,0,0:0:0:0:
153,192,111901,1,0,0:0:0:0:
460,192,111901,1,0,0:0:0:0:
51,192,112066,1,2,0:0:0:0:
256,192,112066,1,4,0:0:0:0:
358,192,112066,1,0,0:0:0:0:
460,192,112231,128,0,112396:0:0:0:0:
256,192,112396,1,0,0:0:0:0:
153,192,112561,1,0,0:0:0:0:
358,192,112561,1,0,0:0:0:0:
256,192,112643,1,0,0:0:0:0:
51,192,112725,1,2,0:0:0:0:
153,192,112725,1,4,0:0:0:0:
460,192,112725,1,0,0:0:0:0:
358,192,112890,1,0,0:0:0:0:
256,192,112945,1,0,0:0:0:0:
153,192,113000,1,0,0:0:0:0:
51,192,113055,1,0,0:0:0:0:
460,192,113220,1,0,0:0:0:0:
358,192,113275,1,0,0:0:0:0:
256,192,113330,1,0,0:0:0:0:
51,192,113385,1,2,0:0:0:0:
153,192,113385,1,0,0:0:0:0:
460,192,113467,1,2,0:0:0:0:
358,192,113467,1,0,0:0:0:0:
153,192,113550,1,2,0:0:0:0:
256,192,113550,1,0,0:0:0:0:
51,192,113632,1,2,0:0:0:0:
256,192,113714,1,8,0:0:0:0:
358,192,113714,1,4,0:0:0:0:
460,192,113714,1,0,0:0:0:0:
153,192,114044,1,2,0:0:0:0:
256,192,114044,1,0,0:0:0:0:
358,192,114126,1,0,0:0:0:0:
51,192,114209,1,0,0:0:0:0:
460,192,114209,1,0,0:0:0:0:
153,192,114291,1,0,0:0:0:0:
256,192,114374,1,8,0:0:0:0:
460,192,114374,1,0,0:0:0:0:
51,192,114539,128,0,114868:0:0:0:0:
358,192,114539,1,0,0:0:0:0:
256,192,114703,1,2,0:0:0:0:
153,192,114868,1,0,0:0:0:0:
358,192,114868,1,0,0:0:0:0:
51,192,115033,1,8,0:0:0:0:
460,192,115033,1,0,0:0:0:0:
358,192,115116,1,0,0:0:0:0:
153,192,115198,1,0,0:0:0:0:
256,192,115198,128,0,115528:0:0:0:0:
460,192,115363,1,2,0:0:0:0:
51,192,115528,1,0,0:0:0:0:
153,192,115528,128,0,115692:0:0:0:0:
358,192,115692,128,8,115857:0:0:0:0:
460,192,115692,1,0,0:0:0:0:
51,192,115857,128,0,116022:0:0:0:0:
153,192,115857,1,0,0:0:0:0:
256,192,116022,1,2,0:0:0:0:
358,192,116022,128,4,116187:0:0:0:0:
460,192,116022,128,0,116187:0:0:0:0:
51,192,116187,1,2,0:0:0:0:
153,192,116187,1,0,0:0:0:0:
256,192,116269,1,2,0:0:0:0:
358,192,116269,1,0,0:0:0:0:
51,192,116352,1,2,0:0:0:0:
153,192,116352,1,0,0:0:0:0:
256,192,116517,128,2,116681:0:0:0:0:
358,192,116517,128,0,116681:0:0:0:0:
51,192,116681,1,2,0:0:0:0:
460,192,116681,1,0,0:0:0:0:
256,192,116764,1,2,0:0:0:0:
358,192,116764,1,0,0:0:0:0:
153,192,116846,1,2,0:0:0:0:
460,192,116846,1,0,0:0:0:0:
51,192,116929,1,0,0:0:0:0:
358,192,116929,1,0,0:0:0:0:
153,192,117011,128,2,117176:0:0:0:0:
256,192,117011,128,0,117176:0:0:0:0:
51,192,117176,1,2,0:0:0:0:
358,192,117176,1,4,0:0:0:0:
460,192,117176,1,0,0:0:0:0:
256,192,117341,1,0,0:0:0:0:
153,192,117423,1,0,0:0:0:0:
358,192,117506,1,0,0:0:0:0:
460,192,117506,1,0,0:0:0:0:
256,192,117588,1,0,0:0:0:0:
153,192,117670,1,8,0:0:0:0:
51,192,117753,1,0,0:0:0:0:
358,192,117835,1,0,0:0:0:0:
460,192,117835,1,0,0:0:0:0:
256,192,117918,1,0,0:0:0:0:
153,192,118000,1,2,0:0:0:0:
460,192,118000,1,0,0:0:0:0:
358,192,118083,1,0,0:0:0:0:
51,192,118165,1,2,0:0:0:0:
153,192,118165,1,0,0:0:0:0:
358,192,118247,1,2,0:0:0:0:
460,192,118247,1,0,0:0:0:0:
51,192,118330,1,0,0:0:0:45:Snare.wav
153,192,118330,1,0,0:0:0:0:
256,192,118330,128,0,118495:0:0:0:0:
358,192,118495,128,2,118659:0:0:0:0:
460,192,118495,1,0,0:0:0:0:
51,192,118659,1,2,0:0:0:0:
153,192,118659,1,4,0:0:0:0:
460,192,118659,1,0,0:0:0:0:
256,192,118824,1,0,0:0:0:0:
358,192,118907,1,0,0:0:0:0:
256,192,118989,1,0,0:0:0:0:
51,192,119154,128,0,119319:0:0:0:0:
256,192,119319,1,0,0:0:0:0:
358,192,119401,1,0,0:0:0:0:
256,192,119484,1,0,0:0:0:0:
153,192,119566,1,0,0:0:0:0:
358,192,119648,128,0,119813:0:0:0:0:
51,192,119813,128,0,120143:0:0:0:0:
153,192,119813,128,0,120143:0:0:0:0:
460,192,119978,1,0,0:0:0:0:
358,192,120061,1,0,0:0:0:0:
256,192,120143,128,0,120308:0:0:0:0:
460,192,120308,1,0,0:0:0:0:
153,192,120390,1,0,0:0:0:0:
460,192,120473,128,0,120637:0:0:0:0:
51,192,120637,128,0,120802:0:0:0:0:
153,192,120802,1,2,0:0:0:0:
460,192,120802,1,0,0:0:0:0:
256,192,120885,1,2,0:0:0:0:
358,192,120885,1,0,0:0:0:0:
51,192,120967,1,8,0:0:0:0:
153,192,120967,1,0,0:0:0:65:Snaph.wav
358,192,121132,1,0,0:0:0:0:
460,192,121132,1,0,0:0:0:0:
256,192,121173,1,0,0:0:0:0:
153,192,121214,1,0,0:0:0:0:
51,192,121256,1,0,0:0:0:0:
358,192,121297,1,2,0:0:0:0:
460,192,121297,128,0,121462:0:0:0:0:
51,192,121462,1,2,0:0:0:0:
153,192,121462,1,0,0:0:0:0:
358,192,121544,1,2,0:0:0:0:
460,192,121544,1,0,0:0:0:0:
51,192,121626,1,2,0:0:0:0:
256,192,121626,1,0,0:0:0:0:
153,192,121791,128,2,121956:0:0:0:0:
358,192,121956,1,2,0:0:0:0:
460,192,121956,1,0,0:0:0:0:
51,192,122039,1,2,0:0:0:0:
256,192,122039,1,0,0:0:0:0:
153,192,122121,1,2,0:0:0:0:
460,192,122121,1,0,0:0:0:0:
256,192,122203,1,0,0:0:0:0:
358,192,122203,1,0,0:0:0:0:
51,192,122286,1,2,0:0:0:0:
153,192,122286,1,0,0:0:0:0:
51,192,122451,1,2,0:0:0:0:
358,192,122451,1,4,0:0:0:0:
460,192,122451,1,0,0:0:0:0:
153,192,122616,1,0,0:0:0:0:
256,192,122616,1,0,0:0:0:0:
358,192,122698,1,0,0:0:0:0:
51,192,122780,1,0,0:0:0:0:
460,192,122780,1,0,0:0:0:0:
153,192,122863,1,0,0:0:0:0:
256,192,122945,1,0,0:0:0:0:
358,192,122945,1,0,0:0:0:0:
51,192,123028,1,0,0:0:0:0:
153,192,123028,1,0,0:0:0:0:
358,192,123110,1,0,0:0:0:0:
460,192,123110,1,0,0:0:0:0:
51,192,123192,1,0,0:0:0:0:
256,192,123192,1,0,0:0:0:0:
153,192,123357,1,0,0:0:0:0:
358,192,123357,1,0,0:0:0:0:
256,192,123440,1,2,0:0:0:0:
460,192,123440,1,0,0:0:0:0:
51,192,123522,1,2,0:0:0:0:
153,192,123522,1,0,0:0:0:0:
256,192,123605,128,0,123769:0:0:0:45:Snare.wav
358,192,123605,1,0,0:0:0:0:
460,192,123605,1,0,0:0:0:0:
153,192,123769,128,2,123934:0:0:0:0:
358,192,123769,1,0,0:0:0:0:
51,192,123934,1,2,0:0:0:0:
256,192,123934,1,4,0:0:0:0:
460,192,123934,1,0,0:0:0:0:
358,192,124099,128,0,124264:0:0:0:0:
51,192,124264,1,2,0:0:0:0:
153,192,124264,128,0,124429:0:0:0:65:Snaph.wav
256,192,124429,1,0,0:0:0:0:
358,192,124511,1,0,0:0:0:0:
153,192,124594,1,2,0:0:0:0:
460,192,124594,128,0,124758:0:0:0:0:
256,192,124758,1,0,0:0:0:0:
51,192,124841,1,2,0:0:0:0:
153,192,124841,1,0,0:0:0:0:
358,192,124923,1,0,0:0:0:65:Snaph.wav
460,192,124923,1,0,0:0:0:0:
51,192,125088,1,2,0:0:0:0:
153,192,125088,128,0,125253:0:0:0:0:
358,192,125253,1,2,0:0:0:0:
460,192,125253,1,0,0:0:0:0:
256,192,125335,1,0,0:0:0:0:
358,192,125418,128,0,125583:0:0:0:0:
51,192,125583,1,2,0:0:0:0:
153,192,125583,1,0,0:0:0:65:Snaph.wav
256,192,125747,128,0,125912:0:0:0:0:
51,192,125912,1,2,0:0:0:0:
460,192,125912,1,0,0:0:0:0:
358,192,126077,1,0,0:0:0:0:
153,192,126159,1,2,0:0:0:0:
256,192,126159,1,0,0:0:0:0:
358,192,126242,1,0,0:0:0:65:Snaph.wav
460,192,126242,1,0,0:0:0:0:
51,192,126407,1,2,0:0:0:0:
256,192,126407,1,0,0:0:0:0:
51,192,126572,1,2,0:0:0:0:
153,192,126572,1,4,0:0:0:0:
460,192,126572,1,0,0:0:0:0:
256,192,126736,128,0,126901:0:0:0:0:
358,192,126901,1,2,0:0:0:0:
460,192,126901,128,0,127066:0:0:0:65:Snaph.wav
153,192,127066,1,0,0:0:0:0:
256,192,127148,1,0,0:0:0:0:
51,192,127231,128,2,127396:0:0:0:0:
153,192,127231,1,0,0:0:0:0:
460,192,127396,1,0,0:0:0:0:
153,192,127478,1,2,0:0:0:0:
256,192,127478,1,0,0:0:0:0:
51,192,127561,1,0,0:0:0:65:Snaph.wav
358,192,127561,1,0,0:0:0:0:
256,192,127725,128,2,127890:0:0:0:0:
460,192,127725,1,0,0:0:0:0:
51,192,127890,1,2,0:0:0:0:
153,192,127890,1,0,0:0:0:0:
358,192,128055,128,0,128220:0:0:0:0:
256,192,128220,128,2,128385:0:0:0:0:
460,192,128220,1,0,0:0:0:65:Snaph.wav
153,192,128385,128,0,128550:0:0:0:0:
51,192,128550,1,2,0:0:0:0:
256,192,128550,1,0,0:0:0:0:
358,192,128714,1,0,0:0:0:0:
51,192,128797,1,2,0:0:0:0:
153,192,128797,1,0,0:0:0:0:
256,192,128879,1,0,0:0:0:65:Snaph.wav
460,192,128879,1,0,0:0:0:0:
153,192,129044,1,2,0:0:0:0:
358,192,129044,1,0,0:0:0:0:
51,192,129209,1,2,0:0:0:0:
256,192,129209,1,4,0:0:0:0:
460,192,129209,1,0,0:0:0:0:
51,192,129374,1,2,0:0:0:0:
460,192,129374,1,0,0:0:0:0:
153,192,129539,1,2,0:0:0:0:
358,192,129539,1,0,0:0:0:65:Snaph.wav
153,192,129703,1,2,0:0:0:0:
358,192,129703,1,0,0:0:0:0:
256,192,129868,1,2,0:0:0:0:
460,192,129868,1,0,0:0:0:0:
256,192,130033,1,2,0:0:0:0:
460,192,130033,1,0,0:0:0:0:
153,192,130198,1,2,0:0:0:0:
358,192,130198,1,0,0:0:0:65:Snaph.wav
153,192,130363,1,2,0:0:0:0:
358,192,130363,1,0,0:0:0:0:
51,192,130528,1,2,0:0:0:0:
256,192,130528,1,4,0:0:0:0:
460,192,130528,1,0,0:0:0:0:
51,192,130692,1,2,0:0:0:0:
460,192,130692,1,0,0:0:0:0:
153,192,130857,1,2,0:0:0:0:
358,192,130857,1,0,0:0:0:65:Snaph.wav
153,192,131022,1,2,0:0:0:0:
358,192,131022,1,0,0:0:0:0:
51,192,131187,1,2,0:0:0:0:
256,192,131187,1,0,0:0:0:0:
51,192,131352,1,2,0:0:0:0:
256,192,131352,1,0,0:0:0:0:
153,192,131517,1,2,0:0:0:0:
358,192,131517,1,0,0:0:0:65:Snaph.wav
153,192,131681,1,2,0:0:0:0:
358,192,131681,1,0,0:0:0:0:
358,192,131846,1,2,0:0:0:0:
460,192,131846,1,4,0:0:0:0:
256,192,131929,1,2,0:0:0:0:
51,192,132011,1,2,0:0:0:0:
153,192,132011,1,0,0:0:0:0:
358,192,132094,1,2,0:0:0:0:
460,192,132094,1,0,0:0:0:0:
51,192,132176,1,2,0:0:0:0:
153,192,132176,1,0,0:0:0:0:
256,192,132258,1,2,0:0:0:0:
358,192,132341,1,2,0:0:0:0:
460,192,132341,1,0,0:0:0:0:
51,192,132423,1,2,0:0:0:0:
153,192,132423,1,0,0:0:0:0:
358,192,132506,1,2,0:0:0:0:
460,192,132506,1,0,0:0:0:0:
256,192,132588,1,2,0:0:0:0:
51,192,132670,1,2,0:0:0:0:
153,192,132670,1,0,0:0:0:0:
358,192,132753,1,2,0:0:0:0:
460,192,132753,1,0,0:0:0:0:
51,192,132835,1,2,0:0:0:0:
153,192,132835,1,0,0:0:0:0:
358,192,132918,1,2,0:0:0:0:
460,192,132918,1,0,0:0:0:0:
51,192,133000,1,2,0:0:0:0:
256,192,133000,1,4,0:0:0:0:
460,192,133066,1,0,0:0:0:0:
153,192,133132,1,0,0:0:0:0:
358,192,133198,1,0,0:0:0:0:
51,192,133264,1,0,0:0:0:0:
256,192,133330,128,0,133495:0:0:0:0:
153,192,133495,1,0,0:0:0:0:
358,192,133495,128,0,133659:0:0:0:0:
256,192,133659,1,2,0:0:0:0:
460,192,133659,1,4,0:0:0:0:
51,192,133725,1,0,0:0:0:0:
358,192,133791,1,0,0:0:0:0:
153,192,133857,1,0,0:0:0:0:
460,192,133923,1,0,0:0:0:0:
256,192,133989,128,0,134154:0:0:0:0:
153,192,134154,128,0,134319:0:0:0:0:
51,192,134319,128,0,134484:0:0:0:0:
256,192,134484,1,2,0:0:0:0:
358,192,134484,1,0,0:0:0:55:Finish.wav
460,192,134484,1,0,0:0:0:0:
