osu file format v14

[General]
AudioFilename: audio.mp3
AudioLeadIn: 0
PreviewTime: 23206
Countdown: 0
SampleSet: Soft
StackLeniency: 0.7
Mode: 2
LetterboxInBreaks: 0
WidescreenStoryboard: 0

[Editor]
Bookmarks: 23742,44841,55390,66269,76489
DistanceSpacing: 0.9
BeatDivisor: 8
GridSize: 32
TimelineZoom: 3

[Metadata]
Title:8bit Voyager
TitleUnicode:8bit Voyager
Artist:Lime
ArtistUnicode:Lime
Creator:Spectator
Version:Overdose
Source:MUSYNX
Tags:osu! MUSYNC instrumental electronic nelly dapuluous -joni- joni chiptune featured artist mappers' guild fa mg bms of fighters bofxv
BeatmapID:2776140
BeatmapSetID:1340010

[Difficulty]
HPDrainRate:6
CircleSize:4
OverallDifficulty:9.4
ApproachRate:9.4
SliderMultiplier:2.12
SliderTickRate:2

[Events]
//Background and Video events
0,0,"keqing.jpg",0,0
//Break Periods
//Storyboard Layer 0 (Background)
//Storyboard Layer 1 (Fail)
//Storyboard Layer 2 (Pass)
//Storyboard Layer 3 (Foreground)
//Storyboard Layer 4 (Overlay)
//Storyboard Sound Samples

[TimingPoints]
6,329.67032967033,4,1,1,70,1,0
2313,-40.8163265306122,4,1,1,70,0,0
2643,-95.2380952380952,4,2,1,70,0,0
11049,-95.2380952380952,4,2,3,70,0,0
11709,-95.2380952380952,4,2,1,70,0,0
12368,-95.2380952380952,4,2,1,75,0,0
12698,-68.0272108843537,4,1,1,75,0,0
12863,-95.2380952380952,4,1,1,75,0,0
13192,-95.2380952380952,4,1,1,60,0,0
15830,-95.2380952380952,4,1,1,65,0,0
18467,-95.2380952380952,4,1,1,70,0,0
19786,-95.2380952380952,4,1,1,73,0,0
21104,-95.2380952380952,4,1,1,75,0,0
22093,-80,4,1,1,77,0,0
22423,-80,4,1,1,65,0,0
22464,-80,4,1,1,5,0,0
22753,-80,4,1,1,65,0,0
22794,-80,4,1,1,5,0,0
23082,-80,4,1,1,65,0,0
23124,-80,4,1,1,5,0,0
23247,-80,4,1,1,50,0,0
23412,-40,4,1,1,60,0,0
23742,-90.0900900900901,4,1,1,70,0,1
28357,-80,4,1,1,70,0,1
28440,-80,4,1,5,55,0,1
28687,-80,4,1,1,70,0,1
28769,-80,4,1,5,55,0,1
29016,-90.0900900900901,4,1,1,70,0,1
29181,-90.0900900900901,4,1,1,35,0,1
29346,-90.0900900900901,4,1,1,70,0,1
33797,-80,4,1,5,55,0,1
33962,-80,4,1,1,70,0,1
34291,-90.0900900900901,4,1,1,70,0,1
39071,-80,4,1,1,70,0,1
39126,-80,4,1,5,55,0,1
39236,-80,4,1,1,70,0,1
39319,-80,4,1,5,55,0,1
39566,-80,4,1,5,55,0,0
39896,-90.0900900900901,4,1,1,70,0,1
43027,-80,4,1,1,70,0,1
43357,-90.0900900900901,4,1,1,70,0,1
44511,-39.2156862745098,4,1,1,70,0,1
44841,-95.2380952380952,4,2,1,70,0,0
50115,-95.2380952380952,4,1,1,72,0,0
51434,-95.2380952380952,4,1,1,74,0,0
52753,-80,4,1,1,76,0,0
53412,-80,4,1,1,78,0,0
54071,-80,4,1,1,45,0,0
55060,-80,4,1,7,60,0,0
55390,-80,4,1,1,75,0,0
55720,-80,4,1,1,75,0,0
55802,-80,4,1,1,50,0,0
55967,-80,4,1,1,75,0,0
56049,-80,4,1,1,50,0,0
56214,-80,4,1,1,75,0,0
56296,-80,4,1,1,50,0,0
56462,-80,4,1,1,75,0,0
56544,-80,4,1,1,50,0,0
56709,-80,4,1,1,75,0,0
56791,-80,4,1,1,50,0,0
56956,-80,4,1,1,75,0,0
57038,-80,4,1,1,50,0,0
57203,-80,4,1,1,75,0,0
57368,-80,4,1,1,60,0,0
57863,-80,4,1,1,75,0,0
58192,-80,4,1,1,75,0,0
58274,-80,4,1,1,50,0,0
58440,-80,4,1,1,75,0,0
58522,-80,4,1,1,50,0,0
58687,-80,4,1,1,75,0,0
58769,-80,4,1,1,50,0,0
58934,-80,4,1,1,75,0,0
59016,-80,4,1,1,50,0,0
59181,-80,4,1,1,75,0,0
59263,-80,4,1,1,50,0,0
59429,-80,4,1,1,75,0,0
59511,-80,4,1,1,50,0,0
59676,-80,4,1,1,75,0,0
59758,-80,4,1,1,50,0,0
59923,-80,4,1,1,75,0,0
60005,-80,4,1,1,50,0,0
60170,-80,4,1,66,65,0,0
60253,-80,4,1,1,50,0,0
60665,-80,4,1,1,60,0,0
60995,-80,4,1,1,75,0,0
61077,-80,4,1,1,50,0,0
61242,-80,4,1,1,75,0,0
61324,-80,4,1,1,50,0,0
61489,-80,4,1,1,75,0,0
61571,-80,4,1,1,50,0,0
61736,-80,4,1,1,75,0,0
61818,-80,4,1,1,50,0,0
61984,-80,4,1,1,75,0,0
62066,-80,4,1,1,50,0,0
62231,-80,4,1,1,75,0,0
62313,-80,4,1,1,50,0,0
62478,-80,4,1,1,75,0,0
62642,-80,4,1,1,50,0,0
63137,-80,4,1,1,60,0,0
63467,-80,4,1,1,75,0,0
63549,-80,4,1,1,50,0,0
63714,-80,4,1,1,75,0,0
63796,-80,4,1,1,50,0,0
63962,-80,4,1,1,75,0,0
64044,-80,4,1,1,50,0,0
64209,-80,4,1,1,75,0,0
64291,-80,4,1,1,50,0,0
64456,-80,4,1,1,75,0,0
64538,-80,4,1,1,50,0,0
64703,-80,4,1,1,75,0,0
64785,-80,4,1,1,50,0,0
64951,-80,4,1,1,75,0,0
65033,-80,4,1,1,50,0,0
65198,-80,4,1,1,75,0,0
65280,-80,4,1,1,50,0,0
65445,-80,4,1,1,60,0,0
65775,-80,4,1,20,85,0,0
65795,-80,4,2,1,25,0,0
65940,-80,4,1,10,70,0,0
66434,-80,4,1,10,40,0,0
66599,-90.0900900900901,4,1,10,70,0,0
67258,-80,4,1,10,70,0,0
67423,-80,4,1,10,40,0,0
67588,-90.0900900900901,4,1,10,70,0,0
68412,-90.0900900900901,4,1,10,60,0,0
68742,-90.0900900900901,4,1,10,70,0,0
68824,-90.0900900900901,4,1,10,40,0,0
68989,-90.0900900900901,4,1,10,70,0,0
69071,-90.0900900900901,4,1,10,40,0,0
69236,-90.0900900900901,4,1,10,70,0,0
69318,-90.0900900900901,4,1,10,40,0,0
69484,-90.0900900900901,4,1,10,70,0,0
69566,-90.0900900900901,4,1,10,40,0,0
69731,-90.0900900900901,4,1,10,70,0,0
69813,-90.0900900900901,4,1,10,40,0,0
69978,-90.0900900900901,4,1,10,70,0,0
70060,-90.0900900900901,4,1,10,40,0,0
70225,-90.0900900900901,4,1,10,70,0,0
70307,-90.0900900900901,4,1,10,40,0,0
70473,-90.0900900900901,4,1,10,70,0,0
70555,-90.0900900900901,4,1,10,40,0,0
70720,-90.9090909090909,4,1,10,70,0,0
70967,-80,4,1,10,70,0,0
71709,-80,4,1,10,40,0,0
71874,-90.0900900900901,4,1,10,70,0,0
72533,-80,4,1,10,70,0,0
72698,-80,4,1,10,40,0,0
72863,-90.0900900900901,4,1,10,70,0,0
73687,-90.0900900900901,4,1,5,60,0,0
73852,-90.0900900900901,4,1,10,70,0,0
74016,-40,4,1,1,70,0,0
74099,-40,4,1,1,40,0,0
74264,-40,4,1,1,70,0,0
74347,-40,4,1,1,40,0,0
74511,-74.0740740740741,4,1,1,70,0,0
74593,-74.0740740740741,4,1,1,40,0,0
74758,-74.0740740740741,4,1,1,70,0,0
74840,-74.0740740740741,4,1,1,40,0,0
75006,-81.9672131147541,4,1,1,70,0,0
75088,-81.9672131147541,4,1,1,50,0,0
75500,-81.9672131147541,4,1,1,60,0,0
75995,-81.9672131147541,4,2,3,60,0,0
76489,-78.125,4,1,77,75,0,0
76571,-78.125,4,1,1,50,0,0
76819,-78.125,4,1,77,75,0,0
76901,-78.125,4,1,1,50,0,0
77148,-78.125,4,1,77,75,0,0
77230,-78.125,4,1,1,50,0,0
77478,-78.125,4,1,77,75,0,0
77560,-78.125,4,1,1,50,0,0
77808,-78.125,4,1,77,75,0,0
77890,-78.125,4,1,1,50,0,0
78137,-78.125,4,1,77,75,0,0
78219,-78.125,4,1,1,50,0,0
78467,-78.125,4,1,77,75,0,0
78549,-78.125,4,1,1,50,0,0
78797,-78.125,4,1,77,75,0,0
78962,-75.7575757575758,4,1,77,80,0,0
81434,-78.125,4,1,77,80,0,0
81516,-78.125,4,1,1,70,0,0
81764,-78.125,4,1,77,75,0,0
81846,-78.125,4,1,1,50,0,0
82093,-78.125,4,1,77,75,0,0
82175,-78.125,4,1,1,50,0,0
82423,-78.125,4,1,77,75,0,0
82505,-78.125,4,1,1,50,0,0
82753,-78.125,4,1,77,70,0,0
82835,-78.125,4,1,1,40,0,0
83082,-78.125,4,1,77,70,0,0
83164,-78.125,4,1,1,40,0,0
83412,-78.125,4,1,77,75,0,0
83494,-78.125,4,1,1,50,0,0
83742,-78.125,4,1,77,75,0,0
83824,-78.125,4,1,1,50,0,0
84071,-78.125,4,1,77,75,0,0
84153,-78.125,4,1,1,50,0,0
84401,-78.125,4,1,77,65,0,0
84484,-78.125,4,1,1,20,0,0
84731,-78.125,4,1,85,60,0,0
85060,-78.125,4,1,77,65,0,0
85143,-78.125,4,1,1,20,0,0
85390,-78.125,4,1,85,60,0,0
85720,-78.125,4,1,1,85,0,0
85761,-78.125,4,1,1,15,0,0
86049,-78.125,4,1,1,85,0,0
86090,-78.125,4,1,1,15,0,0
86379,-78.125,4,1,1,85,0,0
86420,-78.125,4,1,1,15,0,0
86544,-78.125,4,1,5,75,0,0
86709,-39.2156862745098,4,1,1,85,0,0
86791,-39.2156862745098,4,1,1,70,0,0
87038,-78.125,4,1,77,80,0,0
87121,-78.125,4,1,1,60,0,0
87368,-78.125,4,1,77,80,0,0
87451,-78.125,4,1,1,60,0,0
87698,-78.125,4,1,77,80,0,0
87781,-78.125,4,1,1,60,0,0
87863,-78.125,4,1,77,80,0,0
87946,-78.125,4,1,1,60,0,0
88027,-78.125,4,1,77,80,0,0
88110,-78.125,4,1,1,60,0,0
88357,-78.125,4,1,1,70,0,0
89429,-78.125,4,1,1,15,0,0
89511,-69.4444444444444,4,1,77,85,0,0
89676,-69.4444444444444,4,1,1,70,0,0
89841,-69.4444444444444,4,1,77,85,0,0
90006,-69.4444444444444,4,1,1,70,0,0
90170,-78.125,4,1,1,70,0,0
90830,-69.4444444444444,4,1,77,85,0,0
90995,-69.4444444444444,4,1,1,70,0,0
91159,-69.4444444444444,4,1,77,85,0,0
91324,-69.4444444444444,4,1,1,70,0,0
91489,-78.125,4,1,1,70,0,0
92313,-78.125,4,1,1,90,0,0
92396,-78.125,4,1,1,60,0,0
92478,-78.125,4,1,1,90,0,0
92561,-78.125,4,1,1,60,0,0
92643,-78.125,4,1,1,90,0,0
92726,-78.125,4,1,1,60,0,0
92808,-78.125,4,1,1,90,0,0
92891,-78.125,4,1,1,60,0,0
92973,-78.125,4,1,65,77,0,0
93014,-78.125,4,1,1,60,0,0
93302,-78.125,4,1,1,80,0,0
93385,-78.125,4,1,1,50,0,0
93467,-78.125,4,1,1,80,0,0
93550,-78.125,4,1,1,50,0,0
93632,-78.125,4,1,1,50,0,0
93962,-78.125,4,1,1,55,0,0
94291,-78.125,4,1,1,65,0,0
94621,-78.125,4,1,1,70,0,0
94951,-78.125,4,1,77,65,0,0
95033,-78.125,4,1,1,45,0,0
97093,-90.0900900900901,4,2,1,45,0,0
97588,-95.2380952380952,4,2,45,55,0,0
103192,-95.2380952380952,4,2,45,75,0,0
103247,-95.2380952380952,4,2,45,45,0,0
103522,-95.2380952380952,4,2,45,55,0,0
104676,-95.2380952380952,4,2,45,58,0,0
105500,-95.2380952380952,4,2,45,61,0,0
105995,-95.2380952380952,4,2,3,64,0,0
106159,-95.2380952380952,4,2,3,66,0,0
106407,-95.2380952380952,4,2,1,73,0,0
106489,-95.2380952380952,4,2,1,76,0,0
106654,-79.3650793650794,4,1,77,70,0,0
106819,-79.3650793650794,4,1,77,50,0,0
107313,-90.0900900900901,4,1,77,75,0,0
107478,-90.0900900900901,4,1,77,65,0,0
107643,-81.9672131147541,4,1,1,70,0,0
107808,-80,4,1,1,80,0,0
107973,-80,4,1,1,70,0,0
108137,-90.0900900900901,4,1,1,70,0,1
112093,-90.0900900900901,4,1,77,70,0,1
112258,-90.0900900900901,4,1,1,70,0,1
112753,-90.0900900900901,4,1,77,70,0,1
112918,-90.0900900900901,4,1,1,70,0,1
113247,-90.0900900900901,4,1,5,60,0,1
113742,-40,4,1,1,70,0,1
114071,-90.0900900900901,4,1,1,70,0,1
114236,-81.9672131147541,4,1,1,70,0,1
114566,-80,4,1,1,70,0,1
116049,-80,4,1,1,80,0,1
116791,-80,4,1,1,60,0,1
117038,-80,4,1,1,80,0,1
117121,-80,4,1,1,60,0,1
117203,-80,4,1,1,80,0,1
117286,-80,4,1,1,60,0,1
117533,-80,4,1,1,85,0,1
117615,-80,4,1,1,60,0,1
117698,-80,4,1,1,85,0,1
118357,-36.101083032491,4,1,60,90,0,1
118522,-36.101083032491,4,1,1,40,0,1
118687,-200,4,2,1,70,0,0
120170,-25,4,2,1,70,0,0
120995,-80,4,1,1,70,0,0
121159,-80,4,1,5,80,0,0
121324,-80,4,1,1,70,0,1
122478,-80,4,1,1,75,0,1
122808,-80,4,1,1,80,0,1
123632,-40.983606557377,4,1,60,90,0,1
123797,-36.101083032491,4,1,1,40,0,1
123962,-90.0900900900901,4,1,1,70,0,0
125280,-90.0900900900901,4,1,1,72,0,0
126599,-90.0900900900901,4,1,1,74,0,0
127918,-90.0900900900901,4,1,1,76,0,0
129236,-90.0900900900901,4,1,1,80,0,0
131874,-81.9672131147541,4,1,1,70,0,0
131956,-81.9672131147541,4,1,1,45,0,0
132286,-81.9672131147541,4,1,1,45,0,0
132533,-78.125,4,1,1,70,0,0
132615,-78.125,4,1,1,45,0,0
132863,-75.187969924812,4,1,1,70,0,0
133357,-81.9672131147541,4,1,1,50,0,0
133604,-81.9672131147541,4,1,1,70,0,0
134016,-68.9655172413793,4,1,1,50,0,0
134181,-68.9655172413793,4,1,1,75,0,0
134511,-25,4,1,99,66,0,0

[Colours]
Combo1 : 198,198,198
Combo2 : 183,134,236

[HitObjects]
183,80,1324,6,0,L|40:67,1,106,8|4,0:0|0:0,0:0:0:0:
353,229,1654,2,0,L|496:216,1,106,8|4,0:0|0:0,0:0:0:0:
322,197,1984,2,0,L|315:110,1,53,8|0,0:0|0:0,0:0:0:0:
399,130,2148,2,0,L|392:43,1,53,4|4,0:0|0:0,0:0:0:0:
294,97,2313,2,0,L|11:77,1,259.700002476692,8|4,0:0|0:0,0:0:0:0:
328,330,2643,6,0,L|339:193,1,111.299996603394,4|0,0:2|0:0,0:0:0:0:
189,233,2973,2,0,P|136:171|248:111,1,222.599993206787,2|2,0:0|0:0,0:0:0:0:
373,148,3467,2,0,L|384:11,1,111.299996603394,2|2,0:0|0:0,0:0:0:0:
140,262,3797,1,2,0:0:0:0:
388,261,4126,1,2,0:0:0:0:
140,262,4456,1,2,0:0:0:0:
326,92,4786,1,0,0:0:0:0:
433,121,4951,1,2,0:0:0:0:
326,92,5115,1,0,0:0:0:0:
173,327,5280,6,0,L|162:190,1,111.299996603394,2|2,0:0|0:0,0:0:0:0:
312,233,5610,2,0,P|365:171|253:111,1,222.599993206787,2|2,0:0|0:0,0:0:0:0:
128,148,6104,2,0,L|117:11,1,111.299996603394,2|2,0:0|0:0,0:0:0:0:
270,175,6434,2,0,P|335:163|406:21,1,222.599993206787,2|2,0:0|0:0,0:0:0:0:
275,35,6929,1,2,0:0:0:0:
118,242,7093,2,0,P|53:199|140:106,1,222.599993206787,2|0,0:0|0:0,0:0:0:0:
262,103,7588,1,2,0:0:0:0:
402,108,7753,1,0,0:0:0:0:
266,195,7918,6,0,L|385:180,1,111.299996603394,2|0,0:0|0:0,0:0:0:0:
230,277,8247,2,0,P|165:249|235:135,1,222.599993206787,2|2,0:0|0:0,0:0:0:0:
359,76,8742,2,0,L|248:89,1,111.299996603394,2|2,0:0|0:0,0:0:0:0:
483,188,9071,1,2,0:0:0:0:
235,187,9400,1,2,0:0:0:0:
483,188,9730,1,2,0:0:0:0:
207,276,10060,1,0,0:0:0:0:
323,257,10225,1,2,0:0:0:0:
438,231,10390,1,0,0:0:0:0:
292,195,10555,6,0,L|287:73,1,111.299996603394,2|0,0:0|0:0,0:0:0:0:
145,44,10885,1,2,0:0:0:0:
286,55,11049,2,0,L|329:55,2,27.8249991508484,2|2|2,0:0|0:0|0:0,0:0:0:0:
126,277,11214,5,2,0:0:0:0:
84,238,11297,1,2,0:0:0:0:
72,183,11379,1,2,0:0:0:0:
98,129,11462,1,2,0:0:0:0:
153,107,11544,1,2,0:0:0:0:
217,103,11626,1,2,0:0:0:0:
395,193,11709,6,0,L|412:148,6,27.8249991508484,4|0|0|0|0|0|0,1:2|0:0|0:0|0:0|0:0|0:0|0:0,0:0:0:0:
165,292,12038,2,0,L|139:144,1,111.299996603394,2|2,0:0|0:0,0:0:0:0:
422,280,12368,6,0,L|462:281,6,27.8249991508484,4|0|0|0|0|0|0,1:2|0:0|0:0|0:0|0:0|0:0|0:0,0:0:0:0:
221,138,12698,2,0,L|49:140,1,155.819992748246,2|0,1:2|1:0,0:0:0:0:
349,212,13027,2,0,L|396:212,2,27.8249991508484,0|0|0,3:0|3:0|3:0,3:0:0:0:
149,330,13192,6,0,L|139:211,1,111.299996603394,4|0,0:0|2:0,0:0:0:0:
302,218,13522,2,0,L|312:99,1,111.299996603394,4|0,0:0|2:0,0:0:0:0:
154,89,13852,2,0,L|324:169,2,166.949994905091,4|4|4,0:0|0:0|0:0,0:0:0:0:
312,74,14511,6,0,L|326:194,1,111.299996603394,4|0,0:0|2:0,0:0:0:0:
484,139,14841,2,0,L|498:259,1,111.299996603394,4|0,0:0|2:0,0:0:0:0:
338,267,15170,2,0,L|160:318,2,166.949994905091,4|4|4,0:0|0:0|0:0,0:0:0:0:
73,234,15830,6,0,L|63:99,1,111.299996603394,4|0,0:0|2:0,0:0:0:0:
231,192,16159,2,0,L|384:176,1,111.299996603394,4|0,0:0|2:0,0:0:0:0:
174,296,16489,2,0,L|-4:347,2,166.949994905091,4|4|4,0:0|0:0|0:0,0:0:0:0:
439,234,17148,6,0,L|313:221,1,111.299996603394,4|0,0:0|2:0,0:0:0:0:
167,180,17478,2,0,L|277:191,1,111.299996603394,4|0,0:0|2:0,0:0:0:0:
446,344,17807,2,0,L|285:298,2,166.949994905091,4|4|4,0:0|0:0|0:0,0:0:0:0:
280,352,18467,5,4,0:2:0:0:
276,237,18632,1,0,0:0:0:0:
421,228,18797,1,8,0:0:0:0:
425,113,18962,1,0,0:0:0:0:
264,233,19126,1,4,0:0:0:0:
225,123,19291,1,4,0:0:0:0:
395,141,19456,1,8,0:0:0:0:
434,31,19621,1,0,0:0:0:0:
172,199,19786,5,4,0:2:0:0:
44,150,19951,1,0,0:0:0:0:
195,156,20115,1,8,0:0:0:0:
56,106,20280,1,0,0:0:0:0:
338,199,20445,1,4,0:0:0:0:
488,148,20610,1,4,0:0:0:0:
309,156,20774,1,8,0:0:0:0:
470,105,20939,1,0,0:0:0:0:
187,319,21104,5,4,0:2:0:0:
131,306,21187,1,0,0:0:0:0:
91,277,21269,1,4,0:0:0:0:
71,226,21352,1,0,0:0:0:0:
66,171,21434,1,12,0:0:0:0:
93,119,21516,1,0,0:0:0:0:
147,90,21599,1,4,0:0:0:0:
212,86,21681,1,0,0:0:0:0:
390,161,21764,2,0,L|395:237,1,55.6499983016968,4|0,0:0|0:0,0:0:0:0:
302,220,21929,2,0,L|306:279,1,55.6499983016968,4|0,0:0|0:0,0:0:0:0:
491,327,22093,2,0,L|403:316,1,66.25,12|4,0:0|0:0,0:0:0:0:
234,347,22258,2,0,L|146:336,1,66.25,4|4,0:0|0:0,0:0:0:0:
423,241,22423,6,0,L|486:238,1,33.125
429,197,22753,6,0,L|463:196,1,33.125
435,144,23082,6,0,L|468:145,1,33.125
346,72,23247,6,0,L|266:72,1,66.25,4|0,0:0|0:0,0:0:0:0:
90,139,23412,2,0,L|354:158,1,265,8|0,0:0|0:0,0:0:0:0:
116,332,23742,6,0,L|88:189,1,117.660002872559,4|0,0:0|0:0,0:0:0:0:
251,247,24071,1,8,1:1:0:0:
88,199,24236,2,0,L|192:207,1,58.8300014362793
396,332,24401,2,0,L|424:189,1,117.660002872559,4|0,0:0|0:0,0:0:0:0:
157,128,24731,1,8,0:0:0:0:
408,211,24896,6,0,P|468:180|386:79,1,235.320005745117
236,137,25390,1,8,0:0:0:0:
388,71,25555,2,0,L|392:157,1,58.8300014362793
167,210,25720,2,0,L|16:198,1,117.660002872559,4|0,0:0|0:0,0:0:0:0:
351,309,26049,2,0,L|502:297,1,117.660002872559,8|0,0:0|0:0,0:0:0:0:
116,332,26379,6,0,L|88:189,1,117.660002872559,4|0,0:0|0:0,0:0:0:0:
251,247,26708,1,8,0:0:0:0:
98,225,26873,2,0,L|39:220,1,58.8300014362793
282,233,27038,2,0,L|310:90,1,117.660002872559,4|0,0:0|0:0,0:0:0:0:
142,135,27368,1,8,0:0:0:0:
311,109,27533,6,0,L|166:125,1,117.660002872559
448,222,27863,1,0,0:0:0:0:
187,117,28027,1,8,0:0:0:0:
456,206,28192,2,0,L|465:115,1,58.8300014362793
282,221,28357,6,0,L|177:215,1,66.25,4|0,0:0|0:0,0:0:0:0:
405,69,28522,2,0,L|456:65,2,44.1666666666667
209,135,28687,2,0,L|208:40,1,66.25,8|0,0:0|0:0,0:0:0:0:
309,24,28852,1,0,0:0:0:0:
310,63,28907,1,0,0:0:0:0:
311,102,28962,1,0,0:0:0:0:
130,241,29016,6,0,P|70:217|139:164,1,176.490004308838,4|0,0:0|0:0,0:0:0:0:
455,154,29346,1,4,1:2:0:0:
307,109,29511,1,0,2:0:0:0:
69,334,29676,2,0,L|64:232,1,58.8300014362793,4|0,0:0|0:0,0:0:0:0:
242,218,29841,1,0,0:0:0:0:
308,196,29923,1,0,0:0:0:0:
375,174,30006,1,8,0:0:0:0:
83,86,30170,6,0,L|248:102,1,117.660002872559,0|4,0:0|0:0,0:0:0:0:
469,279,30500,2,0,L|304:295,1,117.660002872559,0|8,0:0|0:0,0:0:0:0:
190,355,30830,2,0,L|186:206,1,117.660002872559,0|4,0:0|0:0,0:0:0:0:
344,285,31159,2,0,L|443:295,1,58.8300014362793
178,235,31324,2,0,L|37:226,1,117.660002872559,8|0,0:0|0:0,0:0:0:0:
350,185,31654,5,4,0:0:0:0:
83,295,31819,1,0,0:0:0:0:
76,225,31901,1,0,0:0:0:0:
70,154,31984,1,8,0:0:0:0:
377,225,32148,1,0,0:0:0:0:
240,278,32313,2,0,L|331:270,1,58.8300014362793,4|0,0:0|0:0,0:0:0:0:
389,206,32478,2,0,L|308:199,1,58.8300014362793
232,189,32643,1,8,0:0:0:0:
481,43,32808,6,0,L|494:165,1,117.660002872559,4|0,0:2|0:0,0:0:0:0:
328,126,33137,2,0,L|183:140,1,117.660002872559,4|8,0:0|0:0,0:0:0:0:
485,254,33467,1,4,0:2:0:0:
335,197,33632,1,0,0:0:0:0:
493,216,33797,2,0,L|483:134,1,66.25,4|0,0:0|0:0,0:0:0:0:
255,301,33962,2,0,L|166:292,1,66.25,8|0,0:0|0:0,0:0:0:0:
365,130,34126,2,0,L|454:121,1,66.25
191,325,34291,6,0,L|163:182,1,117.660002872559,4|0,0:2|0:0,0:0:0:0:
326,240,34620,1,8,0:0:0:0:
163,192,34785,2,0,L|267:200,1,58.8300014362793
471,325,34950,2,0,L|499:182,1,117.660002872559
232,121,35280,1,8,0:0:0:0:
492,180,35445,6,0,P|482:113|329:37,1,235.320005745117
503,26,35940,1,8,0:0:0:0:
337,41,36104,2,0,L|264:37,1,58.8300014362793
74,193,36269,2,0,L|61:49,1,117.660002872559,4|0,0:0|0:0,0:0:0:0:
345,125,36599,2,0,L|480:136,1,117.660002872559,8|0,0:0|0:0,0:0:0:0:
157,353,36929,6,0,L|144:209,1,117.660002872559,4|0,0:0|0:0,0:0:0:0:
309,197,37258,1,8,0:0:0:0:
143,215,37423,2,0,L|232:222,1,58.8300014362793
399,218,37588,2,0,L|412:74,1,117.660002872559,4|0,0:0|0:0,0:0:0:0:
247,73,37918,2,0,L|390:57,1,117.660002872559,8|0,0:0|0:0,0:0:0:0:
66,286,38247,5,4,0:2:0:0:
48,185,38412,1,0,0:0:0:0:
91,101,38577,1,0,0:0:0:0:
203,72,38742,1,0,0:0:0:0:
464,172,38907,1,4,0:2:0:0:
193,196,39071,2,0,L|138:190,2,44.1666666666667
370,63,39236,2,0,L|372:163,1,66.25,8|0,0:0|0:0,0:0:0:0:
276,120,39401,1,0,0:0:0:0:
274,173,39456,1,0,0:0:0:0:
272,226,39511,1,0,0:0:0:0:
453,248,39566,6,0,L|349:240,1,66.25
236,316,39731,2,0,L|132:308,1,66.25
474,172,39896,1,4,0:2:0:0:
333,170,40060,1,0,2:0:0:0:
69,334,40225,2,0,L|64:232,1,58.8300014362793,4|0,0:0|0:0,0:0:0:0:
242,218,40390,1,0,0:0:0:0:
308,196,40472,1,0,0:0:0:0:
375,174,40555,1,8,0:0:0:0:
217,127,40720,6,0,L|80:115,1,117.660002872559,0|4,0:0|0:0,0:0:0:0:
262,291,41049,2,0,L|399:279,1,117.660002872559,0|8,0:0|0:0,0:0:0:0:
95,358,41379,2,0,L|86:228,1,117.660002872559,0|4,0:0|0:0,0:0:0:0:
374,191,41709,1,0,0:0:0:0:
78,230,41874,2,0,L|215:218,1,117.660002872559,8|0,0:0|0:0,0:0:0:0:
457,285,42203,5,4,0:2:0:0:
205,114,42368,1,4,0:0:0:0:
269,105,42451,1,0,0:0:0:0:
332,97,42533,1,8,0:0:0:0:
60,67,42698,1,4,0:0:0:0:
339,178,42863,2,0,L|345:270,1,58.8300014362793,4|0,0:0|0:0,0:0:0:0:
139,261,43027,2,0,L|39:268,2,66.25,4|0|8,0:0|0:0|0:0,0:0:0:0:
426,200,43357,6,0,L|435:339,1,117.660002872559,4|0,0:2|2:0,0:0:0:0:
139,326,43687,1,4,0:0:0:0:
294,369,43852,2,0,L|366:361,1,58.8300014362793,2|0,2:0|2:0,0:0:0:0:
176,135,44016,2,0,L|168:252,1,117.660002872559,4|4,0:0|0:0,0:0:0:0:
335,285,44346,2,0,L|276:291,1,58.8300014362793,4|4,0:0|0:0,0:0:0:0:
112,165,44511,2,0,L|411:146,1,270.299996391106,8|0,0:0|2:0,0:0:0:0:
103,252,44841,6,0,L|99:128,1,111.299996603394,4|0,0:0|0:0,0:0:0:0:
247,183,45170,2,0,P|317:141|236:58,1,222.599993206787,2|2,1:2|0:0,0:0:0:0:
93,239,45665,2,0,L|89:115,1,111.299996603394,2|2,0:0|1:2,0:0:0:0:
248,149,45995,2,0,L|16:131,2,222.599993206787,2|2|2,0:0|0:0|0:0,0:0:0:0:
232,183,47148,1,2,1:2:0:0:
83,160,47313,1,0,1:0:0:0:
373,319,47478,6,0,L|377:195,1,111.299996603394,4|0,1:2|0:0,0:0:0:0:
229,250,47807,2,0,P|159:208|240:125,1,222.599993206787,2|2,1:2|0:0,0:0:0:0:
383,306,48302,2,0,L|387:182,1,111.299996603394,2|2,0:0|1:2,0:0:0:0:
218,200,48632,2,0,P|232:125|392:87,1,222.599993206787,2|2,0:0|0:0,0:0:0:0:
214,73,49126,1,2,1:2:0:0:
356,71,49291,1,2,0:0:0:0:
54,291,49621,2,0,L|49:159,1,111.299996603394,0|2,0:0|1:2,0:0:0:0:
195,146,49951,1,4,1:0:0:0:
352,337,50115,5,4,0:0:0:0:
489,304,50280,1,4,0:0:0:0:
345,337,50445,1,4,0:0:0:0:
495,304,50610,1,4,0:0:0:0:
340,337,50775,1,4,0:0:0:0:
500,304,50940,1,4,0:0:0:0:
336,337,51104,1,4,0:0:0:0:
504,304,51269,1,4,0:0:0:0:
169,337,51434,5,4,0:0:0:0:
25,304,51599,1,4,0:0:0:0:
174,337,51764,1,4,0:0:0:0:
20,304,51929,1,4,0:0:0:0:
179,337,52094,1,4,0:0:0:0:
15,304,52259,1,4,0:0:0:0:
184,337,52423,1,4,0:0:0:0:
10,304,52588,1,4,0:0:0:0:
298,225,52753,6,0,L|304:130,1,66.25,4|0,0:0|0:0,0:0:0:0:
209,163,52918,2,0,L|215:68,1,66.25,4|0,0:0|0:0,0:0:0:0:
409,209,53082,2,0,L|415:114,1,66.25,4|0,0:0|0:0,0:0:0:0:
310,165,53247,2,0,L|227:158,1,66.25,4|0,0:0|0:0,0:0:0:0:
98,127,53412,2,0,L|92:32,1,66.25,4|0,0:0|0:0,0:0:0:0:
263,123,53577,2,0,L|346:116,1,66.25,4|0,0:0|0:0,0:0:0:0:
75,220,53742,2,0,L|179:212,1,66.25,4|0,0:0|0:0,0:0:0:0:
320,239,53907,2,0,L|386:233,1,66.25,4|0,0:0|0:0,0:0:0:0:
71,313,54071,6,0,L|63:166,1,132.5,4|0,0:0|2:0,0:0:0:0:
331,216,54401,1,8,2:1:0:0:
203,189,54566,2,0,L|200:102,1,66.25,8|0,2:1|2:0,2:0:0:0:
286,62,54731,2,0,L|206:56,1,66.25,0|0,2:0|2:0,2:0:0:0:
113,85,54896,1,4,2:1:0:0:
436,112,55060,1,8,0:0:0:0:
151,201,55390,6,0,L|33:200,1,66.25,0|0,0:2|0:0,0:0:0:0:
151,201,55555,2,0,L|33:200,1,66.25,0|0,0:2|0:0,0:0:0:0:
264,277,55720,6,0,L|274:166,1,66.25,2|0,0:0|0:0,0:0:0:0:
121,111,55885,1,0,0:0:0:0:
279,161,55967,2,0,L|360:161,2,66.25,2|0|0,0:0|0:0|0:0,0:0:0:0:
130,306,56214,6,0,L|120:195,1,66.25,2|0,0:0|0:0,0:0:0:0:
276,140,56379,1,0,0:0:0:0:
429,222,56462,2,0,L|439:111,1,66.25,2|0,0:0|0:0,0:0:0:0:
366,119,56627,1,0,0:0:0:0:
183,108,56709,6,0,L|86:115,2,66.25,2|0|0,0:0|0:0|0:0,0:0:0:0:
365,273,56956,2,0,L|462:280,2,66.25,2|0|0,0:0|0:0|0:0,0:0:0:0:
114,211,57203,1,2,0:0:0:0:
386,321,57368,5,8,0:0:0:0:
441,279,57450,1,0,0:0:0:0:
460,212,57532,1,0,0:0:0:0:
434,148,57615,1,0,0:0:0:0:
375,112,57697,1,0,0:0:0:0:
298,108,57780,1,0,0:0:0:0:
133,196,57863,1,2,0:3:0:0:
285,176,57945,1,2,0:3:0:0:
460,220,58027,1,2,0:3:0:0:
308,200,58109,1,2,0:3:0:0:
143,220,58192,6,0,L|23:211,1,66.25,2|0,0:0|0:0,0:0:0:0:
219,204,58357,1,0,0:0:0:0:
362,238,58440,2,0,L|368:134,1,66.25,2|0,0:0|0:0,0:0:0:0:
297,143,58604,1,0,0:0:0:0:
92,302,58687,5,2,0:0:0:0:
163,290,58769,1,0,0:0:0:0:
235,279,58852,1,0,0:0:0:0:
401,308,58934,2,0,L|521:299,2,66.25,2|0|0,0:0|0:0|0:0,0:0:0:0:
223,305,59181,6,0,L|217:201,1,66.25,2|0,0:0|0:0,0:0:0:0:
295,208,59345,1,0,0:0:0:0:
381,250,59429,2,0,L|387:146,1,66.25,2|0,0:0|0:0,0:0:0:0:
309,153,59593,1,0,0:0:0:0:
153,119,59676,6,0,L|76:124,2,66.25,2|0|0,0:0|0:0|0:0,0:0:0:0:
332,52,59923,2,0,L|409:57,2,66.25,2|0|0,0:0|0:0|0:0,0:0:0:0:
149,324,60170,6,0,P|77:303|166:76,1,397.5,0|2,0:0|0:3,0:0:0:0:
217,75,60747,1,2,0:3:0:0:
149,74,60830,1,2,0:3:0:0:
217,75,60912,1,2,0:3:0:0:
363,141,60995,6,0,L|462:136,1,66.25,2|0,0:0|0:0,0:0:0:0:
279,89,61159,1,0,0:0:0:0:
134,185,61242,2,0,L|130:104,1,66.25,2|0,0:0|0:0,0:0:0:0:
203,105,61407,1,0,0:0:0:0:
439,199,61489,6,0,L|538:194,1,66.25,2|0,0:0|0:0,0:0:0:0:
355,147,61653,1,0,0:0:0:0:
210,243,61736,2,0,L|134:237,2,66.25,2|0|0,0:0|0:0|0:0,0:0:0:0:
399,319,61984,6,0,L|403:238,1,66.25,2|0,0:0|0:0,0:0:0:0:
330,239,62149,1,0,0:0:0:0:
146,158,62231,2,0,L|142:77,1,66.25,2|0,0:0|0:0,0:0:0:0:
215,78,62396,1,0,0:0:0:0:
427,228,62478,1,2,0:0:0:0:
99,322,62643,5,4,0:2:0:0:
44,280,62725,1,0,0:0:0:0:
25,213,62807,1,0,0:0:0:0:
51,149,62890,1,0,0:0:0:0:
110,113,62972,1,0,0:0:0:0:
187,109,63055,1,0,0:0:0:0:
337,189,63138,1,2,0:3:0:0:
489,209,63220,1,2,0:3:0:0:
325,210,63302,1,2,0:3:0:0:
173,230,63384,1,2,0:3:0:0:
346,268,63467,6,0,L|425:274,1,66.25,2|0,0:0|0:0,0:0:0:0:
257,326,63632,1,0,0:0:0:0:
104,311,63714,2,0,L|97:213,1,66.25,2|0,0:0|0:0,0:0:0:0:
169,214,63879,1,0,0:0:0:0:
420,302,63962,5,2,0:0:0:0:
349,290,64044,1,0,0:0:0:0:
277,279,64127,1,0,0:0:0:0:
111,308,64209,2,0,L|-9:299,2,66.25,2|0|0,0:0|0:0|0:0,0:0:0:0:
289,305,64456,6,0,L|295:201,1,66.25,2|0,0:0|0:0,0:0:0:0:
217,208,64620,1,0,0:0:0:0:
131,250,64704,2,0,L|125:146,1,66.25,2|0,0:0|0:0,0:0:0:0:
203,153,64868,1,0,0:0:0:0:
359,119,64951,6,0,L|436:124,2,66.25,2|0|0,0:0|0:0|0:0,0:0:0:0:
180,52,65198,2,0,L|103:57,2,66.25,2|0|0,0:0|0:0|0:0,0:0:0:0:
430,205,65445,5,2,0:3:0:0:
280,189,65610,1,2,0:3:0:0:
51,242,65775,2,0,L|48:217,6,16.5625
199,241,65940,2,0,L|205:324,1,66.25,2|2,0:3|0:3,0:0:0:0:
47,346,66104,2,0,L|121:351,1,66.25,2|2,0:3|0:3,0:0:0:0:
317,284,66269,6,0,P|372:256|303:170,1,198.75,4|0,0:2|0:0,0:0:0:0:
129,114,66599,2,0,L|263:103,1,117.660002872559,8|2,0:0|0:0,0:0:0:0:
411,69,66929,2,0,L|417:222,1,117.660002872559,0|2,0:0|0:0,0:0:0:0:
118,357,67258,6,0,P|63:329|132:243,1,198.75,4|0,0:2|0:0,0:0:0:0:
302,287,67588,2,0,L|436:276,1,117.660002872559,8|2,0:0|0:0,0:0:0:0:
269,222,67918,2,0,L|273:159,1,58.8300014362793,4|0,0:0|0:0,0:0:0:0:
452,133,68082,1,2,0:0:0:0:
292,116,68247,1,8,0:0:0:0:
452,133,68412,2,0,L|456:70,1,58.8300014362793,2|2,0:3|0:3,0:0:0:0:
280,34,68577,2,0,L|193:39,1,58.8300014362793,2|2,0:3|0:3,0:0:0:0:
445,222,68742,6,0,L|296:209,1,117.660002872559,8|0,0:1|0:0,0:0:0:0:
245,158,68989,2,0,L|394:145,1,117.660002872559,8|0,0:0|0:0,0:0:0:0:
168,312,69236,2,0,L|164:188,1,117.660002872559,8|0,0:0|0:0,0:0:0:0:
248,220,69484,2,0,L|397:207,1,117.660002872559,8|0,0:0|0:0,0:0:0:0:
116,174,69731,6,0,L|-5:157,1,117.660002872559,8|0,0:0|0:0,0:0:0:0:
77,121,69978,2,0,L|198:104,1,117.660002872559,8|0,0:0|0:0,0:0:0:0:
382,248,70225,2,0,L|386:124,1,117.660002872559,8|0,0:0|0:0,0:0:0:0:
306,156,70473,2,0,L|157:143,1,117.660002872559,8|0,0:0|0:0,0:0:0:0:
49,227,70720,6,0,L|203:239,1,116.60000355835,2|0,0:0|0:0,0:0:0:0:
318,332,70967,2,0,L|383:337,2,66.25,0|2|0,0:0|0:0|0:0,0:0:0:0:
165,236,71214,2,0,L|246:244,1,66.25,8|2,0:0|0:3,0:0:0:0:
390,255,71379,2,0,L|456:261,1,66.25,2|2,0:3|0:3,0:0:0:0:
196,336,71544,6,0,P|136:261|209:215,1,198.75,4|0,0:2|0:0,0:0:0:0:
362,166,71874,2,0,L|214:157,1,117.660002872559,8|2,0:0|0:0,0:0:0:0:
76,101,72203,2,0,L|72:256,1,117.660002872559,4|2,0:0|0:0,0:0:0:0:
382,260,72533,6,0,P|440:228|363:145,1,198.75,4|0,0:2|0:0,0:0:0:0:
175,214,72863,2,0,L|50:216,1,117.660002872559,8|2,0:0|0:0,0:0:0:0:
202,329,73192,2,0,L|205:259,1,58.8300014362793,4|2,0:0|0:0,0:0:0:0:
41,193,73357,2,0,L|151:188,1,58.8300014362793,2|0,0:0|0:0,0:0:0:0:
284,298,73522,2,0,L|394:293,1,58.8300014362793,8|0,0:0|0:0,0:0:0:0:
242,262,73687,1,0,0:0:0:0:
240,304,73742,1,0,0:0:0:0:
238,341,73797,1,0,0:0:0:0:
397,339,73852,2,0,L|401:254,1,58.8300014362793,8|0,0:0|2:0,0:0:0:0:
316,255,74016,6,0,L|12:241,1,265,8|0,0:0|0:0,0:0:0:0:
125,281,74264,2,0,L|429:267,1,265,8|0,0:0|0:0,0:0:0:0:
318,200,74511,2,0,L|123:197,1,143.100000545883,8|0,0:0|0:0,0:0:0:0:
251,172,74758,2,0,L|446:169,1,143.100000545883,8|0,0:0|0:0,0:0:0:0:
175,284,75006,6,0,P|121:250|183:158,1,193.979992008271,4|0,0:2|0:0,0:0:0:0:
416,212,75500,2,0,P|470:178|408:86,1,193.979992008271
163,89,75995,2,2,L|163:124,2,32.3299986680451,2|2|2,2:2|0:0|0:0,0:0:0:0:
250,58,76159,2,2,L|250:142,1,64.6599973360902,2|2,2:2|0:0,0:0:0:0:
150,121,76324,2,2,L|63:129,1,64.6599973360902,2|2,2:2|0:0,0:0:0:0:
350,230,76489,6,0,L|457:236,1,67.84,4|0,0:0|0:0,0:0:0:0:
202,335,76654,2,0,L|202:254,1,67.84
289,256,76819,2,0,L|316:175,1,67.84,8|0,0:0|0:0,0:0:0:0:
120,144,76984,2,0,L|13:150,1,67.84
268,249,77149,2,0,L|268:168,1,67.84,4|0,0:0|0:0,0:0:0:0:
181,170,77314,2,0,L|154:89,1,67.84
340,54,77478,2,0,L|447:60,2,67.84,8|0|0,0:0|0:0|0:0,0:0:0:0:
177,142,77808,6,0,L|168:50,1,67.84,4|0,0:0|0:0,0:0:0:0:
350,162,77973,2,0,L|444:145,1,67.84
219,269,78137,2,0,L|210:177,1,67.84,8|0,0:0|0:0,0:0:0:0:
302,168,78302,2,0,L|311:76,1,67.84
127,349,78467,1,4,0:0:0:0:
61,327,78549,1,0,0:0:0:0:
33,270,78632,1,0,0:0:0:0:
42,195,78714,1,0,0:0:0:0:
99,150,78797,1,8,0:0:0:0:
178,135,78879,1,0,0:0:0:0:
345,189,78962,6,0,L|505:200,1,139.919999572998,2|4,0:0|0:0,0:0:0:0:
196,233,79291,2,0,L|36:244,1,139.919999572998,2|8,0:0|0:0,0:0:0:0:
366,340,79621,2,0,L|376:193,1,139.919999572998,2|4,0:0|0:0,0:0:0:0:
210,159,79951,1,2,0:0:0:0:
385,183,80115,2,0,L|281:191,1,69.959999786499,10|0,0:0|0:0,0:0:0:0:
59,120,80280,6,0,L|199:110,1,139.919999572998,2|4,0:0|0:0,0:0:0:0:
476,275,80610,2,0,L|337:265,1,139.919999572998,2|8,0:0|0:0,0:0:0:0:
64,347,80940,2,0,L|54:200,1,139.919999572998,2|4,0:0|0:0,0:0:0:0:
212,237,81269,1,2,0:0:0:0:
470,223,81434,2,0,L|475:143,1,67.84,10|0,0:0|0:0,0:0:0:0:
381,183,81599,2,0,L|302:177,1,67.84
121,118,81764,6,0,L|204:111,1,67.84,4|0,0:0|0:0,0:0:0:0:
367,285,81929,2,0,L|360:204,1,67.84
275,214,82093,2,0,L|241:130,1,67.84,8|0,0:0|0:0,0:0:0:0:
480,176,82258,2,0,L|397:169,1,67.84
234,343,82423,2,0,L|241:262,1,67.84,4|0,0:0|0:0,0:0:0:0:
326,272,82587,2,0,L|360:188,1,67.84
124,180,82753,2,0,L|224:171,1,67.84,8|0,0:0|0:0,0:0:0:0:
401,57,82918,2,0,L|301:48,1,67.84
120,329,83082,5,4,0:0:0:0:
69,304,83165,1,0,0:0:0:0:
53,248,83247,1,0,0:0:0:0:
90,190,83330,1,0,0:0:0:0:
175,184,83412,2,0,L|181:91,1,67.84,8|0,0:0|0:0,0:0:0:0:
88,106,83577,2,0,L|76:11,1,67.84
291,251,83742,2,0,L|303:156,1,67.84,4|0,0:0|0:0,0:0:0:0:
76,94,83907,2,0,L|176:98,1,67.84
325,189,84071,2,0,L|425:193,1,67.84,8|0,0:0|0:0,0:0:0:0:
302,122,84236,2,0,L|202:126,1,67.84
474,245,84401,6,0,P|463:174|336:124,1,203.52,4|0,0:3|0:0,0:0:0:0:
174,205,84731,2,0,L|272:200,1,67.84
436,276,84896,2,0,L|440:180,1,67.84
229,314,85060,2,0,L|16:300,1,203.52,4|0,0:3|0:0,0:0:0:0:
287,286,85390,2,0,L|281:206,1,67.84
84,179,85555,2,0,L|3:175,1,67.84
339,96,85720,6,0,L|403:95,1,33.92,8|0,0:1|2:0,0:0:0:0:
115,95,86049,6,0,L|51:94,1,33.92,8|0,0:1|2:0,0:0:0:0:
339,96,86379,6,0,L|403:95,1,33.92,8|0,0:1|2:0,0:0:0:0:
107,188,86544,6,0,L|102:264,1,67.84
198,251,86709,2,0,L|528:268,1,270.299996391106,4|0,1:2|2:0,0:0:0:0:
94,315,87038,5,4,0:2:0:0:
252,268,87203,1,0,0:0:0:0:
88,233,87368,1,4,0:0:0:0:
412,229,87533,1,0,0:0:0:0:
252,184,87698,2,0,L|257:107,1,67.84,4|0,0:0|0:0,0:0:0:0:
431,117,87863,1,4,0:0:0:0:
277,30,88027,2,4,L|108:44,1,135.68
450,334,88357,6,0,L|455:234,1,69.959999786499,4|0,0:0|0:0,0:0:0:0:
283,298,88522,2,0,L|196:293,1,67.84
403,182,88687,2,0,L|408:89,1,67.84,4|0,0:0|0:0,0:0:0:0:
326,140,88852,2,0,L|240:134,1,67.84
105,37,89016,6,4,L|55:34,2,33.92
278,51,89181,2,0,L|371:44,1,67.84,4|0,0:0|0:0,0:0:0:0:
250,120,89346,2,0,L|157:113,1,67.84,4|0,0:3|2:3,0:3:0:0:
434,217,89511,6,0,L|253:232,1,152.640003726563,8|0,0:3|0:0,0:0:0:0:
17,292,89841,2,0,L|198:307,1,152.640003726563,8|0,0:3|0:0,0:3:0:0:
418,361,90170,2,0,L|425:255,1,67.84,4|0,0:0|0:0,0:0:0:0:
252,163,90335,2,0,L|175:155,1,67.84
290,143,90500,2,0,L|367:135,2,67.84,4|0|4,0:0|0:0|0:0,0:0:0:0:
20,225,90830,6,0,L|201:240,1,152.640003726563,8|0,0:3|0:0,0:0:0:0:
437,300,91160,2,0,L|256:315,1,152.640003726563,8|0,0:3|0:0,0:0:0:0:
123,233,91489,2,0,L|212:225,1,67.84,4|0,0:0|0:0,0:0:0:0:
293,258,91654,2,0,L|376:254,2,67.84,4|0|4,0:0|0:0|0:0,0:0:0:0:
126,134,91984,1,4,0:0:0:0:
297,167,92148,2,0,L|384:163,1,67.84,4|0,0:0|0:0,0:0:0:0:
138,313,92313,6,0,L|8:315,1,67.84,8|0,0:0|0:0,0:0:0:0:
273,199,92478,2,0,L|143:201,1,67.84,8|0,0:0|0:0,0:0:0:0:
20,184,92643,2,0,L|25:93,1,67.84,8|0,0:0|0:0,0:0:0:0:
112,124,92808,2,0,L|130:24,1,67.84,8|0,0:0|0:0,0:0:0:0:
303,155,92973,5,0,0:0:0:0:
337,154,93014,1,0,0:0:0:0:
364,134,93055,1,0,0:0:0:0:
373,102,93096,1,0,0:0:0:0:
363,70,93137,1,0,0:0:0:0:
336,51,93179,1,0,0:0:0:0:
302,51,93220,1,0,0:0:0:0:
127,195,93302,2,0,L|225:180,1,67.84,4|0,0:0|0:0,0:0:0:0:
380,236,93467,2,0,L|478:221,1,67.84,4|0,0:0|0:0,0:0:0:0:
295,320,93632,6,0,L|286:260,5,45.2266666666667,4|0|0|0|0|0,0:0|0:0|0:0|0:0|0:0|0:0,0:0:0:0:
205,271,93962,2,0,L|196:211,5,45.2266666666667,4|0|0|0|0|0,0:0|0:0|0:0|0:0|0:0|0:0,0:0:0:0:
350,217,94291,5,4,0:0:0:0:
394,212,94345,1,0,0:0:0:0:
424,179,94400,1,0,0:0:0:0:
424,135,94455,1,0,0:0:0:0:
394,102,94510,1,0,0:0:0:0:
350,98,94565,1,0,0:0:0:0:
150,167,94621,1,4,0:0:0:0:
103,161,94675,1,0,0:0:0:0:
71,126,94730,1,0,0:0:0:0:
71,78,94785,1,0,0:0:0:0:
103,42,94840,1,0,0:0:0:0:
151,38,94895,1,0,0:0:0:0:
349,28,94951,5,4,0:3:0:0:
69,272,95115,1,2,0:2:0:0:
69,272,95280,1,2,0:2:0:0:
69,272,95445,1,2,0:2:0:0:
69,272,95609,1,2,0:2:0:0:
69,272,95774,1,2,0:2:0:0:
69,272,95939,1,2,0:2:0:0:
69,272,96104,1,2,0:2:0:0:
325,252,96269,6,0,P|375:230|318:223,1,135.68,2|0,0:2|0:0,0:0:0:0:
179,173,96599,2,0,L|258:172,1,67.84,2|2,0:2|0:2,0:0:0:0:
433,166,96764,1,2,0:2:0:0:
278,326,97093,6,0,L|271:223,1,58.8300014362793,2|0,0:0|0:0,0:0:0:0:
194,253,97258,2,0,L|187:150,1,58.8300014362793,2|0,0:0|0:0,0:0:0:0:
289,208,97423,2,0,L|384:198,1,58.8300014362793,2|2,0:0|0:0,0:0:0:0:
243,274,97588,6,0,P|183:246|257:142,1,222.599993206787,2|8,0:0|0:0,0:0:0:0:
396,171,98082,2,0,L|466:167,2,55.6499983016968,0|0|2,0:0|0:0|0:0,0:0:0:0:
253,106,98412,1,0,0:0:0:0:
405,170,98577,1,8,0:0:0:0:
242,233,98742,2,0,P|184:224|102:79,2,222.599993206787,2|2|2,0:0|0:0|0:0,0:0:0:0:
317,232,99484,1,0,0:0:0:0:
389,309,99566,2,0,L|391:195,1,111.299996603394,2|2,0:0|0:0,0:0:0:0:
231,264,99896,2,0,L|112:261,1,111.299996603394,8|2,0:0|0:0,0:0:0:0:
271,274,100225,6,0,P|331:246|257:142,1,222.599993206787,2|8,0:0|0:0,0:0:0:0:
118,171,100720,2,0,L|36:167,2,55.6499983016968,0|0|2,0:0|0:0|0:0,0:0:0:0:
261,106,101049,1,2,0:0:0:0:
109,170,101214,1,8,0:0:0:0:
269,115,101379,6,0,L|275:-13,1,111.299996603394,2|0,0:0|0:0,0:0:0:0:
112,68,101709,2,0,L|243:62,1,111.299996603394,2|8,0:0|0:0,0:0:0:0:
378,161,102038,2,0,L|383:75,1,55.6499983016968,2|0,0:0|0:0,0:0:0:0:
305,75,102203,1,2,0:0:0:0:
149,129,102368,2,0,L|147:172,3,37.0999988677979,2|0|0|8,0:0|0:0|0:0|0:0,0:0:0:0:
299,199,102698,2,0,L|301:242,3,37.0999988677979,2|0|0|2,0:0|0:0|0:0|0:0,0:0:0:0:
148,63,103192,5,2,0:0:0:0:
104,61,103234,1,0,0:0:0:0:
260,178,103522,5,2,0:0:0:0:
313,165,103604,1,0,0:0:0:0:
335,116,103686,1,0,0:0:0:0:
311,68,103769,1,0,0:0:0:0:
258,57,103851,1,8,0:0:0:0:
104,162,104016,2,0,L|345:136,1,222.599993206787,2|0,0:0|0:0,0:0:0:0:
175,93,104511,1,8,0:0:0:0:
333,220,104676,2,0,P|399:193|314:110,1,222.599993206787,2|0,0:0|0:0,0:0:0:0:
252,87,105088,1,0,0:0:0:0:
174,67,105170,2,0,L|167:193,1,111.299996603394,8|2,0:0|0:0,0:0:0:0:
324,201,105500,5,2,0:0:0:0:
165,172,105665,2,0,L|56:181,2,55.6499983016968,2|0|8,0:0|0:0|0:0,0:0:0:0:
324,201,105995,1,2,0:0:0:0:
326,231,106036,1,2,0:0:0:0:
328,261,106077,1,2,0:0:0:0:
238,302,106159,1,2,0:0:0:0:
186,274,106242,1,2,0:0:0:0:
160,215,106324,1,2,0:0:0:0:
173,149,106407,1,2,0:0:0:0:
224,107,106489,1,2,0:0:0:0:
293,96,106571,1,2,0:0:0:0:
473,173,106654,6,0,B|356:109|356:109|483:176,1,267.119991848145,4|0,0:0|0:0,0:0:0:0:
318,142,107148,1,0,0:0:0:0:
37,80,107313,6,0,L|33:210,1,117.660002872559,4|0,0:0|0:0,0:0:0:0:
196,222,107643,2,4,L|280:175,1,64.6599973360902
31,287,107808,1,8,0:0:0:0:
313,300,107973,2,4,L|410:303,1,66.25,4|4,0:3|0:3,0:3:0:0:
155,353,108137,6,0,L|139:208,1,117.660002872559,4|0,0:0|0:0,0:0:0:0:
302,182,108467,1,8,0:0:0:0:
135,233,108632,2,0,L|48:228,1,58.8300014362793
311,198,108797,2,0,L|444:183,1,117.660002872559,4|0,0:0|0:0,0:0:0:0:
147,220,109126,1,8,0:0:0:0:
416,243,109291,6,0,P|474:203|372:113,1,235.320005745117
234,50,109786,1,8,0:0:0:0:
394,103,109951,2,0,L|397:27,1,58.8300014362793
196,102,110115,2,0,L|29:94,1,117.660002872559,4|0,0:0|0:0,0:0:0:0:
356,196,110445,2,0,L|523:188,1,117.660002872559,8|0,0:0|0:0,0:0:0:0:
155,353,110775,6,0,L|139:208,1,117.660002872559,4|0,0:0|0:0,0:0:0:0:
302,182,111104,1,8,0:0:0:0:
135,233,111270,2,0,L|236:224,1,58.8300014362793
376,227,111435,2,0,L|509:212,1,117.660002872559,4|0,0:0|0:0,0:0:0:0:
220,150,111764,1,8,0:0:0:0:
384,142,111929,1,0,0:0:0:0:
71,299,112093,5,4,0:0:0:0:
89,200,112258,1,0,0:0:0:0:
160,116,112423,1,8,0:0:0:0:
281,76,112588,1,0,0:0:0:0:
16,79,112753,5,4,0:0:0:0:
328,204,112918,1,0,0:0:0:0:
286,199,112973,1,0,0:0:0:0:
244,195,113027,1,0,0:0:0:0:
202,190,113082,1,8,0:0:0:0:
459,157,113247,2,0,L|520:146,2,39.2200009575196
288,88,113412,6,4,L|282:181,1,58.8300014362793,0|0,1:0|1:0,1:0:0:0:
376,138,113577,2,4,L|370:231,1,58.8300014362793,0|0,1:0|1:0,1:0:0:0:
279,170,113742,2,0,L|1:186,1,265,4|0,0:2|2:0,0:0:0:0:
319,340,114071,6,0,L|323:281,1,58.8300014362793,4|0,0:0|0:0,0:0:0:0:
119,188,114236,2,0,L|23:184,2,64.6599973360902,0|0|8,0:0|0:0|0:0,0:0:0:0:
346,178,114566,2,0,L|507:165,1,132.5,0|4,0:0|0:0,0:0:0:0:
308,102,114896,2,0,L|147:89,1,132.5,0|8,0:0|0:0,0:0:0:0:
478,274,115225,2,0,L|317:261,1,132.5,0|4,0:0|0:0,0:0:0:0:
77,317,115555,1,0,0:0:0:0:
358,207,115720,2,0,L|490:218,1,132.5,8|0,0:0|0:0,0:0:0:0:
201,240,116049,5,4,0:2:0:0:
357,279,116214,2,0,L|362:192,1,66.25,4|0,0:0|0:0,0:0:0:0:
87,172,116379,2,0,L|250:157,1,132.5,8|4,0:0|0:0,0:0:0:0:
380,223,116709,2,0,L|383:145,1,66.25,8|0,0:0|0:0,0:0:0:0:
195,172,116874,2,0,L|270:164,1,66.25,4|0,0:0|0:0,0:0:0:0:
415,220,117038,2,0,L|490:212,1,66.25,4|0,0:0|0:0,0:0:0:0:
257,352,117203,6,0,L|251:237,1,66.25,4|0,0:2|0:0,0:0:0:0:
344,306,117368,2,0,L|339:212,1,66.25
158,265,117533,2,0,L|74:263,1,66.25,2|0,0:0|0:0,0:0:0:0:
336,156,117698,2,0,L|520:146,1,132.5,8|2,0:0|0:0,0:0:0:0:
192,165,118027,1,4,0:0:0:0:
345,149,118192,2,4,L|347:75,1,66.25
103,139,118357,2,0,L|407:111,1,293.620009632614,8|2,0:0|0:0,0:0:0:0:
24,365,118687,5,4,1:0:0:0:
29,263,118852,1,0,0:0:0:0:
52,219,118934,1,0,0:0:0:0:
88,183,119016,1,2,0:0:0:0:
180,142,119181,1,2,0:0:0:0:
280,137,119346,1,2,0:0:0:0:
331,142,119429,1,0,0:0:0:0:
380,154,119511,1,0,0:0:0:0:
459,219,119676,1,2,0:0:0:0:
487,314,119841,1,2,0:0:0:0:
493,376,120006,1,0,0:0:0:0:
181,357,120170,6,0,L|124:152,2,212,2|0|2,0:0|0:0|0:0,0:0:0:0:
331,357,120500,2,0,L|417:50,2,212,2|0|2,0:0|0:0|0:0,0:0:0:0:
181,357,120830,2,0,L|239:152,1,212,2|0,0:0|0:0,0:0:0:0:
435,197,120995,6,0,L|445:98,1,66.25,8|0,0:0|0:0,0:0:0:0:
291,118,121159,1,0,0:0:0:0:
248,116,121201,1,0,0:0:0:0:
206,114,121242,1,0,0:0:0:0:
34,189,121324,5,4,0:0:0:0:
282,287,121489,1,4,0:0:0:0:
353,270,121571,1,0,0:0:0:0:
425,253,121654,1,8,0:0:0:0:
86,113,121819,2,0,L|82:220,1,66.25,4|0,0:0|0:0,0:0:0:0:
259,220,121984,2,0,L|352:225,1,66.25,4|0,0:0|0:0,0:0:0:0:
239,136,122148,2,0,L|146:141,1,66.25,8|0,0:0|0:0,0:0:0:0:
370,64,122313,2,0,L|265:61,1,66.25,4|0,0:0|0:0,0:0:0:0:
92,259,122478,5,4,0:0:0:0:
105,194,122560,1,0,0:0:0:0:
149,146,122642,1,4,0:0:0:0:
216,130,122725,1,0,0:0:0:0:
369,304,122808,2,0,L|374:199,1,66.25,2|0,0:0|0:0,0:0:0:0:
282,262,122973,2,0,L|191:259,1,66.25
402,101,123137,2,0,L|493:98,1,66.25,2|0,0:0|0:0,0:0:0:0:
385,81,123302,2,0,L|282:85,1,66.25,2|0,0:0|0:0,0:0:0:0:
97,53,123467,2,0,L|9:56,1,66.25,2|0,0:0|0:0,0:0:0:0:
202,147,123632,6,0,L|461:155,1,258.639989344361,8|0,0:0|0:0,0:0:0:0:
147,58,123962,6,0,L|138:206,1,117.660002872559,4|0,0:0|2:0,0:0:0:0:
302,158,124291,2,0,L|293:306,1,117.660002872559,4|0,0:0|2:0,0:0:0:0:
135,244,124621,2,0,L|317:226,2,176.490004308838,4|4|4,0:0|0:0|0:0,0:0:0:0:
293,279,125280,6,0,L|429:288,1,117.660002872559,4|0,0:0|2:0,0:0:0:0:
249,185,125610,2,0,L|113:194,1,117.660002872559,4|0,0:0|2:0,0:0:0:0:
295,87,125940,2,0,L|113:69,2,176.490004308838,4|4|4,0:0|0:0|0:0,0:0:0:0:
20,149,126599,6,0,L|24:289,1,117.660002872559,4|0,0:0|2:0,0:0:0:0:
185,205,126929,2,0,L|189:345,1,117.660002872559,4|0,0:0|2:0,0:0:0:0:
347,265,127258,2,0,L|165:247,2,176.490004308838,4|4|4,0:0|0:0|0:0,0:0:0:0:
35,135,127918,6,0,L|159:120,1,117.660002872559,4|0,0:0|2:0,0:0:0:0:
315,199,128247,2,0,L|191:184,1,117.660002872559,4|0,0:0|2:0,0:0:0:0:
37,179,128577,2,0,L|223:158,2,176.490004308838,4|4|4,0:0|0:0|0:0,0:0:0:0:
352,337,129236,5,4,0:2:0:0:
489,304,129401,1,0,0:0:0:0:
345,337,129566,1,4,0:0:0:0:
495,304,129731,1,0,0:0:0:0:
340,337,129896,1,4,0:0:0:0:
500,304,130061,1,0,0:0:0:0:
336,337,130225,1,4,0:0:0:0:
504,304,130390,1,0,0:0:0:0:
193,338,130555,5,4,0:2:0:0:
43,305,130720,1,0,0:0:0:0:
198,338,130885,1,4,0:0:0:0:
38,305,131049,1,0,0:0:0:0:
203,338,131215,1,4,0:0:0:0:
32,305,131379,1,0,0:0:0:0:
208,338,131544,1,4,0:0:0:0:
28,305,131709,1,0,0:0:0:0:
335,338,131874,6,0,L|341:229,1,64.6599973360902,8|0,0:0|0:0,0:0:0:0:
250,288,132038,2,0,L|175:252,1,64.6599973360902,4|0,0:0|0:0,0:0:0:0:
395,254,132203,2,0,L|384:152,1,64.6599973360902,8|0,0:0|0:0,0:0:0:0:
294,215,132368,2,0,L|223:183,1,64.6599973360902,4|0,0:0|0:0,0:0:0:0:
444,197,132533,2,0,L|413:133,1,67.84,8|0,0:0|0:0,0:0:0:0:
223,108,132698,2,0,L|137:69,1,67.84,4|0,0:0|0:0,0:0:0:0:
398,26,132863,2,0,L|297:25,1,70.4899970959016,8|8,0:0|0:0,0:0:0:0:
57,207,133027,6,0,L|34:167,6,35.2449985479508
270,235,133357,2,2,L|441:243,1,129.31999467218,2|2,1:2|1:2,1:2:0:0:
59,291,133687,6,0,L|19:294,6,32.3299986680451
334,328,134016,2,0,L|506:332,2,153.700004690552,0|2|2,0:0|0:2|0:2,0:0:0:0:
19,212,134511,1,4,0:0:0:0:
