osu file format v14

[General]
AudioFilename: audio.mp3
AudioLeadIn: 0
PreviewTime: 23206
Countdown: 0
SampleSet: Soft
StackLeniency: 0.7
Mode: 2
LetterboxInBreaks: 0
WidescreenStoryboard: 1

[Editor]
Bookmarks: 13192,23742,44841,55390,60995,66269,76489
DistanceSpacing: 0.9
BeatDivisor: 6
GridSize: 8
TimelineZoom: 3

[Metadata]
Title:8bit Voyager
TitleUnicode:8bit Voyager
Artist:Lime
ArtistUnicode:Lime
Creator:Spectator
Version:Dapu's Rain
Source:MUSYNX
Tags:osu! MUSYNC instrumental electronic nelly dapuluous -joni- joni chiptune featured artist mappers' guild fa mg bms of fighters bofxv
BeatmapID:2799246
BeatmapSetID:1340010

[Difficulty]
HPDrainRate:5
CircleSize:4
OverallDifficulty:9
ApproachRate:9
SliderMultiplier:1.92
SliderTickRate:2

[Events]
//Background and Video events
0,0,"keqing.jpg",0,0
//Break Periods
2,97588,104676
2,118887,120230
//Storyboard Layer 0 (Background)
//Storyboard Layer 1 (Fail)
//Storyboard Layer 2 (Pass)
//Storyboard Layer 3 (Foreground)
//Storyboard Layer 4 (Overlay)
//Storyboard Sound Samples

[TimingPoints]
6,329.67032967033,4,1,1,70,1,0
1324,-111.111111111111,4,1,1,70,0,0
1819,-100,4,1,1,70,0,0
1984,-111.111111111111,4,1,1,70,0,0
2313,-83.3333333333333,4,1,1,70,0,0
2643,-100,4,2,1,70,0,0
11049,-100,4,2,3,70,0,0
11709,-100,4,2,1,70,0,0
12368,-100,4,2,1,75,0,0
12698,-100,4,1,1,75,0,0
12863,-86.9565217391304,4,1,1,75,0,0
13192,-100,4,1,1,60,0,0
15830,-100,4,1,1,65,0,0
17148,-111.111111111111,4,1,1,65,0,0
17478,-100,4,1,1,65,0,0
18467,-100,4,1,1,70,0,0
19786,-100,4,1,1,73,0,0
21104,-100,4,1,1,75,0,0
22093,-100,4,1,1,77,0,0
22423,-100,4,1,1,65,0,0
22444,-100,4,1,1,5,0,0
22753,-100,4,1,1,65,0,0
22773,-100,4,1,1,5,0,0
23082,-100,4,1,1,65,0,0
23103,-100,4,1,1,5,0,0
23247,-100,4,1,1,50,0,0
23412,-71.4285714285714,4,1,1,60,0,0
23742,-100,4,1,1,70,0,1
28357,-100,4,1,1,70,0,1
28440,-100,4,1,5,55,0,1
28687,-100,4,1,1,70,0,1
28769,-100,4,1,5,55,0,1
29016,-100,4,1,1,70,0,1
29181,-100,4,1,1,35,0,1
29346,-100,4,1,1,70,0,1
33797,-100,4,1,5,55,0,1
33962,-100,4,1,1,70,0,1
34291,-100,4,1,1,70,0,1
39071,-100,4,1,1,70,0,1
39126,-100,4,1,5,55,0,1
39236,-100,4,1,1,70,0,1
39319,-100,4,1,5,55,0,1
39566,-100,4,1,5,55,0,0
39896,-100,4,1,1,70,0,1
43027,-100,4,1,1,70,0,1
43357,-100,4,1,1,70,0,1
44511,-100,4,1,1,70,0,1
44841,-100,4,2,1,70,0,0
50115,-100,4,1,1,72,0,0
51434,-100,4,1,1,74,0,0
52753,-100,4,1,1,76,0,0
53412,-100,4,1,1,78,0,0
54071,-100,4,1,1,45,0,0
55060,-100,4,1,7,60,0,0
55390,-100,4,1,1,75,0,0
55720,-100,4,1,1,75,0,0
55802,-100,4,1,1,50,0,0
55967,-100,4,1,1,75,0,0
56049,-100,4,1,1,50,0,0
56214,-100,4,1,1,75,0,0
56296,-100,4,1,1,50,0,0
56462,-100,4,1,1,75,0,0
56544,-100,4,1,1,50,0,0
56709,-100,4,1,1,75,0,0
56791,-100,4,1,1,50,0,0
56956,-100,4,1,1,75,0,0
57038,-100,4,1,1,50,0,0
57203,-100,4,1,1,75,0,0
57368,-100,4,1,1,60,0,0
57863,-100,4,1,1,75,0,0
58192,-100,4,1,1,75,0,0
58274,-100,4,1,1,50,0,0
58440,-100,4,1,1,75,0,0
58522,-100,4,1,1,50,0,0
58687,-100,4,1,1,75,0,0
58769,-100,4,1,1,50,0,0
58934,-100,4,1,1,75,0,0
59016,-100,4,1,1,50,0,0
59181,-100,4,1,1,75,0,0
59263,-100,4,1,1,50,0,0
59429,-100,4,1,1,75,0,0
59511,-100,4,1,1,50,0,0
59676,-100,4,1,1,75,0,0
59758,-100,4,1,1,50,0,0
59923,-100,4,1,1,75,0,0
60005,-100,4,1,1,50,0,0
60170,-100,4,1,66,65,0,0
60253,-100,4,1,1,50,0,0
60665,-100,4,1,1,60,0,0
60995,-100,4,1,1,75,0,0
61077,-100,4,1,1,50,0,0
61242,-100,4,1,1,75,0,0
61324,-100,4,1,1,50,0,0
61489,-100,4,1,1,75,0,0
61571,-100,4,1,1,50,0,0
61736,-100,4,1,1,75,0,0
61818,-100,4,1,1,50,0,0
61984,-100,4,1,1,75,0,0
62066,-100,4,1,1,50,0,0
62231,-100,4,1,1,75,0,0
62313,-100,4,1,1,50,0,0
62478,-100,4,1,1,75,0,0
62642,-100,4,1,1,50,0,0
63137,-100,4,1,1,60,0,0
63467,-100,4,1,1,75,0,0
63549,-100,4,1,1,50,0,0
63714,-100,4,1,1,75,0,0
63796,-100,4,1,1,50,0,0
63962,-100,4,1,1,75,0,0
64044,-100,4,1,1,50,0,0
64209,-100,4,1,1,75,0,0
64291,-100,4,1,1,50,0,0
64456,-100,4,1,1,75,0,0
64538,-100,4,1,1,50,0,0
64703,-100,4,1,1,75,0,0
64785,-100,4,1,1,50,0,0
64951,-100,4,1,1,75,0,0
65033,-100,4,1,1,50,0,0
65198,-100,4,1,1,75,0,0
65280,-100,4,1,1,50,0,0
65445,-100,4,1,1,60,0,0
65775,-100,4,1,20,85,0,0
65795,-100,4,2,1,25,0,0
65940,-100,4,1,10,70,0,0
66434,-100,4,1,10,40,0,0
66599,-100,4,1,10,70,0,0
67258,-100,4,1,10,70,0,0
67423,-100,4,1,10,40,0,0
67588,-100,4,1,10,70,0,0
68412,-100,4,1,10,60,0,0
68742,-100,4,1,10,70,0,0
68824,-100,4,1,10,40,0,0
68989,-100,4,1,10,70,0,0
69071,-100,4,1,10,40,0,0
69236,-100,4,1,10,70,0,0
69318,-100,4,1,10,40,0,0
69484,-100,4,1,10,70,0,0
69566,-100,4,1,10,40,0,0
69731,-100,4,1,10,70,0,0
69813,-100,4,1,10,40,0,0
69978,-100,4,1,10,70,0,0
70060,-100,4,1,10,40,0,0
70225,-100,4,1,10,70,0,0
70307,-100,4,1,10,40,0,0
70473,-100,4,1,10,70,0,0
70555,-100,4,1,10,40,0,0
70720,-100,4,1,10,70,0,0
70967,-100,4,1,10,70,0,0
71709,-100,4,1,10,40,0,0
71874,-100,4,1,10,70,0,0
72533,-100,4,1,10,70,0,0
72698,-100,4,1,10,40,0,0
72863,-100,4,1,10,70,0,0
73687,-100,4,1,5,60,0,0
73852,-100,4,1,10,70,0,0
74016,-100,4,1,1,70,0,0
74099,-100,4,1,1,40,0,0
74264,-100,4,1,1,70,0,0
74347,-100,4,1,1,40,0,0
74511,-100,4,1,1,70,0,0
74593,-100,4,1,1,40,0,0
74758,-100,4,1,1,70,0,0
74840,-100,4,1,1,40,0,0
75006,-100,4,1,1,70,0,0
75088,-100,4,1,1,50,0,0
75500,-100,4,1,1,60,0,0
75995,-100,4,2,3,60,0,0
76489,-100,4,1,77,75,0,0
76571,-100,4,1,1,50,0,0
76819,-100,4,1,77,75,0,0
76901,-100,4,1,1,50,0,0
77148,-100,4,1,77,75,0,0
77230,-100,4,1,1,50,0,0
77478,-100,4,1,77,75,0,0
77560,-100,4,1,1,50,0,0
77808,-100,4,1,77,75,0,0
77890,-100,4,1,1,50,0,0
78137,-100,4,1,77,75,0,0
78219,-100,4,1,1,50,0,0
78467,-100,4,1,77,75,0,0
78549,-100,4,1,1,50,0,0
78797,-100,4,1,77,75,0,0
78962,-100,4,1,77,80,0,0
81434,-100,4,1,77,80,0,0
81516,-100,4,1,1,70,0,0
81764,-100,4,1,77,75,0,0
81846,-100,4,1,1,50,0,0
82093,-100,4,1,77,75,0,0
82175,-100,4,1,1,50,0,0
82423,-100,4,1,77,75,0,0
82505,-100,4,1,1,50,0,0
82753,-100,4,1,77,70,0,0
82835,-100,4,1,1,40,0,0
83082,-100,4,1,77,70,0,0
83164,-100,4,1,1,40,0,0
83412,-100,4,1,77,75,0,0
83494,-100,4,1,1,50,0,0
83742,-100,4,1,77,75,0,0
83824,-100,4,1,1,50,0,0
84071,-100,4,1,77,75,0,0
84153,-100,4,1,1,50,0,0
84401,-100,4,1,77,65,0,0
84484,-100,4,1,1,20,0,0
84731,-100,4,1,85,60,0,0
85060,-100,4,1,77,65,0,0
85143,-100,4,1,1,20,0,0
85390,-100,4,1,85,60,0,0
85720,-100,4,1,1,85,0,0
85740,-100,4,1,1,15,0,0
85761,-100,4,1,1,15,0,0
86049,-100,4,1,1,85,0,0
86070,-100,4,1,1,15,0,0
86090,-100,4,1,1,15,0,0
86379,-100,4,1,1,85,0,0
86400,-100,4,1,1,15,0,0
86420,-100,4,1,1,15,0,0
86544,-100,4,1,5,75,0,0
86709,-100,4,1,1,85,0,0
86791,-100,4,1,1,70,0,0
87038,-100,4,1,77,80,0,0
87121,-100,4,1,1,60,0,0
87368,-100,4,1,77,80,0,0
87451,-100,4,1,1,60,0,0
87698,-100,4,1,77,80,0,0
87781,-100,4,1,1,60,0,0
87863,-100,4,1,77,80,0,0
87946,-100,4,1,1,60,0,0
88027,-100,4,1,77,80,0,0
88110,-100,4,1,1,60,0,0
88357,-100,4,1,1,70,0,0
89429,-100,4,1,1,15,0,0
89511,-100,4,1,77,85,0,0
89676,-100,4,1,1,70,0,0
89841,-100,4,1,77,85,0,0
90006,-100,4,1,1,70,0,0
90170,-100,4,1,1,70,0,0
90830,-100,4,1,77,85,0,0
90995,-100,4,1,1,70,0,0
91159,-100,4,1,77,85,0,0
91324,-100,4,1,1,70,0,0
91489,-100,4,1,1,70,0,0
92313,-100,4,1,1,90,0,0
92396,-100,4,1,1,60,0,0
92478,-100,4,1,1,90,0,0
92561,-100,4,1,1,60,0,0
92643,-100,4,1,1,90,0,0
92726,-100,4,1,1,60,0,0
92808,-100,4,1,1,90,0,0
92891,-100,4,1,1,60,0,0
92973,-100,4,1,65,77,0,0
93014,-100,4,1,1,60,0,0
93302,-100,4,1,1,80,0,0
93385,-100,4,1,1,50,0,0
93467,-100,4,1,1,80,0,0
93550,-100,4,1,1,50,0,0
93632,-83.3333333333333,4,1,1,50,0,0
93962,-100,4,1,1,55,0,0
94291,-100,4,1,1,65,0,0
94621,-100,4,1,1,70,0,0
94951,-100,4,1,77,65,0,0
95033,-100,4,1,1,45,0,0
97093,-100,4,2,1,45,0,0
97588,-100,4,2,45,55,0,0
103192,-100,4,2,45,75,0,0
103247,-100,4,2,45,45,0,0
103522,-100,4,2,45,55,0,0
104676,-100,4,2,45,58,0,0
105500,-100,4,2,45,61,0,0
105995,-100,4,2,3,64,0,0
106159,-100,4,2,3,66,0,0
106407,-100,4,2,1,73,0,0
106489,-100,4,2,1,76,0,0
106654,-100,4,1,77,70,0,0
106819,-100,4,1,77,50,0,0
107313,-100,4,1,77,75,0,0
107478,-100,4,1,77,65,0,0
107643,-100,4,1,1,70,0,0
107808,-100,4,1,1,80,0,0
107973,-100,4,1,1,70,0,0
108137,-100,4,1,1,70,0,1
112093,-100,4,1,77,70,0,1
112258,-100,4,1,1,70,0,1
112753,-100,4,1,77,70,0,1
112918,-100,4,1,1,70,0,1
113247,-100,4,1,5,60,0,1
113742,-100,4,1,1,70,0,1
114071,-100,4,1,1,70,0,1
114236,-100,4,1,1,70,0,1
114566,-100,4,1,1,70,0,1
116049,-100,4,1,1,80,0,1
116791,-100,4,1,1,60,0,1
117038,-100,4,1,1,80,0,1
117121,-100,4,1,1,60,0,1
117203,-100,4,1,1,80,0,1
117286,-100,4,1,1,60,0,1
117533,-100,4,1,1,85,0,1
117615,-100,4,1,1,60,0,1
117698,-100,4,1,1,85,0,1
118357,-100,4,1,60,90,0,1
118522,-100,4,1,1,40,0,1
118687,-100,4,2,1,70,0,0
120170,-100,4,2,1,70,0,0
120995,-100,4,1,1,70,0,0
121159,-100,4,1,5,80,0,0
121324,-100,4,1,1,70,0,1
122478,-100,4,1,1,75,0,1
122808,-100,4,1,1,80,0,1
123632,-100,4,1,60,90,0,1
123797,-100,4,1,1,40,0,1
123962,-100,4,1,1,70,0,0
125280,-100,4,1,1,72,0,0
126599,-100,4,1,1,74,0,0
127918,-111.111111111111,4,1,1,76,0,0
128247,-100,4,1,1,76,0,0
129236,-100,4,1,1,80,0,0
131874,-100,4,1,1,70,0,0
131956,-100,4,1,1,45,0,0
132286,-100,4,1,1,45,0,0
132533,-100,4,1,1,70,0,0
132615,-100,4,1,1,45,0,0
132863,-100,4,1,1,70,0,0
133357,-100,4,1,1,50,0,0
133604,-100,4,1,1,70,0,0
134016,-100,4,1,1,50,0,0
134181,-100,4,1,1,75,0,0
134511,-100,4,1,99,66,0,0

[Colours]
Combo1 : 198,198,198
Combo2 : 183,134,236

[HitObjects]
264,32,1324,6,0,L|360:32,1,86.3999973632813,8|4,0:0|0:0,0:0:0:0:
208,96,1654,2,0,L|112:96,1,86.3999973632813,8|4,0:0|0:0,0:0:0:0:
256,192,1984,2,0,L|208:192,1,43.1999986816407,8|0,0:0|0:0,0:0:0:0:
144,256,2148,2,0,L|200:256,1,43.1999986816407,4|4,0:0|0:0,0:0:0:0:
336,256,2313,2,0,L|456:256,1,115.199996484375,8|4,0:0|0:0,0:0:0:0:
200,192,2643,5,4,0:2:0:0:
392,192,2973,1,2,0:0:0:0:
200,48,3302,1,2,0:0:0:0:
296,48,3467,1,2,0:0:0:0:
368,48,3632,1,2,0:0:0:0:
200,280,3797,1,2,0:0:0:0:
392,280,4126,5,2,0:0:0:0:
200,192,4456,1,2,0:0:0:0:
344,48,4786,1,0,0:0:0:0:
248,48,4951,1,2,0:0:0:0:
176,48,5116,1,0,0:0:0:0:
368,192,5445,5,2,0:0:0:0:
200,192,5610,1,2,0:0:0:0:
392,336,5940,1,2,0:0:0:0:
296,336,6105,1,2,0:0:0:0:
224,336,6270,1,2,0:0:0:0:
376,192,6434,1,2,0:0:0:0:
184,120,6764,6,0,L|88:120,3,96,2|2|2|0,0:0|0:0|0:0|0:0,0:0:0:0:
232,48,7423,1,0,0:0:0:0:
328,48,7588,1,2,0:0:0:0:
400,48,7753,1,0,0:0:0:0:
208,192,8082,5,0,0:0:0:0:
376,192,8247,1,2,0:0:0:0:
184,328,8577,1,2,0:0:0:0:
280,328,8742,1,2,0:0:0:0:
352,328,8907,1,2,0:0:0:0:
184,192,9071,1,2,0:0:0:0:
376,192,9401,5,2,0:0:0:0:
184,64,9731,1,2,0:0:0:0:
376,64,10060,2,0,L|480:64,2,96,0|2|0,0:0|0:0|0:0,0:0:0:0:
184,64,10720,1,0,0:0:0:0:
328,152,10885,6,0,L|440:152,1,96,2|2,0:0|0:0,0:0:0:0:
456,152,11091,1,2,0:0:0:0:
424,192,11132,1,2,0:0:0:0:
360,80,11214,1,2,0:0:0:0:
314,90,11296,1,2,0:0:0:0:
284,127,11378,1,2,0:0:0:0:
283,174,11461,1,2,0:0:0:0:
311,211,11543,1,2,0:0:0:0:
357,224,11626,1,2,0:0:0:0:
192,48,11709,6,0,P|128:104|192:160,1,192,4|2,1:2|0:0,0:0:0:0:
336,160,12203,1,2,0:0:0:0:
112,192,12368,6,0,P|48:248|112:304,1,192,4|2,1:2|1:2,0:0:0:0:
224,64,12863,2,0,L|112:64,1,110.400002105713,0|0,1:0|3:0,0:0:0:0:
72,64,13109,1,0,3:0:0:0:
312,192,13192,6,0,L|408:192,1,96,4|0,0:0|2:0,0:0:0:0:
264,256,13522,2,0,L|168:256,1,96,4|0,0:0|2:0,0:0:0:0:
312,296,13852,2,0,P|392:296|440:344,2,144,4|4|4,0:0|0:0|0:0,0:0:0:0:
88,192,14511,5,4,0:0:0:0:
280,192,14841,1,4,0:0:0:0:
88,56,15170,2,0,P|168:56|216:104,2,144,4|4|4,0:0|0:0|0:0,0:0:0:0:
312,192,15830,5,4,0:0:0:0:
120,192,16159,1,4,0:0:0:0:
312,96,16489,2,0,P|256:56|184:56,2,144,4|4|4,0:0|0:0|0:0,0:0:0:0:
88,192,17148,6,0,P|40:256|96:320,1,172.799994726563,4|4,0:0|0:0,0:0:0:0:
288,256,17808,2,0,P|232:216|160:216,2,144,4|4|4,0:0|0:0|0:0,0:0:0:0:
64,40,18467,6,0,L|64:136,1,96,4|0,0:2|0:0,0:0:0:0:
208,72,18797,2,0,L|208:176,1,96,8|0,0:0|0:0,0:0:0:0:
352,120,19126,2,0,L|352:224,1,96,4|4,0:0|0:0,0:0:0:0:
496,184,19456,2,0,L|496:280,1,96,8|0,0:0|0:0,0:0:0:0:
200,272,19786,6,0,L|304:288,1,96,4|0,0:2|0:0,0:0:0:0:
152,176,20115,2,0,L|256:192,1,96,8|0,0:0|0:0,0:0:0:0:
104,72,20445,2,0,L|208:88,1,96,4|4,0:0|0:0,0:0:0:0:
304,104,20775,1,8,0:0:0:0:
200,192,20940,1,0,0:0:0:0:
424,192,21104,5,4,0:2:0:0:
472,224,21186,1,0,0:0:0:0:
472,272,21268,1,4,0:0:0:0:
424,304,21351,1,0,0:0:0:0:
224,64,21434,1,12,0:0:0:0:
177,56,21516,1,0,0:0:0:0:
133,75,21598,1,4,0:0:0:0:
107,114,21681,1,0,0:0:0:0:
304,104,21764,5,4,0:0:0:0:
350,112,21846,1,0,0:0:0:0:
395,97,21928,1,4,0:0:0:0:
426,61,22011,1,0,0:0:0:0:
240,256,22093,2,0,L|184:256,1,48,12|4,0:0|0:0,0:0:0:0:
360,304,22258,2,0,L|416:304,1,48,4|4,0:0|0:0,0:0:0:0:
192,192,22423,6,0,L|176:192,1,12
360,184,22753,2,0,L|344:184,1,12
168,48,23082,2,0,L|152:48,1,12
240,48,23247,6,0,L|288:48,1,48,4|0,0:0|0:0,0:0:0:0:
80,192,23412,2,0,L|80:328,1,134.399995898438,8|0,0:0|0:0,0:0:0:0:
368,192,23742,6,0,P|432:248|368:304,1,192,4|8,0:0|1:1,0:0:0:0:
272,80,24236,2,0,L|208:80,1,48
296,144,24401,2,0,L|392:144,2,96,4|0|8,0:0|0:0|0:0,0:0:0:0:
64,192,24896,6,0,P|64:280|152:280,1,192
344,192,25555,2,0,L|400:192,1,48
320,248,25720,2,0,L|208:248,2,96,4|0|8,0:0|0:0|0:0,0:0:0:0:
416,248,26214,1,0,0:0:0:0:
176,192,26379,6,0,P|112:248|184:304,1,192,4|8,0:0|0:0,0:0:0:0:
272,56,26874,1,0,0:0:0:0:
192,56,26956,1,0,0:0:0:0:
112,56,27038,2,0,P|64:56|24:96,2,96,4|0|8,0:0|0:0|0:0,0:0:0:0:
344,120,27533,6,0,P|448:120|480:192,1,192
224,192,28192,2,0,L|144:192,1,48
328,192,28357,2,0,L|440:192,1,96,4|0,0:0|0:0,0:0:0:0:
280,296,28687,2,0,L|176:296,1,96,8|0,0:0|0:0,0:0:0:0:
408,296,29016,6,0,P|432:256|400:216,1,96,4|0,0:0|0:0,0:0:0:0:
168,192,29346,1,4,1:2:0:0:
392,64,29676,2,0,L|432:104,2,48,4|0|0,0:0|0:0|0:0,0:0:0:0:
320,64,29923,1,0,0:0:0:0:
248,64,30006,1,8,0:0:0:0:
480,152,30170,6,0,L|272:152,2,192
288,192,31159,2,0,L|232:192,1,48
312,248,31324,2,0,L|416:248,1,96,8|0,0:0|0:0,0:0:0:0:
176,80,31654,6,0,L|80:80,1,96,4|0,0:0|0:0,0:0:0:0:
32,80,31901,1,0,0:0:0:0:
32,80,31984,1,8,0:0:0:0:
256,192,32148,2,0,L|144:192,1,96,0|4,0:0|0:0,0:0:0:0:
112,192,32396,1,0,0:0:0:0:
112,192,32478,1,0,0:0:0:0:
256,280,32643,1,8,0:0:0:0:
32,192,32808,6,0,P|56:280|144:280,1,192,4|4,0:2|0:0,0:0:0:0:
432,192,33467,2,0,P|480:264|432:352,1,192,4|4,0:2|0:0,0:0:0:0:
208,96,33962,2,0,L|144:96,1,48,8|0,0:0|0:0,0:0:0:0:
328,96,34126,2,0,L|384:96,1,48
168,192,34291,6,0,P|104:248|168:304,1,192,4|8,0:2|0:0,0:0:0:0:
264,80,34785,2,0,L|328:80,1,48
240,136,34950,2,0,L|144:136,2,96,0|0|8,0:0|0:0|0:0,0:0:0:0:
464,192,35445,6,0,P|464:280|376:280,1,192
184,192,36104,2,0,L|128:192,1,48
208,144,36269,2,0,L|320:144,2,96,4|0|8,0:0|0:0|0:0,0:0:0:0:
112,144,36763,1,0,0:0:0:0:
336,192,36928,6,0,P|400:248|328:304,1,192,4|8,0:0|0:0,0:0:0:0:
208,56,37423,1,0,0:0:0:0:
288,56,37505,1,0,0:0:0:0:
368,56,37588,2,0,L|472:56,2,96,4|0|8,0:0|0:0|0:0,0:0:0:0:
248,136,38082,1,0,0:0:0:0:
128,136,38247,1,4,0:2:0:0:
384,136,38412,1,0,0:0:0:0:
192,192,38742,6,0,L|256:192,1,48
392,264,38907,2,0,L|488:264,1,96,4|0,0:2|0:0,0:0:0:0:
248,288,39236,2,0,P|192:288|168:256,1,96,8|0,0:0|0:0,0:0:0:0:
320,104,39566,6,0,L|376:104,1,48
368,104,39731,2,0,L|320:104,1,48
168,192,39896,6,0,P|64:192|24:264,1,192,4|4,0:2|0:0,0:0:0:0:
120,260,40390,2,0,L|24:260,1,96,0|8,0:0|0:0,0:0:0:0:
280,192,40720,6,0,P|400:192|448:240,1,192
368,240,41214,1,8,0:0:0:0:
127,71,41379,2,0,P|63:127|135:191,1,192
232,192,41874,1,8,0:0:0:0:
122,192,42038,1,0,0:0:0:0:
360,272,42203,6,0,L|464:272,1,96,4|4,0:2|0:0,0:0:0:0:
416,312,42451,1,0,0:0:0:0:
376,312,42533,1,8,0:0:0:0:
136,112,42698,2,0,L|232:112,1,96,4|4,0:0|0:0,0:0:0:0:
280,112,42945,1,0,0:0:0:0:
232,112,43027,2,0,L|136:112,1,96,4|8,0:0|0:0,0:0:0:0:
424,112,43357,6,0,P|472:192|424:272,1,192,4|4,0:2|0:0,0:0:0:0:
216,192,44016,2,0,L|424:192,1,192,4|4,0:0|0:0,0:0:0:0:
408,192,44429,1,4,0:0:0:0:
240,288,44511,2,0,L|144:288,1,96,8|0,0:0|2:0,0:0:0:0:
408,192,44841,5,4,0:0:0:0:
168,192,45170,1,2,1:2:0:0:
384,64,45665,1,2,0:0:0:0:
240,64,45830,2,0,L|240:168,1,96,2|2,1:2|0:0,0:0:0:0:
432,192,46324,5,2,0:0:0:0:
288,192,46489,2,0,L|288:296,1,96,0|2,0:0|0:0,0:0:0:0:
480,272,46984,2,0,L|352:272,2,96,0|2|0,0:0|1:2|1:0,0:0:0:0:
240,48,47478,6,0,L|432:48,1,192,4|2,1:2|1:2,0:0:0:0:
144,192,48302,1,2,0:0:0:0:
288,192,48467,2,0,L|288:288,1,96,2|2,1:2|0:0,0:0:0:0:
96,48,48962,5,2,0:0:0:0:
240,48,49126,2,0,L|240:152,1,96,2|2,1:2|0:0,0:0:0:0:
48,272,49621,2,0,L|152:272,2,96,0|2|4,0:0|1:2|1:0,0:0:0:0:
336,56,50115,6,0,L|440:72,1,96,4|4,0:0|0:0,0:0:0:0:
288,136,50445,2,0,L|392:152,1,96,4|4,0:0|0:0,0:0:0:0:
240,240,50775,2,0,L|136:256,1,96,4|4,0:0|0:0,0:0:0:0:
288,312,51104,2,0,L|184:328,1,96,4|4,0:0|0:0,0:0:0:0:
488,200,51434,6,0,L|384:216,1,96,4|4,0:0|0:0,0:0:0:0:
248,128,51764,2,0,L|144:144,1,96,4|4,0:0|0:0,0:0:0:0:
296,192,52093,2,0,L|390:177,1,96,4|4,0:0|0:0,0:0:0:0:
248,56,52423,2,0,L|342:41,1,96,4|4,0:0|0:0,0:0:0:0:
96,112,52753,5,4,0:0:0:0:
48,112,52835,1,0,0:0:0:0:
48,112,52918,1,4,0:0:0:0:
96,112,53000,1,0,0:0:0:0:
264,192,53082,1,4,0:0:0:0:
309,179,53164,1,0,0:0:0:0:
355,193,53246,1,4,0:0:0:0:
385,229,53329,1,0,0:0:0:0:
240,64,53412,5,4,0:0:0:0:
192,64,53494,1,0,0:0:0:0:
192,64,53576,1,4,0:0:0:0:
240,64,53659,1,0,0:0:0:0:
72,256,53742,1,4,0:0:0:0:
24,288,53824,1,0,0:0:0:0:
24,336,53906,1,4,0:0:0:0:
72,304,53989,1,0,0:0:0:0:
288,320,54071,5,4,0:0:0:0:
144,192,54401,1,8,2:1:0:0:
288,192,54566,1,8,2:1:0:0:
96,64,54896,1,4,2:1:0:0:
320,64,55060,6,0,L|424:64,1,96,8|0,0:0|0:0,0:0:0:0:
160,200,55390,1,0,0:2:0:0:
114,188,55472,1,0,0:0:0:0:
71,207,55554,1,0,0:2:0:0:
48,248,55637,1,0,0:0:0:0:
280,192,55720,6,0,L|384:192,1,96,2|0,0:0|0:0,0:0:0:0:
416,192,55967,1,2,0:0:0:0:
272,280,56132,1,0,0:0:0:0:
224,336,56214,2,0,L|328:336,1,96,2|0,0:0|0:0,0:0:0:0:
376,328,56462,2,0,L|376:272,1,48,2|0,0:0|0:0,0:0:0:0:
320,280,56626,1,0,0:0:0:0:
152,80,56709,6,0,P|96:80|72:160,1,144,2|2,0:0|0:0,0:0:0:0:
272,192,57203,1,2,0:0:0:0:
136,192,57368,1,8,0:0:0:0:
115,233,57450,1,0,0:0:0:0:
137,273,57532,1,0,0:0:0:0:
183,276,57615,1,0,0:0:0:0:
136,320,57698,2,0,L|184:320,1,48
376,192,57863,5,2,0:3:0:0:
424,192,57945,1,2,0:3:0:0:
472,192,58027,1,2,0:3:0:0:
424,192,58110,1,2,0:3:0:0:
256,96,58192,6,0,L|136:96,1,96,2|0,0:0|0:0,0:0:0:0:
120,96,58440,1,2,0:0:0:0:
248,192,58604,1,0,0:0:0:0:
184,240,58687,2,0,L|280:240,1,96,2|0,0:0|0:0,0:0:0:0:
320,192,58934,1,2,0:0:0:0:
360,192,59016,1,0,0:0:0:0:
320,240,59099,1,0,0:0:0:0:
160,304,59181,6,0,L|48:304,1,96,2|0,0:0|0:0,0:0:0:0:
64,304,59429,1,2,0:0:0:0:
208,232,59593,1,0,0:0:0:0:
272,232,59676,2,0,L|152:232,1,96,2|0,0:0|0:0,0:0:0:0:
176,232,59923,1,2,0:0:0:0:
424,40,60170,6,0,P|424:136|304:136,1,240
144,48,60665,1,2,0:3:0:0:
88,48,60747,1,2,0:3:0:0:
88,96,60829,1,2,0:3:0:0:
144,96,60912,1,2,0:3:0:0:
304,264,60995,6,0,L|400:264,1,96,2|0,0:0|0:0,0:0:0:0:
360,312,61242,1,2,0:0:0:0:
216,192,61407,1,0,0:0:0:0:
160,192,61489,2,0,L|272:192,1,96,2|0,0:0|0:0,0:0:0:0:
208,240,61736,1,2,0:0:0:0:
160,240,61819,1,0,0:0:0:0:
112,240,61901,1,0,0:0:0:0:
280,56,61984,6,0,L|400:56,1,96,2|0,0:0|0:0,0:0:0:0:
424,56,62231,1,2,0:0:0:0:
264,112,62396,1,0,0:0:0:0:
320,176,62478,2,0,L|432:176,1,96,2|4,0:0|0:2,0:0:0:0:
464,176,62725,1,0,0:0:0:0:
488,215,62807,1,0,0:0:0:0:
471,257,62889,1,0,0:0:0:0:
426,267,62972,1,0,0:0:0:0:
160,64,63137,5,2,0:3:0:0:
96,64,63220,1,2,0:3:0:0:
48,64,63302,1,2,0:3:0:0:
48,64,63385,1,2,0:3:0:0:
240,192,63467,6,0,L|344:192,1,96,2|0,0:0|0:0,0:0:0:0:
288,192,63714,1,2,0:0:0:0:
144,256,63879,1,0,0:0:0:0:
192,256,63962,2,0,L|288:256,1,96,2|0,0:0|0:0,0:0:0:0:
240,296,64209,1,2,0:0:0:0:
192,296,64291,1,0,0:0:0:0:
144,296,64374,1,0,0:0:0:0:
312,192,64456,6,0,L|424:192,1,96,2|0,0:0|0:0,0:0:0:0:
368,232,64703,1,2,0:0:0:0:
224,56,64868,1,0,0:0:0:0:
176,56,64951,2,0,L|280:56,1,96,2|0,0:0|0:0,0:0:0:0:
320,56,65198,1,2,0:0:0:0:
224,192,65363,1,0,0:0:0:0:
160,192,65445,2,0,L|160:288,1,96,2|2,0:3|0:3,0:0:0:0:
304,264,65775,1,0,0:0:0:0:
328,264,65816,1,0,0:0:0:0:
352,264,65857,1,0,0:0:0:0:
168,56,65940,6,0,L|104:56,1,48,2|2,0:3|0:3,0:0:0:0:
72,56,66104,1,2,0:3:0:0:
120,104,66187,1,2,0:3:0:0:
312,112,66269,2,0,L|408:112,1,96,4|0,0:2|0:0,0:0:0:0:
360,152,66516,1,0,0:0:0:0:
312,152,66599,1,8,0:0:0:0:
168,192,66764,2,0,L|72:192,1,96,2|0,0:0|0:0,0:0:0:0:
120,232,67011,1,0,0:0:0:0:
168,232,67093,1,2,0:0:0:0:
408,304,67258,6,0,L|288:304,1,96,4|0,0:2|0:0,0:0:0:0:
264,304,67506,1,0,0:0:0:0:
216,304,67588,1,8,0:0:0:0:
360,56,67753,2,0,L|360:160,1,96,2|4,0:0|0:0,0:0:0:0:
296,152,68000,1,0,0:0:0:0:
232,152,68082,1,2,0:0:0:0:
88,96,68247,2,0,L|88:192,1,96,8|2,0:0|0:3,0:0:0:0:
136,192,68495,1,2,0:3:0:0:
184,192,68577,1,2,0:3:0:0:
232,192,68659,1,2,0:3:0:0:
72,272,68742,6,0,P|24:272|24:320,1,96,8|0,0:1|0:0,0:0:0:0:
72,272,68989,1,8,0:0:0:0:
120,272,69071,1,0,0:0:0:0:
264,296,69236,2,0,L|376:296,1,96,8|0,0:0|0:0,0:0:0:0:
416,296,69484,1,8,0:0:0:0:
360,296,69566,1,0,0:0:0:0:
120,72,69731,6,0,L|24:72,1,96,8|0,0:0|0:0,0:0:0:0:
72,120,69978,1,8,0:0:0:0:
120,120,70060,1,0,0:0:0:0:
264,192,70225,2,0,L|160:192,1,96,8|0,0:0|0:0,0:0:0:0:
224,144,70473,1,8,0:0:0:0:
280,144,70555,1,0,0:0:0:0:
424,264,70720,6,0,L|320:264,1,96,2|0,0:0|0:0,0:0:0:0:
376,208,70967,1,0,0:0:0:0:
424,208,71049,1,2,0:0:0:0:
424,208,71132,1,0,0:0:0:0:
280,192,71214,2,0,L|232:192,1,48,8|2,0:0|0:3,0:0:0:0:
160,192,71379,2,0,L|160:144,1,48,2|2,0:3|0:3,0:0:0:0:
368,56,71544,6,0,L|480:56,1,96,4|0,0:2|0:0,0:0:0:0:
464,104,71791,1,0,0:0:0:0:
408,104,71874,1,8,0:0:0:0:
264,256,72038,2,0,L|360:256,1,96,2|4,0:0|0:0,0:0:0:0:
408,256,72286,1,0,0:0:0:0:
360,256,72368,1,2,0:0:0:0:
96,208,72533,6,0,L|96:320,1,96,4|0,0:2|0:0,0:0:0:0:
160,304,72780,1,0,0:0:0:0:
224,304,72863,1,8,0:0:0:0:
368,344,73027,2,0,L|248:344,1,96,2|4,0:0|0:0,0:0:0:0:
224,304,73275,1,2,0:0:0:0:
272,344,73357,2,0,L|384:344,1,96,2|8,0:0|0:0,0:0:0:0:
261,57,73687,2,0,L|242:112,2,32
304,56,73852,1,8,0:0:0:0:
368,56,73934,1,0,2:0:0:0:
176,136,74016,6,0,L|72:136,1,96,8|0,0:0|0:0,0:0:0:0:
128,176,74264,1,8,0:0:0:0:
344,192,74511,2,0,L|456:192,1,96,8|0,0:0|0:0,0:0:0:0:
392,240,74758,1,8,0:0:0:0:
176,80,75006,6,0,L|32:80,1,144,4|0,0:2|0:0,0:0:0:0:
248,192,75500,2,0,L|88:192,1,144
328,112,75995,2,0,L|384:112,2,48,2|2|2,2:2|0:0|2:2,0:0:0:0:
280,136,76241,1,2,0:0:0:0:
280,184,76323,1,2,2:2:0:0:
328,112,76407,1,2,0:0:0:0:
152,192,76489,5,4,0:0:0:0:
104,224,76571,1,0,0:0:0:0:
106,271,76653,1,0,0:0:0:0:
155,295,76736,1,0,0:0:0:0:
304,232,76819,1,8,0:0:0:0:
352,264,76901,1,0,0:0:0:0:
350,311,76983,1,0,0:0:0:0:
300,335,77066,1,0,0:0:0:0:
152,88,77148,5,4,0:0:0:0:
104,88,77231,1,0,0:0:0:0:
56,88,77313,1,0,0:0:0:0:
104,88,77396,1,0,0:0:0:0:
264,128,77478,1,8,0:0:0:0:
312,128,77560,1,0,0:0:0:0:
360,128,77643,1,0,0:0:0:0:
312,128,77725,1,0,0:0:0:0:
144,256,77808,5,4,0:0:0:0:
88,256,77890,1,0,0:0:0:0:
144,320,77973,1,0,0:0:0:0:
200,320,78055,1,0,0:0:0:0:
200,256,78137,1,8,0:0:0:0:
144,256,78220,1,0,0:0:0:0:
88,320,78302,1,0,0:0:0:0:
144,320,78385,1,0,0:0:0:0:
336,192,78467,5,4,0:0:0:0:
392,192,78549,1,0,0:0:0:0:
456,192,78632,1,0,0:0:0:0:
456,248,78714,1,0,0:0:0:0:
392,248,78797,1,8,0:0:0:0:
152,56,78962,6,0,L|56:56,3,96,2|4|2|8,0:0|0:0|0:0|0:0,0:0:0:0:
200,128,79621,2,0,L|312:128,1,96,2|4,0:0|0:0,0:0:0:0:
192,192,79951,2,0,L|296:192,1,96,2|10,0:0|0:0,0:0:0:0:
336,192,80198,1,0,0:0:0:0:
128,272,80280,6,0,L|32:272,2,96,2|4|2,0:0|0:0|0:0,0:0:0:0:
224,272,80775,1,8,0:0:0:0:
80,40,80940,2,0,L|80:144,1,96,2|4,0:0|0:0,0:0:0:0:
224,144,81269,1,2,0:0:0:0:
168,144,81352,1,0,0:0:0:0:
224,80,81434,1,10,0:0:0:0:
280,80,81516,1,0,0:0:0:0:
280,80,81599,1,0,0:0:0:0:
224,80,81681,1,0,0:0:0:0:
56,192,81764,5,4,0:0:0:0:
16,224,81846,1,0,0:0:0:0:
16,224,81929,1,0,0:0:0:0:
56,192,82011,1,0,0:0:0:0:
224,192,82093,1,8,0:0:0:0:
270,182,82175,1,0,0:0:0:0:
311,205,82257,1,0,0:0:0:0:
328,248,82340,1,0,0:0:0:0:
152,256,82423,5,4,0:0:0:0:
104,280,82505,1,0,0:0:0:0:
104,336,82587,1,0,0:0:0:0:
152,312,82670,1,0,0:0:0:0:
360,56,82753,1,8,0:0:0:0:
406,50,82835,1,0,0:0:0:0:
447,74,82917,1,0,0:0:0:0:
464,118,83000,1,0,0:0:0:0:
296,152,83082,5,4,0:0:0:0:
240,152,83165,1,0,0:0:0:0:
240,152,83247,1,0,0:0:0:0:
296,152,83330,1,0,0:0:0:0:
352,152,83412,1,8,0:0:0:0:
296,208,83495,1,0,0:0:0:0:
240,208,83577,1,0,0:0:0:0:
296,208,83659,1,0,0:0:0:0:
464,208,83742,5,4,0:0:0:0:
474,252,83824,1,0,0:0:0:0:
442,285,83906,1,0,0:0:0:0:
397,276,83989,1,0,0:0:0:0:
240,288,84071,1,8,0:0:0:0:
194,276,84153,1,0,0:0:0:0:
151,295,84235,1,0,0:0:0:0:
128,336,84318,1,0,0:0:0:0:
344,192,84401,5,4,0:3:0:0:
152,56,84731,1,0,0:0:0:0:
104,56,84813,1,0,0:0:0:0:
104,56,84896,1,0,0:0:0:0:
152,56,84978,1,0,0:0:0:0:
368,56,85060,5,4,0:3:0:0:
176,192,85390,1,0,0:0:0:0:
120,192,85472,1,0,0:0:0:0:
120,192,85555,1,0,0:0:0:0:
176,192,85637,1,0,0:0:0:0:
392,192,85720,6,0,L|408:192,1,12,8|0,0:1|0:0,0:0:0:0:
176,80,86049,2,0,L|160:80,1,12,8|0,0:1|0:0,0:0:0:0:
408,96,86379,2,0,L|424:96,1,12,8|0,0:1|0:0,0:0:0:0:
312,96,86544,6,0,L|232:96,1,48
120,248,86709,2,0,L|120:352,1,96,4|0,1:2|2:0,0:0:0:0:
184,248,86956,1,0,0:0:0:0:
344,88,87038,6,0,L|440:88,2,96,4|0|4,0:2|0:0|0:0,0:0:0:0:
216,136,87533,2,0,L|120:136,2,96,0|4|4,0:0|0:0|0:0,0:0:0:0:
352,192,88027,2,0,L|352:288,1,96,4|4,0:0|0:0,0:0:0:0:
88,192,88357,5,4,0:0:0:0:
69,234,88439,1,0,0:0:0:0:
92,274,88521,1,0,0:0:0:0:
138,280,88604,1,0,0:0:0:0:
216,56,88687,1,4,0:0:0:0:
296,56,88769,1,0,0:0:0:0:
315,98,88851,1,0,0:0:0:0:
292,138,88933,1,0,0:0:0:0:
246,144,89016,5,4,0:0:0:0:
168,144,89099,1,4,0:0:0:0:
88,40,89181,1,4,0:0:0:0:
32,64,89264,1,0,0:0:0:0:
32,64,89346,1,4,0:3:0:0:
88,40,89429,1,0,2:3:0:0:
304,192,89511,6,0,P|352:224|296:272,1,144,8|0,0:3|0:0,0:0:0:0:
216,192,89841,2,0,L|104:192,1,96,8|0,0:3|0:0,0:0:0:0:
344,192,90170,1,4,0:0:0:0:
387,211,90252,1,0,0:0:0:0:
413,251,90334,1,0,0:0:0:0:
413,299,90417,1,0,0:0:0:0:
388,339,90499,1,4,0:0:0:0:
345,359,90582,1,0,0:0:0:0:
184,192,90665,2,0,L|112:192,1,48,4|0,0:0|0:0,0:0:0:0:
288,56,90830,6,0,P|360:56|416:96,1,144,8|0,0:3|0:0,0:0:0:0:
328,56,91159,2,0,L|224:56,1,96,8|0,0:3|0:0,0:0:0:0:
464,192,91489,1,4,0:0:0:0:
476,236,91571,1,0,0:0:0:0:
447,272,91653,1,4,0:0:0:0:
401,269,91736,1,0,0:0:0:0:
208,224,91819,1,4,0:0:0:0:
160,221,91901,1,0,0:0:0:0:
118,243,91983,1,4,0:0:0:0:
92,283,92066,1,0,0:0:0:0:
120,240,92148,1,4,0:0:0:0:
160,221,92231,1,0,0:0:0:0:
376,72,92313,5,8,0:0:0:0:
412,101,92395,1,0,0:0:0:0:
416,148,92477,1,8,0:0:0:0:
385,183,92560,1,0,0:0:0:0:
339,186,92642,1,8,0:0:0:0:
248,120,92725,1,0,0:0:0:0:
160,120,92808,2,0,L|88:136,1,48,8|0,0:0|0:0,0:0:0:0:
280,256,92973,6,0,L|312:256,1,24
328,256,93055,1,0,0:0:0:0:
264,320,93137,1,0,0:0:0:0:
200,256,93220,1,0,0:0:0:0:
136,256,93302,2,0,L|80:256,1,48,4|0,0:0|0:0,0:0:0:0:
88,256,93467,2,0,L|144:256,1,48,4|0,0:0|0:0,0:0:0:0:
344,48,93632,5,4,0:0:0:0:
289,61,93714,1,0,0:0:0:0:
243,95,93796,1,0,0:0:0:0:
216,145,93879,1,0,0:0:0:0:
210,202,93961,1,4,0:0:0:0:
228,257,94044,1,0,0:0:0:0:
266,299,94126,1,0,0:0:0:0:
318,323,94208,1,0,0:0:0:0:
376,323,94291,1,4,0:0:0:0:
428,301,94373,1,0,0:0:0:0:
467,259,94456,1,0,0:0:0:0:
487,205,94538,1,0,0:0:0:0:
482,148,94621,1,4,0:0:0:0:
456,98,94703,1,0,0:0:0:0:
411,62,94785,1,0,0:0:0:0:
356,48,94868,1,0,0:0:0:0:
112,192,94951,5,4,0:3:0:0:
256,192,105500,12,2,106489,0:0:0:0:
256,192,106654,5,4,0:0:0:0:
80,192,107313,5,4,0:0:0:0:
272,288,107643,2,0,L|224:288,1,48,4|4,0:0|0:0,0:0:0:0:
368,192,107808,1,8,0:0:0:0:
424,192,107890,1,0,0:0:0:0:
424,192,107972,1,4,0:3:0:0:
368,192,108055,1,4,0:3:0:0:
200,192,108137,6,0,P|120:192|120:288,1,192,4|8,0:0|0:0,0:0:0:0:
264,80,108631,2,0,L|328:80,1,48
232,144,108797,2,0,L|136:144,2,96,4|0|8,0:0|0:0|0:0,0:0:0:0:
456,192,109291,6,0,P|456:280|368:280,1,192
176,192,109950,2,0,L|120:192,1,48
208,104,110115,2,0,L|320:104,2,96,4|0|8,0:0|0:0|0:0,0:0:0:0:
112,104,110609,1,0,0:0:0:0:
352,192,110775,6,0,P|432:192|400:272,1,192,4|8,0:0|0:0,0:0:0:0:
256,272,111269,1,0,0:0:0:0:
336,272,111351,1,0,0:0:0:0:
416,80,111434,2,0,P|384:48|336:48,2,96,4|0|8,0:0|0:0|0:0,0:0:0:0:
304,112,111929,1,0,0:0:0:0:
192,112,112093,1,4,0:0:0:0:
416,80,112258,1,0,0:0:0:0:
224,192,112588,6,0,L|272:192,1,48
120,264,112753,2,0,L|24:264,1,96,4|0,0:0|0:0,0:0:0:0:
288,288,113082,2,0,P|312:248|280:200,1,96,8|0,0:0|0:0,0:0:0:0:
152,104,113412,6,0,L|96:104,1,48,0|0,1:0|1:0,0:0:0:0:
104,104,113577,2,0,L|168:104,1,48,0|0,1:0|1:0,0:0:0:0:
328,191,113742,6,0,P|432:191|480:263,1,192,4|4,0:2|0:0,0:0:0:0:
383,257,114236,2,0,L|479:257,1,96,0|8,0:0|0:0,0:0:0:0:
216,192,114566,6,0,P|96:192|48:240,1,192
136,240,115060,1,8,0:0:0:0:
376,56,115225,2,0,P|440:112|368:176,1,192
256,176,115720,1,8,0:0:0:0:
382,176,115884,1,0,0:0:0:0:
144,272,116049,6,0,L|40:272,1,96,4|4,0:2|0:0,0:0:0:0:
96,320,116297,1,0,0:0:0:0:
144,320,116379,1,8,0:0:0:0:
400,240,116544,2,0,L|304:240,1,96,4|8,0:0|0:0,0:0:0:0:
256,240,116791,1,0,0:0:0:0:
208,304,116873,2,0,L|320:304,1,96,4|4,0:0|0:0,0:0:0:0:
80,112,117203,6,0,P|32:192|80:272,1,192,4|2,0:2|0:0,0:0:0:0:
376,192,117863,2,0,L|168:192,1,192,2|4,0:0|0:0,0:0:0:0:
136,192,118275,1,4,0:0:0:0:
184,192,118357,1,8,0:0:0:0:
424,192,118522,1,2,0:0:0:0:
136,192,118687,5,4,1:0:0:0:
352,64,120830,6,0,L|408:64,1,48,2|0,0:0|0:0,0:0:0:0:
240,136,120995,2,0,L|128:136,1,96,8|0,0:0|0:0,0:0:0:0:
120,136,121200,1,0,0:0:0:0:
144,136,121242,1,0,0:0:0:0:
336,248,121324,6,0,L|448:248,1,96,4|4,0:0|0:0,0:0:0:0:
480,248,121571,1,0,0:0:0:0:
480,248,121654,1,8,0:0:0:0:
432,248,121736,1,0,0:0:0:0:
216,192,121819,1,4,0:0:0:0:
168,192,121901,1,0,0:0:0:0:
168,192,121984,1,4,0:0:0:0:
216,192,122066,1,0,0:0:0:0:
296,80,122148,1,8,0:0:0:0:
376,80,122231,1,0,0:0:0:0:
432,80,122313,1,4,0:0:0:0:
432,80,122396,1,0,0:0:0:0:
240,80,122478,1,4,0:0:0:0:
432,192,122808,5,2,0:0:0:0:
240,192,123137,2,0,P|136:192|96:264,1,192,2|2,0:0|0:0,0:0:0:0:
336,296,123632,1,8,0:0:0:0:
200,296,123797,1,0,0:0:0:0:
432,192,123962,6,0,L|432:96,1,96,4|0,0:0|2:0,0:0:0:0:
288,192,124292,2,0,L|192:192,1,96,4|0,0:0|2:0,0:0:0:0:
312,296,124622,2,0,P|392:296|440:344,2,144,4|4|4,0:0|0:0|0:0,0:0:0:0:
72,192,125280,6,0,L|72:296,1,96,4|0,0:0|2:0,0:0:0:0:
216,192,125610,2,0,L|216:296,1,96,4|0,0:0|2:0,0:0:0:0:
72,56,125940,2,0,P|152:56|200:104,2,144,4|4|4,0:0|0:0|0:0,0:0:0:0:
312,192,126599,6,0,L|208:192,1,96,4|0,0:0|2:0,0:0:0:0:
80,248,126929,2,0,L|184:248,1,96,4|0,0:0|2:0,0:0:0:0:
312,96,127259,2,0,P|256:56|184:56,2,144,4|4|4,0:0|0:0|0:0,0:0:0:0:
72,192,127918,6,0,P|16:248|80:304,1,172.799994726563,4|4,0:0|0:0,0:0:0:0:
184,304,128412,1,0,2:0:0:0:
304,256,128578,2,0,P|248:216|176:216,2,144,4|4|4,0:0|0:0|0:0,0:0:0:0:
56,40,129237,6,0,L|56:136,1,96,4|0,0:2|0:0,0:0:0:0:
200,72,129567,2,0,L|104:72,1,96,4|0,0:0|0:0,0:0:0:0:
248,152,129896,2,0,L|344:152,1,96,4|0,0:0|0:0,0:0:0:0:
488,144,130226,2,0,L|488:240,1,96,4|0,0:0|0:0,0:0:0:0:
192,272,130556,6,0,L|296:288,1,96,4|0,0:2|0:0,0:0:0:0:
144,176,130885,2,0,L|248:192,1,96,4|0,0:0|0:0,0:0:0:0:
392,72,131215,2,0,L|288:88,1,96,4|0,0:0|0:0,0:0:0:0:
200,104,131545,1,4,0:0:0:0:
344,192,131710,1,0,0:0:0:0:
96,192,131874,5,8,0:0:0:0:
48,216,131956,1,0,0:0:0:0:
47,261,132038,1,4,0:0:0:0:
94,279,132121,1,0,0:0:0:0:
288,72,132204,5,8,0:0:0:0:
335,64,132286,1,0,0:0:0:0:
379,83,132368,1,4,0:0:0:0:
405,122,132451,1,0,0:0:0:0:
208,192,132534,5,8,0:0:0:0:
162,200,132616,1,0,0:0:0:0:
117,185,132698,1,4,0:0:0:0:
86,149,132781,1,0,0:0:0:0:
328,264,132863,2,0,L|376:264,1,48,8|8,0:0|0:0,0:0:0:0:
160,48,133027,6,0,P|96:104|160:160,1,192,0|2,0:0|1:2,0:0:0:0:
304,160,133522,1,2,1:2:0:0:
80,192,133687,2,0,P|24:264|88:328,1,192
224,288,134181,1,2,0:2:0:0:
376,288,134346,1,2,0:2:0:0:
104,192,134511,1,4,0:0:0:0:
