osu file format v14

[General]
AudioFilename: audio.mp3
AudioLeadIn: 0
PreviewTime: 22258
Countdown: 0
SampleSet: Soft
StackLeniency: 0.4
Mode: 0
LetterboxInBreaks: 0
WidescreenStoryboard: 0

[Editor]
DistanceSpacing: 1
BeatDivisor: 4
GridSize: 32
TimelineZoom: 2.899999

[Metadata]
Title:8bit Voyager
TitleUnicode:8bit Voyager
Artist:Lime
ArtistUnicode:Lime
Creator:Hazu-
Version:Normal
Source:osu!
Tags:instrumental electronic chiptune kankitsu THE BMS OF FIGHTERS eXtreme Violence BOFXV kawaiicore fa featured artist MUSYNX MUSYNC mappers' guild mg
BeatmapID:2701065
BeatmapSetID:1225869

[Difficulty]
HPDrainRate:3
CircleSize:3.2
OverallDifficulty:4
ApproachRate:5.5
SliderMultiplier:1.2
SliderTickRate:1

[Events]
//Background and Video events
0,0,"8bit Voyager.jpg",0,0
//Break Periods
2,97788,105529
//Storyboard Layer 0 (Background)
//Storyboard Layer 1 (Fail)
//Storyboard Layer 2 (Pass)
//Storyboard Layer 3 (Foreground)
//Storyboard Layer 4 (Overlay)
//Storyboard Sound Samples

[TimingPoints]
6,329.67032967033,4,2,1,80,1,0
1242,-100,4,2,1,5,0,0
1324,-100,4,2,1,80,0,0
2643,-100,4,2,1,60,0,0
5363,-100,4,2,1,5,0,0
5445,-100,4,2,1,60,0,0
6681,-100,4,2,1,5,0,0
6764,-100,4,2,1,60,0,0
7341,-100,4,2,1,5,0,0
7423,-100,4,2,1,60,0,0
8000,-100,4,2,1,5,0,0
8082,-100,4,2,1,60,0,0
10637,-100,4,2,1,5,0,0
10720,-100,4,2,1,60,0,0
11709,-100,4,2,1,70,0,0
11956,-100,4,2,1,5,0,0
12038,-100,4,2,1,70,0,0
12368,-100,4,2,1,70,0,0
12615,-100,4,2,1,5,0,0
12698,-100,4,2,1,70,0,0
13192,-100,4,2,1,80,0,0
22423,-100,4,2,1,60,0,0
22506,-100,4,2,1,5,0,0
22753,-100,4,2,1,60,0,0
22835,-100,4,2,1,5,0,0
23082,-100,4,2,1,60,0,0
23165,-100,4,2,1,5,0,0
23247,-100,4,2,1,70,0,0
23412,-100,4,2,1,80,0,0
23742,-100,4,2,1,90,0,1
29016,-100,4,2,1,90,0,1
29346,-100,4,2,1,100,0,1
29676,-100,4,2,1,90,0,1
39896,-100,4,2,1,100,0,1
40225,-100,4,2,1,90,0,1
44841,-100,4,2,1,70,0,0
46242,-100,4,2,1,5,0,0
46324,-100,4,2,1,70,0,0
48879,-100,4,2,1,5,0,0
48962,-100,4,2,1,70,0,0
49538,-100,4,2,1,5,0,0
49621,-100,4,2,1,70,0,0
55720,-100,4,2,1,80,0,0
55967,-100,4,2,1,80,0,0
56214,-100,4,2,1,80,0,0
56462,-100,4,2,1,80,0,0
56709,-100,4,2,1,80,0,0
56956,-100,4,2,1,80,0,0
57203,-100,4,2,1,80,0,0
57368,-100,4,2,1,80,0,0
58192,-100,4,2,1,80,0,0
58439,-100,4,2,1,80,0,0
58686,-100,4,2,1,80,0,0
58934,-100,4,2,1,80,0,0
59181,-100,4,2,1,80,0,0
59428,-100,4,2,1,80,0,0
59675,-100,4,2,1,80,0,0
59923,-100,4,2,1,80,0,0
60170,-100,4,2,1,80,0,0
60582,-100,4,2,1,5,0,0
60665,-100,4,2,1,80,0,0
60995,-100,4,2,1,80,0,0
61242,-100,4,2,1,80,0,0
61489,-100,4,2,1,80,0,0
61736,-100,4,2,1,80,0,0
61984,-100,4,2,1,80,0,0
62231,-100,4,2,1,80,0,0
62478,-100,4,2,1,80,0,0
62643,-100,4,2,1,80,0,0
63467,-100,4,2,1,80,0,0
63714,-100,4,2,1,80,0,0
63961,-100,4,2,1,80,0,0
64209,-100,4,2,1,80,0,0
64456,-100,4,2,1,80,0,0
64703,-100,4,2,1,80,0,0
64950,-100,4,2,1,80,0,0
65198,-100,4,2,1,80,0,0
65445,-100,4,2,1,80,0,0
66269,-100,4,2,1,80,0,0
74016,-100,4,2,1,80,0,0
75995,-100,4,2,1,80,0,0
76489,-100,4,2,1,80,0,0
84401,-100,4,2,1,80,0,0
86709,-100,4,2,1,80,0,0
86956,-100,4,2,1,5,0,0
87038,-100,4,2,1,90,0,0
94951,-100,4,2,1,70,0,0
105995,-100,4,2,1,70,0,0
106654,-100,4,2,1,80,0,0
108137,-100,4,2,1,90,0,1
113742,-100,4,2,1,100,0,1
114071,-100,4,2,1,90,0,1
118687,-100,4,2,1,70,0,0
121324,-100,4,2,1,80,0,1
123962,-100,4,2,1,80,0,0

[Colours]
Combo1 : 239,136,67
Combo2 : 219,168,98
Combo3 : 255,197,138
Combo4 : 248,231,109

[HitObjects]
67,234,1324,5,8,0:0:0:0:
164,163,1654,1,8,0:0:0:0:
275,206,1984,2,0,L|289:282,1,60,8|8,0:0|0:0,0:0:0:0:
266,302,2313,1,10,0:0:0:0:
367,366,2643,6,0,L|457:351,1,60,4|2,0:0|0:0,0:0:0:0:
465,372,2973,1,2,0:0:0:0:
497,256,3302,2,0,P|439:244|366:229,1,120,2|2,0:0|0:0,0:0:0:0:
344,256,3797,2,0,P|286:244|213:229,1,120,2|2,0:0|0:0,0:0:0:0:
109,203,4456,2,0,P|90:137|126:77,1,120,2|2,0:0|0:0,0:0:0:0:
151,78,4951,1,2,0:0:0:0:
151,78,5115,1,2,0:0:0:0:
264,31,5445,5,2,0:0:0:0:
264,31,5610,2,0,B|300:19|300:19|402:42,1,120,2|2,0:0|0:0,0:0:0:0:
465,129,6269,1,2,0:0:0:0:
465,129,6434,1,2,0:0:0:0:
371,204,6764,2,0,L|299:215,1,60,2|2,0:0|0:0,0:0:0:0:
283,243,7093,1,2,0:0:0:0:
198,157,7423,2,0,L|126:146,1,60,2|2,0:0|0:0,0:0:0:0:
105,121,7753,1,2,0:0:0:0:
20,205,8082,5,2,0:0:0:0:
20,205,8247,2,0,P|1:263|33:331,1,120,2|2,0:0|0:0,0:0:0:0:
144,315,8907,1,2,0:0:0:0:
144,315,9072,2,0,P|163:257|131:189,1,120,2|2,0:0|0:0,0:0:0:0:
201,97,9731,2,0,B|239:91|239:91|286:108|286:108|350:99,1,120,2|2,0:0|0:0,0:0:0:0:
350,76,10225,1,2,0:0:0:0:
350,76,10390,1,2,0:0:0:0:
446,147,10720,6,0,L|463:224,1,60,2|2,0:0|0:0,0:0:0:0:
429,234,11049,1,2,0:3:0:0:
429,234,11214,2,0,B|391:228|391:228|344:245|344:245|280:236,1,120,2|2,0:0|0:0,0:0:0:0:
282,210,11709,1,14,0:0:0:0:
195,127,12038,2,0,L|123:116,1,60,2|2,0:0|0:0,0:0:0:0:
102,91,12368,1,14,0:0:0:0:
13,171,12698,1,10,0:0:0:0:
13,171,12863,1,2,0:0:0:0:
108,243,13192,6,0,L|123:314,1,60,14|2,0:3|0:0,0:0:0:0:
100,338,13522,1,10,0:3:0:0:
214,373,13852,2,0,P|224:317|237:238,1,120,10|2,0:3|0:0,0:0:0:0:
273,238,14346,2,0,P|283:182|296:103,1,120,10|2,0:3|0:0,0:0:0:0:
390,48,15006,2,0,P|400:104|413:183,1,120,2|8,0:0|0:3,0:0:0:0:
444,199,15500,1,8,0:3:0:0:
444,199,15665,1,10,0:3:0:0:
348,272,15995,5,2,0:0:0:0:
348,272,16159,2,0,P|277:261|199:249,1,120,10|10,0:3|0:3,0:0:0:0:
145,175,16819,1,2,0:0:0:0:
145,175,16984,1,10,0:3:0:0:
47,244,17313,2,0,L|61:309,1,60,2|10,0:0|0:3,0:0:0:0:
97,321,17643,2,0,B|135:315|135:315|182:332|182:332|246:323,1,120,2|2,0:0|0:0,0:0:0:0:
241,296,18137,2,0,B|269:285|269:285|303:296,1,60,2|10,0:0|0:3,0:0:0:0:
320,329,18467,5,14,0:3:0:0:
416,257,18797,1,10,0:3:0:0:
330,173,19126,2,0,P|259:162|181:150,1,120,10|10,0:3|0:3,0:0:0:0:
109,219,19786,1,10,0:3:0:0:
28,129,20115,1,10,0:3:0:0:
111,42,20445,2,0,P|182:31|260:19,1,120,10|10,0:3|0:3,0:0:0:0:
349,13,21104,6,0,L|337:78,1,60,10|10,0:3|0:3,0:0:0:0:
373,94,21434,2,0,L|361:159,1,60,10|10,0:3|0:3,0:0:0:0:
321,164,21764,2,0,L|309:229,1,60,10|10,0:3|0:3,0:0:0:0:
345,245,22094,2,0,L|333:310,1,60,10|10,0:3|0:3,0:0:0:0:
298,326,22423,1,6,3:2:0:0:
407,374,22753,1,2,3:2:0:0:
498,297,23082,2,0,L|510:232,1,60,2|2,3:2|3:2,0:0:0:0:
487,201,23412,1,10,0:0:0:0:
390,129,23742,6,0,B|331:111|331:111|264:137,1,120,14|10,0:3|0:0,0:0:0:0:
261,173,24236,1,2,0:0:0:0:
261,173,24401,2,0,B|206:194|206:194|147:176,1,120,10|10,0:3|0:0,0:0:0:0:
113,151,24896,1,2,0:0:0:0:
142,34,25225,2,0,B|196:12|196:12|255:30,1,120,2|2,0:0|0:0,0:0:0:0:
293,49,25720,1,10,0:3:0:0:
406,88,26049,1,10,0:0:0:0:
313,165,26379,6,0,P|301:231|285:311,1,120,10|10,0:3|0:0,0:0:0:0:
256,304,26874,1,2,0:0:0:0:
256,304,27038,2,0,B|226:321|226:321|138:305,1,120,10|10,0:3|0:0,0:0:0:0:
100,298,27533,1,2,0:0:0:0:
56,186,27863,2,0,B|86:169|86:169|174:185,1,120,2|2,0:0|0:0,0:0:0:0:
200,213,28357,1,10,0:3:0:0:
296,141,28687,1,10,0:0:0:0:
384,221,29016,1,10,0:3:0:0:
474,142,29346,6,0,P|490:81|459:25,1,120,14|10,0:0|0:3,0:0:0:0:
428,12,29841,2,0,B|398:8|398:8|360:25,1,60,2|10,0:0|0:0,0:0:0:0:
349,56,30170,2,0,P|280:45|202:32,1,120,2|2,0:0|0:0,0:0:0:0:
136,112,30830,2,0,P|152:178|172:263,1,120,2|2,0:0|0:0,0:0:0:0:
139,262,31324,1,10,0:0:0:0:
242,322,31654,6,0,P|258:256|278:171,1,120,10|10,0:3|0:0,0:0:0:0:
302,178,32148,1,2,0:0:0:0:
302,178,32313,2,0,P|351:163|425:205,1,120,10|10,0:3|0:0,0:0:0:0:
430,226,32808,1,14,0:3:0:0:
493,327,33137,1,2,0:0:0:0:
379,364,33467,2,0,P|325:355|243:341,1,120,14|2,0:3|0:0,0:0:0:0:
241,306,33962,2,0,B|211:297|211:297|168:310,1,60,10|2,0:0|0:0,0:0:0:0:
159,339,34291,5,14,0:3:0:0:
57,275,34621,2,0,L|41:197,1,60,10|2,0:0|0:0,0:0:0:0:
66,179,34951,2,0,B|99:155|99:155|204:171,1,120,10|10,0:3|0:0,0:0:0:0:
212,143,35445,1,2,0:0:0:0:
310,211,35775,2,0,P|326:277|346:362,1,120,2|2,0:0|0:0,0:0:0:0:
378,339,36269,1,10,0:3:0:0:
452,244,36599,1,10,0:0:0:0:
406,132,36929,6,0,P|337:122|262:111,1,120,10|10,0:3|0:0,0:0:0:0:
268,83,37423,1,2,0:0:0:0:
268,83,37588,2,0,P|213:54|146:78,1,120,10|10,0:3|0:0,0:0:0:0:
133,100,38082,2,0,L|147:180,1,60,2|12,0:0|0:3,0:0:0:0:
114,190,38412,1,2,0:0:0:0:
223,251,38742,1,2,0:0:0:0:
223,251,38907,2,0,P|280:263|331:235,1,120,14|2,0:3|0:0,0:0:0:0:
388,128,39566,1,10,0:3:0:0:
487,195,39896,6,0,P|499:267|512:347,1,120,14|10,0:0|0:3,0:0:0:0:
480,346,40390,1,2,0:0:0:0:
369,297,40720,2,0,B|310:275|310:275|239:304,1,120,2|2,0:0|0:0,0:0:0:0:
149,350,41379,2,0,B|96:371|96:371|37:349,1,120,2|2,0:0|0:0,0:0:0:0:
13,314,41874,1,10,0:0:0:0:
33,196,42203,6,0,B|86:175|86:175|145:197,1,120,14|10,0:3|0:3,0:0:0:0:
171,236,42698,1,10,0:3:0:0:
171,236,42863,2,0,B|230:258|230:258|283:237,1,120,10|10,0:3|0:0,0:0:0:0:
314,208,43357,1,14,0:3:0:0:
397,121,43687,1,2,0:0:0:0:
311,36,44016,2,0,P|224:19|161:7,1,120,2|2,0:0|3:0,0:0:0:0:
157,35,44511,1,10,3:2:0:0:
59,105,44841,6,0,L|72:176,1,60,14|2,0:3|0:0,0:0:0:0:
49,200,45170,1,10,0:0:0:0:
157,252,45500,2,0,P|226:260|267:233,1,120,2|10,0:0|0:0,0:0:0:0:
271,191,45995,2,0,P|322:162|380:172,1,120,2|2,0:0|0:0,0:0:0:0:
468,254,46654,2,0,P|416:282|358:272,1,120,2|2,0:0|0:0,0:0:0:0:
326,298,47148,2,0,L|341:368,1,60,10|2,0:0|3:2,0:0:0:0:
302,379,47478,5,14,0:3:0:0:
192,329,47808,2,0,P|116:316|48:306,1,120,10|2,0:0|0:0,0:0:0:0:
24,206,48467,1,10,0:0:0:0:
24,206,48632,2,0,P|83:196|142:186,1,120,2|2,0:0|0:0,0:0:0:0:
175,160,49126,1,10,0:0:0:0:
175,160,49291,2,0,P|234:150|293:140,1,120,2|2,0:0|0:0,0:0:0:0:
326,166,49786,2,0,L|312:242,1,60,10|2,0:0|0:0,0:0:0:0:
343,256,50115,5,14,0:3:0:0:
433,177,50445,1,10,0:3:0:0:
376,70,50775,2,0,P|316:60|257:50,1,120,10|10,0:3|0:3,0:0:0:0:
141,20,51434,1,14,0:3:0:0:
52,101,51764,1,10,0:3:0:0:
107,206,52093,2,0,P|121:279|135:350,1,120,10|10,0:3|0:3,0:0:0:0:
246,353,52753,6,0,L|230:272,1,60,14|0,0:3|3:0,0:0:0:0:
271,274,53082,2,0,L|255:193,1,60,10|0,0:3|3:0,0:0:0:0:
218,203,53412,2,0,L|202:122,1,60,10|0,0:3|3:0,0:0:0:0:
243,124,53742,2,0,L|227:43,1,60,10|0,0:3|3:0,0:0:0:0:
192,48,54071,2,0,B|58:23|58:23|8:54,2,180,14|10|4,0:3|0:0|0:1,0:0:0:0:
309,70,55390,1,8,0:3:0:0:
218,149,55720,6,0,P|209:197|199:250,2,90,14|2|10,0:3|3:0|0:0,0:0:0:0:
142,99,56462,2,0,P|151:51|161:-2,2,90,2|6|10,3:2|0:3|0:0,0:0:0:0:
58,124,57203,1,10,0:3:0:0:
58,124,57368,2,0,P|24:167|56:284,1,180,14|2,0:0|3:0,0:0:0:0:
171,279,58192,6,0,P|181:328|194:393,2,90,14|2|10,0:3|3:2|0:3,0:0:0:0:
244,226,58934,2,0,P|234:177|221:112,2,90,2|14|2,3:2|0:3|3:2,0:0:0:0:
330,252,59676,2,0,P|340:301|353:366,2,90,10|2|14,0:3|3:0|0:0,0:0:0:0:
423,97,60665,1,10,0:0:0:0:
315,43,60995,6,0,P|260:35|217:59,2,90,14|2|10,0:3|3:0|0:0,0:0:0:0:
321,132,61736,2,0,P|279:146|235:137,2,90,10|6|10,3:2|0:3|0:0,0:0:0:0:
398,83,62478,1,10,0:3:0:0:
398,83,62643,2,0,P|450:138|430:238,1,180,14|2,0:0|3:0,0:0:0:0:
323,282,63467,6,0,P|333:327|344:379,2,90,14|2|10,0:3|3:0|0:3,0:0:0:0:
242,241,64209,2,0,P|252:196|263:144,2,90,2|14|2,3:0|0:3|3:0,0:0:0:0:
171,296,64950,2,0,P|181:341|192:393,2,90,10|2|8,0:3|3:0|0:0,0:0:0:0:
147,261,65610,2,0,L|75:249,1,60,0|2,3:0|0:0,0:0:0:0:
52,274,65940,1,10,0:0:0:0:
5,163,66269,6,0,P|15:112|26:51,2,90,14|2|2,0:3|0:0|0:0,0:0:0:0:
95,163,67011,2,0,P|105:112|116:51,2,90,2|10|2,0:0|0:3|0:0,0:0:0:0:
185,162,67753,2,0,P|195:105|209:24,1,120,2|2,0:0|0:0,0:0:0:0:
321,11,68412,1,2,0:0:0:0:
409,92,68742,6,0,P|455:82|514:69,2,90,2|2|10,0:0|0:0|0:3,0:0:0:0:
347,157,69484,2,0,P|301:147|242:134,2,90,2|2|2,0:0|0:0|0:0,0:0:0:0:
413,217,70225,2,0,P|459:207|518:194,2,90,10|2|2,0:3|0:0|0:0,0:0:0:0:
329,303,71049,1,2,0:0:0:0:
329,303,71214,1,8,0:0:0:0:
233,230,71544,6,0,P|242:180|252:120,2,90,12|2|2,0:3|0:0|0:0,0:0:0:0:
150,193,72286,2,0,P|159:143|169:83,2,90,2|10|2,0:0|0:3|0:0,0:0:0:0:
60,193,73027,2,0,P|28:241|48:320,1,120,2|2,0:0|0:0,0:0:0:0:
130,373,73687,1,0,3:0:0:0:
219,293,74016,6,0,B|281:280|281:280|324:298,1,90,14|14,0:3|0:3,0:0:0:0:
367,355,74511,2,0,B|391:365|391:365|453:352,1,90,14|14,0:3|0:3,0:0:0:0:
501,275,75006,1,14,0:3:0:0:
465,192,75253,2,0,P|478:134|488:89,2,90,2|2|2,0:0|0:0|0:0,0:0:0:0:
379,221,75995,2,0,P|322:219|283:268,1,120,2|2,0:0|0:0,0:0:0:0:
301,302,76489,6,0,B|261:321|261:321|169:294,1,120,14|10,0:3|0:3,0:0:0:0:
165,270,76984,1,2,0:0:0:0:
165,270,77148,2,0,P|180:202|195:134,1,120,10|8,0:3|0:3,0:0:0:0:
275,66,77808,1,10,0:3:0:0:
170,8,78137,1,10,0:3:0:0:
72,78,78467,2,0,P|57:146|42:214,1,120,10|10,0:3|0:3,0:0:0:0:
11,219,78962,6,0,P|-2:281|47:343,1,120,2|2,0:0|0:0,0:0:0:0:
136,369,79621,1,2,0:0:0:0:
221,283,79951,2,0,B|251:278|251:278|288:291,1,60,2|10,0:0|0:3,0:0:0:0:
299,324,80280,2,0,P|365:314|439:301,1,120,2|2,0:0|0:0,0:0:0:0:
499,217,80940,2,0,P|433:207|359:194,1,120,2|2,0:0|0:0,0:0:0:0:
357,162,81434,2,0,B|327:157|327:157|290:170,1,60,10|2,0:3|0:0,0:0:0:0:
277,203,81764,6,0,P|216:227|156:202,1,120,10|10,0:3|0:3,0:0:0:0:
148,172,82258,1,2,0:0:0:0:
148,172,82423,2,0,P|91:156|37:179,1,120,10|10,0:3|0:3,0:0:0:0:
6,295,83082,1,8,0:3:0:0:
89,380,83412,1,10,0:3:0:0:
200,333,83742,2,0,P|261:345|336:359,1,120,10|10,0:3|0:3,0:0:0:0:
435,331,84401,6,0,P|460:277|446:220,1,120,14|8,0:3|0:0,0:0:0:0:
349,150,85060,2,0,P|284:164|211:178,1,120,14|8,0:3|0:0,0:0:0:0:
165,275,85720,1,6,3:0:0:0:
69,203,86049,1,2,3:0:0:0:
126,97,86379,2,0,L|208:80,1,60,2|8,3:0|0:3,0:0:0:0:
216,56,86709,1,14,0:3:0:0:
316,121,87038,6,0,P|306:186|293:262,1,120,8|10,0:3|0:3,0:0:0:0:
325,277,87533,1,10,0:0:0:0:
325,277,87698,2,0,P|389:307|450:284,1,120,8|8,0:3|0:3,0:0:0:0:
508,201,88357,1,10,0:3:0:0:
451,95,88687,1,10,0:3:0:0:
335,126,89016,2,0,P|274:116|216:106,1,120,10|10,0:3|0:3,0:0:0:0:
181,129,89511,5,10,0:0:0:0:
93,46,89841,1,10,0:0:0:0:
6,129,90170,2,0,P|-6:180|44:249,1,120,10|10,3:2|0:0,0:0:0:0:
139,273,90830,1,10,0:0:0:0:
221,186,91159,2,0,B|252:163|252:163|342:180,1,120,10|10,0:0|3:2,0:0:0:0:
405,273,91819,2,0,B|374:296|374:296|284:279,1,120,10|8,3:2|0:0,0:0:0:0:
256,300,92313,5,14,0:3:0:0:
156,366,92643,1,10,0:3:0:0:
71,280,92973,2,0,L|82:209,1,60,8|0,0:3|3:0,0:0:0:0:
54,187,93302,1,2,3:0:0:0:
159,130,93632,2,0,P|172:196|185:265,1,120,6|2,3:0|3:0,0:0:0:0:
278,318,94291,2,0,P|289:259|300:200,1,120,2|2,3:0|3:0,0:0:0:0:
412,150,94951,5,6,3:0:0:0:
412,150,95115,2,0,P|424:66|387:22,1,120,2|2,0:0|0:0,0:0:0:0:
371,31,95610,1,0,0:0:0:0:
371,31,95775,2,0,L|286:16,1,60,2|0,0:0|0:0,0:0:0:0:
203,71,96269,2,0,B|141:60|141:60|85:87|85:87|23:77,2,180,2|2|2,0:0|0:0|0:0,0:0:0:0:
271,169,97588,5,2,0:0:0:0:
113,50,106654,6,0,P|82:91|110:169,1,120,6|2,0:3|0:0,0:0:0:0:
187,231,107313,1,14,0:3:0:0:
279,153,107643,1,2,0:0:0:0:
279,153,107808,2,0,B|358:141,1,60,10|2,0:0|0:0,0:0:0:0:
365,111,108137,5,14,0:3:0:0:
449,196,108467,2,0,L|433:274,1,60,10|2,0:0|0:0,0:0:0:0:
412,289,108797,2,0,P|350:316|296:296,1,120,10|10,0:3|0:0,0:0:0:0:
279,266,109291,1,2,0:0:0:0:
189,346,109621,2,0,P|127:373|73:353,1,120,2|2,0:0|0:0,0:0:0:0:
59,320,110115,1,10,0:3:0:0:
11,209,110445,1,10,0:0:0:0:
100,129,110775,6,0,P|162:140|239:153,1,120,10|10,0:3|0:0,0:0:0:0:
243,189,111269,1,2,0:0:0:0:
243,189,111434,2,0,P|305:200|382:213,1,120,10|10,0:3|0:0,0:0:0:0:
393,182,111928,2,0,L|377:102,1,60,2|12,0:0|0:3,0:0:0:0:
407,90,112258,1,2,0:0:0:0:
310,27,112588,1,2,0:0:0:0:
310,27,112753,2,0,P|253:15|202:43,1,120,14|2,0:3|0:0,0:0:0:0:
128,139,113412,1,10,0:3:0:0:
240,180,113742,6,0,P|252:252|265:332,1,120,14|10,0:3|0:3,0:0:0:0:
295,320,114236,1,2,0:0:0:0:
406,276,114566,2,0,P|394:204|381:124,1,120,2|2,0:0|0:0,0:0:0:0:
313,62,115225,2,0,P|256:47|203:74,1,120,2|2,0:0|0:0,0:0:0:0:
183,111,115720,1,10,0:0:0:0:
77,55,116049,6,0,B|56:92|56:92|80:189,1,120,14|10,0:3|0:3,0:0:0:0:
106,202,116544,1,2,0:0:0:0:
106,202,116709,2,0,P|162:216|215:189,1,120,10|10,0:3|0:0,0:0:0:0:
245,160,117203,1,14,0:3:0:0:
327,73,117533,1,2,0:0:0:0:
428,135,117862,2,0,P|442:206|457:273,1,120,2|2,0:0|3:0,0:0:0:0:
486,277,118357,1,10,0:0:0:0:
397,357,118686,5,14,0:3:0:0:
439,115,121324,6,0,B|400:109|400:109|359:128|359:128|319:123,1,120,14|2,0:3|3:2,0:0:0:0:
297,98,121819,1,2,3:2:0:0:
297,98,121984,2,0,P|249:76|176:100,1,120,2|2,3:2|3:2,0:0:0:0:
155,120,122478,1,14,0:3:0:0:
83,216,122808,1,2,0:0:0:0:
168,299,123137,2,0,P|216:321|289:297,1,120,2|8,0:0|0:3,0:0:0:0:
306,273,123632,1,8,3:2:0:0:
397,350,123962,6,0,L|487:335,1,60,14|2,0:3|0:0,0:0:0:0:
496,352,124292,1,10,0:3:0:0:
497,232,124621,2,0,P|439:220|366:205,1,120,10|2,0:3|0:0,0:0:0:0:
342,228,125116,2,0,P|284:216|211:201,1,120,10|2,0:3|0:0,0:0:0:0:
116,150,125775,2,0,P|128:215|142:290,1,120,2|8,0:0|0:3,0:0:0:0:
120,308,126270,1,8,0:3:0:0:
120,308,126434,1,10,0:3:0:0:
27,240,126764,5,2,0:0:0:0:
27,240,126929,2,0,P|15:175|1:100,1,120,10|10,0:3|0:3,0:0:0:0:
91,38,127588,1,2,0:0:0:0:
91,38,127753,1,10,0:3:0:0:
200,87,128083,2,0,L|213:159,1,60,2|10,0:0|0:3,0:0:0:0:
234,181,128413,2,0,P|295:205|349:180,1,120,2|2,0:0|0:0,0:0:0:0:
357,146,128907,2,0,B|385:135|385:135|419:146,1,60,2|10,0:0|0:3,0:0:0:0:
442,174,129236,5,14,0:3:0:0:
502,277,129566,1,10,0:3:0:0:
398,337,129895,2,0,P|327:326|249:314,1,120,10|10,0:3|0:3,0:0:0:0:
205,223,130555,1,14,0:3:0:0:
118,305,130884,1,10,0:3:0:0:
61,199,131214,2,0,P|46:143|88:80,1,120,10|10,0:3|0:3,0:0:0:0:
184,45,131873,6,0,L|256:36,1,60,14|0,0:3|3:0,0:0:0:0:
269,70,132203,2,0,L|341:79,1,60,10|0,0:3|3:0,0:0:0:0:
355,44,132533,2,0,L|427:35,1,60,10|0,0:3|3:0,0:0:0:0:
452,65,132863,1,10,0:3:0:0:
452,65,133027,2,0,P|487:119|460:185,1,120,14|2,0:3|0:0,0:0:0:0:
371,232,133687,2,0,B|333:226|333:226|286:243|286:243|222:234,1,120,14|2,0:3|0:0,0:0:0:0:
231,203,134181,2,0,L|151:192,1,60,2|0,0:0|0:0,0:0:0:0:
138,221,134511,5,14,0:3:0:0:
