osu file format v14

[General]
AudioFilename: audio.mp3
AudioLeadIn: 0
PreviewTime: 22258
Countdown: 0
SampleSet: Soft
StackLeniency: 0.4
Mode: 0
LetterboxInBreaks: 0
WidescreenStoryboard: 0

[Editor]
DistanceSpacing: 1.2
BeatDivisor: 4
GridSize: 32
TimelineZoom: 3.599999

[Metadata]
Title:8bit Voyager
TitleUnicode:8bit Voyager
Artist:Lime
ArtistUnicode:Lime
Creator:Hazu-
Version:Journey
Source:osu!
Tags:instrumental electronic chiptune kankitsu THE BMS OF FIGHTERS eXtreme Violence BOFXV kawaiicore fa featured artist MUSYNX MUSYNC mappers' guild mg
BeatmapID:2549327
BeatmapSetID:1225869

[Difficulty]
HPDrainRate:5.5
CircleSize:4.5
OverallDifficulty:8.5
ApproachRate:9.5
SliderMultiplier:2
SliderTickRate:1

[Events]
//Background and Video events
0,0,"8bit Voyager.jpg",0,0
//Break Periods
2,97788,105470
//Storyboard Layer 0 (Background)
//Storyboard Layer 1 (Fail)
//Storyboard Layer 2 (Pass)
//Storyboard Layer 3 (Foreground)
//Storyboard Layer 4 (Overlay)
//Storyboard Sound Samples

[TimingPoints]
6,329.67032967033,4,2,1,80,1,0
1242,-100,4,2,1,5,0,0
1324,-100,4,2,1,80,0,0
2643,-133.333333333333,4,2,1,60,0,0
5363,-133.333333333333,4,2,1,5,0,0
5445,-133.333333333333,4,2,1,60,0,0
6681,-133.333333333333,4,2,1,5,0,0
6764,-133.333333333333,4,2,1,60,0,0
7341,-133.333333333333,4,2,1,5,0,0
7423,-133.333333333333,4,2,1,60,0,0
8000,-133.333333333333,4,2,1,5,0,0
8082,-133.333333333333,4,2,1,60,0,0
10637,-133.333333333333,4,2,1,5,0,0
10720,-133.333333333333,4,2,1,60,0,0
11709,-66.6666666666667,4,2,1,70,0,0
11956,-66.6666666666667,4,2,1,5,0,0
12038,-100,4,2,1,70,0,0
12368,-66.6666666666667,4,2,1,70,0,0
12615,-66.6666666666667,4,2,1,5,0,0
12698,-100,4,2,1,70,0,0
13192,-111.111111111111,4,2,1,80,0,0
22423,-111.111111111111,4,2,1,60,0,0
22506,-111.111111111111,4,2,1,5,0,0
22753,-111.111111111111,4,2,1,60,0,0
22835,-111.111111111111,4,2,1,5,0,0
23082,-111.111111111111,4,2,1,60,0,0
23165,-111.111111111111,4,2,1,5,0,0
23247,-111.111111111111,4,2,1,70,0,0
23412,-111.111111111111,4,2,1,80,0,0
23742,-76.9230769230769,4,2,1,90,0,1
29016,-133.333333333333,4,2,1,90,0,1
29346,-46.5116279069767,4,2,1,100,0,1
29676,-76.9230769230769,4,2,1,90,0,1
39896,-46.5116279069767,4,2,1,100,0,1
40225,-76.9230769230769,4,2,1,90,0,1
44841,-111.111111111111,4,2,1,70,0,0
46242,-111.111111111111,4,2,1,5,0,0
46324,-111.111111111111,4,2,1,70,0,0
48879,-111.111111111111,4,2,1,5,0,0
48962,-111.111111111111,4,2,1,70,0,0
49538,-111.111111111111,4,2,1,5,0,0
49621,-111.111111111111,4,2,1,70,0,0
55720,-66.6666666666667,4,2,1,80,0,0
55967,-133.333333333333,4,2,1,80,0,0
56214,-58.8235294117647,4,2,1,80,0,0
56462,-125,4,2,1,80,0,0
56709,-80,4,2,1,80,0,0
56956,-66.6666666666667,4,2,1,80,0,0
57203,-57.1428571428571,4,2,1,80,0,0
57368,-100,4,2,1,80,0,0
58192,-66.6666666666667,4,2,1,80,0,0
58439,-133.333333333333,4,2,1,80,0,0
58686,-66.6666666666667,4,2,1,80,0,0
58934,-133.333333333333,4,2,1,80,0,0
59181,-66.6666666666667,4,2,1,80,0,0
59428,-133.333333333333,4,2,1,80,0,0
59675,-66.6666666666667,4,2,1,80,0,0
59923,-133.333333333333,4,2,1,80,0,0
60170,-200,4,2,1,80,0,0
60582,-200,4,2,1,5,0,0
60665,-100,4,2,1,80,0,0
60995,-66.6666666666667,4,2,1,80,0,0
61242,-133.333333333333,4,2,1,80,0,0
61489,-58.8235294117647,4,2,1,80,0,0
61736,-125,4,2,1,80,0,0
61984,-80,4,2,1,80,0,0
62231,-66.6666666666667,4,2,1,80,0,0
62478,-57.1428571428571,4,2,1,80,0,0
62643,-100,4,2,1,80,0,0
63467,-66.6666666666667,4,2,1,80,0,0
63714,-133.333333333333,4,2,1,80,0,0
63961,-66.6666666666667,4,2,1,80,0,0
64209,-133.333333333333,4,2,1,80,0,0
64456,-66.6666666666667,4,2,1,80,0,0
64703,-133.333333333333,4,2,1,80,0,0
64950,-66.6666666666667,4,2,1,80,0,0
65198,-133.333333333333,4,2,1,80,0,0
65445,-200,4,2,1,80,0,0
66269,-100,4,2,1,80,0,0
74016,-50,4,2,1,80,0,0
75995,-200,4,2,1,80,0,0
76489,-80,4,2,1,80,0,0
84401,-133.333333333333,4,2,1,80,0,0
86709,-50,4,2,1,80,0,0
86956,-50,4,2,1,5,0,0
87038,-80,4,2,1,90,0,0
94951,-133.333333333333,4,2,1,70,0,0
105995,-100,4,2,1,70,0,0
106654,-76.9230769230769,4,2,1,80,0,0
108137,-76.9230769230769,4,2,1,90,0,1
113742,-46.5116279069767,4,2,1,100,0,1
114071,-76.9230769230769,4,2,1,90,0,1
118687,-100,4,2,1,70,0,0
121324,-66.6666666666667,4,2,1,80,0,1
123962,-100,4,2,1,80,0,0

[Colours]
Combo1 : 239,136,67
Combo2 : 219,168,98
Combo3 : 255,197,138
Combo4 : 248,231,109

[HitObjects]
256,192,6,12,0,1242,0:0:0:0:
167,169,1324,5,8,0:0:0:0:
372,120,1489,1,8,0:3:0:0:
151,204,1654,1,8,0:0:0:0:
401,278,1819,1,8,0:3:0:0:
282,47,1984,1,8,0:0:0:0:
275,64,2066,1,8,0:3:0:0:
269,80,2148,2,0,P|275:108|283:150,1,50,8|8,0:0|0:3,0:0:0:0:
342,195,2313,1,10,0:0:0:0:
151,113,2478,1,8,0:3:0:0:
445,46,2643,6,0,P|436:85|424:140,1,75.0000028610231,4|2,0:0|0:0,0:0:0:0:
469,226,2973,1,2,0:0:0:0:
190,184,3302,2,0,P|241:172|273:164,1,75.0000028610231,2|0,0:0|0:0,0:0:0:0:
355,209,3632,1,2,0:0:0:0:
261,50,3797,6,0,P|209:37|127:17,1,112.500004291535,2|2,0:0|0:0,0:0:0:0:
141,30,4126,2,0,P|151:80|162:132,1,75.0000028610231,2|0,0:0|0:0,0:0:0:0:
113,240,4456,2,0,P|55:188|83:102,1,150.000005722046,2|2,0:0|0:0,0:0:0:0:
121,45,4951,1,2,0:0:0:0:
217,70,5115,2,0,P|292:59|348:51,1,112.500004291535,2|0,0:0|0:0,0:0:0:0:
333,41,5445,5,2,0:0:0:0:
408,114,5610,1,2,0:0:0:0:
181,256,5940,2,0,P|190:217|202:165,1,75.0000028610231,2|0,0:0|0:0,0:0:0:0:
145,101,6269,1,2,0:0:0:0:
304,192,6434,6,0,P|316:256|331:333,1,112.500004291535,2|0,0:0|0:0,0:0:0:0:
317,311,6764,1,2,0:0:0:0:
217,248,6929,1,2,0:0:0:0:
432,146,7093,6,0,P|420:210|405:287,1,112.500004291535,2|0,0:0|0:0,0:0:0:0:
418,268,7423,1,2,0:0:0:0:
328,239,7588,1,2,0:0:0:0:
257,301,7753,2,0,P|203:310|122:322,1,112.500004291535,2|0,0:0|0:0,0:0:0:0:
138,328,8082,5,2,0:0:0:0:
241,382,8247,1,2,0:0:0:0:
158,159,8577,2,0,P|149:198|137:250,1,75.0000028610231,2|0,0:0|0:0,0:0:0:0:
62,287,8907,1,2,0:0:0:0:
234,219,9071,6,0,P|288:206|348:254,1,112.500004291535,2|2,0:0|0:0,0:0:0:0:
342,245,9401,2,0,P|333:284|321:336,1,75.0000028610231,2|0,0:0|0:0,0:0:0:0:
454,355,9731,2,0,P|441:282|423:182,1,150.000005722046,2|2,0:0|0:0,0:0:0:0:
470,120,10225,1,2,0:0:0:0:
364,93,10390,2,0,P|350:166|340:221,1,112.500004291535,2|0,0:0|0:0,0:0:0:0:
349,214,10720,5,2,0:0:0:0:
253,156,10885,1,2,0:0:0:0:
443,124,11049,2,0,L|475:117,2,18.7500007152558,2|0|2,0:3|0:0|0:0,0:0:0:0:
476,130,11214,1,2,0:0:0:0:
498,176,11297,1,2,0:0:0:0:
498,229,11379,1,2,0:0:0:0:
475,276,11462,1,2,0:0:0:0:
434,308,11544,1,2,0:0:0:0:
382,320,11626,1,2,0:0:0:0:
335,300,11709,6,0,B|226:281|250:392|128:367,1,225.000008583069,14|0,0:0|0:0,0:0:0:0:
122,359,12038,5,2,0:0:0:0:
92,168,12203,2,0,P|97:192|106:226,1,50,2|2,0:0|0:0,0:0:0:0:
83,78,12368,6,0,P|63:181|34:320,1,225.000008583069,14|0,0:0|0:0,0:0:0:0:
44,310,12698,5,10,0:0:0:0:
127,349,12863,1,2,0:0:0:0:
215,219,13027,2,0,L|176:225,2,25,2|0|0,0:3|0:0|0:0,0:0:0:0:
156,200,13192,5,14,0:3:0:0:
334,318,13357,2,0,L|321:257,1,44.999998626709,2|2,0:0|0:0,0:0:0:0:
310,185,13522,2,0,P|300:230|286:292,1,89.9999972534181,10|0,0:3|0:0,0:0:0:0:
414,87,13852,2,0,P|423:130|433:174,1,89.9999972534181,10|0,0:3|0:0,0:0:0:0:
456,213,14099,1,8,0:3:0:0:
456,213,14181,1,2,0:0:0:0:
304,101,14346,1,10,0:3:0:0:
487,28,14511,5,8,0:3:0:0:
335,180,14676,1,2,0:0:0:0:
489,70,14841,1,8,0:3:0:0:
281,19,15006,1,2,0:0:0:0:
433,194,15170,2,0,P|423:150|401:52,2,134.999995880127,10|8|10,0:3|0:3|0:3,0:0:0:0:
205,301,15830,5,8,0:3:0:0:
391,362,15995,1,2,0:0:0:0:
326,174,16159,2,0,P|314:229|299:292,1,89.9999972534181,10|0,0:3|0:0,0:0:0:0:
223,76,16489,2,0,P|211:131|196:194,1,89.9999972534181,10|2,0:3|0:0,0:0:0:0:
175,189,16736,1,8,0:3:0:0:
175,189,16819,1,2,0:0:0:0:
334,83,16984,1,10,0:3:0:0:
350,293,17148,5,8,0:3:0:0:
231,120,17313,1,2,0:0:0:0:
352,264,17478,1,10,0:3:0:0:
121,231,17643,2,0,P|165:222|235:206,1,89.9999972534181,2|8,0:0|0:3,0:0:0:0:
426,164,17973,1,2,0:0:0:0:
426,164,18055,1,8,0:3:0:0:
426,164,18137,1,2,0:0:0:0:
246,80,18302,1,10,0:3:0:0:
284,310,18467,5,14,0:3:0:0:
361,100,18632,1,8,0:3:0:0:
315,298,18797,1,10,0:3:0:0:
262,69,18962,1,8,0:3:0:0:
437,230,19126,1,10,0:3:0:0:
176,271,19291,1,8,0:3:0:0:
363,96,19456,1,10,0:3:0:0:
392,352,19621,1,8,0:3:0:0:
197,139,19786,5,10,0:3:0:0:
390,227,19951,1,8,0:3:0:0:
128,286,20115,1,10,0:3:0:0:
354,221,20280,1,8,0:3:0:0:
93,144,20445,1,10,0:3:0:0:
321,209,20610,1,8,0:3:0:0:
41,281,20775,1,10,0:3:0:0:
300,349,20940,1,8,0:3:0:0:
178,51,21104,5,10,0:3:0:0:
147,83,21187,1,0,3:2:0:0:
134,126,21269,1,10,0:3:0:0:
143,170,21352,1,0,3:2:0:0:
170,205,21434,1,10,0:3:0:0:
197,240,21516,1,0,3:2:0:0:
206,284,21599,1,10,0:3:0:0:
193,327,21681,1,0,3:2:0:0:
162,359,21764,5,10,0:3:0:0:
120,373,21846,1,8,0:3:0:0:
76,366,21929,1,10,0:3:0:0:
42,337,22011,1,8,0:3:0:0:
27,295,22093,1,10,0:3:0:0:
35,251,22176,1,8,0:3:0:0:
63,217,22258,1,10,0:3:0:0:
105,202,22341,1,8,0:3:0:0:
149,210,22423,6,0,L|165:275,1,44.999998626709,6|0,3:2|0:0,0:0:0:0:
223,145,22753,2,0,L|239:210,1,44.999998626709,2|0,3:2|0:0,0:0:0:0:
295,79,23082,2,0,L|311:144,1,44.999998626709,2|0,3:2|0:0,0:0:0:0:
343,215,23247,1,2,3:2:0:0:
343,215,23330,1,2,3:2:0:0:
343,215,23412,1,10,0:0:0:0:
195,134,23577,1,10,0:3:0:0:
473,67,23742,6,0,P|456:165|435:282,1,194.999991073609,14|0,0:3|0:0,0:0:0:0:
454,345,24071,2,0,P|466:287|484:189,1,129.999994049073,10|2,0:0|0:0,0:0:0:0:
383,125,24319,1,2,0:0:0:0:
368,112,24401,6,0,P|335:113|306:127,1,64.9999970245363,10|0,0:3|0:0,0:0:0:0:
317,268,24566,2,0,P|332:239|334:207,1,64.9999970245363,2|0,0:0|0:0,0:0:0:0:
206,150,24731,2,0,P|223:177|249:195,1,64.9999970245363,10|0,0:0|0:0,0:0:0:0:
455,143,24896,5,2,0:0:0:0:
455,143,24978,1,0,0:0:0:0:
455,143,25060,2,0,P|425:138|380:129,1,64.9999970245363,10|0,0:3|0:0,0:0:0:0:
287,75,25225,2,0,P|352:88|426:104,1,129.999994049073,2|8,0:0|0:0,0:0:0:0:
163,227,25555,5,2,0:0:0:0:
163,227,25637,1,2,0:0:0:0:
163,227,25720,2,0,P|154:191|144:153,1,64.9999970245363,10|0,0:3|0:0,0:0:0:0:
45,116,25885,2,0,P|54:152|64:190,1,64.9999970245363,2|0,0:0|0:0,0:0:0:0:
176,202,26049,2,0,P|167:166|157:128,1,64.9999970245363,10|0,0:0|0:0,0:0:0:0:
58,91,26214,2,0,P|67:127|77:165,1,64.9999970245363,2|0,0:0|0:0,0:0:0:0:
331,76,26379,6,0,P|268:64|204:48,1,129.999994049073,10|0,0:3|0:0,0:0:0:0:
192,55,26626,1,0,0:0:0:0:
180,62,26709,2,0,P|223:72|261:82,1,64.9999970245363,10|0,0:0|0:0,0:0:0:0:
389,219,26874,5,2,0:0:0:0:
401,224,26956,1,2,0:0:0:0:
412,229,27038,2,0,P|414:190|394:150,1,64.9999970245363,10|0,0:3|0:0,0:0:0:0:
283,260,27203,2,0,P|315:281|360:283,1,64.9999970245363,2|0,0:0|0:0,0:0:0:0:
319,133,27368,2,0,P|284:150|259:188,1,64.9999970245363,10|0,0:0|0:0,0:0:0:0:
475,347,27533,5,2,0:0:0:0:
475,347,27615,1,0,0:0:0:0:
475,347,27698,2,0,P|464:291|454:247,1,64.9999970245363,8|0,0:3|0:0,0:0:0:0:
409,179,27863,2,0,P|419:231|437:317,1,129.999994049073,2|8,0:0|0:0,0:0:0:0:
453,64,28192,5,2,0:0:0:0:
440,52,28275,1,2,0:0:0:0:
428,42,28357,2,0,P|388:35|346:27,1,64.9999970245363,10|0,0:3|0:0,0:0:0:0:
232,166,28522,2,0,L|224:121,2,43.3333313496908,2|2|2,0:0|0:0|0:0,0:0:0:0:
246,150,28687,2,0,P|239:117|228:51,1,64.9999970245363,10|0,0:0|0:0,0:0:0:0:
53,192,28852,2,0,L|112:203,2,43.3333313496908,2|2|2,3:0|3:0|3:0,0:0:0:0:
61,210,29016,6,0,P|119:221|195:238,1,112.500004291535,10|2,0:3|0:0,0:0:0:0:
253,310,29346,6,0,B|244:331|249:368|249:368|153:312|165:162|292:159|292:159,1,322.50000492096,14|0,0:0|0:0,0:0:0:0:
401,225,29676,5,10,0:3:0:0:
401,270,29758,1,2,0:0:0:0:
357,284,29841,1,2,0:0:0:0:
331,247,29923,1,2,0:0:0:0:
357,210,30006,2,0,P|366:246|380:303,1,64.9999970245363,10|0,0:0|0:0,0:0:0:0:
490,152,30170,5,2,0:0:0:0:
490,152,30253,1,2,0:0:0:0:
490,152,30335,2,0,P|452:144|401:134,1,64.9999970245363,10|0,0:3|0:0,0:0:0:0:
305,123,30500,2,0,P|368:110|432:96,1,129.999994049073,2|8,0:0|0:0,0:0:0:0:
164,241,30830,6,0,B|152:208|152:208|161:165,1,64.9999970245363,2|0,0:0|0:0,0:0:0:0:
193,98,30995,1,10,0:3:0:0:
417,305,31159,1,2,0:0:0:0:
408,292,31242,1,2,0:0:0:0:
399,280,31324,2,0,P|358:274|307:265,1,64.9999970245363,10|0,0:0|0:0,0:0:0:0:
238,359,31489,2,0,P|270:353|302:349,1,64.9999970245363,2|0,0:0|0:0,0:0:0:0:
181,190,31654,6,0,P|157:278|137:344,1,129.999994049073,10|2,0:3|0:0,0:0:0:0:
71,341,31901,1,2,0:0:0:0:
67,327,31984,2,0,P|77:293|95:232,1,64.9999970245363,10|0,0:0|0:0,0:0:0:0:
203,187,32148,6,0,P|193:221|175:282,1,64.9999970245363,2|0,0:0|0:0,0:0:0:0:
58,134,32313,1,10,0:3:0:0:
66,119,32396,1,2,0:0:0:0:
73,106,32478,2,0,P|125:97|159:91,1,64.9999970245363,2|2,0:0|0:0,0:0:0:0:
308,62,32643,1,10,0:0:0:0:
251,330,32808,6,0,B|194:341|194:341|141:302|127:214|188:153,1,259.999988098145,14|2,0:3|0:0,0:0:0:0:
256,91,33302,1,8,0:0:0:0:
0,47,33467,2,0,P|22:126|75:320,1,259.999988098145,14|2,0:3|0:0,0:0:0:0:
249,237,33879,1,0,0:0:0:0:
238,224,33962,2,0,P|211:215|163:229,1,64.9999970245363,10|2,0:0|0:0,0:0:0:0:
300,299,34126,2,0,P|321:280|333:231,1,64.9999970245363,2|2,0:0|0:0,0:0:0:0:
141,313,34291,6,0,B|239:292|218:412|337:376,1,194.999991073609,14|0,0:3|0:0,0:0:0:0:
462,334,34621,2,0,P|474:276|403:291,1,129.999994049073,10|2,0:0|0:0,0:0:0:0:
308,285,34868,1,2,0:0:0:0:
325,295,34951,6,0,P|354:301|405:276,1,64.9999970245363,10|0,0:3|0:0,0:0:0:0:
305,163,35115,2,0,P|285:185|281:241,1,64.9999970245363,2|0,0:0|0:0,0:0:0:0:
427,208,35280,2,0,P|417:179|370:148,1,64.9999970245363,10|0,0:0|0:0,0:0:0:0:
202,76,35445,5,2,0:0:0:0:
202,76,35527,1,0,0:0:0:0:
202,76,35610,2,0,P|192:125|182:169,1,64.9999970245363,10|0,0:3|0:0,0:0:0:0:
69,247,35775,2,0,P|132:233|197:219,1,129.999994049073,2|8,0:0|0:0,0:0:0:0:
396,92,36104,5,2,0:0:0:0:
396,92,36187,1,2,0:0:0:0:
396,92,36269,2,0,P|386:141|376:185,1,64.9999970245363,10|0,0:3|0:0,0:0:0:0:
300,45,36434,2,0,P|290:94|280:138,1,64.9999970245363,2|0,0:0|0:0,0:0:0:0:
425,74,36599,2,0,P|415:123|405:167,1,64.9999970245363,10|0,0:0|0:0,0:0:0:0:
329,27,36764,2,0,P|319:76|309:120,1,64.9999970245363,2|0,0:0|0:0,0:0:0:0:
451,217,36929,6,0,P|401:171|330:196,1,129.999994049073,10|0,0:3|0:0,0:0:0:0:
278,256,37176,1,0,0:0:0:0:
287,270,37258,2,0,P|330:280|370:263,1,64.9999970245363,10|0,0:0|0:0,0:0:0:0:
173,173,37423,5,2,0:0:0:0:
163,181,37506,1,2,0:0:0:0:
153,189,37588,2,0,P|164:231|175:274,1,64.9999970245363,10|0,0:3|0:0,0:0:0:0:
288,147,37753,2,0,P|245:135|203:123,1,64.9999970245363,2|0,0:0|0:0,0:0:0:0:
259,281,37918,2,0,P|289:250|321:219,1,64.9999970245363,10|0,0:0|0:0,0:0:0:0:
137,109,38082,5,2,0:0:0:0:
137,109,38165,1,0,0:0:0:0:
137,109,38247,2,0,P|102:95|52:116,1,64.9999970245363,12|0,0:3|0:0,0:0:0:0:
0,177,38412,2,0,P|104:155|266:118,1,259.999988098145,2|2,0:0|0:0,0:0:0:0:
355,90,38824,1,2,0:0:0:0:
343,80,38907,6,0,P|334:118|320:170,1,64.9999970245363,14|0,0:3|0:0,0:0:0:0:
436,228,39071,2,0,L|424:169,2,43.3333313496908,2|2|2,0:0|0:0|0:0,0:0:0:0:
451,214,39236,2,0,P|443:169|434:121,1,64.9999970245363,2|0,0:0|0:0,0:0:0:0:
305,277,39401,2,0,L|368:288,2,43.3333313496908,2|0|2,3:0|3:0|3:0,0:0:0:0:
313,295,39566,6,0,L|385:308,1,64.9999970245363,10|0,0:3|3:0,0:0:0:0:
403,304,39731,2,0,L|339:292,1,64.9999970245363,0|0,3:0|3:0,0:0:0:0:
159,318,39896,6,0,P|206:373|182:259,1,322.50000492096,14|0,0:0|0:0,0:0:0:0:
48,199,40225,5,10,0:3:0:0:
91,206,40308,1,2,0:0:0:0:
134,191,40390,1,2,0:0:0:0:
165,160,40473,1,2,0:0:0:0:
179,116,40555,2,0,P|157:147|167:195,1,64.9999970245363,10|0,0:0|0:0,0:0:0:0:
308,277,40720,5,2,0:0:0:0:
308,277,40802,1,2,0:0:0:0:
308,277,40885,2,0,P|270:269|219:259,1,64.9999970245363,10|0,0:3|0:0,0:0:0:0:
107,326,41049,2,0,P|170:313|234:299,1,129.999994049073,2|8,0:0|0:0,0:0:0:0:
450,171,41379,6,0,P|457:141|437:98,1,64.9999970245363,2|0,0:0|0:0,0:0:0:0:
378,55,41544,1,10,0:3:0:0:
195,157,41709,1,2,0:0:0:0:
204,170,41791,1,2,0:0:0:0:
213,182,41874,2,0,P|254:188|305:197,1,64.9999970245363,10|0,0:0|0:0,0:0:0:0:
356,178,42038,2,0,P|323:173|291:167,1,64.9999970245363,2|0,0:0|0:0,0:0:0:0:
135,103,42203,6,0,P|181:166|155:222,1,129.999994049073,14|10,0:3|0:3,0:0:0:0:
77,247,42451,1,10,0:3:0:0:
63,237,42533,2,0,P|102:226|141:243,1,64.9999970245363,10|0,0:3|0:0,0:0:0:0:
246,330,42698,6,0,P|194:321|160:315,1,64.9999970245363,10|2,0:3|0:0,0:0:0:0:
400,304,42863,1,10,0:3:0:0:
392,289,42945,1,10,0:3:0:0:
385,276,43027,2,0,P|333:267|299:261,1,64.9999970245363,10|2,0:3|0:0,0:0:0:0:
261,202,43192,1,10,0:0:0:0:
479,351,43357,6,0,P|405:264|442:189,1,194.999991073609,14|0,0:3|0:0,0:0:0:0:
450,191,43687,1,2,0:0:0:0:
312,52,43852,2,0,P|325:82|336:141,1,64.9999970245363,10|0,0:0|0:0,0:0:0:0:
319,142,44016,1,2,0:0:0:0:
512,95,44181,6,0,P|459:102|401:50,1,129.999994049073,10|2,0:3|3:0,0:0:0:0:
410,46,44429,1,0,3:0:0:0:
416,36,44511,1,10,3:2:0:0:
512,183,44676,1,10,0:3:0:0:
234,146,44841,6,0,P|287:136|341:125,1,89.9999972534181,14|2,0:3|0:0,0:0:0:0:
415,158,45170,1,10,0:0:0:0:
93,65,45500,2,0,P|113:127|125:174,1,89.9999972534181,2|0,0:0|0:0,0:0:0:0:
70,240,45830,1,10,0:0:0:0:
211,122,45995,6,0,P|265:111|334:177,1,134.999995880127,2|2,0:0|0:0,0:0:0:0:
325,169,46324,2,0,P|367:180|422:149,1,89.9999972534181,2|8,0:0|0:0,0:0:0:0:
499,57,46654,2,0,P|422:27|360:119,1,179.999994506836,2|2,0:0|0:0,0:0:0:0:
450,221,47148,2,0,P|460:184|424:130,1,89.9999972534181,10|2,0:0|3:2,0:0:0:0:
271,152,47478,6,0,P|298:179|362:174,1,89.9999972534181,14|2,0:3|0:0,0:0:0:0:
438,139,47808,1,10,0:0:0:0:
225,13,48137,2,0,P|216:52|200:108,1,89.9999972534181,2|0,0:0|0:0,0:0:0:0:
262,176,48467,1,10,0:0:0:0:
98,79,48632,6,0,P|115:147|135:235,1,134.999995880127,2|0,0:0|0:0,0:0:0:0:
123,225,48962,1,2,0:0:0:0:
36,172,49126,1,10,0:0:0:0:
244,155,49291,6,0,P|227:223|207:311,1,134.999995880127,2|0,0:0|0:0,0:0:0:0:
219,301,49621,1,2,0:0:0:0:
298,359,49786,1,10,0:0:0:0:
391,323,49951,1,2,0:0:0:0:
402,135,50115,5,14,0:3:0:0:
137,211,50280,1,8,0:3:0:0:
390,170,50445,1,10,0:3:0:0:
150,81,50610,1,8,0:3:0:0:
403,44,50775,1,10,0:3:0:0:
160,109,50940,1,8,0:3:0:0:
414,191,51104,1,10,0:3:0:0:
147,262,51269,1,8,0:3:0:0:
309,38,51434,5,14,0:3:0:0:
374,306,51599,1,8,0:3:0:0:
290,69,51764,1,10,0:3:0:0:
259,322,51929,1,8,0:3:0:0:
313,100,52093,1,10,0:3:0:0:
103,263,52258,1,8,0:3:0:0:
374,194,52423,1,10,0:3:0:0:
132,59,52588,1,8,0:3:0:0:
211,288,52753,6,0,P|219:252|229:212,1,44.999998626709,14|0,0:3|3:0,0:0:0:0:
284,156,52918,1,0,3:0:0:0:
284,156,53000,1,0,3:0:0:0:
284,156,53082,2,0,P|292:192|302:232,1,44.999998626709,10|0,0:3|3:0,0:0:0:0:
352,298,53247,5,0,3:0:0:0:
352,298,53330,1,0,3:0:0:0:
352,298,53412,2,0,P|360:262|370:222,1,44.999998626709,10|0,0:3|3:0,0:0:0:0:
429,162,53577,1,0,3:0:0:0:
429,162,53659,1,0,3:0:0:0:
429,162,53742,2,0,P|437:198|447:238,1,44.999998626709,10|0,0:3|3:0,0:0:0:0:
470,334,53907,5,0,3:0:0:0:
475,325,53989,1,0,3:0:0:0:
479,317,54071,2,0,B|424:283|347:317|347:317|374:318|404:342,1,179.999994506836,14|8,0:3|0:0,0:0:0:0:
236,202,54566,2,0,P|249:238|261:307,1,89.9999972534181,10|0,0:0|3:0,0:0:0:0:
254,298,54813,1,0,0:0:0:0:
249,306,54896,2,0,P|247:256|256:238,1,44.999998626709,0|0,3:0|0:0,0:0:0:0:
314,91,55060,6,0,P|247:113|170:130,1,134.999995880127,4|0,0:1|0:0,0:0:0:0:
43,54,55390,5,8,0:3:0:0:
90,21,55473,1,8,0:3:0:0:
148,15,55555,1,8,0:3:0:0:
201,39,55637,1,8,0:3:0:0:
235,85,55720,6,0,B|311:75|301:155|393:125,1,150.000005722046,14|0,0:3|0:0,0:0:0:0:
458,91,55967,2,0,B|423:78|423:78|391:103,1,75.0000028610231,2|0,3:0|0:0,0:0:0:0:
238,170,56214,6,0,P|254:235|280:344,1,170.000003242493,10|0,0:0|0:0,0:0:0:0:
315,241,56462,2,0,P|304:280|289:335,1,80,2|0,3:2|0:0,0:0:0:0:
253,82,56709,6,0,B|157:58|157:58|179:110,1,125,6|0,0:3|0:0,0:0:0:0:
310,153,56956,2,0,P|351:97|315:16,1,150.000005722046,10|0,0:0|0:0,0:0:0:0:
457,91,57203,2,0,B|413:78|413:78|350:102,1,87.500000834465,10|0,0:3|0:0,0:0:0:0:
222,177,57368,6,0,P|243:249|255:299,1,100,14|2,0:0|0:0,0:0:0:0:
248,303,57615,1,0,0:0:0:0:
268,320,57698,1,2,0:0:0:0:
251,341,57780,1,0,0:0:0:0:
271,359,57863,2,0,P|277:335|259:289,1,50,2|0,3:0|3:0,0:0:0:0:
184,277,58027,2,0,P|178:301|196:347,1,50,2|0,3:0|3:0,0:0:0:0:
394,250,58192,6,0,B|338:241|338:241|319:213|319:213|257:199,1,150.000005722046,14|0,0:3|0:0,0:0:0:0:
178,157,58440,2,0,B|209:138|209:138|250:174,1,75.0000028610231,2|0,3:2|0:0,0:0:0:0:
104,298,58687,6,0,P|84:226|60:146,1,150.000005722046,10|0,0:3|0:0,0:0:0:0:
116,71,58934,2,0,P|108:106|97:156,1,75.0000028610231,2|0,3:2|0:0,0:0:0:0:
345,192,59181,6,0,P|292:263|225:252,1,150.000005722046,14|0,0:3|0:0,0:0:0:0:
161,220,59429,2,0,B|192:201|192:201|233:237,1,75.0000028610231,2|0,3:2|0:0,0:0:0:0:
388,348,59676,6,0,P|406:275|424:203,1,150.000005722046,10|0,0:3|0:0,0:0:0:0:
370,123,59923,2,0,P|378:158|389:208,1,75.0000028610231,2|0,3:0|0:0,0:0:0:0:
512,49,60170,6,0,B|431:68|431:68|410:46|373:45,1,125,14|0,0:0|0:0,0:0:0:0:
242,98,60665,6,0,B|269:102|269:102|295:90,1,50,10|0,0:0|0:0,0:0:0:0:
296,84,60830,2,0,B|269:80|269:80|243:92,1,50,10|0,0:0|0:0,0:0:0:0:
125,209,60995,6,0,P|210:193|297:175,1,150.000005722046,14|0,0:3|0:0,0:0:0:0:
349,231,61242,2,0,P|301:220|249:208,1,75.0000028610231,2|0,3:0|0:0,0:0:0:0:
443,61,61489,6,0,P|498:149|463:207,1,170.000003242493,10|0,0:0|0:0,0:0:0:0:
376,158,61736,2,0,B|378:118|378:118|411:141,1,80,10|0,3:2|0:0,0:0:0:0:
512,314,61984,6,0,P|412:292|356:281,1,125,6|0,0:3|0:0,0:0:0:0:
279,359,62231,2,0,P|339:345|431:323,1,150.000005722046,10|0,0:0|0:0,0:0:0:0:
219,221,62478,2,0,P|208:281|197:334,1,87.500000834465,10|0,0:3|0:0,0:0:0:0:
93,145,62643,6,0,P|104:205|116:263,1,100,14|2,0:0|0:0,0:0:0:0:
106,268,62890,1,0,0:0:0:0:
126,285,62973,1,2,0:0:0:0:
109,306,63055,1,0,0:0:0:0:
129,324,63137,2,0,B|136:298|136:298|124:250,1,50,2|0,3:0|3:0,0:0:0:0:
36,227,63302,2,0,B|28:253|28:253|40:301,1,50,2|0,3:0|3:0,0:0:0:0:
173,175,63467,6,0,P|264:195|339:211,1,150.000005722046,14|0,0:3|0:0,0:0:0:0:
392,162,63714,2,0,P|339:172|299:179,1,75.0000028610231,2|0,3:0|0:0,0:0:0:0:
197,268,63962,6,0,P|300:304|345:258,1,150.000005722046,10|0,0:3|0:0,0:0:0:0:
419,173,64209,2,0,P|366:183|326:190,1,75.0000028610231,2|0,3:0|0:0,0:0:0:0:
286,36,64456,6,0,P|271:118|255:207,1,150.000005722046,14|0,0:3|0:0,0:0:0:0:
446,187,64703,2,0,P|393:197|353:204,1,75.0000028610231,2|0,3:0|0:0,0:0:0:0:
224,272,64951,6,0,B|275:263|275:263|329:288|329:288|380:281,1,150.000005722046,10|0,0:3|0:0,0:0:0:0:
473,198,65198,2,0,P|420:208|380:215,1,75.0000028610231,2|0,3:0|0:0,0:0:0:0:
129,263,65445,5,8,0:0:0:0:
71,333,65610,1,0,3:0:0:0:
156,369,65775,2,0,L|157:378,4,6.25,2|0|0|0|2,0:0|0:0|0:0|0:0|0:0,0:0:0:0:
161,358,65940,1,10,0:0:0:0:
179,334,66022,1,0,0:0:0:0:
206,321,66104,1,10,0:0:0:0:
235,320,66187,1,0,0:0:0:0:
263,333,66269,6,0,P|316:322|374:309,1,100,14|0,0:3|0:0,0:0:0:0:
445,291,66516,1,2,0:0:0:0:
445,291,66599,2,0,L|392:280,1,50,8|0,0:3|0:0,0:0:0:0:
293,127,66764,6,0,P|308:187|323:245,1,100,2|8,0:0|0:3,0:0:0:0:
357,63,67011,2,0,P|342:123|327:181,1,100,2|0,0:0|0:0,0:0:0:0:
148,67,67258,6,0,B|196:42|196:42|253:54,1,100,10|0,0:3|0:0,0:0:0:0:
208,155,67506,1,2,0:0:0:0:
208,155,67588,2,0,B|186:142|186:142|212:126,1,50,8|0,0:3|0:0,0:0:0:0:
242,232,67753,2,0,B|198:242|198:242|150:217,1,100,2|8,0:0|0:3,0:0:0:0:
44,230,68000,1,2,0:0:0:0:
44,230,68082,2,0,B|88:220|88:220|136:245,1,100,2|8,0:0|0:3,0:0:0:0:
331,355,68412,5,2,0:0:0:0:
349,332,68495,2,0,L|336:272,1,50,2|8,0:0|0:3,0:0:0:0:
257,200,68659,1,2,0:0:0:0:
239,223,68742,6,0,P|249:270|261:328,1,100,2|8,0:0|0:3,0:0:0:0:
150,191,68989,2,0,P|160:238|172:296,1,100,2|0,0:0|0:0,0:0:0:0:
253,127,69236,6,0,P|263:174|275:232,1,100,10|0,0:3|0:0,0:0:0:0:
164,95,69484,1,2,0:0:0:0:
164,95,69566,2,0,L|175:146,1,50,8|0,0:3|0:0,0:0:0:0:
268,34,69731,6,0,P|278:81|290:139,1,100,2|8,0:0|0:3,0:0:0:0:
179,2,69978,2,0,P|189:49|201:107,1,100,2|0,0:0|0:0,0:0:0:0:
360,203,70225,6,0,P|381:147|360:101,1,100,10|0,0:3|0:0,0:0:0:0:
235,206,70473,1,2,0:0:0:0:
235,206,70555,2,0,P|265:226|298:227,1,50,8|0,0:3|0:0,0:0:0:0:
295,71,70720,2,0,P|238:91|218:137,1,100,2|8,0:0|0:3,0:0:0:0:
384,280,71049,5,2,0:0:0:0:
384,280,71132,2,0,P|378:251|370:215,1,50,2|8,0:0|0:0,0:0:0:0:
323,173,71297,1,10,0:0:0:0:
323,173,71379,2,0,P|329:202|337:238,1,50,10|8,0:0|0:0,0:0:0:0:
487,134,71544,6,0,P|440:124|375:111,1,100,12|0,0:3|0:0,0:0:0:0:
313,19,71791,1,2,0:0:0:0:
313,19,71874,2,0,L|329:85,1,50,8|0,0:3|0:0,0:0:0:0:
420,193,72038,6,0,P|373:183|308:170,1,100,2|8,0:0|0:3,0:0:0:0:
232,234,72286,2,0,P|280:223|329:213,1,100,2|0,0:0|0:0,0:0:0:0:
155,97,72533,6,0,P|132:160|168:215,1,100,10|0,0:3|0:0,0:0:0:0:
63,205,72780,1,2,0:0:0:0:
63,205,72863,2,0,P|76:236|108:253,1,50,8|0,0:3|0:0,0:0:0:0:
33,309,73027,2,0,P|96:332|151:296,1,100,2|8,0:0|0:3,0:0:0:0:
233,301,73275,1,2,0:0:0:0:
233,301,73357,2,0,B|208:286|208:286|114:303,1,100,2|8,0:0|0:3,0:0:0:0:
193,187,73604,1,0,3:0:0:0:
193,187,73687,2,0,L|186:228,2,25,0|0|0,3:0|3:0|3:0,0:0:0:0:
84,128,73852,5,8,0:3:0:0:
90,118,73934,1,8,0:3:0:0:
97,109,74016,2,0,B|197:84|180:193|281:165,1,200,14|0,0:3|0:0,0:0:0:0:
378,89,74264,6,0,B|388:73|409:61|409:61|363:25|287:34|259:78,1,200,14|0,0:3|0:0,0:0:0:0:
94,226,74511,6,0,B|151:220|151:220|225:261|225:261|292:254,1,200,14|0,0:3|0:0,0:0:0:0:
458,203,74758,6,0,P|368:190|428:257,1,200,14|0,0:3|0:0,0:0:0:0:
486,292,75006,5,14,0:3:0:0:
421,86,75253,1,2,0:0:0:0:
282,200,75500,1,2,0:0:0:0:
238,42,75747,1,2,0:0:0:0:
112,105,75995,6,0,L|113:114,4,6.25,2|0|0|0|2,0:0|0:0|0:0|0:0|0:0,0:0:0:0:
125,97,76159,1,2,0:0:0:0:
120,127,76242,1,0,0:0:0:0:
115,156,76324,1,2,0:0:0:0:
110,186,76407,1,0,0:0:0:0:
105,215,76489,6,0,P|178:202|254:189,1,125,14|0,0:3|0:0,0:0:0:0:
305,290,76736,1,2,0:0:0:0:
305,290,76819,2,0,P|265:281|223:273,1,62.5,10|0,0:3|0:0,0:0:0:0:
364,153,76984,2,0,P|380:222|400:302,1,125,2|10,0:0|0:3,0:0:0:0:
471,99,77231,2,0,P|463:129|457:159,1,62.5,2|0,0:0|0:0,0:0:0:0:
338,54,77396,1,2,0:0:0:0:
338,54,77478,2,0,P|368:47|399:40,1,62.5,8|0,0:3|0:0,0:0:0:0:
485,13,77643,1,2,0:0:0:0:
185,16,77808,5,10,0:3:0:0:
164,54,77890,1,0,0:0:0:0:
166,97,77973,1,2,0:0:0:0:
191,132,78055,1,0,0:0:0:0:
231,150,78137,1,10,0:3:0:0:
271,168,78220,1,0,0:0:0:0:
296,203,78302,1,2,0:0:0:0:
298,246,78385,1,0,0:0:0:0:
277,284,78467,6,0,P|238:277|197:270,1,62.5,10|0,0:3|0:0,0:0:0:0:
142,320,78632,2,0,P|181:313|222:306,1,62.5,2|0,0:0|0:0,0:0:0:0:
80,213,78797,2,0,P|70:256|60:293,1,62.5,10|0,0:3|0:0,0:0:0:0:
24,125,78962,6,0,P|38:185|52:246,1,125,2|8,0:0|0:3,0:0:0:0:
124,33,79291,2,0,P|138:93|152:154,1,125,2|8,0:0|0:3,0:0:0:0:
347,255,79621,2,0,P|287:242|214:227,1,125,2|8,0:0|0:3,0:0:0:0:
390,74,79951,2,0,P|404:134|418:195,1,125,2|10,0:0|0:3,0:0:0:0:
475,278,80198,1,2,0:0:0:0:
475,278,80280,6,0,P|460:217|446:156,1,125,2|8,0:0|0:3,0:0:0:0:
290,307,80610,2,0,P|349:324|409:342,1,125,2|8,0:0|0:3,0:0:0:0:
360,131,80940,2,0,P|314:174|269:216,1,125,2|8,0:0|0:3,0:0:0:0:
105,74,81269,1,2,0:0:0:0:
116,66,81352,1,0,0:0:0:0:
127,58,81434,2,0,P|159:65|191:71,1,62.5,10|0,0:3|0:0,0:0:0:0:
269,28,81599,2,0,P|237:35|205:41,1,62.5,2|0,0:0|0:0,0:0:0:0:
132,175,81764,6,0,P|213:174|246:129,1,125,10|0,0:3|0:0,0:0:0:0:
309,225,82011,1,2,0:0:0:0:
309,225,82093,2,0,P|269:216|227:208,1,62.5,10|0,0:3|0:0,0:0:0:0:
355,67,82258,2,0,P|371:136|391:216,1,125,2|10,0:0|0:3,0:0:0:0:
433,12,82506,2,0,P|417:81|397:161,1,125,2|2,0:0|0:3,0:0:0:0:
450,246,82753,1,10,0:3:0:0:
411,265,82835,1,2,0:0:0:0:
368,264,82918,1,2,0:0:0:0:
330,243,83000,1,2,0:0:0:0:
306,207,83082,1,8,0:3:0:0:
144,296,83247,5,2,0:0:0:0:
152,303,83330,1,0,0:0:0:0:
160,310,83412,2,0,P|196:312|227:297,1,62.5,10|0,0:3|0:0,0:0:0:0:
228,286,83577,2,0,P|197:283|168:293,1,62.5,2|0,0:0|0:0,0:0:0:0:
311,339,83742,5,10,0:3:0:0:
332,301,83824,1,0,0:0:0:0:
330,258,83907,1,2,0:0:0:0:
305,223,83989,1,0,0:0:0:0:
265,205,84071,1,10,0:3:0:0:
225,187,84154,1,0,0:0:0:0:
200,152,84236,1,2,0:0:0:0:
198,109,84319,1,0,0:0:0:0:
219,71,84401,5,14,0:3:0:0:
409,147,84731,2,0,P|405:171|400:195,1,37.5000014305115,8|0,0:0|0:0,0:0:0:0:
389,184,84896,2,0,P|393:208|398:232,1,37.5000014305115,8|0,0:0|0:0,0:0:0:0:
459,275,85060,5,14,0:3:0:0:
253,162,85390,2,0,B|232:157|232:157|205:167,1,37.5000014305115,8|0,0:0|0:0,0:0:0:0:
203,177,85555,2,0,B|188:182|188:182|167:177,1,37.5000014305115,8|0,0:0|0:0,0:0:0:0:
95,129,85720,5,6,3:0:0:0:
300,75,86049,1,2,3:0:0:0:
251,277,86379,1,2,3:0:0:0:
219,197,86544,5,8,0:3:0:0:
219,197,86626,1,8,0:3:0:0:
219,197,86709,2,0,B|292:162|371:236|305:286|419:362|488:289,1,300,14|0,0:3|0:0,0:0:0:0:
511,187,87038,6,0,P|451:173|432:238,1,125,8|8,0:3|0:0,0:0:0:0:
329,137,87286,1,2,0:0:0:0:
329,137,87368,2,0,B|361:142|361:142|409:122,1,62.5,10|0,0:3|0:0,0:0:0:0:
511,74,87533,2,0,P|446:63|375:50,1,125,10|8,0:0|0:3,0:0:0:0:
289,0,87780,1,2,0:0:0:0:
289,0,87863,2,0,P|297:30|305:65,1,62.5,8|2,0:0|0:0,0:0:0:0:
240,132,88027,2,0,P|248:102|256:67,1,62.5,8|0,0:3|0:0,0:0:0:0:
316,185,88192,1,10,0:0:0:0:
124,80,88357,5,10,0:3:0:0:
81,84,88440,1,0,3:0:0:0:
46,110,88522,1,10,3:2:0:0:
31,150,88604,1,0,3:0:0:0:
40,192,88687,1,10,0:3:0:0:
70,224,88769,1,0,3:0:0:0:
112,234,88852,1,10,3:2:0:0:
153,220,88934,1,0,3:0:0:0:
180,187,89016,2,0,L|175:151,1,31.25,10|0,0:3|3:0,0:0:0:0:
185,180,89099,2,0,L|180:144,1,31.25,0|0,3:0|3:0,0:0:0:0:
190,174,89181,2,0,L|185:138,1,31.25,10|0,3:2|3:0,0:0:0:0:
195,167,89264,2,0,L|190:131,1,31.25,0|0,3:0|3:0,0:0:0:0:
200,160,89346,1,10,0:3:0:0:
364,289,89511,6,0,P|307:277|217:258,1,125,10|8,0:0|0:3,0:0:0:0:
407,105,89841,2,0,P|426:177|448:257,1,125,10|8,0:0|0:3,0:0:0:0:
297,38,90170,2,0,P|289:79|282:115,1,62.5,10|0,3:2|3:0,0:0:0:0:
263,113,90335,2,0,P|268:82|274:51,1,62.5,8|0,0:3|3:0,0:0:0:0:
297,38,90500,1,10,0:0:0:0:
330,228,90665,5,10,0:3:0:0:
330,228,90747,1,2,0:0:0:0:
330,228,90830,2,0,P|258:241|203:201,1,125,10|8,0:0|0:3,0:0:0:0:
340,49,91159,2,0,P|387:104|380:172,1,125,10|8,0:0|0:3,0:0:0:0:
155,96,91489,2,0,P|182:73|232:80,1,62.5,10|0,3:2|3:0,0:0:0:0:
235,80,91654,2,0,P|208:103|158:96,1,62.5,8|0,0:3|3:0,0:0:0:0:
155,96,91819,1,10,3:2:0:0:
343,15,91984,2,0,P|329:75|308:163,1,125,8|8,0:3|0:0,0:0:0:0:
82,163,92313,5,14,0:3:0:0:
120,142,92396,1,0,3:2:0:0:
163,145,92478,1,2,3:2:0:0:
197,171,92560,1,0,3:2:0:0:
215,211,92643,1,10,0:3:0:0:
232,251,92725,1,0,3:2:0:0:
267,277,92808,1,2,3:2:0:0:
309,279,92890,1,0,3:2:0:0:
348,259,92973,6,0,P|348:238|338:210,1,31.25,8|0,0:3|3:0,0:0:0:0:
352,219,93055,2,0,P|337:204|310:191,1,31.25,0|0,3:0|3:0,0:0:0:0:
323,185,93137,2,0,P|302:185|274:195,1,31.25,0|0,3:0|3:0,0:0:0:0:
283,181,93220,2,0,P|268:195|255:222,1,31.25,0|0,3:0|3:0,0:0:0:0:
258,215,93302,1,2,3:0:0:0:
260,258,93385,1,0,3:0:0:0:
285,293,93467,1,0,3:0:0:0:
325,308,93549,1,0,3:0:0:0:
368,300,93632,5,6,3:0:0:0:
399,270,93714,1,0,3:0:0:0:
408,228,93797,1,2,3:0:0:0:
394,187,93879,1,0,3:0:0:0:
359,161,93962,1,2,3:0:0:0:
319,146,94044,1,0,3:0:0:0:
276,150,94126,1,2,3:0:0:0:
239,174,94209,1,0,3:0:0:0:
217,211,94291,5,2,3:0:0:0:
214,254,94374,1,0,3:0:0:0:
230,294,94456,1,2,3:0:0:0:
247,255,94538,1,0,3:0:0:0:
237,213,94621,1,2,3:0:0:0:
205,185,94703,1,0,3:0:0:0:
162,181,94786,1,2,3:0:0:0:
125,203,94868,1,0,3:0:0:0:
109,243,94951,5,6,3:0:0:0:
175,371,95115,2,0,P|184:323|194:272,1,75.0000028610231,2|0,0:0|0:0,0:0:0:0:
263,210,95445,1,2,0:0:0:0:
263,210,95610,2,0,P|272:258|282:309,1,75.0000028610231,0|2,0:0|0:0,0:0:0:0:
403,178,95940,2,0,P|356:161|307:144,1,75.0000028610231,0|2,0:0|0:0,0:0:0:0:
204,105,96269,5,2,0:0:0:0:
279,56,96434,1,2,0:0:0:0:
107,26,96599,1,2,0:0:0:0:
107,26,96681,1,2,0:0:0:0:
107,26,96764,2,0,P|116:74|136:177,1,150.000005722046,2|2,0:0|0:0,0:0:0:0:
115,192,97176,1,0,0:0:0:0:
115,192,97258,2,0,L|127:260,3,37.5000014305115,2|0|2|2,0:0|0:0|0:0|0:0,0:0:0:0:
116,239,97588,5,2,0:0:0:0:
119,119,105995,6,0,L|125:154,1,25,2|0,0:0|0:0,0:0:0:0:
125,110,106077,2,0,L|131:145,1,25,2|0,0:0|0:0,0:0:0:0:
134,102,106159,1,2,0:0:0:0:
175,87,106242,1,0,0:0:0:0:
219,96,106324,1,2,0:0:0:0:
250,128,106407,1,0,0:0:0:0:
281,159,106489,1,2,0:0:0:0:
324,169,106571,1,0,0:0:0:0:
366,154,106654,6,0,P|396:83|297:132,1,259.999988098145,6|2,0:3|0:0,0:0:0:0:
81,286,107313,2,0,P|158:193|281:247,1,259.999988098145,14|2,0:3|0:0,0:0:0:0:
239,377,107725,1,0,0:0:0:0:
228,364,107808,2,0,P|215:340|228:293,1,64.9999970245363,10|2,0:0|0:0,0:0:0:0:
358,277,107973,2,0,P|343:300|296:312,1,64.9999970245363,2|2,0:0|0:0,0:0:0:0:
82,199,108137,6,0,P|155:213|306:240,1,194.999991073609,14|0,0:3|0:0,0:0:0:0:
409,171,108467,2,0,P|359:130|299:163,1,129.999994049073,10|2,0:0|0:0,0:0:0:0:
157,114,108714,1,2,0:0:0:0:
172,126,108797,6,0,P|209:120|256:111,1,64.9999970245363,10|0,0:3|0:0,0:0:0:0:
95,65,108962,2,0,P|84:113|75:157,1,64.9999970245363,2|0,0:0|0:0,0:0:0:0:
0,14,109126,2,0,P|11:62|20:106,1,64.9999970245363,10|0,0:0|0:0,0:0:0:0:
106,219,109291,5,2,0:0:0:0:
106,219,109374,1,0,0:0:0:0:
106,219,109456,2,0,P|72:211|28:201,1,64.9999970245363,10|0,0:3|0:0,0:0:0:0:
167,144,109621,2,0,P|230:130|282:180,1,129.999994049073,2|8,0:0|0:0,0:0:0:0:
386,331,109951,5,2,0:0:0:0:
386,331,110033,1,2,0:0:0:0:
386,331,110115,2,0,P|357:325|306:314,1,64.9999970245363,10|0,0:3|0:0,0:0:0:0:
420,200,110280,2,0,P|430:249|440:293,1,64.9999970245363,2|0,0:0|0:0,0:0:0:0:
512,142,110445,2,0,P|502:191|492:235,1,64.9999970245363,10|0,0:0|0:0,0:0:0:0:
373,104,110610,2,0,P|402:98|453:87,1,64.9999970245363,2|0,0:0|0:0,0:0:0:0:
312,191,110775,6,0,P|262:145|191:170,1,129.999994049073,10|0,0:3|0:0,0:0:0:0:
149,228,111022,1,0,0:0:0:0:
142,241,111104,2,0,P|152:278|165:328,1,64.9999970245363,10|0,0:0|0:0,0:0:0:0:
327,307,111269,5,2,0:0:0:0:
317,299,111352,1,2,0:0:0:0:
307,291,111434,2,0,P|265:283|218:273,1,64.9999970245363,10|0,0:3|0:0,0:0:0:0:
183,377,111599,2,0,P|225:369|272:359,1,64.9999970245363,2|0,0:0|0:0,0:0:0:0:
117,269,111764,2,0,P|109:312|101:363,1,64.9999970245363,10|0,0:0|0:0,0:0:0:0:
7,209,111929,5,2,0:0:0:0:
7,209,112011,1,0,0:0:0:0:
7,209,112093,2,0,P|49:201|96:191,1,64.9999970245363,12|0,0:3|0:0,0:0:0:0:
103,90,112258,2,0,B|65:144|111:219|161:176|200:261|150:321,1,259.999988098145,2|2,0:0|0:0,0:0:0:0:
77,346,112670,1,2,0:0:0:0:
65,328,112753,6,0,P|64:297|83:266,1,64.9999970245363,14|0,0:3|0:0,0:0:0:0:
212,349,112918,2,0,L|154:335,2,43.3333313496908,2|2|2,0:0|0:0|0:0,0:0:0:0:
229,365,113082,2,0,L|157:352,1,64.9999970245363,2|0,0:0|0:0,0:0:0:0:
314,258,113247,2,0,L|370:247,2,43.3333313496908,2|2|2,0:0|0:0|0:0,0:0:0:0:
322,240,113412,6,0,L|394:227,1,64.9999970245363,10|0,0:3|3:0,0:0:0:0:
408,233,113577,2,0,L|344:245,1,64.9999970245363,0|0,3:0|3:0,0:0:0:0:
243,59,113742,6,0,B|269:155|269:155|224:258|224:258|257:377,1,322.50000492096,14|0,0:3|0:0,0:0:0:0:
160,160,114071,5,10,0:3:0:0:
117,153,114154,1,2,0:0:0:0:
74,168,114236,1,2,0:0:0:0:
43,199,114319,1,2,0:0:0:0:
29,243,114401,2,0,P|38:283|49:334,1,64.9999970245363,10|0,0:0|0:0,0:0:0:0:
214,357,114566,5,2,0:0:0:0:
214,357,114648,1,2,0:0:0:0:
214,357,114731,2,0,P|205:317|194:266,1,64.9999970245363,10|0,0:3|0:0,0:0:0:0:
88,151,114896,2,0,P|104:223|121:301,1,129.999994049073,2|8,0:0|0:0,0:0:0:0:
233,107,115225,6,0,P|197:99|141:88,1,64.9999970245363,2|0,0:0|0:0,0:0:0:0:
84,72,115390,1,10,0:3:0:0:
320,24,115555,1,2,0:0:0:0:
329,37,115637,1,2,0:0:0:0:
338,49,115720,2,0,P|344:79|326:117,1,64.9999970245363,10|0,0:0|0:0,0:0:0:0:
227,169,115885,2,0,P|221:139|239:101,1,64.9999970245363,2|0,0:0|0:0,0:0:0:0:
416,227,116049,6,0,B|325:203|325:203|273:224,1,129.999994049073,14|10,0:3|0:3,0:0:0:0:
219,282,116297,1,10,0:3:0:0:
205,291,116379,2,0,P|244:302|283:285,1,64.9999970245363,10|0,0:3|0:0,0:0:0:0:
113,172,116544,6,0,P|122:213|131:251,1,64.9999970245363,2|2,0:0|0:0,0:0:0:0:
88,339,116709,1,10,0:3:0:0:
80,324,116791,1,10,0:3:0:0:
74,313,116874,2,0,P|83:272|92:234,1,64.9999970245363,10|2,0:3|0:0,0:0:0:0:
228,340,117038,2,0,P|196:346|164:353,1,64.9999970245363,10|0,0:0|0:0,0:0:0:0:
247,218,117203,6,0,P|319:192|394:282,1,194.999991073609,14|0,0:3|0:0,0:0:0:0:
386,284,117533,2,0,P|363:253|366:215,1,64.9999970245363,2|0,0:0|0:0,0:0:0:0:
477,159,117698,2,0,P|469:207|460:258,1,64.9999970245363,10|0,0:0|0:0,0:0:0:0:
340,117,117863,2,0,P|371:110|403:103,1,64.9999970245363,2|0,0:0|0:0,0:0:0:0:
263,21,118027,6,0,P|253:69|233:171,1,129.999994049073,10|2,0:3|3:0,0:0:0:0:
222,230,118275,1,0,3:0:0:0:
222,230,118357,1,10,0:0:0:0:
322,188,118522,1,0,3:0:0:0:
158,101,118687,5,14,0:3:0:0:
158,101,120830,5,2,3:0:0:0:
165,94,120912,1,0,3:0:0:0:
172,88,120995,2,0,P|201:83|241:76,1,50,8|0,0:3|0:0,0:0:0:0:
375,56,121159,2,0,L|364:87,1,25,2|0,3:0|3:0,0:0:0:0:
384,54,121242,2,0,L|373:85,1,25,2|0,3:0|3:0,0:0:0:0:
392,53,121324,6,0,P|365:141|339:229,1,150.000005722046,14|0,0:3|0:0,0:0:0:0:
201,201,121571,1,2,0:0:0:0:
187,193,121654,2,0,P|232:183|286:170,1,75.0000028610231,2|0,3:2|0:0,0:0:0:0:
342,289,121819,2,0,P|305:280|268:272,1,75.0000028610231,2|0,3:2|0:0,0:0:0:0:
401,158,121984,5,2,3:2:0:0:
444,172,122066,1,0,3:2:0:0:
444,217,122148,1,2,3:2:0:0:
401,231,122231,1,0,3:2:0:0:
375,195,122313,1,2,3:2:0:0:
460,360,122478,6,0,P|406:349|297:328,1,150.000005722046,14|0,0:3|0:0,0:0:0:0:
199,329,122725,1,0,0:0:0:0:
210,351,122808,2,0,P|248:358|291:367,1,75.0000028610231,2|0,0:0|0:0,0:0:0:0:
149,215,122973,2,0,P|137:265|123:317,1,75.0000028610231,2|0,0:0|0:0,0:0:0:0:
229,149,123137,2,0,P|241:199|255:251,1,75.0000028610231,2|0,0:0|0:0,0:0:0:0:
55,121,123302,2,0,P|115:60|187:79,1,150.000005722046,0|8,3:0|0:3,0:0:0:0:
180,77,123549,1,8,3:0:0:0:
185,86,123632,1,8,3:2:0:0:
62,39,123797,1,0,3:2:0:0:
164,258,123962,5,14,0:3:0:0:
309,120,124126,2,0,L|246:108,1,50,2|2,0:0|0:0,0:0:0:0:
159,165,124291,2,0,P|215:156|262:148,1,100,10|0,0:3|0:0,0:0:0:0:
98,32,124621,2,0,P|88:84|76:138,1,100,10|0,0:3|0:0,0:0:0:0:
61,156,124868,1,8,0:3:0:0:
61,156,124951,1,2,0:0:0:0:
229,88,125115,1,10,0:3:0:0:
1,61,125280,5,8,0:3:0:0:
186,205,125445,1,2,0:0:0:0:
11,88,125610,1,8,0:3:0:0:
219,21,125775,1,2,0:0:0:0:
89,215,125940,2,0,P|102:152|120:58,2,150,10|8|10,0:3|0:3|0:3,0:0:0:0:
57,373,126599,5,12,0:3:0:0:
0,163,126764,1,2,0:0:0:0:
202,265,126929,2,0,P|245:257|327:241,1,100,10|0,0:3|0:0,0:0:0:0:
133,111,127258,2,0,P|123:163|111:217,1,100,10|2,0:3|0:0,0:0:0:0:
107,246,127506,1,8,0:3:0:0:
107,246,127588,1,2,0:0:0:0:
54,45,127753,1,10,0:3:0:0:
277,132,127918,5,8,0:3:0:0:
43,174,128082,1,2,0:0:0:0:
297,150,128247,1,10,0:3:0:0:
109,11,128412,2,0,P|117:50|134:132,1,100,2|8,0:0|0:3,0:0:0:0:
176,309,128742,1,2,0:0:0:0:
176,309,128824,1,8,0:3:0:0:
176,309,128907,1,2,0:0:0:0:
256,81,129071,1,10,0:3:0:0:
326,334,129236,5,14,0:3:0:0:
92,208,129401,1,8,0:3:0:0:
364,135,129566,1,10,0:3:0:0:
122,212,129731,1,8,0:3:0:0:
412,285,129896,1,10,0:3:0:0:
235,68,130060,1,8,0:3:0:0:
193,337,130225,1,10,0:3:0:0:
254,89,130390,1,8,0:3:0:0:
337,343,130555,5,14,0:3:0:0:
133,175,130720,1,8,0:3:0:0:
395,96,130885,1,10,0:3:0:0:
220,317,131049,1,8,0:3:0:0:
389,123,131214,1,10,0:3:0:0:
136,74,131379,1,8,0:3:0:0:
320,284,131544,1,10,0:3:0:0:
394,29,131709,1,8,0:3:0:0:
189,146,131874,6,0,P|181:182|171:225,1,50,14|0,0:3|3:0,0:0:0:0:
89,264,132038,1,0,3:0:0:0:
89,264,132121,1,0,3:0:0:0:
89,264,132203,2,0,P|97:228|107:186,1,50,10|0,0:3|3:0,0:0:0:0:
197,318,132368,5,0,3:0:0:0:
197,318,132451,1,0,3:0:0:0:
197,318,132533,2,0,P|160:326|129:332,1,50,10|0,0:3|3:0,0:0:0:0:
263,244,132698,1,0,3:0:0:0:
263,244,132780,1,0,3:0:0:0:
263,244,132863,2,0,P|287:248|311:254,1,50,10|0,0:3|3:0,0:0:0:0:
384,319,133027,6,0,P|459:248|413:146,1,200,14|2,0:3|0:0,0:0:0:0:
354,106,133522,1,2,0:0:0:0:
186,223,133687,2,0,B|347:195|347:195|324:247,1,200,14|2,0:3|0:0,0:0:0:0:
283,356,134181,1,2,0:0:0:0:
398,283,134346,1,0,0:0:0:0:
233,135,134511,5,14,0:3:0:0:
