osu file format v14

[General]
AudioFilename: audio.mp3
AudioLeadIn: 0
PreviewTime: 22258
Countdown: 0
SampleSet: Soft
StackLeniency: 0.4
Mode: 0
LetterboxInBreaks: 0
WidescreenStoryboard: 0

[Editor]
DistanceSpacing: 1.6
BeatDivisor: 4
GridSize: 32
TimelineZoom: 2.899999

[Metadata]
Title:8bit Voyager
TitleUnicode:8bit Voyager
Artist:Lime
ArtistUnicode:Lime
Creator:Hazu-
Version:Insane
Source:osu!
Tags:instrumental electronic chiptune kankitsu THE BMS OF FIGHTERS eXtreme Violence BOFXV kawaiicore fa featured artist MUSYNX MUSYNC mappers' guild mg
BeatmapID:2702189
BeatmapSetID:1225869

[Difficulty]
HPDrainRate:5
CircleSize:4
OverallDifficulty:8
ApproachRate:9
SliderMultiplier:1.6
SliderTickRate:1

[Events]
//Background and Video events
0,0,"8bit Voyager.jpg",0,0
//Break Periods
2,97788,105395
//Storyboard Layer 0 (Background)
//Storyboard Layer 1 (Fail)
//Storyboard Layer 2 (Pass)
//Storyboard Layer 3 (Foreground)
//Storyboard Layer 4 (Overlay)
//Storyboard Sound Samples

[TimingPoints]
6,329.67032967033,4,2,1,80,1,0
1242,-100,4,2,1,5,0,0
1324,-100,4,2,1,80,0,0
2643,-125,4,2,1,60,0,0
5363,-125,4,2,1,5,0,0
5445,-125,4,2,1,60,0,0
6681,-125,4,2,1,5,0,0
6764,-125,4,2,1,60,0,0
7341,-125,4,2,1,5,0,0
7423,-125,4,2,1,60,0,0
8000,-125,4,2,1,5,0,0
8082,-125,4,2,1,60,0,0
10637,-125,4,2,1,5,0,0
10720,-125,4,2,1,60,0,0
11709,-125,4,2,1,70,0,0
11956,-125,4,2,1,5,0,0
12038,-125,4,2,1,70,0,0
12368,-125,4,2,1,70,0,0
12615,-125,4,2,1,5,0,0
12698,-125,4,2,1,70,0,0
13192,-111.111111111111,4,2,1,80,0,0
22423,-111.111111111111,4,2,1,60,0,0
22506,-111.111111111111,4,2,1,5,0,0
22753,-111.111111111111,4,2,1,60,0,0
22835,-111.111111111111,4,2,1,5,0,0
23082,-111.111111111111,4,2,1,60,0,0
23165,-111.111111111111,4,2,1,5,0,0
23247,-111.111111111111,4,2,1,70,0,0
23412,-111.111111111111,4,2,1,80,0,0
23742,-100,4,2,1,90,0,1
29016,-100,4,2,1,90,0,1
29346,-100,4,2,1,100,0,1
29676,-100,4,2,1,90,0,1
39896,-100,4,2,1,100,0,1
40225,-100,4,2,1,90,0,1
44841,-100,4,2,1,70,0,0
46242,-100,4,2,1,5,0,0
46324,-100,4,2,1,70,0,0
48879,-100,4,2,1,5,0,0
48962,-100,4,2,1,70,0,0
49538,-100,4,2,1,5,0,0
49621,-100,4,2,1,70,0,0
55720,-100,4,2,1,80,0,0
55967,-100,4,2,1,80,0,0
56214,-100,4,2,1,80,0,0
56462,-100,4,2,1,80,0,0
56709,-100,4,2,1,80,0,0
56956,-100,4,2,1,80,0,0
57203,-100,4,2,1,80,0,0
57368,-100,4,2,1,80,0,0
58192,-100,4,2,1,80,0,0
58439,-100,4,2,1,80,0,0
58686,-100,4,2,1,80,0,0
58934,-100,4,2,1,80,0,0
59181,-100,4,2,1,80,0,0
59428,-100,4,2,1,80,0,0
59675,-100,4,2,1,80,0,0
59923,-100,4,2,1,80,0,0
60170,-100,4,2,1,80,0,0
60582,-100,4,2,1,5,0,0
60665,-100,4,2,1,80,0,0
60995,-100,4,2,1,80,0,0
61242,-100,4,2,1,80,0,0
61489,-100,4,2,1,80,0,0
61736,-100,4,2,1,80,0,0
61984,-100,4,2,1,80,0,0
62231,-100,4,2,1,80,0,0
62478,-100,4,2,1,80,0,0
62643,-100,4,2,1,80,0,0
63467,-100,4,2,1,80,0,0
63714,-100,4,2,1,80,0,0
63961,-100,4,2,1,80,0,0
64209,-100,4,2,1,80,0,0
64456,-100,4,2,1,80,0,0
64703,-100,4,2,1,80,0,0
64950,-100,4,2,1,80,0,0
65198,-100,4,2,1,80,0,0
65445,-100,4,2,1,80,0,0
66269,-100,4,2,1,80,0,0
74016,-100,4,2,1,80,0,0
75995,-100,4,2,1,80,0,0
76489,-100,4,2,1,80,0,0
84401,-100,4,2,1,80,0,0
86709,-100,4,2,1,80,0,0
86956,-100,4,2,1,5,0,0
87038,-100,4,2,1,90,0,0
94951,-133.333333333333,4,2,1,70,0,0
105995,-133.333333333333,4,2,1,70,0,0
106654,-100,4,2,1,80,0,0
108137,-100,4,2,1,90,0,1
113742,-100,4,2,1,100,0,1
114071,-100,4,2,1,90,0,1
118687,-100,4,2,1,70,0,0
121324,-100,4,2,1,80,0,1
123962,-100,4,2,1,80,0,0

[Colours]
Combo1 : 239,136,67
Combo2 : 219,168,98
Combo3 : 255,197,138
Combo4 : 248,231,109

[HitObjects]
406,207,1324,6,0,P|365:199|301:187,1,80,8|8,0:0|0:3,0:0:0:0:
227,303,1654,2,0,P|268:295|332:283,1,80,8|8,0:0|0:3,0:0:0:0:
191,185,1984,2,0,L|180:242,3,40,8|8|8|8,0:0|0:3|0:0|0:3,0:0:0:0:
164,246,2313,1,10,0:0:0:0:
289,194,2478,1,8,0:3:0:0:
93,98,2643,6,0,P|100:140|108:185,1,64,4|2,0:0|0:0,0:0:0:0:
53,246,2973,1,2,0:0:0:0:
218,88,3302,2,0,P|268:97|308:104,1,64,2|0,0:0|0:0,0:0:0:0:
370,55,3632,1,2,0:0:0:0:
273,195,3797,6,0,P|223:204|153:217,1,96,2|2,0:0|0:0,0:0:0:0:
168,227,4126,1,2,0:0:0:0:
347,275,4456,2,0,P|381:221|352:157,1,128,2|2,0:0|0:0,0:0:0:0:
280,110,4951,1,2,0:0:0:0:
198,153,5115,2,0,P|143:146|58:136,1,128,2|2,0:0|0:0,0:0:0:0:
155,65,5610,5,2,0:0:0:0:
242,229,5940,2,0,P|250:270|261:319,1,64,2|0,0:0|0:0,0:0:0:0:
157,258,6269,1,2,0:0:0:0:
323,193,6434,6,0,P|331:234|352:335,1,128,2|2,0:0|0:0,0:0:0:0:
348,318,6929,1,2,0:0:0:0:
221,156,7093,2,0,P|229:197|250:298,1,128,2|2,0:0|0:0,0:0:0:0:
192,353,7588,1,2,0:0:0:0:
335,259,7753,2,0,P|343:218|364:117,1,128,2|2,0:0|0:0,0:0:0:0:
438,217,8247,5,2,0:0:0:0:
236,90,8577,2,0,P|196:98|145:107,1,64,2|0,0:0|0:0,0:0:0:0:
86,66,8907,1,2,0:0:0:0:
153,198,9071,6,0,P|219:208|266:216,1,96,2|2,0:0|0:0,0:0:0:0:
261,198,9401,1,2,0:0:0:0:
51,246,9731,2,0,B|20:220|20:220|38:126,1,128,2|2,0:0|0:0,0:0:0:0:
116,83,10225,1,2,0:0:0:0:
188,149,10390,2,0,P|196:190|217:291,1,128,2|2,0:0|0:0,0:0:0:0:
116,219,10885,5,2,0:0:0:0:
279,151,11049,1,2,0:3:0:0:
279,151,11132,1,2,0:0:0:0:
279,151,11214,2,0,L|336:162,3,32,2|2|2|2,0:0|0:0|0:0|0:0,0:0:0:0:
383,127,11544,2,0,L|326:138,1,32,2|2,0:0|0:0,0:0:0:0:
445,184,11709,5,14,0:0:0:0:
160,105,12038,2,0,P|169:152|177:189,1,64,2|2,0:0|0:0,0:0:0:0:
196,275,12368,5,14,0:0:0:0:
340,102,12698,1,10,0:0:0:0:
274,42,12863,2,0,P|223:35|181:30,1,64,2|2,0:0|0:3,0:0:0:0:
176,52,13110,1,0,0:0:0:0:
176,52,13192,5,14,0:3:0:0:
77,170,13357,1,2,0:0:0:0:
77,170,13522,2,0,P|144:158|250:139,1,143.999995605469,10|10,0:3|0:3,0:0:0:0:
323,87,14016,2,0,L|315:128,2,35.9999989013672,0|8|2,0:0|0:3|0:0,0:0:0:0:
296,217,14346,5,10,0:3:0:0:
235,69,14511,1,8,0:3:0:0:
235,69,14676,2,0,B|201:56|201:56|147:68,1,71.9999978027344,2|8,0:0|0:3,0:0:0:0:
76,136,15006,1,2,0:0:0:0:
191,253,15170,2,0,P|180:200|167:138,2,107.999996704102,10|8|10,0:3|0:3|0:3,0:0:0:0:
219,357,15830,5,8,0:3:0:0:
45,317,15995,1,2,0:0:0:0:
45,317,16159,2,0,P|26:260|82:183,1,143.999995605469,10|10,0:3|0:3,0:0:0:0:
170,162,16654,2,0,L|222:176,2,35.9999989013672,2|8|2,0:0|0:3|0:0,0:0:0:0:
86,44,16984,6,0,P|97:103|104:133,1,71.9999978027344,10|8,0:3|0:3,0:0:0:0:
11,96,17313,1,2,0:0:0:0:
11,96,17478,1,10,0:3:0:0:
166,13,17643,2,0,P|177:72|184:102,1,71.9999978027344,2|8,0:0|0:3,0:0:0:0:
84,177,17973,1,2,0:0:0:0:
84,177,18055,1,8,0:3:0:0:
84,177,18137,2,0,P|91:141|97:106,1,71.9999978027344,2|10,0:0|0:3,0:0:0:0:
210,258,18467,5,14,0:3:0:0:
67,314,18632,1,8,0:3:0:0:
234,277,18797,1,10,0:3:0:0:
99,204,18962,1,8,0:3:0:0:
290,168,19126,2,0,P|281:214|269:272,1,71.9999978027344,10|8,0:3|0:3,0:0:0:0:
141,364,19456,2,0,P|150:318|162:260,1,71.9999978027344,10|8,0:3|0:3,0:0:0:0:
184,142,19786,5,10,0:3:0:0:
259,274,19951,1,8,0:3:0:0:
86,217,20115,2,0,P|79:175|103:121,1,71.9999978027344,10|8,0:3|0:3,0:0:0:0:
227,43,20445,1,10,0:3:0:0:
247,201,20610,1,8,0:3:0:0:
205,65,20775,1,10,0:3:0:0:
168,243,20940,1,8,0:3:0:0:
352,130,21104,6,0,L|317:123,3,35.9999989013672,10|0|10|0,0:3|3:2|0:3|3:2,0:0:0:0:
252,165,21434,2,0,L|287:158,3,35.9999989013672,10|0|10|0,0:3|3:2|0:3|3:2,0:0:0:0:
185,81,21764,1,10,0:3:0:0:
185,81,21846,1,8,0:3:0:0:
185,81,21929,2,0,L|176:134,1,35.9999989013672,10|8,0:3|0:3,0:0:0:0:
106,193,22093,1,10,0:3:0:0:
106,193,22175,1,8,0:3:0:0:
106,193,22258,2,0,L|97:140,1,35.9999989013672,10|8,0:3|0:3,0:0:0:0:
37,90,22423,5,6,3:2:0:0:
262,141,22753,1,2,3:2:0:0:
487,191,23082,1,2,3:2:0:0:
403,123,23247,1,2,3:2:0:0:
403,123,23330,1,2,3:2:0:0:
403,123,23412,2,0,P|395:165|386:206,1,71.9999978027344,10|10,0:0|0:3,0:0:0:0:
312,350,23742,6,0,P|305:314|279:181,1,160,14|10,0:3|0:0,0:0:0:0:
251,42,24236,1,2,0:0:0:0:
251,42,24319,1,2,0:0:0:0:
251,42,24401,1,10,0:3:0:0:
175,193,24566,1,2,0:0:0:0:
326,102,24731,1,10,0:0:0:0:
122,39,24896,6,0,P|114:81|103:140,1,80,2|10,0:0|0:3,0:0:0:0:
263,224,25225,2,0,P|255:182|244:123,1,80,2|8,0:0|0:0,0:0:0:0:
51,275,25555,1,2,0:0:0:0:
51,275,25637,1,2,0:0:0:0:
51,275,25720,1,10,0:3:0:0:
164,185,25885,1,2,0:0:0:0:
196,338,26049,1,10,0:0:0:0:
68,190,26214,1,2,0:0:0:0:
284,170,26379,6,0,P|373:189|465:208,1,160,10|10,0:3|0:0,0:0:0:0:
309,84,26874,1,2,0:0:0:0:
309,84,26956,1,2,0:0:0:0:
309,84,27038,1,10,0:3:0:0:
271,250,27203,1,2,0:0:0:0:
417,120,27368,1,10,0:0:0:0:
198,57,27533,6,0,P|209:108|222:167,1,80,2|8,0:0|0:3,0:0:0:0:
355,233,27863,2,0,P|344:182|331:123,1,80,2|8,0:0|0:0,0:0:0:0:
129,222,28192,1,2,0:0:0:0:
129,222,28275,1,2,0:0:0:0:
129,222,28357,1,10,0:3:0:0:
236,254,28522,2,0,L|245:290,2,26.6666666666667,2|2|2,0:0|0:0|0:0,0:0:0:0:
242,239,28687,1,10,0:0:0:0:
329,182,28852,2,0,L|338:218,2,26.6666666666667,2|2|2,3:0|3:0|3:0,0:0:0:0:
338,170,29016,1,10,0:3:0:0:
148,31,29346,6,0,B|158:89|158:89|139:130|139:130|153:207,1,160,14|10,0:0|0:3,0:0:0:0:
221,251,29758,1,2,0:0:0:0:
221,251,29841,2,0,L|229:197,1,40,2|2,0:0|0:0,0:0:0:0:
245,132,30006,1,10,0:0:0:0:
276,326,30170,6,0,P|208:347|135:287,1,160,2|2,0:0|0:0,0:0:0:0:
267,189,30665,1,8,0:0:0:0:
267,189,30830,2,0,P|351:205|451:226,1,160,2|2,0:0|0:0,0:0:0:0:
469,233,31242,1,2,0:0:0:0:
469,233,31324,1,10,0:0:0:0:
388,124,31489,1,2,0:0:0:0:
318,304,31654,6,0,P|375:296|423:289,1,80,10|2,0:3|0:0,0:0:0:0:
436,314,31901,1,2,0:0:0:0:
436,314,31984,1,10,0:0:0:0:
338,204,32148,2,0,P|281:196|233:189,1,80,2|10,0:0|0:3,0:0:0:0:
195,232,32396,1,2,0:0:0:0:
195,232,32478,2,0,L|244:225,2,40,2|2|10,0:0|0:0|0:0,0:0:0:0:
117,294,32808,5,14,0:3:0:0:
268,204,33137,1,2,0:0:0:0:
66,58,33467,2,0,P|29:122|73:204,1,160,14|2,0:3|0:0,0:0:0:0:
163,229,33962,1,10,0:0:0:0:
263,116,34126,5,2,0:0:0:0:
263,116,34209,1,2,0:0:0:0:
263,116,34291,2,0,B|226:95|226:95|92:114,1,160,14|10,0:3|0:0,0:0:0:0:
230,207,34786,1,2,0:0:0:0:
230,207,34868,1,2,0:0:0:0:
230,207,34951,1,10,0:3:0:0:
301,45,35115,1,2,0:0:0:0:
129,136,35280,1,10,0:0:0:0:
338,222,35445,6,0,P|326:172|316:127,1,80,2|10,0:0|0:3,0:0:0:0:
195,48,35775,2,0,P|207:98|217:143,1,80,2|8,0:0|0:0,0:0:0:0:
263,295,36104,1,2,0:0:0:0:
263,295,36187,1,2,0:0:0:0:
263,295,36269,1,10,0:3:0:0:
151,184,36434,1,2,0:0:0:0:
333,230,36599,1,10,0:0:0:0:
157,318,36764,1,2,0:0:0:0:
254,128,36929,6,0,P|318:94|413:146,1,160,10|10,0:3|0:0,0:0:0:0:
492,272,37423,1,2,0:0:0:0:
492,272,37506,1,2,0:0:0:0:
492,272,37588,1,10,0:3:0:0:
327,199,37753,1,2,0:0:0:0:
500,115,37918,1,10,0:0:0:0:
429,192,38082,1,2,0:0:0:0:
298,58,38247,6,0,L|352:69,1,40,12|0,0:3|0:0,0:0:0:0:
421,84,38412,1,2,0:0:0:0:
159,188,38742,1,2,0:0:0:0:
159,188,38824,1,2,0:0:0:0:
159,188,38907,1,14,0:3:0:0:
206,95,39071,2,0,L|197:52,2,26.6666666666667,2|2|2,0:0|0:0|0:0,0:0:0:0:
220,106,39236,1,2,0:0:0:0:
314,147,39401,2,0,L|305:104,2,26.6666666666667,2|2|2,3:0|3:0|3:0,0:0:0:0:
325,156,39566,2,0,L|333:203,1,40,10|0,0:3|3:0,0:0:0:0:
386,241,39731,2,0,L|378:194,1,40,0|0,3:0|3:0,0:0:0:0:
459,136,39896,6,0,P|470:211|483:299,1,160,14|10,0:0|0:3,0:0:0:0:
422,353,40308,1,2,0:0:0:0:
422,353,40391,2,0,L|430:306,1,40,2|2,0:0|0:0,0:0:0:0:
506,374,40555,1,10,0:0:0:0:
335,269,40720,6,0,P|282:276|145:294,1,160,2|2,0:0|0:0,0:0:0:0:
50,170,41214,1,8,0:0:0:0:
50,170,41379,2,0,P|101:126|195:155,1,160,2|2,0:0|0:0,0:0:0:0:
297,247,41874,2,0,P|253:237|199:225,1,80,10|2,0:0|0:0,0:0:0:0:
360,103,42203,6,0,P|370:153|380:208,1,80,14|10,0:3|0:3,0:0:0:0:
410,210,42451,1,10,0:3:0:0:
410,210,42533,1,10,0:3:0:0:
276,55,42698,2,0,P|266:105|256:160,1,80,10|10,0:3|0:3,0:0:0:0:
211,197,42945,1,10,0:3:0:0:
211,197,43027,2,0,L|223:138,2,40,10|2|10,0:3|0:0|0:0,0:0:0:0:
149,267,43357,5,14,0:3:0:0:
354,135,43687,2,0,P|409:200|369:285,1,160,2|2,0:0|0:0,0:0:0:0:
212,290,44181,2,0,P|252:269|298:280,1,80,10|2,0:3|3:0,0:0:0:0:
314,303,44429,1,0,3:0:0:0:
314,303,44511,1,10,3:2:0:0:
232,377,44676,1,10,0:3:0:0:
126,248,44841,6,0,P|135:204|146:146,1,80,14|2,0:3|0:0,0:0:0:0:
90,89,45170,1,10,0:0:0:0:
251,216,45500,2,0,P|260:260|271:318,1,80,2|0,0:0|0:0,0:0:0:0:
206,371,45830,1,10,0:0:0:0:
364,293,45995,6,0,P|373:249|392:153,1,120,2|2,0:0|0:0,0:0:0:0:
400,163,46324,1,2,0:0:0:0:
219,59,46654,2,0,P|228:103|254:229,1,160,2|2,0:0|0:0,0:0:0:0:
198,298,47148,1,10,0:0:0:0:
342,221,47313,1,2,3:2:0:0:
150,155,47478,6,0,P|108:148|42:136,1,80,14|2,0:3|0:0,0:0:0:0:
5,205,47808,1,10,0:0:0:0:
158,63,48137,2,0,P|200:56|266:44,1,80,2|0,0:0|0:0,0:0:0:0:
331,88,48467,1,10,0:0:0:0:
267,276,48632,6,0,B|231:251|231:251|245:134,1,160,2|2,0:0|0:0,0:0:0:0:
324,207,49126,1,10,0:0:0:0:
157,163,49291,2,0,P|76:178|-20:194,1,160,2|2,0:0|0:0,0:0:0:0:
216,298,49786,2,0,P|225:249|233:202,1,80,10|2,0:0|0:0,0:0:0:0:
258,46,50115,5,14,0:3:0:0:
314,186,50280,1,8,0:3:0:0:
278,30,50445,1,10,0:3:0:0:
181,145,50610,1,8,0:3:0:0:
355,93,50775,2,0,P|404:101|452:109,1,80,10|8,0:3|0:3,0:0:0:0:
512,234,51104,2,0,P|463:226|415:218,1,80,10|8,0:3|0:3,0:0:0:0:
263,290,51434,5,14,0:3:0:0:
405,236,51599,1,8,0:3:0:0:
277,112,51764,2,0,P|287:166|299:222,1,80,10|8,0:3|0:3,0:0:0:0:
330,353,52093,1,10,0:3:0:0:
376,198,52258,1,8,0:3:0:0:
428,357,52423,1,10,0:3:0:0:
265,268,52588,1,8,0:3:0:0:
466,201,52753,5,14,0:3:0:0:
466,201,52835,1,0,3:0:0:0:
466,201,52918,2,0,L|457:252,1,40,0|0,3:0|3:0,0:0:0:0:
370,256,53082,1,10,0:3:0:0:
370,256,53164,1,0,3:0:0:0:
370,256,53247,2,0,L|379:205,1,40,0|0,3:0|3:0,0:0:0:0:
296,177,53412,5,10,0:3:0:0:
296,177,53494,1,0,3:0:0:0:
296,177,53577,2,0,L|287:228,1,40,0|0,3:0|3:0,0:0:0:0:
200,232,53741,1,10,0:3:0:0:
200,232,53823,1,0,3:0:0:0:
200,232,53906,2,0,L|209:181,1,40,0|0,3:0|3:0,0:0:0:0:
141,101,54071,6,0,P|153:171|172:274,1,160,14|8,0:3|0:0,0:0:0:0:
102,355,54566,2,0,P|114:289|133:182,1,160,10|0,0:0|3:0,0:0:0:0:
207,331,55060,1,4,0:1:0:0:
32,185,55390,1,8,0:3:0:0:
32,185,55473,1,8,0:3:0:0:
32,185,55555,2,0,L|22:133,1,40,8|8,0:3|0:3,0:0:0:0:
124,63,55720,6,0,P|110:130|102:169,1,80,14|0,0:3|0:0,0:0:0:0:
126,171,55967,1,2,3:0:0:0:
233,24,56214,2,0,P|247:91|255:130,1,80,10|0,0:0|0:0,0:0:0:0:
282,127,56461,1,2,3:2:0:0:
405,3,56709,2,0,P|391:70|383:109,1,80,6|0,0:3|0:0,0:0:0:0:
422,107,56956,2,0,P|436:174|444:213,1,80,10|0,0:0|0:0,0:0:0:0:
404,218,57203,1,10,0:3:0:0:
282,127,57368,6,0,P|234:118|104:93,1,160,14|2,0:0|0:0,0:0:0:0:
28,35,57863,1,2,3:0:0:0:
28,35,57946,1,0,3:0:0:0:
28,35,58028,2,0,L|38:87,1,40,2|0,3:0|3:0,0:0:0:0:
58,169,58192,6,0,P|115:189|163:168,1,80,14|0,0:3|0:0,0:0:0:0:
161,161,58440,1,2,3:2:0:0:
240,59,58687,2,0,P|183:39|135:60,1,80,10|0,0:3|0:0,0:0:0:0:
137,67,58935,1,2,3:2:0:0:
283,211,59181,2,0,P|293:158|301:111,1,80,14|0,0:3|0:0,0:0:0:0:
339,103,59429,2,0,P|349:156|357:203,1,80,2|0,3:2|0:0,0:0:0:0:
396,174,59676,2,0,P|406:121|414:74,1,80,10|0,0:3|0:0,0:0:0:0:
452,66,59924,2,0,P|462:119|470:166,1,80,2|0,3:0|0:0,0:0:0:0:
492,233,60170,5,14,0:0:0:0:
126,159,60665,1,10,0:0:0:0:
126,159,60747,1,0,0:0:0:0:
126,159,60830,2,0,L|179:151,1,40,10|0,0:0|0:0,0:0:0:0:
239,206,60995,6,0,P|232:246|218:317,1,80,14|0,0:3|0:0,0:0:0:0:
196,302,61242,1,2,3:0:0:0:
355,192,61489,2,0,P|348:232|334:303,1,80,10|0,0:0|0:0,0:0:0:0:
312,288,61736,1,10,3:2:0:0:
479,179,61984,2,0,P|472:219|458:290,1,80,6|0,0:3|0:0,0:0:0:0:
425,288,62231,2,0,P|432:248|446:177,1,80,10|0,0:0|0:0,0:0:0:0:
479,179,62478,1,10,0:3:0:0:
340,270,62643,6,0,P|256:277|207:196,1,160,14|2,0:0|0:0,0:0:0:0:
301,133,63137,1,2,3:0:0:0:
301,133,63220,1,0,3:0:0:0:
301,133,63302,2,0,L|291:185,1,40,2|0,3:0|3:0,0:0:0:0:
151,77,63467,6,0,P|198:70|252:61,1,80,14|0,0:3|0:0,0:0:0:0:
252,41,63714,1,2,3:0:0:0:
176,172,63962,2,0,P|129:165|75:156,1,80,10|0,0:3|0:0,0:0:0:0:
63,186,64209,1,2,3:0:0:0:
170,287,64456,2,0,P|217:280|271:271,1,80,14|0,0:3|0:0,0:0:0:0:
242,235,64703,2,0,P|289:228|343:219,1,80,2|0,3:0|0:0,0:0:0:0:
337,261,64951,2,0,P|384:254|438:245,1,80,10|0,0:3|0:0,0:0:0:0:
409,209,65198,2,0,P|456:202|510:193,1,80,2|0,3:0|0:0,0:0:0:0:
507,218,65445,5,8,0:0:0:0:
428,123,65610,1,0,3:0:0:0:
328,187,65775,1,2,0:0:0:0:
328,187,65858,1,2,0:0:0:0:
328,187,65940,2,0,L|318:239,1,40,10|0,0:0|0:0,0:0:0:0:
287,294,66104,2,0,L|277:242,1,40,10|0,0:0|0:0,0:0:0:0:
203,190,66269,6,0,P|151:180|98:170,1,80,14|0,0:3|0:0,0:0:0:0:
88,188,66516,1,2,0:0:0:0:
233,94,66764,2,0,P|285:84|338:74,1,80,2|8,0:0|0:3,0:0:0:0:
348,92,67011,1,2,0:0:0:0:
464,168,67258,6,0,P|453:214|442:257,1,80,10|0,0:3|0:0,0:0:0:0:
408,281,67506,2,0,P|397:235|386:192,1,80,2|0,0:0|0:0,0:0:0:0:
355,178,67753,2,0,P|295:160|231:205,1,120,2|2,0:0|0:0,0:0:0:0:
235,216,68082,1,2,0:0:0:0:
61,145,68412,1,2,0:0:0:0:
61,145,68495,2,0,P|113:159|158:135,1,80,2|2,0:0|0:0,0:0:0:0:
165,119,68742,6,0,P|155:67|147:23,1,80,2|8,0:0|0:3,0:0:0:0:
179,9,68989,1,2,0:0:0:0:
273,135,69236,2,0,P|263:187|255:231,1,80,10|0,0:3|0:0,0:0:0:0:
287,245,69483,1,2,0:0:0:0:
417,133,69731,6,0,P|435:83|410:35,1,80,2|8,0:0|0:3,0:0:0:0:
396,34,69978,2,0,P|350:28|302:22,1,80,2|0,0:0|0:0,0:0:0:0:
293,60,70225,2,0,P|247:66|199:72,1,80,10|0,0:3|0:0,0:0:0:0:
187,43,70473,2,0,P|124:38|81:92,1,120,2|2,0:0|0:0,0:0:0:0:
67,175,70885,1,8,0:3:0:0:
168,148,71049,1,2,0:0:0:0:
168,148,71132,1,2,0:0:0:0:
168,148,71214,2,0,L|224:156,1,40,8|10,0:0|0:0,0:0:0:0:
271,201,71379,2,0,L|215:193,1,40,10|8,0:0|0:0,0:0:0:0:
334,77,71544,6,0,P|343:126|352:176,1,80,12|0,0:3|0:0,0:0:0:0:
384,179,71791,1,2,0:0:0:0:
462,19,72038,2,0,P|453:68|444:118,1,80,2|8,0:0|0:3,0:0:0:0:
477,125,72285,1,2,0:0:0:0:
356,23,72533,6,0,P|315:17|273:47,1,80,10|0,0:3|0:0,0:0:0:0:
257,69,72780,2,0,P|211:61|166:53,1,80,2|0,0:0|0:0,0:0:0:0:
139,77,73027,2,0,P|152:140|169:215,1,120,2|2,0:0|0:0,0:0:0:0:
139,225,73357,1,2,0:0:0:0:
256,160,73522,2,0,P|307:168|352:175,1,80,8|0,0:3|3:0,0:0:0:0:
416,196,73769,1,0,3:0:0:0:
416,196,73852,2,0,L|366:205,1,40,8|8,0:3|0:3,0:0:0:0:
314,256,74016,6,0,P|306:312|295:370,1,80,14|0,0:3|0:0,0:0:0:0:
219,361,74264,2,0,P|225:321|231:281,1,80,14|0,0:3|0:0,0:0:0:0:
156,238,74511,2,0,P|148:294|137:352,1,80,14|0,0:3|0:0,0:0:0:0:
61,343,74759,2,0,P|67:303|73:263,1,80,14|0,0:3|0:0,0:0:0:0:
7,216,75006,5,14,0:3:0:0:
118,101,75253,1,2,0:0:0:0:
236,123,75500,1,2,0:0:0:0:
308,188,75747,1,2,0:0:0:0:
351,271,75995,1,2,0:0:0:0:
351,271,76077,1,2,0:0:0:0:
351,271,76159,2,0,L|295:280,1,40,2|0,0:0|0:0,0:0:0:0:
236,306,76324,2,0,L|292:315,1,40,2|0,0:0|0:0,0:0:0:0:
454,342,76489,6,0,P|444:287|435:236,1,80,14|0,0:3|0:0,0:0:0:0:
468,185,76736,1,2,0:0:0:0:
468,185,76819,2,0,P|475:224|482:263,1,80,10|2,0:3|0:0,0:0:0:0:
299,169,77148,1,10,0:3:0:0:
299,169,77231,2,0,P|338:151|397:168,2,80,2|2|0,0:0|0:0|0:0,0:0:0:0:
261,241,77643,1,2,0:0:0:0:
442,241,77808,5,10,0:3:0:0:
463,222,77890,1,0,0:0:0:0:
478,199,77972,1,2,0:0:0:0:
487,173,78055,1,0,0:0:0:0:
488,145,78137,2,0,L|479:97,3,40,10|0|2|0,0:3|0:0|0:0|0:0,0:0:0:0:
396,56,78467,2,0,L|387:104,3,40,10|0|2|0,0:3|0:0|0:0|0:0,0:0:0:0:
288,135,78797,5,10,0:3:0:0:
288,135,78879,1,0,0:0:0:0:
288,135,78962,2,0,P|247:142|193:151,1,80,2|8,0:0|0:3,0:0:0:0:
61,218,79291,2,0,P|109:227|166:239,1,80,2|8,0:0|0:3,0:0:0:0:
178,354,79621,2,0,P|138:346|99:338,1,80,2|8,0:0|0:3,0:0:0:0:
231,212,79951,2,0,P|238:251|246:290,1,80,2|10,0:0|0:3,0:0:0:0:
309,350,80198,1,2,0:0:0:0:
309,350,80281,6,0,P|301:310|293:271,1,80,2|8,0:0|0:3,0:0:0:0:
150,224,80610,2,0,P|157:263|165:302,1,80,2|8,0:0|0:3,0:0:0:0:
292,172,80940,2,0,P|245:162|193:150,1,80,2|8,0:0|0:3,0:0:0:0:
120,59,81269,1,2,0:0:0:0:
120,59,81352,1,0,0:0:0:0:
120,59,81434,2,0,L|127:98,1,40,10|0,0:3|0:0,0:0:0:0:
106,176,81599,2,0,L|98:136,1,40,2|0,0:0|0:0,0:0:0:0:
206,62,81764,6,0,P|256:58|296:82,1,80,10|0,0:3|0:0,0:0:0:0:
316,150,82011,1,2,0:0:0:0:
316,150,82093,2,0,P|266:154|226:130,1,80,10|2,0:3|0:0,0:0:0:0:
383,33,82423,1,10,0:3:0:0:
383,33,82506,2,0,P|392:83|402:130,1,80,2|2,0:0|0:3,0:0:0:0:
492,167,82753,1,10,0:3:0:0:
492,167,82835,1,2,0:0:0:0:
492,167,82918,2,0,L|483:117,1,40,2|2,0:0|0:0,0:0:0:0:
471,47,83082,1,8,0:3:0:0:
376,195,83247,5,2,0:0:0:0:
348,199,83329,1,0,0:0:0:0:
321,194,83411,1,10,0:3:0:0:
296,180,83494,1,0,0:0:0:0:
278,159,83577,2,0,L|271:116,3,40,2|0|10|0,0:0|0:0|0:3|0:0,0:0:0:0:
192,91,83907,1,2,0:0:0:0:
164,87,83989,1,0,0:0:0:0:
137,92,84071,1,10,0:3:0:0:
112,106,84154,1,0,0:0:0:0:
94,127,84237,2,0,L|87:170,1,40,2|0,0:0|0:0,0:0:0:0:
63,269,84401,5,14,0:3:0:0:
298,205,84731,2,0,L|308:150,3,40,8|0|8|0,0:0|0:0|0:0|0:0,0:0:0:0:
295,152,85060,5,14,0:3:0:0:
187,278,85390,2,0,L|197:333,3,40,8|0|8|0,0:0|0:0|0:0|0:0,0:0:0:0:
183,330,85720,5,6,3:0:0:0:
394,197,86049,1,2,3:0:0:0:
160,101,86379,1,2,3:0:0:0:
226,192,86544,1,8,0:3:0:0:
226,192,86626,1,8,0:3:0:0:
226,192,86709,2,0,P|272:198|308:181,1,80,14|0,0:3|0:0,0:0:0:0:
416,84,87038,6,0,P|406:135|395:186,1,80,8|8,0:3|0:0,0:0:0:0:
471,216,87286,1,2,0:0:0:0:
471,216,87368,2,0,P|481:267|492:318,1,80,10|10,0:3|0:0,0:0:0:0:
309,287,87698,1,8,0:3:0:0:
309,287,87780,1,2,0:0:0:0:
309,287,87863,2,0,B|354:281,1,40,10|2,0:0|0:0,0:0:0:0:
390,307,88027,2,0,B|350:312,1,40,8|0,0:3|0:0,0:0:0:0:
297,366,88192,1,10,0:0:0:0:
342,187,88357,5,10,0:3:0:0:
315,177,88439,1,0,3:0:0:0:
287,176,88521,1,10,3:2:0:0:
261,185,88604,1,0,3:0:0:0:
239,202,88687,2,0,L|230:254,3,40,10|0|10|0,0:3|3:0|3:2|3:0,0:0:0:0:
135,276,89017,1,10,0:3:0:0:
135,276,89099,1,0,3:0:0:0:
135,276,89181,2,0,L|84:267,1,40,10|0,3:2|3:0,0:0:0:0:
37,308,89346,2,0,L|76:301,1,40,10|0,0:3|0:0,0:0:0:0:
140,183,89511,6,0,P|102:176|44:166,1,80,10|8,0:0|0:3,0:0:0:0:
205,64,89841,2,0,P|213:103|227:162,1,80,10|8,0:0|0:3,0:0:0:0:
114,10,90170,2,0,P|105:49|96:88,1,80,10|8,3:2|0:3,0:0:0:0:
191,227,90500,2,0,P|241:235|286:206,1,80,10|10,0:0|0:3,0:0:0:0:
300,147,90747,1,2,0:0:0:0:
300,147,90830,6,0,P|250:139|205:168,1,80,10|8,0:0|0:3,0:0:0:0:
367,265,91159,2,0,P|375:226|389:167,1,80,10|8,0:0|0:3,0:0:0:0:
468,87,91489,2,0,P|476:126|490:185,1,80,10|8,3:2|0:3,0:0:0:0:
302,65,91819,2,0,P|341:58|380:50,1,80,10|8,3:2|0:3,0:0:0:0:
307,153,92148,1,8,0:0:0:0:
172,55,92313,5,14,0:3:0:0:
151,74,92395,1,0,3:2:0:0:
136,97,92477,1,2,3:2:0:0:
127,123,92560,1,0,3:2:0:0:
126,151,92642,1,10,0:3:0:0:
133,178,92725,1,0,3:2:0:0:
148,202,92807,1,2,3:2:0:0:
168,221,92889,1,0,3:2:0:0:
194,233,92972,2,0,P|237:240|286:249,1,80,8|0,0:3|3:0,0:0:0:0:
363,161,93302,2,0,L|272:146,1,80,2|0,3:0|3:0,0:0:0:0:
469,194,93632,5,6,3:0:0:0:
469,194,93714,1,0,3:0:0:0:
469,194,93797,2,0,L|481:246,1,40,2|0,3:0|3:0,0:0:0:0:
442,348,93962,1,2,3:0:0:0:
417,361,94044,1,0,3:0:0:0:
390,367,94126,1,2,3:0:0:0:
362,364,94209,1,0,3:0:0:0:
336,354,94291,1,2,3:0:0:0:
314,337,94374,1,0,3:0:0:0:
297,315,94456,2,0,L|248:306,3,40,2|0|2|0,3:0|3:0|3:0|3:0,0:0:0:0:
180,283,94786,2,0,L|229:273,1,40,2|0,3:0|3:0,0:0:0:0:
283,213,94951,5,6,3:0:0:0:
194,116,95115,2,0,P|187:161|180:200,1,60.0000022888184,2|0,0:0|0:0,0:0:0:0:
66,97,95445,2,0,P|108:80|145:67,1,60.0000022888184,2|0,0:0|0:0,0:0:0:0:
109,216,95775,2,0,P|73:187|43:161,1,60.0000022888184,2|0,0:0|0:0,0:0:0:0:
62,178,96104,1,2,0:0:0:0:
204,199,96269,6,0,P|213:241|203:273,1,60.0000022888184,2|2,0:0|0:0,0:0:0:0:
126,133,96599,1,2,0:0:0:0:
126,133,96681,1,2,0:0:0:0:
126,133,96764,2,0,P|188:122|267:107,1,120.000004577637,2|2,0:0|0:0,0:0:0:0:
277,133,97176,1,0,0:0:0:0:
277,133,97258,2,0,L|288:179,1,30.0000011444092,2|0,0:0|0:0,0:0:0:0:
320,189,97423,2,0,L|313:159,1,30.0000011444092,2|2,0:0|0:0,0:0:0:0:
256,240,97588,5,2,0:0:0:0:
386,101,105995,5,2,0:0:0:0:
386,101,106077,1,2,0:0:0:0:
386,101,106159,2,0,L|336:95,1,30.0000011444092,2|0,0:0|0:0,0:0:0:0:
302,168,106324,1,2,0:0:0:0:
302,168,106406,1,0,0:0:0:0:
302,168,106489,2,0,L|352:174,1,30.0000011444092,2|0,0:0|0:0,0:0:0:0:
418,188,106654,5,6,0:3:0:0:
265,295,106984,1,2,0:0:0:0:
182,61,107313,2,0,P|258:42|320:107,1,160,14|2,0:3|0:0,0:0:0:0:
363,202,107808,1,10,0:0:0:0:
171,176,107973,5,2,0:0:0:0:
171,176,108055,1,2,0:0:0:0:
171,176,108137,2,0,P|95:164|2:151,1,160,14|10,0:3|0:0,0:0:0:0:
229,107,108632,1,2,0:0:0:0:
229,107,108714,1,2,0:0:0:0:
229,107,108797,1,10,0:3:0:0:
123,282,108962,1,2,0:0:0:0:
105,75,109126,1,10,0:0:0:0:
265,224,109291,6,0,P|313:217|371:207,1,80,2|10,0:0|0:3,0:0:0:0:
506,136,109621,2,0,P|456:129|404:122,1,80,2|8,0:0|0:0,0:0:0:0:
261,103,109951,1,2,0:0:0:0:
261,103,110033,1,2,0:0:0:0:
261,103,110115,1,10,0:3:0:0:
428,43,110280,1,2,0:0:0:0:
365,225,110445,1,10,0:0:0:0:
309,18,110610,1,2,0:0:0:0:
496,156,110775,6,0,P|420:144|327:131,1,160,10|10,0:3|0:0,0:0:0:0:
142,100,111269,1,2,0:0:0:0:
142,100,111352,1,2,0:0:0:0:
142,100,111434,1,10,0:3:0:0:
306,155,111599,1,2,0:0:0:0:
116,216,111764,1,10,0:0:0:0:
251,81,111929,1,2,0:0:0:0:
42,44,112093,6,0,L|54:103,1,40,12|0,0:3|0:0,0:0:0:0:
15,160,112258,1,2,0:0:0:0:
294,184,112588,1,2,0:0:0:0:
294,184,112670,1,2,0:0:0:0:
294,184,112753,1,14,0:3:0:0:
187,208,112918,2,0,L|195:160,2,26.6666666666667,2|2|2,0:0|0:0|0:0,0:0:0:0:
175,217,113082,1,2,0:0:0:0:
79,246,113247,2,0,L|87:198,2,26.6666666666667,2|2|2,0:0|0:0|0:0,0:0:0:0:
65,261,113412,2,0,L|72:300,1,40,10|0,0:3|3:0,0:0:0:0:
35,324,113577,2,0,L|44:373,1,40,0|0,3:0|3:0,0:0:0:0:
191,367,113742,6,0,B|278:378|253:299|351:316,1,160,14|10,0:3|0:3,0:0:0:0:
412,346,114154,1,2,0:0:0:0:
412,346,114236,2,0,P|381:351|354:341,1,40,2|2,0:0|0:0,0:0:0:0:
458,276,114401,1,10,0:0:0:0:
246,186,114566,6,0,P|257:251|275:357,1,160,2|2,0:0|0:0,0:0:0:0:
324,133,115060,1,8,0:0:0:0:
324,133,115225,2,0,B|285:96|285:96|152:115,1,160,2|2,0:0|0:0,0:0:0:0:
151,132,115637,1,2,0:0:0:0:
151,132,115720,1,10,0:0:0:0:
255,192,115885,1,2,0:0:0:0:
69,283,116049,6,0,P|79:228|88:173,1,80,14|10,0:3|0:3,0:0:0:0:
64,175,116297,1,10,0:3:0:0:
64,175,116379,1,10,0:3:0:0:
189,247,116544,2,0,P|199:302|208:357,1,80,2|10,0:0|0:3,0:0:0:0:
262,382,116791,1,10,0:3:0:0:
262,382,116874,2,0,L|253:332,2,40,10|2|10,0:3|0:0|0:0,0:0:0:0:
315,273,117203,5,14,0:3:0:0:
91,342,117533,2,0,P|36:277|76:192,1,160,2|2,0:0|0:0,0:0:0:0:
189,116,118027,2,0,P|182:156|170:211,1,80,10|2,0:3|3:0,0:0:0:0:
191,229,118275,1,0,3:0:0:0:
191,229,118357,1,10,0:0:0:0:
104,141,118522,1,0,3:0:0:0:
287,69,118687,5,14,0:3:0:0:
312,201,120830,6,0,L|321:162,2,40,2|0|8,3:0|3:0|0:3,0:0:0:0:
405,52,121159,1,2,3:0:0:0:
405,52,121242,1,2,3:0:0:0:
405,52,121324,2,0,P|412:94|421:143,1,80,14|0,0:3|0:0,0:0:0:0:
452,153,121571,1,2,0:0:0:0:
452,153,121654,1,2,3:2:0:0:
282,64,121819,2,0,P|222:55|174:46,1,80,2|2,3:2|3:2,0:0:0:0:
138,98,122066,1,0,3:2:0:0:
138,98,122148,2,0,L|194:88,2,40,2|0|2,3:2|3:2|3:2,0:0:0:0:
49,50,122478,5,14,0:3:0:0:
191,256,122807,2,0,P|263:266|323:201,1,160,2|2,0:0|0:0,0:0:0:0:
321,208,123302,1,0,3:0:0:0:
220,95,123467,1,8,0:3:0:0:
220,95,123549,1,8,3:0:0:0:
220,95,123632,2,0,P|229:145|239:196,1,80,8|0,3:2|3:2,0:0:0:0:
330,72,123962,5,14,0:3:0:0:
142,13,124127,1,2,0:0:0:0:
142,13,124291,2,0,P|133:63|112:186,1,160,10|10,0:3|0:3,0:0:0:0:
205,251,124786,2,0,L|197:211,2,40,0|8|2,0:0|0:3|0:0,0:0:0:0:
125,326,125116,5,10,0:3:0:0:
299,253,125281,1,8,0:3:0:0:
299,253,125446,2,0,P|338:260|395:270,1,80,2|8,0:0|0:3,0:0:0:0:
274,341,125776,1,2,0:0:0:0:
362,177,125940,2,0,P|401:170|489:154,2,120,10|8|10,0:3|0:3|0:3,0:0:0:0:
173,215,126600,5,12,0:3:0:0:
291,66,126765,1,2,0:0:0:0:
291,66,126929,2,0,P|279:126|256:239,1,160,10|10,0:3|0:3,0:0:0:0:
351,311,127424,2,0,L|340:254,2,40,2|8|2,0:0|0:3|0:0,0:0:0:0:
487,220,127754,6,0,P|447:211|408:202,1,80,10|8,0:3|0:3,0:0:0:0:
472,129,128083,1,2,0:0:0:0:
472,129,128248,1,10,0:3:0:0:
472,304,128412,2,0,P|432:295|393:286,1,80,2|8,0:0|0:3,0:0:0:0:
237,240,128743,1,2,0:0:0:0:
237,240,128825,1,8,0:3:0:0:
237,240,128907,2,0,P|276:231|315:222,1,80,2|10,0:0|0:3,0:0:0:0:
465,175,129237,5,14,0:3:0:0:
374,307,129402,1,8,0:3:0:0:
357,126,129567,1,10,0:3:0:0:
404,289,129732,1,8,0:3:0:0:
512,101,129896,2,0,P|472:92|433:83,1,80,10|8,0:3|0:3,0:0:0:0:
323,203,130226,2,0,P|362:194|401:185,1,80,10|8,0:3|0:3,0:0:0:0:
252,134,130556,5,14,0:3:0:0:
425,200,130721,1,8,0:3:0:0:
262,294,130885,2,0,P|222:285|183:276,1,80,10|8,0:3|0:3,0:0:0:0:
21,224,131215,1,10,0:3:0:0:
211,193,131380,1,8,0:3:0:0:
37,256,131545,1,10,0:3:0:0:
143,108,131710,1,8,0:3:0:0:
225,318,131874,6,0,L|180:310,3,40,14|0|0|0,0:3|3:0|3:0|3:0,0:0:0:0:
140,233,132203,2,0,L|185:225,3,40,10|0|0|0,0:3|3:0|3:0|3:0,0:0:0:0:
243,154,132534,1,10,0:3:0:0:
243,154,132616,1,0,3:0:0:0:
243,154,132698,2,0,L|198:146,1,40,0|0,3:0|3:0,0:0:0:0:
137,89,132863,5,10,0:3:0:0:
137,89,132945,1,0,3:0:0:0:
137,89,133027,2,0,P|214:24|285:52,1,160,14|2,0:3|0:0,0:0:0:0:
264,35,133522,1,2,0:0:0:0:
412,129,133687,2,0,B|364:124|364:124|307:150|307:150|229:142,1,160,14|2,0:3|0:0,0:0:0:0:
185,261,134181,2,0,P|227:251|298:236,1,80,2|0,0:0|0:0,0:0:0:0:
99,190,134511,5,14,0:3:0:0:
