osu file format v14

[General]
AudioFilename: audio.mp3
AudioLeadIn: 0
PreviewTime: 22258
Countdown: 0
SampleSet: Soft
StackLeniency: 0.4
Mode: 0
LetterboxInBreaks: 0
WidescreenStoryboard: 0

[Editor]
DistanceSpacing: 1.2
BeatDivisor: 4
GridSize: 32
TimelineZoom: 2.899999

[Metadata]
Title:8bit Voyager
TitleUnicode:8bit Voyager
Artist:Lime
ArtistUnicode:Lime
Creator:Hazu-
Version:Expert
Source:osu!
Tags:instrumental electronic chiptune kankitsu THE BMS OF FIGHTERS eXtreme Violence BOFXV kawaiicore fa featured artist MUSYNX MUSYNC mappers' guild mg
BeatmapID:2702294
BeatmapSetID:1225869

[Difficulty]
HPDrainRate:5
CircleSize:4.2
OverallDifficulty:8.2
ApproachRate:9.2
SliderMultiplier:1.8
SliderTickRate:1

[Events]
//Background and Video events
0,0,"8bit Voyager.jpg",0,0
//Break Periods
2,97788,105425
//Storyboard Layer 0 (Background)
//Storyboard Layer 1 (Fail)
//Storyboard Layer 2 (Pass)
//Storyboard Layer 3 (Foreground)
//Storyboard Layer 4 (Overlay)
//Storyboard Sound Samples

[TimingPoints]
6,329.67032967033,4,2,1,80,1,0
1242,-100,4,2,1,5,0,0
1324,-100,4,2,1,80,0,0
2643,-125,4,2,1,60,0,0
5363,-125,4,2,1,5,0,0
5445,-125,4,2,1,60,0,0
6681,-125,4,2,1,5,0,0
6764,-125,4,2,1,60,0,0
7341,-125,4,2,1,5,0,0
7423,-125,4,2,1,60,0,0
8000,-125,4,2,1,5,0,0
8082,-125,4,2,1,60,0,0
10637,-125,4,2,1,5,0,0
10720,-125,4,2,1,60,0,0
11709,-125,4,2,1,70,0,0
11956,-125,4,2,1,5,0,0
12038,-125,4,2,1,70,0,0
12368,-125,4,2,1,70,0,0
12615,-125,4,2,1,5,0,0
12698,-125,4,2,1,70,0,0
13192,-111.111111111111,4,2,1,80,0,0
22423,-111.111111111111,4,2,1,60,0,0
22506,-111.111111111111,4,2,1,5,0,0
22753,-111.111111111111,4,2,1,60,0,0
22835,-111.111111111111,4,2,1,5,0,0
23082,-111.111111111111,4,2,1,60,0,0
23165,-111.111111111111,4,2,1,5,0,0
23247,-111.111111111111,4,2,1,70,0,0
23412,-111.111111111111,4,2,1,80,0,0
23742,-100,4,2,1,90,0,1
29016,-100,4,2,1,90,0,1
29346,-100,4,2,1,100,0,1
29676,-100,4,2,1,90,0,1
39896,-100,4,2,1,100,0,1
40225,-100,4,2,1,90,0,1
44841,-100,4,2,1,70,0,0
46242,-100,4,2,1,5,0,0
46324,-100,4,2,1,70,0,0
48879,-100,4,2,1,5,0,0
48962,-100,4,2,1,70,0,0
49538,-100,4,2,1,5,0,0
49621,-100,4,2,1,70,0,0
55720,-100,4,2,1,80,0,0
55967,-100,4,2,1,80,0,0
56214,-100,4,2,1,80,0,0
56462,-100,4,2,1,80,0,0
56709,-100,4,2,1,80,0,0
56956,-100,4,2,1,80,0,0
57203,-100,4,2,1,80,0,0
57368,-100,4,2,1,80,0,0
58192,-100,4,2,1,80,0,0
58439,-100,4,2,1,80,0,0
58686,-100,4,2,1,80,0,0
58934,-100,4,2,1,80,0,0
59181,-100,4,2,1,80,0,0
59428,-100,4,2,1,80,0,0
59675,-100,4,2,1,80,0,0
59923,-100,4,2,1,80,0,0
60170,-100,4,2,1,80,0,0
60582,-100,4,2,1,5,0,0
60665,-100,4,2,1,80,0,0
60995,-100,4,2,1,80,0,0
61242,-100,4,2,1,80,0,0
61489,-100,4,2,1,80,0,0
61736,-100,4,2,1,80,0,0
61984,-100,4,2,1,80,0,0
62231,-100,4,2,1,80,0,0
62478,-100,4,2,1,80,0,0
62643,-100,4,2,1,80,0,0
63467,-100,4,2,1,80,0,0
63714,-100,4,2,1,80,0,0
63961,-100,4,2,1,80,0,0
64209,-100,4,2,1,80,0,0
64456,-100,4,2,1,80,0,0
64703,-100,4,2,1,80,0,0
64950,-100,4,2,1,80,0,0
65198,-100,4,2,1,80,0,0
65445,-100,4,2,1,80,0,0
66269,-100,4,2,1,80,0,0
74016,-66.6666666666667,4,2,1,80,0,0
75995,-100,4,2,1,80,0,0
76489,-100,4,2,1,80,0,0
84401,-100,4,2,1,80,0,0
86709,-100,4,2,1,80,0,0
86956,-100,4,2,1,5,0,0
87038,-100,4,2,1,90,0,0
94951,-133.333333333333,4,2,1,70,0,0
105995,-133.333333333333,4,2,1,70,0,0
106654,-100,4,2,1,80,0,0
108137,-100,4,2,1,90,0,1
113742,-100,4,2,1,100,0,1
114071,-100,4,2,1,90,0,1
118687,-100,4,2,1,70,0,0
121324,-100,4,2,1,80,0,1
123962,-100,4,2,1,80,0,0

[Colours]
Combo1 : 239,136,67
Combo2 : 219,168,98
Combo3 : 255,197,138
Combo4 : 248,231,109

[HitObjects]
256,192,6,12,0,1242,0:0:0:0:
169,116,1324,5,8,0:0:0:0:
355,189,1489,1,8,0:3:0:0:
148,133,1654,1,8,0:0:0:0:
373,209,1819,1,8,0:3:0:0:
265,45,1984,1,8,0:0:0:0:
265,45,2066,1,8,0:3:0:0:
265,45,2148,2,0,L|248:112,1,45,8|8,0:0|0:3,0:0:0:0:
227,180,2313,1,10,0:0:0:0:
358,83,2478,1,8,0:3:0:0:
137,18,2643,6,0,P|145:61|157:119,1,72,4|2,0:0|0:0,0:0:0:0:
97,178,2973,1,2,0:0:0:0:
296,39,3302,2,0,P|357:29|394:22,1,72,2|0,0:0|0:0,0:0:0:0:
454,75,3632,1,2,0:0:0:0:
300,158,3797,6,0,P|249:149|169:135,1,108,2|2,0:0|0:0,0:0:0:0:
175,152,4126,2,0,P|183:195|195:253,1,72,2|0,0:0|0:0,0:0:0:0:
70,350,4456,2,0,P|20:285|50:207,1,144,2|2,0:0|0:0,0:0:0:0:
96,167,4951,1,2,0:0:0:0:
176,208,5115,2,0,P|244:219|298:228,1,108,2|0,0:0|0:0,0:0:0:0:
294,235,5445,5,2,0:0:0:0:
194,292,5610,1,2,0:0:0:0:
421,223,5940,2,0,P|412:270|404:309,1,72,2|0,0:0|0:0,0:0:0:0:
501,262,6269,1,2,0:0:0:0:
347,174,6434,6,0,P|338:221|324:293,1,108,2|0,0:0|0:0,0:0:0:0:
310,295,6764,2,0,P|317:259|323:224,1,72,2|2,0:0|0:0,0:0:0:0:
449,125,7093,2,0,P|440:172|426:244,1,108,2|0,0:0|0:0,0:0:0:0:
433,243,7423,1,2,0:0:0:0:
364,166,7588,1,2,0:0:0:0:
266,199,7753,2,0,P|200:191|130:182,1,108,2|0,0:0|0:0,0:0:0:0:
146,191,8082,5,2,0:0:0:0:
240,116,8247,1,2,0:0:0:0:
42,34,8577,2,0,P|51:81|60:127,1,72,2|0,0:0|0:0,0:0:0:0:
23,188,8907,1,2,0:0:0:0:
151,83,9071,6,0,P|206:77|253:126,1,108,2|2,0:0|0:0,0:0:0:0:
252,119,9401,2,0,P|243:169|235:206,1,72,2|0,0:0|0:0,0:0:0:0:
332,30,9731,2,0,P|343:94|359:182,1,144,2|2,0:0|0:0,0:0:0:0:
322,264,10225,1,2,0:0:0:0:
432,238,10390,2,0,P|443:174|456:102,1,108,2|0,0:0|0:0,0:0:0:0:
461,125,10720,5,2,0:0:0:0:
512,216,10885,1,2,0:0:0:0:
361,166,11049,1,2,0:3:0:0:
361,166,11132,1,2,0:0:0:0:
361,166,11214,2,0,L|315:177,3,36,2|2|2|2,0:0|0:0|0:0|0:0,0:0:0:0:
255,232,11544,2,0,L|290:240,1,36,2|2,0:0|0:0,0:0:0:0:
347,298,11709,5,14,0:0:0:0:
111,167,12038,2,0,P|159:159|202:152,1,72,2|2,0:0|0:0,0:0:0:0:
277,136,12368,5,14,0:0:0:0:
47,40,12698,1,10,0:0:0:0:
47,40,12863,2,0,P|40:80|31:128,1,72,2|2,0:0|0:3,0:0:0:0:
83,182,13110,1,0,0:0:0:0:
83,182,13192,6,0,P|131:175|193:165,1,80.9999975280763,14|2,0:3|0:0,0:0:0:0:
265,280,13522,2,0,P|217:273|155:263,1,80.9999975280763,10|0,0:3|0:0,0:0:0:0:
333,143,13852,2,0,P|342:195|352:241,1,80.9999975280763,10|0,0:3|0:0,0:0:0:0:
379,246,14099,1,8,0:3:0:0:
379,246,14181,1,2,0:0:0:0:
246,163,14346,1,10,0:3:0:0:
440,78,14511,6,0,P|431:130|421:176,1,80.9999975280763,8|2,0:3|0:0,0:0:0:0:
389,334,14841,1,8,0:3:0:0:
512,209,15006,1,2,0:0:0:0:
308,134,15170,2,0,P|315:175|332:269,2,121.499996292114,10|8|10,0:3|0:3|0:3,0:0:0:0:
419,269,15830,5,8,0:3:0:0:
232,205,15995,1,2,0:0:0:0:
408,92,16159,2,0,P|399:143|389:194,1,80.9999975280763,10|0,0:3|0:0,0:0:0:0:
277,17,16489,2,0,P|268:68|258:119,1,80.9999975280763,10|2,0:3|0:0,0:0:0:0:
292,128,16736,1,8,0:3:0:0:
292,128,16819,1,2,0:0:0:0:
180,65,16984,1,10,0:3:0:0:
377,62,17148,6,0,P|386:113|396:164,1,80.9999975280763,8|2,0:3|0:0,0:0:0:0:
479,38,17478,1,10,0:3:0:0:
291,20,17643,2,0,P|282:71|272:122,1,80.9999975280763,2|8,0:0|0:3,0:0:0:0:
256,262,17973,1,2,0:0:0:0:
256,262,18055,1,8,0:3:0:0:
256,262,18137,1,2,0:0:0:0:
372,145,18302,1,10,0:3:0:0:
176,163,18467,5,14,0:3:0:0:
363,260,18632,1,8,0:3:0:0:
265,76,18797,1,10,0:3:0:0:
168,281,18962,1,8,0:3:0:0:
270,103,19126,1,10,0:3:0:0:
297,317,19291,1,8,0:3:0:0:
142,122,19456,1,10,0:3:0:0:
377,206,19621,1,8,0:3:0:0:
130,315,19786,5,10,0:3:0:0:
250,100,19951,1,8,0:3:0:0:
125,290,20115,1,10,0:3:0:0:
353,166,20280,1,8,0:3:0:0:
96,97,20445,1,10,0:3:0:0:
278,307,20610,1,8,0:3:0:0:
227,58,20775,1,10,0:3:0:0:
67,258,20940,1,8,0:3:0:0:
303,161,21104,5,10,0:3:0:0:
303,161,21187,1,0,3:2:0:0:
303,161,21269,2,0,L|257:152,1,40.4999987640381,10|0,0:3|3:2,0:0:0:0:
197,241,21434,1,10,0:3:0:0:
197,241,21517,1,0,3:2:0:0:
197,241,21599,2,0,L|243:232,1,40.4999987640381,10|0,0:3|3:2,0:0:0:0:
123,155,21764,2,0,L|113:212,1,40.4999987640381,10|8,0:3|0:3,0:0:0:0:
29,240,21929,1,10,0:3:0:0:
29,240,22011,1,8,0:3:0:0:
29,240,22093,2,0,L|39:183,1,40.4999987640381,10|8,0:3|0:3,0:0:0:0:
128,296,22258,2,0,L|88:303,1,40.4999987640381,10|8,0:3|0:3,0:0:0:0:
21,352,22423,5,6,3:2:0:0:
314,253,22753,1,2,3:2:0:0:
79,85,23082,1,2,3:2:0:0:
139,196,23247,1,2,3:2:0:0:
139,196,23330,1,2,3:2:0:0:
139,196,23412,2,0,P|191:205|240:214,1,80.9999975280763,10|10,0:0|0:3,0:0:0:0:
362,46,23742,6,0,P|349:118|331:209,1,135,14|0,0:3|0:0,0:0:0:0:
344,191,24071,1,10,0:0:0:0:
201,103,24236,1,2,0:0:0:0:
201,103,24319,1,2,0:0:0:0:
201,103,24401,2,0,L|139:114,1,45,10|0,0:3|0:0,0:0:0:0:
129,190,24566,2,0,L|169:238,1,45,2|0,0:0|0:0,0:0:0:0:
240,213,24731,2,0,L|261:153,1,45,10|0,0:0|0:0,0:0:0:0:
339,115,24896,6,0,P|348:172|359:236,1,90,2|10,0:0|0:3,0:0:0:0:
497,82,25225,2,0,P|444:70|380:54,1,90,2|8,0:0|0:0,0:0:0:0:
226,21,25555,1,2,0:0:0:0:
226,21,25637,1,2,0:0:0:0:
226,21,25720,2,0,L|237:80,1,45,10|0,0:3|0:0,0:0:0:0:
182,128,25885,2,0,L|190:83,1,45,2|0,0:0|0:0,0:0:0:0:
290,178,26049,2,0,L|228:189,1,45,10|0,0:0|0:0,0:0:0:0:
327,100,26214,2,0,L|389:111,1,45,2|0,0:0|0:0,0:0:0:0:
499,195,26379,6,0,P|456:220|407:207,1,90,10|0,0:3|0:0,0:0:0:0:
392,192,26626,1,0,0:0:0:0:
392,192,26709,1,10,0:0:0:0:
289,298,26874,1,2,0:0:0:0:
289,298,26956,1,2,0:0:0:0:
289,298,27038,2,0,L|337:290,1,45,10|0,0:3|0:0,0:0:0:0:
393,343,27203,2,0,L|348:335,1,45,2|0,0:0|0:0,0:0:0:0:
449,246,27368,2,0,L|458:292,1,45,10|0,0:0|0:0,0:0:0:0:
361,168,27533,6,0,P|353:218|342:280,1,90,2|8,0:0|0:3,0:0:0:0:
445,64,27863,2,0,P|453:114|464:176,1,90,2|8,0:0|0:0,0:0:0:0:
508,328,28192,1,2,0:0:0:0:
508,328,28275,1,2,0:0:0:0:
508,328,28357,1,10,0:3:0:0:
337,263,28522,2,0,L|372:255,2,30,2|2|2,0:0|0:0|0:0,0:0:0:0:
328,273,28687,1,10,0:0:0:0:
469,165,28852,2,0,L|430:158,2,30,2|2|2,3:0|3:0|3:0,3:3:0:0:
478,173,29016,1,10,0:3:0:0:
112,44,29346,6,0,P|71:108|113:187,1,135,14|0,0:0|0:0,0:0:0:0:
101,166,29676,1,10,0:3:0:0:
132,161,29758,1,2,0:0:0:0:
163,156,29840,1,2,0:0:0:0:
194,151,29923,1,2,0:0:0:0:
225,147,30005,1,10,0:0:0:0:
308,273,30170,6,0,P|249:262|194:251,1,90,2|10,0:0|0:3,0:0:0:0:
363,129,30500,2,0,P|375:185|386:242,1,90,2|8,0:0|0:0,0:0:0:0:
494,63,30830,2,0,P|482:119|471:176,1,90,2|10,0:0|0:3,0:0:0:0:
331,39,31159,1,2,0:0:0:0:
331,39,31242,1,2,0:0:0:0:
331,39,31324,2,0,L|378:30,1,45,10|0,0:0|0:0,0:0:0:0:
362,111,31489,1,2,0:0:0:0:
183,39,31654,6,0,P|137:31|89:23,1,90,10|2,0:3|0:0,0:0:0:0:
13,10,31901,1,2,0:0:0:0:
13,10,31984,1,10,0:0:0:0:
118,216,32148,2,0,P|131:162|143:108,1,90,2|10,0:0|0:3,0:0:0:0:
221,106,32396,1,2,0:0:0:0:
221,106,32478,2,0,L|229:169,1,45,2|2,0:0|0:0,0:0:0:0:
305,129,32643,2,0,L|313:66,1,45,10|0,0:0|0:0,0:0:0:0:
382,37,32808,5,14,0:3:0:0:
152,122,33137,1,2,0:0:0:0:
443,316,33467,2,0,P|475:239|419:159,1,180,14|2,0:3|0:0,0:0:0:0:
317,234,33879,1,0,0:0:0:0:
317,234,33962,2,0,L|384:225,1,45,10|2,0:0|0:0,0:0:0:0:
263,162,34126,2,0,L|196:153,1,45,2|2,0:0|0:0,0:0:0:0:
141,209,34291,6,0,P|155:280|171:354,1,135,14|0,0:3|0:0,0:0:0:0:
161,347,34621,1,10,0:0:0:0:
311,243,34786,1,2,0:0:0:0:
311,243,34868,1,2,0:0:0:0:
311,243,34951,2,0,L|363:252,1,45,10|0,0:3|0:0,0:0:0:0:
397,334,35115,2,0,L|352:326,1,45,2|0,0:0|0:0,0:0:0:0:
428,233,35280,2,0,L|480:242,1,45,10|0,0:0|0:0,0:0:0:0:
507,324,35445,6,0,P|462:315|390:301,1,90,2|10,0:0|0:3,0:0:0:0:
342,140,35775,2,0,P|386:148|430:157,1,90,2|8,0:0|0:0,0:0:0:0:
214,248,36104,1,2,0:0:0:0:
214,248,36187,1,2,0:0:0:0:
214,248,36269,2,0,L|202:191,1,45,10|0,0:3|0:0,0:0:0:0:
108,172,36434,2,0,L|120:229,1,45,2|0,0:0|0:0,0:0:0:0:
214,117,36599,2,0,L|152:106,1,45,10|0,0:0|0:0,0:0:0:0:
100,62,36764,2,0,L|144:69,1,45,2|0,0:0|0:0,0:0:0:0:
313,87,36929,6,0,P|335:151|303:199,1,90,10|0,0:3|0:0,0:0:0:0:
298,198,37176,1,0,0:0:0:0:
298,198,37258,1,10,0:0:0:0:
135,201,37423,1,2,0:0:0:0:
135,201,37506,1,2,0:0:0:0:
135,201,37588,2,0,B|158:196|158:196|189:205,1,45,10|0,0:3|0:0,0:0:0:0:
217,276,37753,2,0,B|209:298|209:298|186:320,1,45,2|0,0:0|0:0,0:0:0:0:
114,309,37918,2,0,B|98:291|98:291|90:260,1,45,10|0,0:0|0:0,0:0:0:0:
135,201,38082,1,2,0:0:0:0:
382,288,38247,6,0,L|328:277,1,45,12|0,0:3|0:0,0:0:0:0:
238,164,38412,2,0,P|252:252|267:347,1,180,2|2,0:0|0:0,0:0:0:0:
295,361,38824,1,2,0:0:0:0:
295,361,38907,1,14,0:3:0:0:
341,213,39071,2,0,L|334:168,2,30,2|2|2,0:0|0:0|0:0,0:0:0:0:
350,221,39236,1,2,0:0:0:0:
164,176,39402,2,0,L|171:223,2,30,2|0|2,3:0|3:0|3:0,0:0:0:0:
143,161,39566,1,10,0:3:0:0:
138,153,39648,1,0,3:0:0:0:
133,145,39731,2,0,L|144:214,1,45,0|0,3:0|3:0,0:0:0:0:
28,272,39896,6,0,B|83:265|83:265|124:285|124:285|180:279,1,135,14|0,0:0|0:0,0:0:0:0:
167,271,40225,1,10,0:3:0:0:
197,264,40307,1,2,0:0:0:0:
228,268,40389,1,2,0:0:0:0:
255,283,40472,1,2,0:0:0:0:
276,307,40554,1,10,0:0:0:0:
401,183,40720,6,0,P|354:191|295:199,1,90,2|10,0:0|0:3,0:0:0:0:
465,328,41049,2,0,P|472:279|483:213,1,90,2|8,0:0|0:0,0:0:0:0:
342,354,41379,2,0,P|277:362|234:315,1,135,2|0,0:0|0:0,0:0:0:0:
234,296,41709,2,0,L|245:239,1,45,2|2,0:0|0:0,0:0:0:0:
199,188,41874,2,0,L|210:245,1,45,10|0,0:0|0:0,0:0:0:0:
263,137,42038,1,2,0:0:0:0:
96,69,42203,6,0,L|87:113,1,45,14|0,0:3|0:0,0:0:0:0:
71,200,42368,1,10,0:3:0:0:
71,200,42451,1,10,0:3:0:0:
71,200,42533,1,10,0:3:0:0:
201,25,42698,2,0,L|209:69,1,45,10|2,0:3|0:0,0:0:0:0:
243,159,42863,1,10,0:3:0:0:
243,159,42945,1,10,0:3:0:0:
243,159,43027,1,10,0:3:0:0:
96,69,43192,1,10,0:0:0:0:
339,24,43357,6,0,P|378:99|341:166,1,135,14|0,0:3|0:0,0:0:0:0:
350,153,43687,2,0,P|299:145|238:135,1,90,2|10,0:0|0:0,0:0:0:0:
128,263,44016,2,0,P|179:255|240:245,1,90,2|10,0:0|0:3,0:0:0:0:
63,164,44346,1,2,3:0:0:0:
63,164,44429,1,0,3:0:0:0:
63,164,44511,2,0,L|53:224,1,45,10|0,3:2|0:0,0:0:0:0:
37,287,44676,1,10,0:3:0:0:
169,140,44841,6,0,P|220:132|281:122,1,90,14|2,0:3|0:0,0:0:0:0:
187,48,45170,1,10,0:0:0:0:
279,216,45500,2,0,P|330:224|391:234,1,90,2|0,0:0|0:0,0:0:0:0:
460,180,45830,1,10,0:0:0:0:
403,321,45995,6,0,P|357:351|283:327,1,135,2|2,0:0|0:0,0:0:0:0:
279,314,46324,2,0,P|227:306|177:297,1,90,2|8,0:0|0:0,0:0:0:0:
33,229,46654,2,0,P|85:221|219:201,1,180,2|2,0:0|0:0,0:0:0:0:
313,180,47148,1,10,0:0:0:0:
221,221,47313,1,2,3:2:0:0:
390,263,47478,6,0,P|400:209|409:163,1,90,14|2,0:3|0:0,0:0:0:0:
426,85,47808,1,10,0:0:0:0:
190,31,48137,2,0,P|200:85|209:131,1,90,2|0,0:0|0:0,0:0:0:0:
296,158,48467,1,10,0:0:0:0:
114,133,48632,6,0,P|77:186|110:272,1,135,2|0,0:0|0:0,0:0:0:0:
105,268,48962,2,0,P|149:261|201:252,1,90,2|10,0:0|0:0,0:0:0:0:
331,358,49291,2,0,P|287:351|189:336,1,135,2|0,0:0|0:0,0:0:0:0:
187,342,49621,1,2,0:0:0:0:
317,269,49786,2,0,P|327:223|337:178,1,90,10|2,0:0|0:0,0:0:0:0:
372,12,50115,5,14,0:3:0:0:
231,189,50280,1,8,0:3:0:0:
350,33,50445,1,10,0:3:0:0:
415,256,50610,1,8,0:3:0:0:
230,98,50775,1,10,0:3:0:0:
489,166,50940,1,8,0:3:0:0:
232,290,51104,1,10,0:3:0:0:
453,174,51269,1,8,0:3:0:0:
160,171,51434,5,14,0:3:0:0:
363,337,51599,1,8,0:3:0:0:
318,85,51764,1,10,0:3:0:0:
171,307,51929,1,8,0:3:0:0:
419,198,52093,1,10,0:3:0:0:
196,321,52258,1,8,0:3:0:0:
227,65,52423,1,10,0:3:0:0:
350,275,52588,1,8,0:3:0:0:
101,158,52753,5,14,0:3:0:0:
101,158,52835,1,0,3:0:0:0:
101,158,52918,2,0,L|159:148,1,45,0|0,3:0|3:0,0:0:0:0:
215,239,53082,1,10,0:3:0:0:
215,239,53164,1,0,3:0:0:0:
215,239,53247,2,0,L|157:229,1,45,0|0,3:0|3:0,0:0:0:0:
275,132,53412,5,10,0:3:0:0:
275,132,53494,1,0,3:0:0:0:
275,132,53577,2,0,L|284:180,1,45,0|0,3:0|3:0,0:0:0:0:
351,259,53742,1,10,0:3:0:0:
351,259,53824,1,0,3:0:0:0:
351,259,53907,2,0,L|360:211,1,45,0|0,3:0|3:0,0:0:0:0:
311,53,54071,6,0,B|249:45|249:45|201:76|201:76|126:67,1,180,14|8,0:3|0:0,0:0:0:0:
30,195,54566,2,0,P|64:218|127:204,1,90,10|0,0:0|3:0,0:0:0:0:
179,171,54813,1,0,0:0:0:0:
179,171,54896,2,0,L|238:164,1,45,0|0,3:0|0:0,0:0:0:0:
297,206,55060,5,4,0:1:0:0:
55,57,55390,1,8,0:3:0:0:
38,83,55472,1,8,0:3:0:0:
34,114,55554,1,8,0:3:0:0:
42,144,55637,1,8,0:3:0:0:
62,168,55720,6,0,P|72:218|85:280,1,90,14|0,0:3|0:0,0:0:0:0:
146,334,55967,2,0,P|156:284|169:222,1,90,2|0,3:0|0:0,0:0:0:0:
307,201,56214,2,0,P|272:174|226:178,1,90,10|0,0:0|0:0,0:0:0:0:
271,335,56462,2,0,P|311:318|331:276,1,90,2|0,3:2|0:0,0:0:0:0:
396,152,56709,6,0,P|409:218|418:270,1,90,6|0,0:3|0:0,0:0:0:0:
455,64,56956,2,0,P|446:108|437:152,1,90,10|0,0:0|0:0,0:0:0:0:
372,22,57203,1,10,0:3:0:0:
223,160,57368,1,14,0:0:0:0:
223,160,57451,1,0,0:0:0:0:
223,160,57533,2,0,L|276:150,3,45,2|0|2|0,0:0|0:0|0:0|0:0,0:0:0:0:
339,191,57863,2,0,L|286:181,1,45,2|0,3:0|3:0,0:0:0:0:
412,174,58027,2,0,L|359:164,1,45,2|0,3:0|3:0,0:0:0:0:
428,71,58192,6,0,P|438:121|452:182,1,90,14|0,0:3|0:0,0:0:0:0:
325,10,58440,2,0,P|334:53|343:98,1,90,2|0,3:2|0:0,0:0:0:0:
199,174,58687,2,0,P|248:183|296:150,1,90,10|0,0:3|0:0,0:0:0:0:
388,275,58934,2,0,P|330:262|281:254,1,90,2|0,3:2|0:0,0:0:0:0:
427,122,59181,6,0,P|438:168|455:236,1,90,14|0,0:3|0:0,0:0:0:0:
512,296,59429,2,0,P|501:250|484:182,1,90,2|0,3:2|0:0,0:0:0:0:
336,139,59676,2,0,P|347:185|364:253,1,90,10|0,0:3|0:0,0:0:0:0:
421,313,59924,2,0,P|410:267|393:199,1,90,2|0,3:0|0:0,0:0:0:0:
336,139,60170,1,14,0:0:0:0:
123,284,60665,2,0,L|170:274,1,45,10|0,0:0|0:0,0:0:0:0:
228,324,60829,2,0,L|181:314,1,45,10|0,0:0|0:0,0:0:0:0:
281,180,60994,6,0,P|292:226|309:294,1,90,14|0,0:3|0:0,0:0:0:0:
436,136,61242,2,0,P|391:145|344:114,1,90,2|0,3:0|0:0,0:0:0:0:
216,76,61489,2,0,P|270:65|323:53,1,90,10|0,0:0|0:0,0:0:0:0:
129,16,61736,2,0,P|183:27|236:39,1,90,10|0,3:2|0:0,0:0:0:0:
76,157,61984,6,0,P|65:111|48:43,1,90,6|0,0:3|0:0,0:0:0:0:
183,205,62231,2,0,P|172:159|155:91,1,90,10|0,0:0|0:0,0:0:0:0:
76,157,62478,1,10,0:3:0:0:
277,239,62643,1,14,0:0:0:0:
277,239,62725,1,0,0:0:0:0:
277,239,62808,2,0,L|263:176,3,45,2|0|2|0,0:0|0:0|0:0|0:0,0:0:0:0:
173,161,63137,2,0,L|187:224,1,45,2|0,3:0|3:0,0:0:0:0:
148,149,63302,2,0,L|162:212,1,45,2|0,3:0|3:0,0:0:0:0:
42,261,63467,6,0,P|85:280|131:260,1,90,14|0,0:3|0:0,0:0:0:0:
232,371,63715,2,0,P|178:360|125:348,1,90,2|0,3:0|0:0,0:0:0:0:
284,224,63962,2,0,P|295:275|310:342,1,90,10|0,0:3|0:0,0:0:0:0:
211,149,64209,2,0,P|200:200|185:267,1,90,2|0,3:0|0:0,0:0:0:0:
378,116,64456,6,0,P|325:135|276:109,1,90,14|0,0:3|0:0,0:0:0:0:
181,57,64703,2,0,P|235:46|288:34,1,90,2|0,3:0|0:0,0:0:0:0:
120,180,64951,2,0,P|108:130|95:79,1,90,10|0,0:3|0:0,0:0:0:0:
28,11,65198,2,0,P|16:61|3:112,1,90,2|0,3:0|0:0,0:0:0:0:
10,140,65445,5,8,0:0:0:0:
98,92,65610,1,0,3:0:0:0:
167,173,65775,1,2,0:0:0:0:
167,173,65857,1,2,0:0:0:0:
167,173,65940,2,0,L|215:182,1,45,10|0,0:0|0:0,0:0:0:0:
281,140,66104,2,0,L|233:149,1,45,10|0,0:0|0:0,0:0:0:0:
138,247,66269,6,0,P|185:254|261:266,1,90,14|0,0:3|0:0,0:0:0:0:
318,332,66516,2,0,P|271:339|195:351,1,90,2|0,0:0|0:0,0:0:0:0:
352,181,66764,2,0,P|366:234|379:285,1,90,2|8,0:0|0:3,0:0:0:0:
439,363,67011,2,0,P|450:319|461:275,1,90,2|0,0:0|0:0,0:0:0:0:
400,116,67258,6,0,P|356:96|302:115,1,90,10|0,0:3|0:0,0:0:0:0:
199,41,67506,2,0,P|243:34|287:27,1,90,2|0,0:0|0:0,0:0:0:0:
174,143,67753,2,0,P|109:142|73:88,1,135,2|2,0:0|0:0,0:0:0:0:
73,88,68082,1,2,0:0:0:0:
279,182,68412,1,2,0:0:0:0:
279,182,68495,2,0,P|289:234|301:291,1,90,2|2,0:0|0:0,0:0:0:0:
241,336,68742,6,0,P|190:345|139:303,1,90,2|8,0:0|0:3,0:0:0:0:
38,264,68989,2,0,P|82:256|126:248,1,90,2|0,0:0|0:0,0:0:0:0:
211,103,69236,2,0,P|201:155|189:212,1,90,10|0,0:3|0:0,0:0:0:0:
152,29,69484,2,0,P|162:81|174:138,1,90,2|0,0:0|0:0,0:0:0:0:
419,109,69731,6,0,P|386:77|323:85,1,90,2|8,0:0|0:3,0:0:0:0:
274,191,69978,2,0,P|319:182|364:173,1,90,2|0,0:0|0:0,0:0:0:0:
450,284,70225,2,0,P|405:275|360:266,1,90,10|0,0:3|0:0,0:0:0:0:
491,131,70473,2,0,P|501:183|513:240,1,90,2|0,0:0|0:0,0:0:0:0:
508,219,70720,1,2,0:0:0:0:
402,106,70885,1,8,0:3:0:0:
286,207,71049,1,2,0:0:0:0:
286,207,71132,1,2,0:0:0:0:
286,207,71214,2,0,L|341:197,1,45,8|10,0:0|0:0,0:0:0:0:
237,134,71379,2,0,L|182:124,1,45,10|8,0:0|0:0,0:0:0:0:
120,181,71544,6,0,P|132:239|144:296,1,90,12|0,0:3|0:0,0:0:0:0:
75,363,71791,2,0,P|87:305|99:248,1,90,2|0,0:0|0:0,0:0:0:0:
256,352,72038,2,0,P|213:367|164:341,1,90,2|8,0:0|0:3,0:0:0:0:
299,274,72286,2,0,P|342:282|387:291,1,90,2|0,0:0|0:0,0:0:0:0:
455,182,72533,6,0,P|411:190|366:199,1,90,10|0,0:3|0:0,0:0:0:0:
494,341,72780,2,0,P|503:296|512:252,1,90,2|0,0:0|0:0,0:0:0:0:
312,131,73027,2,0,P|272:191|302:263,1,135,2|2,0:0|0:0,0:0:0:0:
287,247,73357,1,2,0:0:0:0:
384,82,73522,2,0,P|352:53|284:59,1,90,8|0,0:3|3:0,0:0:0:0:
235,92,73769,1,0,3:0:0:0:
235,92,73852,2,0,L|176:83,1,45,8|8,0:3|0:3,0:0:0:0:
93,26,74016,6,0,P|108:99|125:181,1,135.000005149842,14|0,0:3|0:0,0:0:0:0:
51,254,74264,2,0,P|64:187|78:121,1,135.000005149842,14|0,0:3|0:0,0:0:0:0:
300,259,74511,2,0,P|243:232|176:262,1,135.000005149842,14|0,0:3|0:0,0:0:0:0:
94,368,74758,2,0,P|185:348|241:336,1,135.000005149842,14|0,0:3|0:0,0:0:0:0:
51,254,75006,5,14,0:3:0:0:
167,161,75253,1,2,0:0:0:0:
237,259,75500,1,2,0:0:0:0:
324,210,75747,1,2,0:0:0:0:
422,338,75995,5,2,0:0:0:0:
436,315,76077,1,2,0:0:0:0:
442,289,76159,1,2,0:0:0:0:
440,262,76242,1,0,0:0:0:0:
429,237,76324,1,2,0:0:0:0:
411,218,76407,1,0,0:0:0:0:
387,205,76489,6,0,P|341:197|270:182,1,90,14|0,0:3|0:0,0:0:0:0:
208,248,76736,1,2,0:0:0:0:
208,248,76819,2,0,P|252:240|296:231,1,90,10|2,0:3|0:0,0:0:0:0:
114,136,77148,1,10,0:3:0:0:
114,136,77231,2,0,L|103:201,1,45,2|0,0:0|0:0,0:0:0:0:
45,274,77396,2,0,P|33:215|24:166,1,90,2|0,0:0|0:0,0:0:0:0:
10,107,77643,1,2,0:0:0:0:
136,271,77808,5,10,0:3:0:0:
176,289,77890,1,0,0:0:0:0:
220,283,77972,1,2,0:0:0:0:
254,254,78055,1,0,0:0:0:0:
267,211,78138,1,10,0:3:0:0:
280,168,78220,1,0,0:0:0:0:
314,140,78303,1,2,0:0:0:0:
357,134,78385,1,0,0:0:0:0:
398,152,78467,2,0,L|409:207,1,45,10|0,0:3|0:0,0:0:0:0:
499,116,78632,2,0,L|445:98,1,45,2|0,0:0|0:0,0:0:0:0:
479,222,78797,2,0,L|521:184,1,45,10|0,0:3|0:0,0:0:0:0:
364,63,78962,6,0,P|316:59|272:109,1,90,2|8,0:0|0:3,0:0:0:0:
182,227,79292,2,0,P|244:214|306:203,1,90,2|8,0:0|0:3,0:0:0:0:
109,76,79621,2,0,P|99:132|86:190,1,90,2|8,0:0|0:3,0:0:0:0:
221,13,79951,2,0,P|231:69|244:127,1,90,2|10,0:0|0:3,0:0:0:0:
312,142,80198,1,2,0:0:0:0:
312,142,80280,6,0,P|363:149|405:125,1,90,2|8,0:0|0:3,0:0:0:0:
510,248,80610,2,0,P|448:235|386:224,1,90,2|8,0:0|0:3,0:0:0:0:
308,348,80940,2,0,P|370:335|432:324,1,90,2|8,0:0|0:3,0:0:0:0:
220,247,81269,1,2,0:0:0:0:
220,247,81352,1,0,0:0:0:0:
220,247,81434,2,0,L|209:311,1,45,10|0,0:3|0:0,0:0:0:0:
141,355,81599,2,0,L|130:291,1,45,2|0,0:0|0:0,0:0:0:0:
113,160,81764,6,0,P|148:130|208:137,1,90,10|0,0:3|0:0,0:0:0:0:
266,175,82011,1,2,0:0:0:0:
266,175,82093,2,0,P|331:187|378:195,1,90,10|2,0:3|0:0,0:0:0:0:
464,51,82423,1,10,0:3:0:0:
464,51,82505,2,0,P|399:63|352:71,1,90,2|2,0:0|0:3,0:0:0:0:
299,34,82753,1,10,0:3:0:0:
258,16,82835,1,2,0:0:0:0:
214,22,82917,1,2,0:0:0:0:
179,49,83000,1,2,0:0:0:0:
163,91,83082,1,8,0:3:0:0:
264,243,83247,5,2,0:0:0:0:
264,243,83330,1,0,0:0:0:0:
264,243,83412,2,0,L|275:181,1,45,10|0,0:3|0:0,0:0:0:0:
342,140,83577,2,0,L|353:202,1,45,2|0,0:0|0:0,0:0:0:0:
324,311,83742,1,10,0:3:0:0:
284,331,83824,1,0,0:0:0:0:
239,330,83906,1,2,0:0:0:0:
201,308,83989,1,0,0:0:0:0:
177,270,84072,1,10,0:3:0:0:
153,232,84154,1,0,0:0:0:0:
114,210,84237,1,2,0:0:0:0:
70,209,84319,1,0,0:0:0:0:
30,229,84402,5,14,0:3:0:0:
322,142,84731,2,0,L|331:190,3,45,8|0|8|0,0:0|0:0|0:0|0:0,0:0:0:0:
343,201,85060,5,14,0:3:0:0:
163,49,85390,2,0,L|154:97,3,45,8|0|8|0,0:0|0:0|0:0|0:0,0:0:0:0:
143,105,85720,5,6,3:0:0:0:
430,198,86049,1,2,3:0:0:0:
164,350,86379,1,2,3:0:0:0:
253,223,86544,1,8,0:3:0:0:
253,223,86626,1,8,0:3:0:0:
253,223,86709,2,0,P|265:277|278:333,1,90,14|0,0:3|0:0,0:0:0:0:
74,198,87038,6,0,P|135:188|174:182,1,90,8|8,0:3|0:0,0:0:0:0:
216,117,87286,1,2,0:0:0:0:
216,117,87369,2,0,P|277:107|316:101,1,90,10|10,0:3|0:0,0:0:0:0:
382,241,87698,1,8,0:3:0:0:
382,241,87780,1,2,0:0:0:0:
382,241,87863,2,0,L|324:232,1,45,8|2,0:0|0:0,0:0:0:0:
431,146,88027,2,0,L|452:200,1,45,8|0,0:3|0:0,0:0:0:0:
487,267,88192,1,10,0:0:0:0:
322,119,88357,5,10,0:3:0:0:
282,98,88439,1,0,3:0:0:0:
238,102,88521,1,10,3:2:0:0:
205,132,88604,1,0,3:0:0:0:
195,175,88686,1,10,0:3:0:0:
210,216,88769,1,0,3:0:0:0:
247,241,88851,1,10,3:2:0:0:
291,241,88933,1,0,3:0:0:0:
327,215,89016,2,0,L|390:202,1,45,10|0,0:3|3:0,0:0:0:0:
435,250,89181,2,0,L|372:236,1,45,10|0,3:2|3:0,0:0:0:0:
483,147,89346,2,0,L|495:209,1,45,10|0,0:3|0:0,0:0:0:0:
397,96,89511,6,0,P|351:104|284:116,1,90,10|8,0:0|0:3,0:0:0:0:
186,14,89841,2,0,P|232:22|299:34,1,90,10|8,0:0|0:3,0:0:0:0:
116,144,90170,1,10,3:2:0:0:
116,144,90253,1,0,3:0:0:0:
116,144,90335,2,0,L|102:90,1,45,8|0,0:3|3:0,0:0:0:0:
190,111,90500,1,10,0:0:0:0:
5,215,90665,5,10,0:3:0:0:
5,215,90747,1,2,0:0:0:0:
5,215,90830,2,0,P|12:174|23:109,1,90,10|8,0:0|0:3,0:0:0:0:
166,260,91159,2,0,P|124:269|60:283,1,90,10|8,0:0|0:3,0:0:0:0:
249,189,91489,1,10,3:2:0:0:
249,189,91571,1,0,3:0:0:0:
249,189,91654,2,0,L|301:200,1,45,8|0,0:3|3:0,0:0:0:0:
377,220,91819,1,10,3:2:0:0:
263,89,91983,2,0,P|221:98|157:112,1,90,8|8,0:3|0:0,0:0:0:0:
131,289,92313,5,14,0:3:0:0:
157,325,92395,1,0,3:2:0:0:
198,342,92477,1,2,3:2:0:0:
241,330,92560,1,0,3:2:0:0:
269,296,92642,1,10,0:3:0:0:
274,253,92725,1,0,3:2:0:0:
253,214,92807,1,2,3:2:0:0:
214,194,92889,1,0,3:2:0:0:
170,201,92972,6,0,L|105:190,1,45,8|0,0:3|3:0,0:0:0:0:
60,219,93138,2,0,L|125:230,1,45,0|0,3:0|3:0,0:0:0:0:
260,180,93302,1,2,3:0:0:0:
282,141,93384,1,0,3:0:0:0:
281,97,93466,1,0,3:0:0:0:
255,60,93549,1,0,3:0:0:0:
215,43,93632,6,0,L|159:52,1,45,6|0,3:0|3:0,0:0:0:0:
76,104,93797,1,2,3:0:0:0:
76,104,93879,1,0,3:0:0:0:
76,104,93962,2,0,L|132:113,1,45,2|0,3:0|3:0,0:0:0:0:
210,198,94126,5,2,3:0:0:0:
210,198,94209,1,0,3:0:0:0:
210,198,94291,2,0,L|198:141,1,45,2|0,3:0|3:0,0:0:0:0:
112,221,94456,1,2,3:0:0:0:
112,221,94539,1,0,3:0:0:0:
112,221,94621,2,0,L|100:278,1,45,2|0,3:0|3:0,0:0:0:0:
84,361,94786,1,2,3:0:0:0:
84,361,94868,1,0,3:0:0:0:
84,361,94951,5,6,3:0:0:0:
177,321,95115,2,0,P|224:315|257:310,1,67.5000025749208,2|0,0:0|0:0,0:0:0:0:
326,362,95445,2,0,P|279:356|246:351,1,67.5000025749208,2|0,0:0|0:0,0:0:0:0:
384,242,95775,2,0,P|393:288|401:328,1,67.5000025749208,2|0,0:0|0:0,0:0:0:0:
297,222,96104,1,2,0:0:0:0:
477,182,96269,5,2,0:0:0:0:
477,182,96434,2,0,P|468:228|460:268,1,67.5000025749208,2|2,0:0|0:0,0:0:0:0:
482,288,96681,1,2,0:0:0:0:
482,288,96764,1,2,0:0:0:0:
341,109,97093,1,2,0:0:0:0:
341,109,97176,1,0,0:0:0:0:
341,109,97258,2,0,L|300:102,3,33.7500012874604,2|0|2|2,0:0|0:0|0:0|0:0,0:0:0:0:
226,91,97588,5,2,0:0:0:0:
86,280,105995,5,2,0:0:0:0:
86,280,106077,1,2,0:0:0:0:
86,280,106159,2,0,B|104:284|104:284|130:276,1,33.7500012874604,2|0,0:0|0:0,0:0:0:0:
180,226,106324,1,2,0:0:0:0:
180,226,106407,1,0,0:0:0:0:
180,226,106489,2,0,B|194:221|194:221|212:225,1,33.7500012874604,2|0,0:0|0:0,0:0:0:0:
283,280,106654,5,6,0:3:0:0:
113,156,106984,1,2,0:0:0:0:
388,46,107313,2,0,P|453:121|425:203,1,180,14|2,0:3|0:0,0:0:0:0:
362,243,107725,1,0,0:0:0:0:
362,243,107808,2,0,L|349:317,1,45,10|2,0:0|0:0,0:0:0:0:
325,360,107973,2,0,L|312:286,1,45,2|2,0:0|0:0,0:0:0:0:
245,247,108137,6,0,P|170:233|88:218,1,135,14|0,0:3|0:0,0:0:0:0:
96,226,108467,1,10,0:0:0:0:
290,135,108632,1,2,0:0:0:0:
290,135,108714,1,2,0:0:0:0:
290,135,108797,2,0,L|300:191,1,45,10|0,0:3|0:0,0:0:0:0:
378,92,108962,2,0,L|368:148,1,45,2|0,0:0|0:0,0:0:0:0:
453,58,109127,2,0,L|463:114,1,45,10|0,0:0|0:0,0:0:0:0:
470,226,109291,6,0,P|416:232|378:201,1,90,2|10,0:0|0:3,0:0:0:0:
270,338,109621,2,0,P|332:325|385:314,1,90,2|8,0:0|0:0,0:0:0:0:
176,230,109951,1,2,0:0:0:0:
176,230,110033,1,2,0:0:0:0:
176,230,110115,2,0,L|164:292,1,45,10|0,0:3|0:0,0:0:0:0:
97,174,110280,2,0,L|85:236,1,45,2|0,0:0|0:0,0:0:0:0:
216,165,110445,2,0,L|204:227,1,45,10|0,0:0|0:0,0:0:0:0:
137,109,110610,2,0,L|125:171,1,45,2|0,0:0|0:0,0:0:0:0:
309,81,110775,6,0,P|263:87|220:47,1,90,10|0,0:3|0:0,0:0:0:0:
221,38,111022,1,0,0:0:0:0:
221,38,111104,1,10,0:0:0:0:
417,83,111269,1,2,0:0:0:0:
417,83,111352,1,2,0:0:0:0:
417,83,111434,2,0,B|425:109|425:109|416:139,1,45,10|0,0:3|0:0,0:0:0:0:
306,177,111599,2,0,B|324:157|324:157|354:149,1,45,2|0,0:0|0:0,0:0:0:0:
446,225,111764,2,0,B|419:218|419:218|398:196,1,45,10|0,0:0|0:0,0:0:0:0:
417,83,111929,1,2,0:0:0:0:
276,266,112093,6,0,L|333:254,1,45,12|0,0:3|0:0,0:0:0:0:
319,355,112258,2,0,P|230:365|187:295,1,180,2|2,0:0|0:0,0:0:0:0:
199,260,112670,1,2,0:0:0:0:
199,260,112753,1,14,0:3:0:0:
56,328,112918,2,0,L|51:373,2,30,2|2|2,0:0|0:0|0:0,0:0:0:0:
50,319,113083,1,2,0:0:0:0:
121,160,113247,2,0,L|114:115,2,30,2|2|2,0:0|0:0|0:0,0:0:0:0:
142,175,113413,1,10,0:3:0:0:
147,183,113495,1,0,3:0:0:0:
152,191,113578,2,0,L|141:122,1,45,0|0,3:0|3:0,0:0:0:0:
55,90,113742,6,0,P|140:113|190:66,1,135,14|0,0:3|0:0,0:0:0:0:
179,75,114071,1,10,0:3:0:0:
208,64,114153,1,2,0:0:0:0:
239,68,114235,1,2,0:0:0:0:
264,86,114318,1,2,0:0:0:0:
278,114,114400,1,10,0:0:0:0:
449,33,114566,6,0,P|402:42|343:49,1,90,2|10,0:0|0:3,0:0:0:0:
499,178,114895,2,0,P|506:129|517:63,1,90,2|8,0:0|0:0,0:0:0:0:
294,155,115225,2,0,P|359:147|402:194,1,135,2|0,0:0|0:0,0:0:0:0:
402,212,115555,2,0,L|392:269,1,45,2|2,0:0|0:0,0:0:0:0:
320,297,115720,2,0,L|310:240,1,45,10|0,0:0|0:0,0:0:0:0:
241,327,115884,1,2,0:0:0:0:
84,172,116049,6,0,L|148:184,1,45,14|0,0:3|0:0,0:0:0:0:
219,205,116214,1,10,0:3:0:0:
219,205,116297,1,10,0:3:0:0:
219,205,116379,1,10,0:3:0:0:
88,354,116544,2,0,L|79:301,1,45,2|2,0:0|0:0,0:0:0:0:
72,232,116709,1,10,0:3:0:0:
72,232,116791,1,10,0:3:0:0:
72,232,116873,1,10,0:3:0:0:
0,358,117038,1,10,0:0:0:0:
197,285,117203,6,0,P|276:300|340:313,1,135,14|0,0:3|0:0,0:0:0:0:
346,300,117533,2,0,P|336:247|326:199,1,90,2|10,0:0|0:0,0:0:0:0:
451,114,117863,2,0,P|441:167|431:215,1,90,2|10,0:0|0:3,0:0:0:0:
251,123,118192,1,2,3:0:0:0:
251,123,118275,1,0,3:0:0:0:
251,123,118357,2,0,P|309:125|350:90,1,90,10|0,0:0|3:0,0:0:0:0:
386,30,118687,5,14,0:3:0:0:
131,243,120830,6,0,L|79:235,2,45,2|0|8,3:0|3:0|0:3,0:0:0:0:
316,272,121159,1,2,3:0:0:0:
316,272,121242,1,2,3:0:0:0:
316,272,121324,2,0,P|308:223|297:164,1,90,14|0,0:3|0:0,0:0:0:0:
295,148,121571,1,2,0:0:0:0:
295,148,121654,1,2,3:2:0:0:
469,247,121819,2,0,L|412:237,1,45,2|0,3:2|0:0,0:0:0:0:
463,167,121984,1,2,3:2:0:0:
463,167,122066,1,0,3:2:0:0:
463,167,122148,1,2,3:2:0:0:
507,327,122313,1,2,3:2:0:0:
337,248,122478,6,0,P|273:238|215:313,1,135,14|0,0:3|0:0,0:0:0:0:
220,303,122808,2,0,P|172:293|113:282,1,90,2|2,0:0|0:0,0:0:0:0:
0,207,123137,2,0,P|48:197|107:184,1,90,2|0,0:0|3:0,0:0:0:0:
262,160,123467,1,8,0:3:0:0:
262,160,123549,1,8,3:0:0:0:
262,160,123632,1,8,3:2:0:0:
136,98,123797,1,0,3:2:0:0:
381,51,123962,6,0,P|373:92|360:163,1,90,14|2,0:3|0:0,0:0:0:0:
203,242,124291,2,0,P|211:201|224:130,1,90,10|0,0:3|0:0,0:0:0:0:
413,284,124622,2,0,P|373:267|314:292,1,90,10|0,0:3|0:0,0:0:0:0:
316,302,124869,1,8,0:3:0:0:
316,302,124951,1,2,0:0:0:0:
470,370,125116,1,10,0:3:0:0:
434,200,125281,6,0,P|442:160|454:103,1,90,8|2,0:3|0:0,0:0:0:0:
245,156,125611,1,8,0:3:0:0:
452,233,125776,1,2,0:0:0:0:
322,30,125940,2,0,P|329:71|347:172,2,135,10|8|10,0:3|0:3|0:3,0:0:0:0:
253,252,126600,5,12,0:3:0:0:
429,134,126765,1,2,0:0:0:0:
210,45,126929,2,0,P|201:96|188:165,1,90,10|0,0:3|0:0,0:0:0:0:
351,266,127258,2,0,P|342:215|329:146,1,90,10|2,0:3|0:0,0:0:0:0:
311,160,127506,1,8,0:3:0:0:
311,160,127589,1,2,0:0:0:0:
448,265,127754,1,10,0:3:0:0:
228,249,127918,6,0,P|166:260|126:268,1,90,8|2,0:3|0:0,0:0:0:0:
388,342,128248,1,10,0:3:0:0:
330,109,128413,2,0,P|321:160|309:224,1,90,2|8,0:0|0:3,0:0:0:0:
289,378,128743,1,2,0:0:0:0:
289,378,128825,1,8,0:3:0:0:
289,378,128907,1,2,0:0:0:0:
427,181,129072,1,10,0:3:0:0:
189,128,129237,5,14,0:3:0:0:
389,260,129402,1,8,0:3:0:0:
163,322,129567,1,10,0:3:0:0:
364,240,129732,1,8,0:3:0:0:
66,175,129896,1,10,0:3:0:0:
274,353,130061,1,8,0:3:0:0:
280,85,130226,1,10,0:3:0:0:
101,266,130391,1,8,0:3:0:0:
378,269,130556,5,14,0:3:0:0:
147,135,130721,1,8,0:3:0:0:
404,106,130885,1,10,0:3:0:0:
158,158,131050,1,8,0:3:0:0:
333,351,131215,1,10,0:3:0:0:
279,80,131380,1,8,0:3:0:0:
113,294,131545,1,10,0:3:0:0:
384,217,131710,1,8,0:3:0:0:
114,100,131874,5,14,0:3:0:0:
114,100,131957,1,0,3:0:0:0:
114,100,132039,2,0,L|125:156,1,45,0|0,3:0|3:0,0:0:0:0:
186,234,132203,1,10,0:3:0:0:
186,234,132286,1,0,3:0:0:0:
186,234,132368,2,0,L|194:189,1,45,0|0,3:0|3:0,0:0:0:0:
270,104,132533,2,0,L|281:160,1,45,10|0,0:3|3:0,0:0:0:0:
351,236,132699,1,0,3:0:0:0:
351,236,132781,1,0,3:0:0:0:
351,236,132863,2,0,L|359:191,1,45,10|0,0:3|3:0,0:0:0:0:
389,88,133027,5,14,0:3:0:0:
114,278,133357,2,0,P|167:268|215:258,1,90,2|2,0:0|0:0,0:0:0:0:
311,311,133687,5,14,0:3:0:0:
189,94,134016,1,2,0:0:0:0:
116,192,134181,2,0,P|169:182|217:172,1,90,2|0,0:0|0:0,0:0:0:0:
370,139,134511,5,14,0:3:0:0:
