osu file format v14

[General]
AudioFilename: audio.mp3
AudioLeadIn: 0
PreviewTime: 22258
Countdown: 0
SampleSet: Soft
StackLeniency: 0.4
Mode: 0
LetterboxInBreaks: 0
WidescreenStoryboard: 0

[Editor]
DistanceSpacing: 1
BeatDivisor: 2
GridSize: 32
TimelineZoom: 2.899999

[Metadata]
Title:8bit Voyager
TitleUnicode:8bit Voyager
Artist:Lime
ArtistUnicode:Lime
Creator:Hazu-
Version:Easy
Source:osu!
Tags:instrumental electronic chiptune kankitsu THE BMS OF FIGHTERS eXtreme Violence BOFXV kawaiicore fa featured artist MUSYNX MUSYNC mappers' guild mg
BeatmapID:2549326
BeatmapSetID:1225869

[Difficulty]
HPDrainRate:2
CircleSize:2.8
OverallDifficulty:2
ApproachRate:3
SliderMultiplier:0.999999999999999
SliderTickRate:1

[Events]
//Background and Video events
0,0,"8bit Voyager.jpg",0,0
//Break Periods
2,2843,10269
2,45041,48675
2,97788,105214
//Storyboard Layer 0 (Background)
//Storyboard Layer 1 (Fail)
//Storyboard Layer 2 (Pass)
//Storyboard Layer 3 (Foreground)
//Storyboard Layer 4 (Overlay)
//Storyboard Sound Samples

[TimingPoints]
6,329.67032967033,4,2,1,80,1,0
1242,-100,4,2,1,5,0,0
1324,-100,4,2,1,80,0,0
2643,-100,4,2,1,60,0,0
5363,-100,4,2,1,5,0,0
5445,-100,4,2,1,60,0,0
6681,-100,4,2,1,5,0,0
6764,-100,4,2,1,60,0,0
7341,-100,4,2,1,5,0,0
7423,-100,4,2,1,60,0,0
8000,-100,4,2,1,5,0,0
8082,-100,4,2,1,60,0,0
10637,-100,4,2,1,5,0,0
10720,-100,4,2,1,60,0,0
11709,-100,4,2,1,70,0,0
11956,-100,4,2,1,5,0,0
12038,-100,4,2,1,70,0,0
12368,-100,4,2,1,70,0,0
12615,-100,4,2,1,5,0,0
12698,-100,4,2,1,70,0,0
13192,-100,4,2,1,80,0,0
22423,-100,4,2,1,60,0,0
22506,-100,4,2,1,5,0,0
22753,-100,4,2,1,60,0,0
22835,-100,4,2,1,5,0,0
23082,-100,4,2,1,60,0,0
23165,-100,4,2,1,5,0,0
23247,-100,4,2,1,70,0,0
23412,-100,4,2,1,80,0,0
23742,-100,4,2,1,90,0,1
29016,-100,4,2,1,90,0,1
29346,-100,4,2,1,100,0,1
29676,-100,4,2,1,90,0,1
39896,-100,4,2,1,100,0,1
40225,-100,4,2,1,90,0,1
44841,-100,4,2,1,70,0,0
46242,-100,4,2,1,5,0,0
46324,-100,4,2,1,70,0,0
48879,-100,4,2,1,5,0,0
48962,-100,4,2,1,70,0,0
49538,-100,4,2,1,5,0,0
49621,-100,4,2,1,70,0,0
55720,-100,4,2,1,80,0,0
55967,-100,4,2,1,80,0,0
56214,-100,4,2,1,80,0,0
56462,-100,4,2,1,80,0,0
56709,-100,4,2,1,80,0,0
56956,-100,4,2,1,80,0,0
57203,-100,4,2,1,80,0,0
57368,-100,4,2,1,80,0,0
58192,-100,4,2,1,80,0,0
58439,-100,4,2,1,80,0,0
58686,-100,4,2,1,80,0,0
58934,-100,4,2,1,80,0,0
59181,-100,4,2,1,80,0,0
59428,-100,4,2,1,80,0,0
59675,-100,4,2,1,80,0,0
59923,-100,4,2,1,80,0,0
60170,-100,4,2,1,80,0,0
60582,-100,4,2,1,5,0,0
60665,-100,4,2,1,80,0,0
60995,-100,4,2,1,80,0,0
61242,-100,4,2,1,80,0,0
61489,-100,4,2,1,80,0,0
61736,-100,4,2,1,80,0,0
61984,-100,4,2,1,80,0,0
62231,-100,4,2,1,80,0,0
62478,-100,4,2,1,80,0,0
62643,-100,4,2,1,80,0,0
63467,-100,4,2,1,80,0,0
63714,-100,4,2,1,80,0,0
63961,-100,4,2,1,80,0,0
64209,-100,4,2,1,80,0,0
64456,-100,4,2,1,80,0,0
64703,-100,4,2,1,80,0,0
64950,-100,4,2,1,80,0,0
65198,-100,4,2,1,80,0,0
65445,-100,4,2,1,80,0,0
66269,-100,4,2,1,80,0,0
74016,-100,4,2,1,80,0,0
75995,-100,4,2,1,80,0,0
76489,-100,4,2,1,80,0,0
84401,-100,4,2,1,80,0,0
86709,-100,4,2,1,80,0,0
86956,-100,4,2,1,5,0,0
87038,-100,4,2,1,90,0,0
94951,-100,4,2,1,70,0,0
105995,-100,4,2,1,70,0,0
106654,-100,4,2,1,80,0,0
108137,-100,4,2,1,90,0,1
113742,-100,4,2,1,100,0,1
114071,-100,4,2,1,90,0,1
118687,-100,4,2,1,70,0,0
121324,-100,4,2,1,80,0,1
123962,-100,4,2,1,80,0,0

[Colours]
Combo1 : 239,136,67
Combo2 : 219,168,98
Combo3 : 255,197,138
Combo4 : 248,231,109

[HitObjects]
103,232,1324,6,0,P|90:182|105:132,1,99.9999999999999,8|8,0:0|0:0,0:0:0:0:
189,86,1984,2,0,P|240:97|293:106,1,99.9999999999999,8|10,0:0|0:0,0:0:0:0:
382,74,2643,5,4,0:0:0:0:
320,348,11709,6,0,P|366:363|415:352,1,99.9999999999999,14|2,0:0|0:0,0:0:0:0:
493,289,12368,2,0,P|485:245|468:159,1,99.9999999999999,14|10,0:0|0:0,0:0:0:0:
382,74,13192,6,0,P|374:118|362:177,1,99.9999999999999,14|10,0:3|0:3,0:0:0:0:
276,223,13852,2,0,P|260:143|243:57,1,150,10|10,0:3|0:3,0:0:0:0:
155,35,14676,1,2,0:0:0:0:
70,88,15006,2,0,P|84:161|110:315,1,200,2|10,0:0|0:3,0:0:0:0:
228,370,16159,5,10,0:3:0:0:
250,273,16489,2,0,P|315:239|387:257,1,150,10|10,0:3|0:3,0:0:0:0:
428,348,17313,1,2,0:0:0:0:
500,278,17643,2,0,P|523:197|469:116,1,150,2|2,0:0|0:0,0:0:0:0:
410,90,18467,6,0,P|356:99|304:107,1,99.9999999999999,14|10,0:3|0:3,0:0:0:0:
249,184,19126,2,0,P|195:193|143:201,2,99.9999999999999,10|10|10,0:3|0:3|0:3,0:0:0:0:
337,230,20115,1,10,0:3:0:0:
265,300,20445,2,0,P|211:309|159:317,1,99.9999999999999,10|10,0:3|0:3,0:0:0:0:
77,269,21104,6,0,P|53:210|70:155,1,99.9999999999999,10|10,0:3|0:3,0:0:0:0:
125,100,21764,2,0,P|174:92|223:84,1,99.9999999999999,10|10,0:3|0:3,0:0:0:0:
305,141,22423,2,0,P|297:185|285:244,2,99.9999999999999,6|2|2,3:2|3:2|3:2,0:0:0:0:
393,93,23412,1,10,0:0:0:0:
460,166,23742,6,0,P|452:210|440:269,1,99.9999999999999,14|10,0:3|0:0,0:0:0:0:
366,331,24401,2,0,P|287:346|219:289,1,150,10|2,0:3|0:0,0:0:0:0:
223,210,25225,2,0,P|159:172|88:189,1,150,2|10,0:0|0:3,0:0:0:0:
25,266,26049,1,10,0:0:0:0:
66,357,26379,6,0,P|115:366|170:377,1,99.9999999999999,10|10,0:3|0:0,0:0:0:0:
242,313,27038,2,0,P|291:322|415:345,1,150,10|2,0:3|0:0,0:0:0:0:
483,304,27863,2,0,B|509:267|509:267|485:146,1,150,2|10,0:0|0:3,0:0:0:0:
408,104,28687,2,0,P|358:93|305:123,1,99.9999999999999,10|10,0:0|0:3,0:0:0:0:
245,183,29346,5,14,0:0:0:0:
173,253,29676,2,0,P|123:264|45:204,1,150,10|2,0:3|0:0,0:0:0:0:
50,109,30500,1,2,0:0:0:0:
118,36,30830,2,0,P|168:25|246:85,1,150,2|10,0:0|0:0,0:0:0:0:
274,174,31654,5,10,0:3:0:0:
365,55,32148,2,0,P|415:37|473:57,1,99.9999999999999,2|2,0:0|0:0,0:0:0:0:
510,133,32808,2,0,P|498:181|483:245,1,99.9999999999999,14|2,0:3|0:0,0:0:0:0:
395,272,33467,2,0,B|314:258|339:333|238:315,1,150,14|10,0:3|0:0,0:0:0:0:
202,234,34291,6,0,B|151:221|151:221|104:242,1,99.9999999999999,14|10,0:3|0:0,0:0:0:0:
40,315,34951,2,0,P|5:254|32:174,1,150,10|2,0:3|0:0,0:0:0:0:
106,122,35775,2,0,B|148:106|148:106|279:140,1,150,2|10,0:0|0:3,0:0:0:0:
296,220,36599,1,10,0:0:0:0:
384,173,36929,6,0,P|405:128|393:75,1,99.9999999999999,10|10,0:3|0:0,0:0:0:0:
306,34,37588,2,0,B|204:7|204:7|162:23,1,150,10|2,0:3|0:0,0:0:0:0:
69,61,38412,2,0,P|33:126|62:209,1,150,2|14,0:0|0:3,0:0:0:0:
132,253,39236,2,0,P|191:244|249:234,1,99.9999999999999,2|10,0:0|0:3,0:0:0:0:
301,165,39896,5,14,0:0:0:0:
399,182,40225,2,0,P|435:247|406:330,1,150,10|2,0:3|0:0,0:0:0:0:
332,369,41049,1,2,0:0:0:0:
256,303,41379,2,0,B|214:287|214:287|83:321,1,150,2|10,0:0|0:0,0:0:0:0:
33,375,42203,5,14,0:3:0:0:
41,225,42698,2,0,P|94:214|157:200,1,99.9999999999999,10|10,0:3|0:3,0:0:0:0:
199,124,43357,2,0,P|247:113|304:138,1,99.9999999999999,14|2,0:3|0:0,0:0:0:0:
370,193,44016,2,0,P|359:242|331:352,1,150,2|10,0:0|3:2,0:0:0:0:
427,376,44841,5,14,0:3:0:0:
427,376,50115,6,0,P|376:367|322:358,1,99.9999999999999,14|10,0:3|0:3,0:0:0:0:
288,267,50775,2,0,P|237:258|183:249,1,99.9999999999999,10|10,0:3|0:3,0:0:0:0:
90,265,51434,2,0,P|99:316|110:374,2,99.9999999999999,14|10|10,0:3|0:3|0:3,0:0:0:0:
13,200,52423,1,10,0:3:0:0:
89,135,52753,6,0,P|143:121|199:147,1,99.9999999999999,14|10,0:3|0:3,0:0:0:0:
255,204,53412,2,0,P|313:194|375:180,1,99.9999999999999,10|10,0:3|0:3,0:0:0:0:
417,108,54071,2,0,P|460:168|440:241,2,150,14|10|4,0:3|0:0|0:1,0:0:0:0:
327,62,55390,1,8,0:3:0:0:
239,110,55720,6,0,P|252:184|274:298,2,150,14|10|6,0:3|0:0|0:3,0:0:0:0:
98,57,57203,2,0,P|111:131|138:284,1,200,10|2,0:3|3:0,0:0:0:0:
201,326,58192,6,0,P|276:348|339:314,1,150,14|10,0:3|0:3,0:0:0:0:
434,203,59181,1,14,0:3:0:0:
325,99,59676,2,0,P|250:77|187:111,2,150,10|14|10,0:3|0:0|0:0,0:0:0:0:
402,162,60995,6,0,B|433:203|433:203|409:330,2,150,14|10|6,0:3|0:0|0:3,0:0:0:0:
287,64,62478,2,0,B|181:45|204:148|85:114,1,200,10|2,0:3|3:0,0:0:0:0:
40,40,63467,1,14,0:3:0:0:
9,187,63962,1,10,0:3:0:0:
128,276,64456,2,0,P|204:258|287:237,2,150,14|10|8,0:3|0:3|0:0,0:0:0:0:
47,335,65775,1,2,0:0:0:0:
34,185,66269,6,0,P|110:167|193:146,1,150,14|2,0:3|0:0,0:0:0:0:
295,53,67258,2,0,P|371:35|454:14,1,150,10|2,0:3|0:0,0:0:0:0:
511,89,68082,2,0,P|503:138|491:207,1,99.9999999999999,2|2,0:0|0:0,0:0:0:0:
423,258,68742,2,0,P|377:209|290:220,1,150,2|10,0:0|0:3,0:0:0:0:
203,329,69731,2,0,P|130:335|79:284,2,150,2|10|2,0:0|0:3|0:0,0:0:0:0:
276,261,71049,1,2,0:0:0:0:
254,112,71544,6,0,P|202:60|130:67,1,150,12|2,0:3|0:0,0:0:0:0:
13,162,72533,2,0,P|92:179|191:200,1,150,10|2,0:3|0:0,0:0:0:0:
246,243,73357,2,0,P|257:296|272:368,1,99.9999999999999,2|0,0:0|3:0,0:0:0:0:
362,369,74016,5,14,0:3:0:0:
448,246,74511,1,14,0:3:0:0:
374,115,75006,1,14,0:3:0:0:
225,95,75500,2,0,P|238:170|256:259,1,150,2|2,0:0|0:0,0:0:0:0:
144,348,76489,6,0,P|102:354|44:318,1,99.9999999999999,14|10,0:3|0:3,0:0:0:0:
72,230,77148,2,0,P|114:224|172:260,1,99.9999999999999,10|8,0:3|0:3,0:0:0:0:
252,296,77808,2,0,P|296:290|374:278,1,99.9999999999999,10|10,0:3|0:3,0:0:0:0:
447,256,78467,2,0,P|462:194|409:119,1,150,10|2,0:3|0:0,0:0:0:0:
326,84,79291,5,2,0:0:0:0:
250,149,79621,2,0,P|194:138|140:125,1,99.9999999999999,2|2,0:0|0:0,0:0:0:0:
69,183,80280,2,0,P|82:243|96:303,1,99.9999999999999,2|2,0:0|0:0,0:0:0:0:
159,353,80940,2,0,P|239:372|306:324,1,150,2|10,0:0|0:3,0:0:0:0:
372,276,81764,6,0,P|439:265|488:256,2,99.9999999999999,10|10|10,0:3|0:3|0:3,0:0:0:0:
294,339,82753,1,10,0:3:0:0:
219,272,83082,2,0,P|202:217|225:159,1,99.9999999999999,8|10,0:3|0:3,0:0:0:0:
305,140,83742,2,0,P|315:91|298:45,1,99.9999999999999,10|10,0:3|0:3,0:0:0:0:
202,15,84401,5,14,0:3:0:0:
44,138,85060,1,14,0:3:0:0:
117,324,85720,2,0,B|168:339|168:339|223:320,1,99.9999999999999,6|2,3:0|3:0,0:0:0:0:
253,232,86379,2,0,B|297:216|297:216|348:231,1,99.9999999999999,2|14,3:0|0:3,0:0:0:0:
393,321,87038,5,8,0:3:0:0:
467,253,87368,2,0,P|477:204|460:158,1,99.9999999999999,10|8,0:3|0:3,0:0:0:0:
372,110,88027,1,8,0:3:0:0:
319,195,88357,2,0,P|263:203|199:211,1,99.9999999999999,10|10,0:3|0:3,0:0:0:0:
156,286,89016,1,10,0:3:0:0:
28,207,89511,6,0,P|11:160|21:112,1,99.9999999999999,10|10,0:0|0:0,0:0:0:0:
106,60,90170,2,0,P|122:106|112:154,1,99.9999999999999,10|10,3:2|0:0,0:0:0:0:
157,244,90830,2,0,P|208:232|274:218,1,99.9999999999999,10|10,0:0|0:0,0:0:0:0:
336,164,91489,1,10,3:2:0:0:
396,244,91819,1,10,3:2:0:0:
508,145,92313,6,0,P|520:84|504:42,1,99.9999999999999,14|10,0:3|0:3,0:0:0:0:
416,10,92973,2,0,P|365:22|299:36,1,99.9999999999999,8|2,0:3|3:0,0:0:0:0:
249,104,93632,2,0,P|198:92|132:78,1,99.9999999999999,6|2,3:0|3:0,0:0:0:0:
76,15,94291,1,2,3:0:0:0:
7,88,94621,1,2,3:0:0:0:
76,159,94951,6,0,P|99:233|137:353,1,200,6|0,3:0|0:0,0:0:0:0:
235,364,95940,1,0,0:0:0:0:
300,288,96269,2,0,B|378:282|367:339|443:330,2,150,2|2|2,0:0|0:0|0:0,0:0:0:0:
235,364,97588,5,2,0:0:0:0:
83,55,106654,6,0,P|51:110|62:161,1,99.9999999999999,6|2,0:3|0:0,0:0:0:0:
138,198,107313,2,0,B|237:177|237:177|282:203,1,150,14|10,0:3|0:0,0:0:0:0:
362,256,108137,6,0,P|425:244|471:234,1,99.9999999999999,14|10,0:3|0:0,0:0:0:0:
500,328,108797,2,0,P|437:340|343:358,1,150,10|2,0:3|0:0,0:0:0:0:
272,295,109621,2,0,P|207:257|129:295,1,150,2|10,0:0|0:3,0:0:0:0:
85,363,110445,1,10,0:0:0:0:
17,289,110775,6,0,B|3:240|3:240|22:182,1,99.9999999999999,10|10,0:3|0:0,0:0:0:0:
104,143,111434,2,0,B|155:137|155:137|204:163|204:163|256:157,1,150,10|2,0:3|0:0,0:0:0:0:
322,223,112258,2,0,P|391:219|431:136,1,150,2|14,0:0|0:3,0:0:0:0:
418,56,113082,2,0,P|364:28|303:44,1,99.9999999999999,2|10,0:0|0:3,0:0:0:0:
249,96,113742,5,14,0:3:0:0:
169,35,114071,2,0,P|98:19|41:65,1,150,10|2,0:3|0:0,0:0:0:0:
18,162,114896,1,2,0:0:0:0:
99,219,115225,2,0,B|202:187|202:187|255:212,1,150,2|10,0:0|0:0,0:0:0:0:
323,260,116049,5,14,0:3:0:0:
467,219,116544,2,0,P|458:282|448:343,1,99.9999999999999,2|10,0:0|0:3,0:0:0:0:
367,371,117203,2,0,P|297:371|258:340,1,99.9999999999999,14|2,0:3|0:0,0:0:0:0:
244,260,117863,2,0,P|146:214|87:252,1,150,2|10,0:0|0:0,0:0:0:0:
60,310,118687,5,14,0:3:0:0:
318,80,121324,5,14,0:3:0:0:
184,149,121820,2,0,P|193:199|207:280,1,99.9999999999999,2|2,3:2|3:2,0:0:0:0:
107,281,122478,2,0,P|98:231|84:150,1,99.9999999999999,14|2,0:3|0:0,0:0:0:0:
93,82,123137,2,0,P|139:38|255:67,1,150,2|8,0:0|3:2,0:0:0:0:
299,102,123962,6,0,P|351:113|403:125,1,99.9999999999999,14|10,0:3|0:3,0:0:0:0:
460,200,124621,2,0,P|408:211|299:232,1,150,10|10,0:3|0:3,0:0:0:0:
241,299,125445,1,2,0:0:0:0:
158,242,125775,2,0,P|171:166|185:81,1,150,2|8,0:0|0:3,0:0:0:0:
90,54,126599,6,0,P|77:130|67:179,1,99.9999999999999,12|10,0:3|0:3,0:0:0:0:
6,227,127258,2,0,P|-5:298|47:363,1,150,10|10,0:3|0:3,0:0:0:0:
136,370,128082,1,2,0:0:0:0:
202,295,128412,2,0,P|266:284|365:266,1,150,2|2,0:0|0:0,0:0:0:0:
432,213,129236,6,0,B|448:161|448:161|427:111,1,99.9999999999999,14|10,0:3|0:3,0:0:0:0:
341,72,129896,2,0,B|325:124|325:124|346:174,1,99.9999999999999,10|10,0:3|0:3,0:0:0:0:
271,236,130555,2,0,P|228:229|165:217,2,99.9999999999999,14|10|10,0:3|0:3|0:3,0:0:0:0:
343,305,131544,1,10,0:3:0:0:
255,353,131874,6,0,P|212:346|149:334,1,99.9999999999999,14|10,0:3|0:3,0:0:0:0:
67,289,132533,2,0,B|45:220|45:220|82:131,1,150,10|14,0:3|0:3,0:0:0:0:
156,90,133357,1,2,0:0:0:0:
237,148,133687,2,0,P|320:136|408:121,1,150,14|2,0:3|0:0,0:0:0:0:
472,173,134511,5,14,0:3:0:0:
