osu file format v14

[General]
AudioFilename: audio.mp3
AudioLeadIn: 0
PreviewTime: 22396
Countdown: 0
SampleSet: Soft
StackLeniency: 0.7
Mode: 3
LetterboxInBreaks: 0
SpecialStyle: 0
WidescreenStoryboard: 1

[Editor]
DistanceSpacing: 1.5
BeatDivisor: 4
GridSize: 4
TimelineZoom: 2.5

[Metadata]
Title:8bit Voyager
TitleUnicode:8bit Voyager
Artist:Lime
ArtistUnicode:Lime
Creator:Eclipse-
Version:Another
Source:MUSYNX
Tags:musync kankitsu video game instrumental electronic chiptune kawaiicore featured artist fa the bms of fighters extreme violence 2019 BOFXV BOFUXV BOFXV19 GroundbreakinG GdbG Sweet & Sour LilAcubens Revival 8-bit jumpstream js
BeatmapID:3207286
BeatmapSetID:1570640

[Difficulty]
HPDrainRate:8.4
CircleSize:4
OverallDifficulty:8.5
ApproachRate:5
SliderMultiplier:1.4
SliderTickRate:1

[Events]
//Background and Video events
0,0,"bg.jpg",0,0
//Break Periods
//Storyboard Layer 0 (Background)
//Storyboard Layer 1 (Fail)
//Storyboard Layer 2 (Pass)
//Storyboard Layer 3 (Foreground)
//Storyboard Layer 4 (Overlay)
//Storyboard Sound Samples

[TimingPoints]
1298,329.670318603516,4,2,1,80,1,0
76462,-100,4,2,1,80,0,1
94924,-100,4,2,1,80,0,0

[HitObjects]
448,192,1298,5,0,2:2:0:0:
192,192,1298,1,0,0:0:0:0:
64,192,1462,1,0,0:0:0:0:
192,192,1627,1,0,0:0:0:0:
448,192,1627,1,0,0:0:0:0:
64,192,1792,1,0,0:0:0:0:
192,192,1957,1,0,0:0:0:0:
448,192,1957,1,0,0:0:0:0:
320,192,2039,1,0,0:0:0:0:
64,192,2122,1,0,0:0:0:0:
320,192,2204,1,0,0:0:0:0:
192,192,2287,1,0,0:0:0:0:
448,192,2287,1,0,0:0:0:0:
64,192,2287,1,0,0:0:0:0:
64,192,2451,1,0,0:0:0:0:
320,192,2616,1,0,0:0:0:0:
448,192,2616,1,0,0:0:0:0:
192,192,2616,1,0,0:0:0:0:
64,192,2781,1,0,0:0:0:0:
192,192,2946,1,0,0:0:0:0:
192,192,3276,1,0,0:0:0:0:
64,192,3440,1,0,0:0:0:0:
192,192,3605,1,0,0:0:0:0:
320,192,3770,1,0,0:0:0:0:
448,192,4100,1,0,0:0:0:0:
192,192,4429,1,0,0:0:0:0:
64,192,5418,1,0,0:0:0:0:
192,192,5583,1,0,0:0:0:0:
192,192,5913,1,0,0:0:0:0:
64,192,6078,1,0,0:0:0:0:
192,192,6243,1,0,0:0:0:0:
320,192,6407,1,0,0:0:0:0:
448,192,6737,1,0,0:0:0:0:
320,192,6902,1,0,0:0:0:0:
192,192,7067,1,0,0:0:0:0:
320,192,7396,1,0,0:0:0:0:
192,192,7561,1,0,0:0:0:0:
64,192,7726,1,0,0:0:0:0:
64,192,8056,1,0,0:0:0:0:
192,192,8221,1,0,0:0:0:0:
192,192,8550,1,0,0:0:0:0:
64,192,8715,1,0,0:0:0:0:
192,192,8880,1,0,0:0:0:0:
320,192,9045,1,0,0:0:0:0:
448,192,9374,1,0,0:0:0:0:
192,192,9704,1,0,0:0:0:0:
64,192,10693,1,0,0:0:0:0:
192,192,10858,1,0,0:0:0:0:
448,192,11023,1,0,0:0:0:0:
320,192,11064,1,0,0:0:0:0:
192,192,11105,1,0,0:0:0:0:
64,192,11146,1,0,0:0:0:0:
320,192,11188,1,0,0:0:0:0:
448,192,11270,1,0,0:0:0:0:
192,192,11352,1,0,0:0:0:0:
320,192,11435,1,0,0:0:0:0:
64,192,11517,1,0,0:0:0:0:
192,192,11600,1,0,0:0:0:0:
448,192,11682,1,0,0:0:0:0:
64,192,11682,1,0,0:0:0:0:
320,192,11682,1,0,0:0:0:0:
192,192,11765,1,0,0:0:0:0:
320,192,11847,1,0,0:0:0:0:
192,192,11929,1,0,0:0:0:0:
320,192,12012,1,0,0:0:0:0:
448,192,12177,1,0,0:0:0:0:
64,192,12341,1,0,0:0:0:0:
192,192,12341,1,0,0:0:0:0:
320,192,12341,1,0,0:0:0:0:
448,192,12424,1,0,0:0:0:0:
64,192,12506,1,0,0:0:0:0:
448,192,12589,1,0,0:0:0:0:
64,192,12671,1,0,0:0:0:0:
192,192,12671,1,0,0:0:0:0:
192,192,12836,1,0,0:0:0:0:
320,192,12836,1,0,0:0:0:0:
448,192,13001,1,0,0:0:0:0:
320,192,13042,1,0,0:0:0:0:
192,192,13083,1,0,0:0:0:0:
64,192,13124,1,0,0:0:0:0:
320,192,13166,1,0,0:0:0:0:
448,192,13166,1,0,0:0:0:0:
192,192,13248,1,0,0:0:0:0:
64,192,13330,1,0,0:0:0:0:
320,192,13413,1,0,0:0:0:0:
192,192,13495,1,0,0:0:0:0:
448,192,13495,1,0,0:0:0:0:
320,192,13578,1,0,0:0:0:0:
64,192,13660,1,0,0:0:0:0:
192,192,13743,1,0,0:0:0:0:
320,192,13825,1,0,0:0:0:0:
448,192,13825,1,0,0:0:0:0:
192,192,13907,1,0,0:0:0:0:
448,192,13990,1,0,0:0:0:0:
320,192,14072,1,0,0:0:0:0:
64,192,14072,1,0,0:0:0:0:
448,192,14155,1,0,0:0:0:0:
192,192,14237,1,0,0:0:0:0:
64,192,14319,1,0,0:0:0:0:
320,192,14319,1,0,0:0:0:0:
448,192,14402,1,0,0:0:0:0:
64,192,14484,1,0,0:0:0:0:
320,192,14484,1,0,0:0:0:0:
192,192,14484,1,0,0:0:0:0:
448,192,14567,1,0,0:0:0:0:
192,192,14649,1,0,0:0:0:0:
320,192,14732,1,0,0:0:0:0:
64,192,14814,1,0,0:0:0:0:
448,192,14814,1,0,0:0:0:0:
320,192,14896,1,0,0:0:0:0:
192,192,14979,1,0,0:0:0:0:
64,192,15061,1,0,0:0:0:0:
448,192,15144,1,0,0:0:0:0:
320,192,15144,1,0,0:0:0:0:
64,192,15226,1,0,0:0:0:0:
320,192,15308,1,0,0:0:0:0:
192,192,15391,1,0,0:0:0:0:
448,192,15391,1,0,0:0:0:0:
320,192,15473,1,0,0:0:0:0:
64,192,15556,1,0,0:0:0:0:
192,192,15638,1,0,0:0:0:0:
448,192,15638,1,0,0:0:0:0:
320,192,15721,1,0,0:0:0:0:
448,192,15803,1,0,0:0:0:0:
64,192,15803,1,0,0:0:0:0:
192,192,15803,1,0,0:0:0:0:
320,192,15885,1,0,0:0:0:0:
64,192,15968,1,0,0:0:0:0:
192,192,16050,1,0,0:0:0:0:
320,192,16133,1,0,0:0:0:0:
448,192,16133,1,0,0:0:0:0:
64,192,16215,1,0,0:0:0:0:
448,192,16297,1,0,0:0:0:0:
320,192,16380,1,0,0:0:0:0:
64,192,16462,1,0,0:0:0:0:
192,192,16462,1,0,0:0:0:0:
448,192,16545,1,0,0:0:0:0:
320,192,16627,1,0,0:0:0:0:
64,192,16710,1,0,0:0:0:0:
448,192,16710,1,0,0:0:0:0:
192,192,16792,1,0,0:0:0:0:
320,192,16874,1,0,0:0:0:0:
448,192,16957,1,0,0:0:0:0:
64,192,16957,1,0,0:0:0:0:
192,192,17039,1,0,0:0:0:0:
64,192,17122,1,0,0:0:0:0:
448,192,17122,1,0,0:0:0:0:
320,192,17122,1,0,0:0:0:0:
192,192,17204,1,0,0:0:0:0:
320,192,17287,1,0,0:0:0:0:
448,192,17369,1,0,0:0:0:0:
320,192,17451,1,0,0:0:0:0:
64,192,17451,1,0,0:0:0:0:
192,192,17534,1,0,0:0:0:0:
448,192,17616,1,0,0:0:0:0:
320,192,17699,1,0,0:0:0:0:
448,192,17781,1,0,0:0:0:0:
64,192,17781,1,0,0:0:0:0:
192,192,17863,1,0,0:0:0:0:
64,192,17946,1,0,0:0:0:0:
448,192,18028,1,0,0:0:0:0:
320,192,18028,1,0,0:0:0:0:
192,192,18111,1,0,0:0:0:0:
64,192,18193,1,0,0:0:0:0:
448,192,18276,1,0,0:0:0:0:
320,192,18276,1,0,0:0:0:0:
192,192,18358,1,0,0:0:0:0:
64,192,18440,1,0,0:0:0:0:
448,192,18440,1,0,0:0:0:0:
320,192,18440,1,0,0:0:0:0:
192,192,18523,1,0,0:0:0:0:
64,192,18605,1,0,0:0:0:0:
320,192,18605,1,0,0:0:0:0:
448,192,18688,1,0,0:0:0:0:
64,192,18770,1,0,0:0:0:0:
192,192,18770,1,0,0:0:0:0:
320,192,18852,1,0,0:0:0:0:
64,192,18935,1,0,0:0:0:0:
192,192,18935,1,0,0:0:0:0:
448,192,19017,1,0,0:0:0:0:
320,192,19100,1,0,0:0:0:0:
64,192,19100,1,0,0:0:0:0:
448,192,19182,1,0,0:0:0:0:
64,192,19265,1,0,0:0:0:0:
192,192,19265,1,0,0:0:0:0:
320,192,19347,1,0,0:0:0:0:
192,192,19429,1,0,0:0:0:0:
448,192,19429,1,0,0:0:0:0:
64,192,19512,1,0,0:0:0:0:
192,192,19594,1,0,0:0:0:0:
448,192,19594,1,0,0:0:0:0:
320,192,19677,1,0,0:0:0:0:
64,192,19759,1,0,0:0:0:0:
192,192,19759,1,0,0:0:0:0:
320,192,19841,1,0,0:0:0:0:
448,192,19924,1,0,0:0:0:0:
64,192,19924,1,0,0:0:0:0:
192,192,20006,1,0,0:0:0:0:
448,192,20089,1,0,0:0:0:0:
320,192,20089,1,0,0:0:0:0:
64,192,20171,1,0,0:0:0:0:
320,192,20254,1,0,0:0:0:0:
448,192,20254,1,0,0:0:0:0:
192,192,20336,1,0,0:0:0:0:
64,192,20418,1,0,0:0:0:0:
320,192,20418,1,0,0:0:0:0:
192,192,20501,1,0,0:0:0:0:
448,192,20583,1,0,0:0:0:0:
320,192,20583,1,0,0:0:0:0:
64,192,20666,1,0,0:0:0:0:
192,192,20748,1,0,0:0:0:0:
448,192,20748,1,0,0:0:0:0:
320,192,20830,1,0,0:0:0:0:
448,192,20913,1,0,0:0:0:0:
192,192,20913,1,0,0:0:0:0:
64,192,20995,1,0,0:0:0:0:
320,192,21078,1,0,0:0:0:0:
448,192,21078,1,0,0:0:0:0:
192,192,21160,1,0,0:0:0:0:
64,192,21160,1,0,0:0:0:0:
448,192,21243,1,0,0:0:0:0:
320,192,21243,1,0,0:0:0:0:
192,192,21325,1,0,0:0:0:0:
64,192,21325,1,0,0:0:0:0:
320,192,21407,1,0,0:0:0:0:
448,192,21407,1,0,0:0:0:0:
192,192,21490,1,0,0:0:0:0:
64,192,21490,1,0,0:0:0:0:
320,192,21572,1,0,0:0:0:0:
448,192,21572,1,0,0:0:0:0:
192,192,21655,1,0,0:0:0:0:
64,192,21655,1,0,0:0:0:0:
320,192,21737,1,0,0:0:0:0:
448,192,21737,1,0,0:0:0:0:
192,192,21819,1,0,0:0:0:0:
64,192,21819,1,0,0:0:0:0:
320,192,21902,1,0,0:0:0:0:
448,192,21902,1,0,0:0:0:0:
192,192,21984,1,0,0:0:0:0:
64,192,21984,1,0,0:0:0:0:
320,192,22067,1,0,0:0:0:0:
448,192,22067,1,0,0:0:0:0:
192,192,22149,1,0,0:0:0:0:
64,192,22149,1,0,0:0:0:0:
320,192,22232,1,0,0:0:0:0:
448,192,22232,1,0,0:0:0:0:
192,192,22314,1,0,0:0:0:0:
64,192,22314,1,0,0:0:0:0:
320,192,22396,1,0,0:0:0:0:
448,192,22396,1,0,0:0:0:0:
448,192,22726,1,0,0:0:0:0:
320,192,22726,1,0,0:0:0:0:
448,192,23056,1,0,0:0:0:0:
320,192,23056,1,0,0:0:0:0:
448,192,23221,1,0,0:0:0:0:
64,192,23221,1,0,0:0:0:0:
192,192,23303,1,0,0:0:0:0:
320,192,23303,1,0,0:0:0:0:
64,192,23385,1,0,0:0:0:0:
448,192,23385,1,0,0:0:0:0:
192,192,23550,1,0,0:0:0:0:
320,192,23550,1,0,0:0:0:0:
64,192,23715,1,0,0:0:0:0:
448,192,23715,1,0,0:0:0:0:
320,192,23715,1,0,0:0:0:0:
192,192,23797,1,0,0:0:0:0:
448,192,23880,1,0,0:0:0:0:
64,192,23880,1,0,0:0:0:0:
320,192,23962,1,0,0:0:0:0:
64,192,24045,1,0,0:0:0:0:
192,192,24045,1,0,0:0:0:0:
320,192,24127,1,0,0:0:0:0:
448,192,24210,1,0,0:0:0:0:
64,192,24210,1,0,0:0:0:0:
192,192,24292,1,0,0:0:0:0:
320,192,24292,1,0,0:0:0:0:
64,192,24374,1,0,0:0:0:0:
448,192,24374,1,0,0:0:0:0:
192,192,24457,1,0,0:0:0:0:
320,192,24539,1,0,0:0:0:0:
448,192,24539,1,0,0:0:0:0:
192,192,24622,1,0,0:0:0:0:
320,192,24704,1,0,0:0:0:0:
64,192,24704,1,0,0:0:0:0:
448,192,24787,1,0,0:0:0:0:
64,192,24869,1,0,0:0:0:0:
320,192,24869,1,0,0:0:0:0:
192,192,24951,1,0,0:0:0:0:
448,192,25034,1,0,0:0:0:0:
320,192,25034,1,0,0:0:0:0:
64,192,25116,1,0,0:0:0:0:
448,192,25199,1,0,0:0:0:0:
192,192,25199,1,0,0:0:0:0:
320,192,25281,1,0,0:0:0:0:
192,192,25363,1,0,0:0:0:0:
64,192,25363,1,0,0:0:0:0:
448,192,25446,1,0,0:0:0:0:
320,192,25528,1,0,0:0:0:0:
192,192,25528,1,0,0:0:0:0:
448,192,25611,1,0,0:0:0:0:
64,192,25611,1,0,0:0:0:0:
320,192,25693,1,0,0:0:0:0:
192,192,25693,1,0,0:0:0:0:
64,192,25776,1,0,0:0:0:0:
448,192,25858,1,0,0:0:0:0:
320,192,25858,1,0,0:0:0:0:
192,192,25940,1,0,0:0:0:0:
448,192,26023,1,0,0:0:0:0:
64,192,26023,1,0,0:0:0:0:
320,192,26105,1,0,0:0:0:0:
64,192,26188,1,0,0:0:0:0:
448,192,26188,1,0,0:0:0:0:
192,192,26270,1,0,0:0:0:0:
320,192,26352,1,0,0:0:0:0:
448,192,26352,1,0,0:0:0:0:
192,192,26435,1,0,0:0:0:0:
64,192,26517,1,0,0:0:0:0:
448,192,26517,1,0,0:0:0:0:
192,192,26600,1,0,0:0:0:0:
320,192,26682,1,0,0:0:0:0:
448,192,26682,1,0,0:0:0:0:
64,192,26765,1,0,0:0:0:0:
320,192,26847,1,0,0:0:0:0:
192,192,26847,1,0,0:0:0:0:
64,192,26929,1,0,0:0:0:0:
448,192,26929,1,0,0:0:0:0:
320,192,27012,1,0,0:0:0:0:
192,192,27012,1,0,0:0:0:0:
448,192,27094,1,0,0:0:0:0:
192,192,27177,1,0,0:0:0:0:
64,192,27177,1,0,0:0:0:0:
320,192,27259,1,0,0:0:0:0:
192,192,27341,1,0,0:0:0:0:
448,192,27341,1,0,0:0:0:0:
320,192,27424,1,0,0:0:0:0:
192,192,27506,1,0,0:0:0:0:
448,192,27506,1,0,0:0:0:0:
64,192,27589,1,0,0:0:0:0:
320,192,27671,1,0,0:0:0:0:
448,192,27671,1,0,0:0:0:0:
192,192,27754,1,0,0:0:0:0:
64,192,27836,1,0,0:0:0:0:
320,192,27836,1,0,0:0:0:0:
448,192,27918,1,0,0:0:0:0:
192,192,28001,1,0,0:0:0:0:
64,192,28001,1,0,0:0:0:0:
320,192,28083,1,0,0:0:0:0:
448,192,28166,1,0,0:0:0:0:
192,192,28166,1,0,0:0:0:0:
64,192,28248,1,0,0:0:0:0:
320,192,28248,1,0,0:0:0:0:
192,192,28330,1,0,0:0:0:0:
448,192,28330,1,0,0:0:0:0:
64,192,28413,1,0,0:0:0:0:
320,192,28495,1,0,0:0:0:0:
448,192,28495,1,0,0:0:0:0:
192,192,28578,1,0,0:0:0:0:
320,192,28660,1,0,0:0:0:0:
448,192,28660,1,0,0:0:0:0:
192,192,28743,1,0,0:0:0:0:
64,192,28825,1,0,0:0:0:0:
320,192,28825,1,0,0:0:0:0:
448,192,28907,1,0,0:0:0:0:
320,192,28990,1,0,0:0:0:0:
64,192,28990,1,0,0:0:0:0:
192,192,29072,1,0,0:0:0:0:
448,192,29155,1,0,0:0:0:0:
64,192,29237,1,0,0:0:0:0:
192,192,29319,1,0,0:0:0:0:
320,192,29319,1,0,0:0:0:0:
448,192,29319,1,0,0:0:0:0:
64,192,29402,1,0,0:0:0:0:
320,192,29484,1,0,0:0:0:0:
448,192,29567,1,0,0:0:0:0:
64,192,29649,1,0,0:0:0:0:
192,192,29649,1,0,0:0:0:0:
448,192,29732,1,0,0:0:0:0:
192,192,29814,1,0,0:0:0:0:
64,192,29814,1,0,0:0:0:0:
320,192,29896,1,0,0:0:0:0:
192,192,29979,1,0,0:0:0:0:
64,192,29979,1,0,0:0:0:0:
448,192,30061,1,0,0:0:0:0:
320,192,30144,1,0,0:0:0:0:
64,192,30144,1,0,0:0:0:0:
448,192,30226,1,0,0:0:0:0:
192,192,30308,1,0,0:0:0:0:
64,192,30308,1,0,0:0:0:0:
320,192,30391,1,0,0:0:0:0:
448,192,30473,1,0,0:0:0:0:
192,192,30473,1,0,0:0:0:0:
320,192,30556,1,0,0:0:0:0:
64,192,30638,1,0,0:0:0:0:
192,192,30638,1,0,0:0:0:0:
448,192,30721,1,0,0:0:0:0:
320,192,30803,1,0,0:0:0:0:
192,192,30803,1,0,0:0:0:0:
64,192,30885,1,0,0:0:0:0:
320,192,30968,1,0,0:0:0:0:
448,192,30968,1,0,0:0:0:0:
192,192,31050,1,0,0:0:0:0:
320,192,31133,1,0,0:0:0:0:
448,192,31133,1,0,0:0:0:0:
192,192,31215,1,0,0:0:0:0:
64,192,31215,1,0,0:0:0:0:
320,192,31297,1,0,0:0:0:0:
448,192,31297,1,0,0:0:0:0:
64,192,31380,1,0,0:0:0:0:
192,192,31462,1,0,0:0:0:0:
448,192,31462,1,0,0:0:0:0:
320,192,31545,1,0,0:0:0:0:
64,192,31627,1,0,0:0:0:0:
192,192,31627,1,0,0:0:0:0:
448,192,31710,1,0,0:0:0:0:
320,192,31792,1,0,0:0:0:0:
192,192,31792,1,0,0:0:0:0:
64,192,31874,1,0,0:0:0:0:
448,192,31874,1,0,0:0:0:0:
320,192,31957,1,0,0:0:0:0:
192,192,31957,1,0,0:0:0:0:
64,192,32039,1,0,0:0:0:0:
448,192,32122,1,0,0:0:0:0:
320,192,32122,1,0,0:0:0:0:
192,192,32204,1,0,0:0:0:0:
64,192,32287,1,0,0:0:0:0:
448,192,32287,1,0,0:0:0:0:
320,192,32369,1,0,0:0:0:0:
192,192,32369,1,0,0:0:0:0:
64,192,32451,1,0,0:0:0:0:
448,192,32451,1,0,0:0:0:0:
320,192,32534,1,0,0:0:0:0:
192,192,32534,1,0,0:0:0:0:
64,192,32616,1,0,0:0:0:0:
448,192,32616,1,0,0:0:0:0:
192,192,32781,1,0,0:0:0:0:
320,192,32781,1,0,0:0:0:0:
448,192,32781,1,0,0:0:0:0:
64,192,32863,1,0,0:0:0:0:
320,192,32946,1,0,0:0:0:0:
192,192,33028,1,0,0:0:0:0:
320,192,33111,1,0,0:0:0:0:
448,192,33111,1,0,0:0:0:0:
64,192,33193,1,0,0:0:0:0:
192,192,33276,1,0,0:0:0:0:
448,192,33358,1,0,0:0:0:0:
320,192,33440,1,0,0:0:0:0:
192,192,33440,1,0,0:0:0:0:
64,192,33440,1,0,0:0:0:0:
448,192,33523,1,0,0:0:0:0:
192,192,33605,1,0,0:0:0:0:
320,192,33688,1,0,0:0:0:0:
192,192,33770,1,0,0:0:0:0:
64,192,33770,1,0,0:0:0:0:
448,192,33852,1,0,0:0:0:0:
320,192,33935,1,0,0:0:0:0:
64,192,33935,1,0,0:0:0:0:
192,192,33935,1,0,0:0:0:0:
320,192,34100,1,0,0:0:0:0:
448,192,34100,1,0,0:0:0:0:
192,192,34182,1,0,0:0:0:0:
448,192,34265,1,0,0:0:0:0:
64,192,34265,1,0,0:0:0:0:
320,192,34265,1,0,0:0:0:0:
192,192,34347,1,0,0:0:0:0:
448,192,34429,1,0,0:0:0:0:
64,192,34429,1,0,0:0:0:0:
320,192,34512,1,0,0:0:0:0:
192,192,34594,1,0,0:0:0:0:
64,192,34594,1,0,0:0:0:0:
320,192,34677,1,0,0:0:0:0:
448,192,34759,1,0,0:0:0:0:
192,192,34759,1,0,0:0:0:0:
64,192,34841,1,0,0:0:0:0:
320,192,34841,1,0,0:0:0:0:
448,192,34924,1,0,0:0:0:0:
192,192,34924,1,0,0:0:0:0:
64,192,35006,1,0,0:0:0:0:
320,192,35089,1,0,0:0:0:0:
448,192,35089,1,0,0:0:0:0:
192,192,35171,1,0,0:0:0:0:
64,192,35254,1,0,0:0:0:0:
320,192,35254,1,0,0:0:0:0:
448,192,35336,1,0,0:0:0:0:
320,192,35418,1,0,0:0:0:0:
64,192,35418,1,0,0:0:0:0:
192,192,35501,1,0,0:0:0:0:
448,192,35583,1,0,0:0:0:0:
320,192,35583,1,0,0:0:0:0:
64,192,35666,1,0,0:0:0:0:
448,192,35748,1,0,0:0:0:0:
192,192,35748,1,0,0:0:0:0:
320,192,35830,1,0,0:0:0:0:
64,192,35913,1,0,0:0:0:0:
192,192,35913,1,0,0:0:0:0:
448,192,35995,1,0,0:0:0:0:
320,192,36078,1,0,0:0:0:0:
192,192,36078,1,0,0:0:0:0:
64,192,36160,1,0,0:0:0:0:
448,192,36160,1,0,0:0:0:0:
192,192,36243,1,0,0:0:0:0:
320,192,36243,1,0,0:0:0:0:
64,192,36325,1,0,0:0:0:0:
320,192,36407,1,0,0:0:0:0:
448,192,36407,1,0,0:0:0:0:
192,192,36490,1,0,0:0:0:0:
64,192,36572,1,0,0:0:0:0:
320,192,36572,1,0,0:0:0:0:
448,192,36655,1,0,0:0:0:0:
320,192,36737,1,0,0:0:0:0:
64,192,36737,1,0,0:0:0:0:
192,192,36819,1,0,0:0:0:0:
64,192,36902,1,0,0:0:0:0:
448,192,36902,1,0,0:0:0:0:
320,192,36984,1,0,0:0:0:0:
192,192,37067,1,0,0:0:0:0:
64,192,37067,1,0,0:0:0:0:
320,192,37149,1,0,0:0:0:0:
448,192,37232,1,0,0:0:0:0:
192,192,37232,1,0,0:0:0:0:
64,192,37314,1,0,0:0:0:0:
320,192,37396,1,0,0:0:0:0:
448,192,37396,1,0,0:0:0:0:
192,192,37479,1,0,0:0:0:0:
64,192,37479,1,0,0:0:0:0:
320,192,37561,1,0,0:0:0:0:
448,192,37561,1,0,0:0:0:0:
192,192,37644,1,0,0:0:0:0:
64,192,37726,1,0,0:0:0:0:
320,192,37726,1,0,0:0:0:0:
448,192,37808,1,0,0:0:0:0:
64,192,37891,1,0,0:0:0:0:
192,192,37891,1,0,0:0:0:0:
320,192,37973,1,0,0:0:0:0:
64,192,38056,1,0,0:0:0:0:
448,192,38056,1,0,0:0:0:0:
192,192,38138,1,0,0:0:0:0:
320,192,38221,1,0,0:0:0:0:
448,192,38221,1,0,0:0:0:0:
64,192,38221,1,0,0:0:0:0:
192,192,38303,1,0,0:0:0:0:
320,192,38385,1,0,0:0:0:0:
448,192,38385,1,0,0:0:0:0:
64,192,38468,1,0,0:0:0:0:
192,192,38550,1,0,0:0:0:0:
320,192,38633,1,0,0:0:0:0:
448,192,38715,1,0,0:0:0:0:
64,192,38715,1,0,0:0:0:0:
192,192,38797,1,0,0:0:0:0:
64,192,38880,1,0,0:0:0:0:
320,192,38880,1,0,0:0:0:0:
448,192,38880,1,0,0:0:0:0:
192,192,38962,1,0,0:0:0:0:
320,192,39045,1,0,0:0:0:0:
448,192,39045,1,0,0:0:0:0:
64,192,39127,1,0,0:0:0:0:
320,192,39210,1,0,0:0:0:0:
448,192,39210,1,0,0:0:0:0:
192,192,39292,1,0,0:0:0:0:
64,192,39374,1,0,0:0:0:0:
448,192,39374,1,0,0:0:0:0:
320,192,39457,1,0,0:0:0:0:
64,192,39539,1,0,0:0:0:0:
192,192,39539,1,0,0:0:0:0:
320,192,39622,1,0,0:0:0:0:
448,192,39622,1,0,0:0:0:0:
192,192,39704,1,0,0:0:0:0:
64,192,39704,1,0,0:0:0:0:
448,192,39787,1,0,0:0:0:0:
192,192,39869,1,0,0:0:0:0:
64,192,39869,1,0,0:0:0:0:
320,192,39869,1,0,0:0:0:0:
448,192,39951,1,0,0:0:0:0:
320,192,40034,1,0,0:0:0:0:
192,192,40034,1,0,0:0:0:0:
64,192,40116,1,0,0:0:0:0:
320,192,40199,1,0,0:0:0:0:
448,192,40199,1,0,0:0:0:0:
192,192,40281,1,0,0:0:0:0:
320,192,40363,1,0,0:0:0:0:
448,192,40363,1,0,0:0:0:0:
64,192,40446,1,0,0:0:0:0:
320,192,40528,1,0,0:0:0:0:
448,192,40528,1,0,0:0:0:0:
192,192,40611,1,0,0:0:0:0:
64,192,40693,1,0,0:0:0:0:
448,192,40693,1,0,0:0:0:0:
192,192,40776,1,0,0:0:0:0:
448,192,40858,1,0,0:0:0:0:
320,192,40858,1,0,0:0:0:0:
64,192,40940,1,0,0:0:0:0:
320,192,41023,1,0,0:0:0:0:
192,192,41023,1,0,0:0:0:0:
64,192,41105,1,0,0:0:0:0:
448,192,41188,1,0,0:0:0:0:
320,192,41188,1,0,0:0:0:0:
192,192,41270,1,0,0:0:0:0:
64,192,41352,1,0,0:0:0:0:
448,192,41352,1,0,0:0:0:0:
192,192,41435,1,0,0:0:0:0:
320,192,41517,1,0,0:0:0:0:
448,192,41517,1,0,0:0:0:0:
64,192,41600,1,0,0:0:0:0:
192,192,41682,1,0,0:0:0:0:
320,192,41682,1,0,0:0:0:0:
448,192,41765,1,0,0:0:0:0:
320,192,41847,1,0,0:0:0:0:
64,192,41847,1,0,0:0:0:0:
192,192,41929,1,0,0:0:0:0:
64,192,42012,1,0,0:0:0:0:
448,192,42012,1,0,0:0:0:0:
320,192,42094,1,0,0:0:0:0:
448,192,42177,1,0,0:0:0:0:
192,192,42177,1,0,0:0:0:0:
64,192,42177,1,0,0:0:0:0:
320,192,42259,1,0,0:0:0:0:
192,192,42341,1,0,0:0:0:0:
64,192,42341,1,0,0:0:0:0:
320,192,42424,1,0,0:0:0:0:
448,192,42424,1,0,0:0:0:0:
192,192,42506,1,0,0:0:0:0:
64,192,42506,1,0,0:0:0:0:
448,192,42589,1,0,0:0:0:0:
192,192,42671,1,0,0:0:0:0:
320,192,42671,1,0,0:0:0:0:
64,192,42671,1,0,0:0:0:0:
448,192,42754,1,0,0:0:0:0:
320,192,42836,1,0,0:0:0:0:
192,192,42836,1,0,0:0:0:0:
64,192,42918,1,0,0:0:0:0:
448,192,42918,1,0,0:0:0:0:
320,192,43001,1,0,0:0:0:0:
192,192,43001,1,0,0:0:0:0:
64,192,43083,1,0,0:0:0:0:
192,192,43166,1,0,0:0:0:0:
320,192,43166,1,0,0:0:0:0:
448,192,43166,1,0,0:0:0:0:
192,192,43330,1,0,0:0:0:0:
320,192,43330,1,0,0:0:0:0:
64,192,43330,1,0,0:0:0:0:
448,192,43660,1,0,0:0:0:0:
192,192,43825,1,0,0:0:0:0:
64,192,43907,1,0,0:0:0:0:
448,192,43990,1,0,0:0:0:0:
448,192,44155,1,0,0:0:0:0:
192,192,44155,1,0,0:0:0:0:
64,192,44155,1,0,0:0:0:0:
320,192,44319,1,0,0:0:0:0:
448,192,44319,1,0,0:0:0:0:
192,192,44402,1,0,0:0:0:0:
64,192,44402,1,0,0:0:0:0:
320,192,44484,1,0,0:0:0:0:
448,192,44484,1,0,0:0:0:0:
320,192,44649,1,0,0:0:0:0:
192,192,44649,1,0,0:0:0:0:
192,192,44814,1,0,0:0:0:0:
64,192,44814,1,0,0:0:0:0:
448,192,44814,1,0,0:0:0:0:
64,192,44979,1,0,0:0:0:0:
192,192,45144,1,0,0:0:0:0:
192,192,45473,1,0,0:0:0:0:
64,192,45638,1,0,0:0:0:0:
192,192,45803,1,0,0:0:0:0:
320,192,45968,1,0,0:0:0:0:
448,192,46297,1,0,0:0:0:0:
64,192,46627,1,0,0:0:0:0:
320,192,47287,1,0,0:0:0:0:
448,192,47287,1,0,0:0:0:0:
448,192,47451,1,0,0:0:0:0:
64,192,47451,1,0,0:0:0:0:
64,192,47616,1,0,0:0:0:0:
192,192,47781,1,0,0:0:0:0:
192,192,48111,1,0,0:0:0:0:
64,192,48276,1,0,0:0:0:0:
192,192,48440,1,0,0:0:0:0:
448,192,48605,1,0,0:0:0:0:
448,192,48935,1,0,0:0:0:0:
320,192,49100,1,0,0:0:0:0:
192,192,49265,1,0,0:0:0:0:
320,192,49594,1,0,0:0:0:0:
192,192,49759,1,0,0:0:0:0:
64,192,49924,1,0,0:0:0:0:
320,192,50089,1,0,0:0:0:0:
448,192,50089,1,0,0:0:0:0:
192,192,50171,1,0,0:0:0:0:
64,192,50254,1,0,0:0:0:0:
320,192,50254,1,0,0:0:0:0:
448,192,50336,1,0,0:0:0:0:
192,192,50418,1,0,0:0:0:0:
64,192,50418,1,0,0:0:0:0:
320,192,50501,1,0,0:0:0:0:
192,192,50583,1,0,0:0:0:0:
64,192,50583,1,0,0:0:0:0:
448,192,50666,1,0,0:0:0:0:
320,192,50748,1,0,0:0:0:0:
192,192,50748,1,0,0:0:0:0:
64,192,50830,1,0,0:0:0:0:
320,192,50913,1,0,0:0:0:0:
448,192,50913,1,0,0:0:0:0:
192,192,50995,1,0,0:0:0:0:
64,192,51078,1,0,0:0:0:0:
448,192,51078,1,0,0:0:0:0:
320,192,51160,1,0,0:0:0:0:
448,192,51243,1,0,0:0:0:0:
64,192,51243,1,0,0:0:0:0:
192,192,51325,1,0,0:0:0:0:
320,192,51407,1,0,0:0:0:0:
448,192,51407,1,0,0:0:0:0:
64,192,51490,1,0,0:0:0:0:
192,192,51572,1,0,0:0:0:0:
320,192,51572,1,0,0:0:0:0:
448,192,51655,1,0,0:0:0:0:
320,192,51737,1,0,0:0:0:0:
64,192,51737,1,0,0:0:0:0:
192,192,51819,1,0,0:0:0:0:
64,192,51902,1,0,0:0:0:0:
320,192,51902,1,0,0:0:0:0:
448,192,51984,1,0,0:0:0:0:
192,192,52067,1,0,0:0:0:0:
64,192,52067,1,0,0:0:0:0:
320,192,52149,1,0,0:0:0:0:
448,192,52232,1,0,0:0:0:0:
192,192,52232,1,0,0:0:0:0:
64,192,52314,1,0,0:0:0:0:
192,192,52396,1,0,0:0:0:0:
320,192,52396,1,0,0:0:0:0:
448,192,52479,1,0,0:0:0:0:
320,192,52561,1,0,0:0:0:0:
192,192,52561,1,0,0:0:0:0:
64,192,52644,1,0,0:0:0:0:
320,192,52726,1,0,0:0:0:0:
448,192,52726,1,0,0:0:0:0:
192,192,52808,1,0,0:0:0:0:
64,192,52808,1,0,0:0:0:0:
320,192,52891,1,0,0:0:0:0:
448,192,52891,1,0,0:0:0:0:
192,192,52973,1,0,0:0:0:0:
64,192,52973,1,0,0:0:0:0:
320,192,53056,1,0,0:0:0:0:
448,192,53056,1,0,0:0:0:0:
192,192,53138,1,0,0:0:0:0:
64,192,53138,1,0,0:0:0:0:
320,192,53221,1,0,0:0:0:0:
448,192,53221,1,0,0:0:0:0:
192,192,53303,1,0,0:0:0:0:
64,192,53303,1,0,0:0:0:0:
320,192,53385,1,0,0:0:0:0:
448,192,53385,1,0,0:0:0:0:
192,192,53468,1,0,0:0:0:0:
64,192,53468,1,0,0:0:0:0:
320,192,53550,1,0,0:0:0:0:
448,192,53550,1,0,0:0:0:0:
192,192,53633,1,0,0:0:0:0:
64,192,53633,1,0,0:0:0:0:
320,192,53715,1,0,0:0:0:0:
448,192,53715,1,0,0:0:0:0:
192,192,53797,1,0,0:0:0:0:
64,192,53797,1,0,0:0:0:0:
320,192,53880,1,0,0:0:0:0:
448,192,53880,1,0,0:0:0:0:
192,192,53962,1,0,0:0:0:0:
64,192,53962,1,0,0:0:0:0:
320,192,54045,1,0,0:0:0:0:
448,192,54045,1,0,0:0:0:0:
192,192,54210,1,0,0:0:0:0:
320,192,54292,1,0,0:0:0:0:
448,192,54374,1,0,0:0:0:0:
64,192,54374,1,0,0:0:0:0:
320,192,54539,1,0,0:0:0:0:
448,192,54539,1,0,0:0:0:0:
192,192,54704,1,0,0:0:0:0:
320,192,54787,1,0,0:0:0:0:
64,192,54869,1,0,0:0:0:0:
320,192,54951,1,0,0:0:0:0:
192,192,55034,1,0,0:0:0:0:
64,192,55034,1,0,0:0:0:0:
448,192,55034,1,0,0:0:0:0:
448,192,55363,1,0,0:0:0:0:
320,192,55363,1,0,0:0:0:0:
192,192,55446,1,0,0:0:0:0:
64,192,55446,1,0,0:0:0:0:
320,192,55528,1,0,0:0:0:0:
448,192,55528,1,0,0:0:0:0:
64,192,55611,1,0,0:0:0:0:
192,192,55693,1,0,0:0:0:0:
320,192,55693,1,0,0:0:0:0:
448,192,55693,1,0,0:0:0:0:
64,192,55776,1,0,0:0:0:0:
320,192,55858,1,0,0:0:0:0:
192,192,55940,1,0,0:0:0:0:
64,192,55940,1,0,0:0:0:0:
448,192,55940,1,0,0:0:0:0:
320,192,56023,1,0,0:0:0:0:
192,192,56105,1,0,0:0:0:0:
320,192,56188,1,0,0:0:0:0:
448,192,56188,1,0,0:0:0:0:
64,192,56188,1,0,0:0:0:0:
192,192,56270,1,0,0:0:0:0:
448,192,56352,1,0,0:0:0:0:
320,192,56435,1,0,0:0:0:0:
192,192,56435,1,0,0:0:0:0:
64,192,56435,1,0,0:0:0:0:
448,192,56517,1,0,0:0:0:0:
64,192,56600,1,0,0:0:0:0:
192,192,56682,1,0,0:0:0:0:
320,192,56682,1,0,0:0:0:0:
448,192,56682,1,0,0:0:0:0:
64,192,56765,1,0,0:0:0:0:
320,192,56847,1,0,0:0:0:0:
192,192,56929,1,0,0:0:0:0:
448,192,56929,1,0,0:0:0:0:
64,192,56929,1,0,0:0:0:0:
320,192,57012,1,0,0:0:0:0:
192,192,57094,1,0,0:0:0:0:
64,192,57177,1,0,0:0:0:0:
320,192,57177,1,0,0:0:0:0:
448,192,57177,1,0,0:0:0:0:
192,192,57259,1,0,0:0:0:0:
64,192,57341,1,0,0:0:0:0:
448,192,57341,1,0,0:0:0:0:
320,192,57424,1,0,0:0:0:0:
448,192,57506,1,0,0:0:0:0:
64,192,57589,1,0,0:0:0:0:
192,192,57671,1,0,0:0:0:0:
64,192,57754,1,0,0:0:0:0:
448,192,57836,1,0,0:0:0:0:
320,192,57836,1,0,0:0:0:0:
192,192,57918,1,0,0:0:0:0:
64,192,57918,1,0,0:0:0:0:
448,192,58001,1,0,0:0:0:0:
320,192,58001,1,0,0:0:0:0:
192,192,58083,1,0,0:0:0:0:
320,192,58166,1,0,0:0:0:0:
448,192,58166,1,0,0:0:0:0:
64,192,58166,1,0,0:0:0:0:
192,192,58248,1,0,0:0:0:0:
448,192,58330,1,0,0:0:0:0:
320,192,58413,1,0,0:0:0:0:
192,192,58413,1,0,0:0:0:0:
64,192,58413,1,0,0:0:0:0:
448,192,58495,1,0,0:0:0:0:
64,192,58578,1,0,0:0:0:0:
192,192,58660,1,0,0:0:0:0:
320,192,58660,1,0,0:0:0:0:
448,192,58660,1,0,0:0:0:0:
64,192,58743,1,0,0:0:0:0:
320,192,58825,1,0,0:0:0:0:
448,192,58907,1,0,0:0:0:0:
192,192,58907,1,0,0:0:0:0:
64,192,58907,1,0,0:0:0:0:
320,192,58990,1,0,0:0:0:0:
192,192,59072,1,0,0:0:0:0:
64,192,59155,1,0,0:0:0:0:
320,192,59155,1,0,0:0:0:0:
448,192,59155,1,0,0:0:0:0:
192,192,59237,1,0,0:0:0:0:
448,192,59319,1,0,0:0:0:0:
320,192,59402,1,0,0:0:0:0:
192,192,59402,1,0,0:0:0:0:
64,192,59402,1,0,0:0:0:0:
448,192,59484,1,0,0:0:0:0:
64,192,59567,1,0,0:0:0:0:
192,192,59649,1,0,0:0:0:0:
320,192,59649,1,0,0:0:0:0:
448,192,59649,1,0,0:0:0:0:
64,192,59732,1,0,0:0:0:0:
448,192,59814,1,0,0:0:0:0:
320,192,59896,1,0,0:0:0:0:
192,192,59896,1,0,0:0:0:0:
64,192,59896,1,0,0:0:0:0:
448,192,59979,1,0,0:0:0:0:
192,192,60061,1,0,0:0:0:0:
64,192,60144,1,0,0:0:0:0:
320,192,60144,1,0,0:0:0:0:
448,192,60226,1,0,0:0:0:0:
192,192,60308,1,0,0:0:0:0:
320,192,60374,1,0,0:0:0:0:
64,192,60440,1,0,0:0:0:0:
192,192,60528,1,0,0:0:0:0:
320,192,60638,1,0,0:0:0:0:
448,192,60638,1,0,0:0:0:0:
192,192,60721,1,0,0:0:0:0:
64,192,60721,1,0,0:0:0:0:
320,192,60803,1,0,0:0:0:0:
448,192,60803,1,0,0:0:0:0:
64,192,60885,1,0,0:0:0:0:
192,192,60968,1,0,0:0:0:0:
320,192,60968,1,0,0:0:0:0:
448,192,60968,1,0,0:0:0:0:
64,192,61050,1,0,0:0:0:0:
320,192,61133,1,0,0:0:0:0:
448,192,61215,1,0,0:0:0:0:
192,192,61215,1,0,0:0:0:0:
64,192,61215,1,0,0:0:0:0:
320,192,61297,1,0,0:0:0:0:
192,192,61380,1,0,0:0:0:0:
64,192,61462,1,0,0:0:0:0:
320,192,61462,1,0,0:0:0:0:
448,192,61462,1,0,0:0:0:0:
192,192,61545,1,0,0:0:0:0:
448,192,61627,1,0,0:0:0:0:
320,192,61710,1,0,0:0:0:0:
192,192,61710,1,0,0:0:0:0:
64,192,61710,1,0,0:0:0:0:
448,192,61792,1,0,0:0:0:0:
64,192,61874,1,0,0:0:0:0:
192,192,61957,1,0,0:0:0:0:
320,192,61957,1,0,0:0:0:0:
448,192,61957,1,0,0:0:0:0:
64,192,62039,1,0,0:0:0:0:
320,192,62122,1,0,0:0:0:0:
192,192,62204,1,0,0:0:0:0:
64,192,62204,1,0,0:0:0:0:
448,192,62204,1,0,0:0:0:0:
320,192,62287,1,0,0:0:0:0:
192,192,62369,1,0,0:0:0:0:
64,192,62451,1,0,0:0:0:0:
320,192,62451,1,0,0:0:0:0:
448,192,62451,1,0,0:0:0:0:
192,192,62534,1,0,0:0:0:0:
448,192,62616,1,0,0:0:0:0:
64,192,62616,1,0,0:0:0:0:
320,192,62699,1,0,0:0:0:0:
448,192,62781,1,0,0:0:0:0:
64,192,62863,1,0,0:0:0:0:
192,192,62946,1,0,0:0:0:0:
64,192,63028,1,0,0:0:0:0:
448,192,63111,1,0,0:0:0:0:
320,192,63111,1,0,0:0:0:0:
192,192,63193,1,0,0:0:0:0:
64,192,63193,1,0,0:0:0:0:
320,192,63276,1,0,0:0:0:0:
448,192,63276,1,0,0:0:0:0:
192,192,63358,1,0,0:0:0:0:
64,192,63440,1,0,0:0:0:0:
320,192,63440,1,0,0:0:0:0:
448,192,63440,1,0,0:0:0:0:
192,192,63523,1,0,0:0:0:0:
448,192,63605,1,0,0:0:0:0:
320,192,63688,1,0,0:0:0:0:
192,192,63688,1,0,0:0:0:0:
64,192,63688,1,0,0:0:0:0:
448,192,63770,1,0,0:0:0:0:
64,192,63852,1,0,0:0:0:0:
192,192,63935,1,0,0:0:0:0:
320,192,63935,1,0,0:0:0:0:
448,192,63935,1,0,0:0:0:0:
64,192,64017,1,0,0:0:0:0:
448,192,64100,1,0,0:0:0:0:
320,192,64182,1,0,0:0:0:0:
192,192,64182,1,0,0:0:0:0:
64,192,64182,1,0,0:0:0:0:
448,192,64265,1,0,0:0:0:0:
192,192,64347,1,0,0:0:0:0:
320,192,64429,1,0,0:0:0:0:
448,192,64429,1,0,0:0:0:0:
64,192,64429,1,0,0:0:0:0:
192,192,64512,1,0,0:0:0:0:
320,192,64594,1,0,0:0:0:0:
448,192,64677,1,0,0:0:0:0:
192,192,64677,1,0,0:0:0:0:
64,192,64677,1,0,0:0:0:0:
320,192,64759,1,0,0:0:0:0:
64,192,64841,1,0,0:0:0:0:
192,192,64924,1,0,0:0:0:0:
320,192,64924,1,0,0:0:0:0:
448,192,64924,1,0,0:0:0:0:
64,192,65006,1,0,0:0:0:0:
320,192,65089,1,0,0:0:0:0:
192,192,65171,1,0,0:0:0:0:
64,192,65171,1,0,0:0:0:0:
448,192,65171,1,0,0:0:0:0:
320,192,65254,1,0,0:0:0:0:
192,192,65336,1,0,0:0:0:0:
448,192,65418,1,0,0:0:0:0:
64,192,65418,1,0,0:0:0:0:
192,192,65583,1,0,0:0:0:0:
64,192,65666,1,0,0:0:0:0:
448,192,65748,1,0,0:0:0:0:
320,192,65789,1,0,0:0:0:0:
192,192,65830,1,0,0:0:0:0:
64,192,65872,1,0,0:0:0:0:
320,192,65913,1,0,0:0:0:0:
448,192,65913,1,0,0:0:0:0:
192,192,65995,1,0,0:0:0:0:
64,192,65995,1,0,0:0:0:0:
320,192,66078,1,0,0:0:0:0:
448,192,66078,1,0,0:0:0:0:
64,192,66160,1,0,0:0:0:0:
320,192,66243,1,0,0:0:0:0:
448,192,66243,1,0,0:0:0:0:
192,192,66243,1,0,0:0:0:0:
64,192,66325,1,0,0:0:0:0:
448,192,66407,1,0,0:0:0:0:
64,192,66490,1,0,0:0:0:0:
192,192,66490,1,0,0:0:0:0:
320,192,66572,1,0,0:0:0:0:
448,192,66572,1,0,0:0:0:0:
192,192,66655,1,0,0:0:0:0:
320,192,66737,1,0,0:0:0:0:
448,192,66737,1,0,0:0:0:0:
64,192,66819,1,0,0:0:0:0:
192,192,66902,1,0,0:0:0:0:
320,192,66902,1,0,0:0:0:0:
64,192,66984,1,0,0:0:0:0:
448,192,66984,1,0,0:0:0:0:
320,192,67067,1,0,0:0:0:0:
192,192,67149,1,0,0:0:0:0:
64,192,67232,1,0,0:0:0:0:
320,192,67232,1,0,0:0:0:0:
448,192,67314,1,0,0:0:0:0:
192,192,67396,1,0,0:0:0:0:
320,192,67479,1,0,0:0:0:0:
448,192,67479,1,0,0:0:0:0:
192,192,67561,1,0,0:0:0:0:
64,192,67561,1,0,0:0:0:0:
448,192,67644,1,0,0:0:0:0:
192,192,67726,1,0,0:0:0:0:
320,192,67726,1,0,0:0:0:0:
64,192,67808,1,0,0:0:0:0:
320,192,67891,1,0,0:0:0:0:
448,192,67891,1,0,0:0:0:0:
192,192,67973,1,0,0:0:0:0:
64,192,68056,1,0,0:0:0:0:
448,192,68056,1,0,0:0:0:0:
192,192,68138,1,0,0:0:0:0:
320,192,68221,1,0,0:0:0:0:
448,192,68221,1,0,0:0:0:0:
64,192,68303,1,0,0:0:0:0:
192,192,68385,1,0,0:0:0:0:
320,192,68385,1,0,0:0:0:0:
448,192,68468,1,0,0:0:0:0:
320,192,68550,1,0,0:0:0:0:
64,192,68550,1,0,0:0:0:0:
448,192,68633,1,0,0:0:0:0:
192,192,68715,1,0,0:0:0:0:
64,192,68715,1,0,0:0:0:0:
320,192,68797,1,0,0:0:0:0:
448,192,68880,1,0,0:0:0:0:
64,192,68880,1,0,0:0:0:0:
320,192,68962,1,0,0:0:0:0:
192,192,68962,1,0,0:0:0:0:
64,192,69045,1,0,0:0:0:0:
320,192,69127,1,0,0:0:0:0:
192,192,69210,1,0,0:0:0:0:
448,192,69210,1,0,0:0:0:0:
64,192,69292,1,0,0:0:0:0:
320,192,69374,1,0,0:0:0:0:
192,192,69457,1,0,0:0:0:0:
64,192,69457,1,0,0:0:0:0:
320,192,69539,1,0,0:0:0:0:
448,192,69539,1,0,0:0:0:0:
192,192,69622,1,0,0:0:0:0:
320,192,69704,1,0,0:0:0:0:
448,192,69704,1,0,0:0:0:0:
64,192,69787,1,0,0:0:0:0:
192,192,69869,1,0,0:0:0:0:
448,192,69869,1,0,0:0:0:0:
320,192,69951,1,0,0:0:0:0:
64,192,69951,1,0,0:0:0:0:
448,192,70034,1,0,0:0:0:0:
192,192,70116,1,0,0:0:0:0:
64,192,70199,1,0,0:0:0:0:
448,192,70199,1,0,0:0:0:0:
320,192,70281,1,0,0:0:0:0:
192,192,70363,1,0,0:0:0:0:
448,192,70446,1,0,0:0:0:0:
320,192,70446,1,0,0:0:0:0:
192,192,70528,1,0,0:0:0:0:
64,192,70528,1,0,0:0:0:0:
448,192,70611,1,0,0:0:0:0:
320,192,70693,1,0,0:0:0:0:
64,192,70693,1,0,0:0:0:0:
448,192,70776,1,0,0:0:0:0:
192,192,70858,1,0,0:0:0:0:
64,192,70858,1,0,0:0:0:0:
448,192,70940,1,0,0:0:0:0:
320,192,71023,1,0,0:0:0:0:
192,192,71023,1,0,0:0:0:0:
64,192,71105,1,0,0:0:0:0:
320,192,71188,1,0,0:0:0:0:
448,192,71188,1,0,0:0:0:0:
192,192,71270,1,0,0:0:0:0:
64,192,71270,1,0,0:0:0:0:
320,192,71352,1,0,0:0:0:0:
448,192,71352,1,0,0:0:0:0:
192,192,71435,1,0,0:0:0:0:
64,192,71517,1,0,0:0:0:0:
320,192,71517,1,0,0:0:0:0:
448,192,71517,1,0,0:0:0:0:
192,192,71600,1,0,0:0:0:0:
448,192,71682,1,0,0:0:0:0:
64,192,71765,1,0,0:0:0:0:
192,192,71765,1,0,0:0:0:0:
448,192,71847,1,0,0:0:0:0:
320,192,71847,1,0,0:0:0:0:
64,192,71929,1,0,0:0:0:0:
448,192,72012,1,0,0:0:0:0:
320,192,72012,1,0,0:0:0:0:
192,192,72094,1,0,0:0:0:0:
64,192,72177,1,0,0:0:0:0:
320,192,72177,1,0,0:0:0:0:
192,192,72259,1,0,0:0:0:0:
448,192,72259,1,0,0:0:0:0:
320,192,72341,1,0,0:0:0:0:
64,192,72424,1,0,0:0:0:0:
192,192,72506,1,0,0:0:0:0:
448,192,72506,1,0,0:0:0:0:
320,192,72589,1,0,0:0:0:0:
64,192,72671,1,0,0:0:0:0:
448,192,72754,1,0,0:0:0:0:
320,192,72754,1,0,0:0:0:0:
192,192,72836,1,0,0:0:0:0:
64,192,72836,1,0,0:0:0:0:
448,192,72918,1,0,0:0:0:0:
320,192,73001,1,0,0:0:0:0:
192,192,73001,1,0,0:0:0:0:
448,192,73083,1,0,0:0:0:0:
192,192,73166,1,0,0:0:0:0:
64,192,73166,1,0,0:0:0:0:
320,192,73248,1,0,0:0:0:0:
64,192,73330,1,0,0:0:0:0:
448,192,73413,1,0,0:0:0:0:
192,192,73495,1,0,0:0:0:0:
64,192,73495,1,0,0:0:0:0:
320,192,73578,1,0,0:0:0:0:
64,192,73660,1,0,0:0:0:0:
192,192,73660,1,0,0:0:0:0:
448,192,73715,1,0,0:0:0:0:
320,192,73770,1,0,0:0:0:0:
192,192,73825,1,0,0:0:0:0:
64,192,73825,1,0,0:0:0:0:
448,192,73907,1,0,0:0:0:0:
320,192,73990,1,0,0:0:0:0:
192,192,73990,1,0,0:0:0:0:
64,192,73990,1,0,0:0:0:0:
448,192,74072,1,0,0:0:0:0:
192,192,74155,1,0,0:0:0:0:
320,192,74237,1,0,0:0:0:0:
64,192,74237,1,0,0:0:0:0:
448,192,74237,1,0,0:0:0:0:
192,192,74319,1,0,0:0:0:0:
448,192,74402,1,0,0:0:0:0:
320,192,74484,1,0,0:0:0:0:
64,192,74484,1,0,0:0:0:0:
192,192,74484,1,0,0:0:0:0:
448,192,74567,1,0,0:0:0:0:
64,192,74649,1,0,0:0:0:0:
320,192,74732,1,0,0:0:0:0:
448,192,74732,1,0,0:0:0:0:
192,192,74732,1,0,0:0:0:0:
64,192,74814,1,0,0:0:0:0:
320,192,74896,1,0,0:0:0:0:
448,192,74979,1,0,0:0:0:0:
192,192,74979,1,0,0:0:0:0:
64,192,74979,1,0,0:0:0:0:
192,192,75226,1,0,0:0:0:0:
320,192,75226,1,0,0:0:0:0:
320,192,75473,1,0,0:0:0:0:
448,192,75473,1,0,0:0:0:0:
320,192,75721,1,0,0:0:0:0:
192,192,75721,1,0,0:0:0:0:
64,192,75968,1,0,0:0:0:0:
192,192,76009,1,0,0:0:0:0:
320,192,76050,1,0,0:0:0:0:
448,192,76091,1,0,0:0:0:0:
192,192,76133,1,0,0:0:0:0:
64,192,76133,1,0,0:0:0:0:
448,192,76215,1,0,0:0:0:0:
64,192,76297,1,0,0:0:0:0:
320,192,76380,1,0,0:0:0:0:
448,192,76462,1,0,0:0:0:0:
64,192,76462,1,0,0:0:0:0:
192,192,76462,1,0,0:0:0:0:
320,192,76545,1,0,0:0:0:0:
64,192,76627,1,0,0:0:0:0:
448,192,76627,1,0,0:0:0:0:
192,192,76710,1,0,0:0:0:0:
320,192,76710,1,0,0:0:0:0:
448,192,76792,1,0,0:0:0:0:
64,192,76792,1,0,0:0:0:0:
192,192,76874,1,0,0:0:0:0:
320,192,76957,1,0,0:0:0:0:
448,192,76957,1,0,0:0:0:0:
64,192,77039,1,0,0:0:0:0:
192,192,77122,1,0,0:0:0:0:
448,192,77122,1,0,0:0:0:0:
320,192,77204,1,0,0:0:0:0:
64,192,77204,1,0,0:0:0:0:
448,192,77287,1,0,0:0:0:0:
192,192,77369,1,0,0:0:0:0:
64,192,77369,1,0,0:0:0:0:
320,192,77451,1,0,0:0:0:0:
64,192,77534,1,0,0:0:0:0:
448,192,77534,1,0,0:0:0:0:
192,192,77616,1,0,0:0:0:0:
320,192,77616,1,0,0:0:0:0:
64,192,77699,1,0,0:0:0:0:
448,192,77781,1,0,0:0:0:0:
320,192,77781,1,0,0:0:0:0:
192,192,77863,1,0,0:0:0:0:
64,192,77863,1,0,0:0:0:0:
320,192,77946,1,0,0:0:0:0:
448,192,77946,1,0,0:0:0:0:
192,192,78028,1,0,0:0:0:0:
448,192,78111,1,0,0:0:0:0:
320,192,78111,1,0,0:0:0:0:
64,192,78193,1,0,0:0:0:0:
192,192,78276,1,0,0:0:0:0:
448,192,78276,1,0,0:0:0:0:
64,192,78358,1,0,0:0:0:0:
320,192,78358,1,0,0:0:0:0:
448,192,78440,1,0,0:0:0:0:
192,192,78440,1,0,0:0:0:0:
64,192,78523,1,0,0:0:0:0:
320,192,78605,1,0,0:0:0:0:
448,192,78605,1,0,0:0:0:0:
64,192,78688,1,0,0:0:0:0:
192,192,78688,1,0,0:0:0:0:
448,192,78770,1,0,0:0:0:0:
320,192,78770,1,0,0:0:0:0:
192,192,78852,1,0,0:0:0:0:
448,192,78935,1,0,0:0:0:0:
64,192,78935,1,0,0:0:0:0:
320,192,79017,1,0,0:0:0:0:
64,192,79100,1,0,0:0:0:0:
192,192,79100,1,0,0:0:0:0:
320,192,79182,1,0,0:0:0:0:
448,192,79265,1,0,0:0:0:0:
192,192,79265,1,0,0:0:0:0:
320,192,79347,1,0,0:0:0:0:
192,192,79429,1,0,0:0:0:0:
64,192,79429,1,0,0:0:0:0:
448,192,79512,1,0,0:0:0:0:
64,192,79594,1,0,0:0:0:0:
320,192,79594,1,0,0:0:0:0:
448,192,79677,1,0,0:0:0:0:
192,192,79759,1,0,0:0:0:0:
64,192,79759,1,0,0:0:0:0:
320,192,79841,1,0,0:0:0:0:
64,192,79924,1,0,0:0:0:0:
192,192,79924,1,0,0:0:0:0:
448,192,80006,1,0,0:0:0:0:
320,192,80089,1,0,0:0:0:0:
192,192,80089,1,0,0:0:0:0:
64,192,80171,1,0,0:0:0:0:
448,192,80171,1,0,0:0:0:0:
320,192,80254,1,0,0:0:0:0:
192,192,80254,1,0,0:0:0:0:
64,192,80336,1,0,0:0:0:0:
320,192,80418,1,0,0:0:0:0:
448,192,80418,1,0,0:0:0:0:
192,192,80501,1,0,0:0:0:0:
64,192,80583,1,0,0:0:0:0:
448,192,80583,1,0,0:0:0:0:
192,192,80666,1,0,0:0:0:0:
320,192,80748,1,0,0:0:0:0:
448,192,80748,1,0,0:0:0:0:
64,192,80830,1,0,0:0:0:0:
192,192,80913,1,0,0:0:0:0:
320,192,80913,1,0,0:0:0:0:
64,192,80995,1,0,0:0:0:0:
320,192,81078,1,0,0:0:0:0:
448,192,81078,1,0,0:0:0:0:
192,192,81160,1,0,0:0:0:0:
64,192,81243,1,0,0:0:0:0:
320,192,81243,1,0,0:0:0:0:
192,192,81325,1,0,0:0:0:0:
448,192,81325,1,0,0:0:0:0:
320,192,81407,1,0,0:0:0:0:
64,192,81407,1,0,0:0:0:0:
448,192,81490,1,0,0:0:0:0:
192,192,81572,1,0,0:0:0:0:
64,192,81572,1,0,0:0:0:0:
320,192,81655,1,0,0:0:0:0:
448,192,81655,1,0,0:0:0:0:
192,192,81737,1,0,0:0:0:0:
64,192,81737,1,0,0:0:0:0:
320,192,81819,1,0,0:0:0:0:
448,192,81902,1,0,0:0:0:0:
192,192,81902,1,0,0:0:0:0:
320,192,81984,1,0,0:0:0:0:
64,192,81984,1,0,0:0:0:0:
448,192,82067,1,0,0:0:0:0:
192,192,82067,1,0,0:0:0:0:
64,192,82149,1,0,0:0:0:0:
320,192,82232,1,0,0:0:0:0:
448,192,82232,1,0,0:0:0:0:
192,192,82314,1,0,0:0:0:0:
64,192,82396,1,0,0:0:0:0:
448,192,82396,1,0,0:0:0:0:
192,192,82479,1,0,0:0:0:0:
320,192,82479,1,0,0:0:0:0:
448,192,82561,1,0,0:0:0:0:
192,192,82644,1,0,0:0:0:0:
64,192,82644,1,0,0:0:0:0:
320,192,82726,1,0,0:0:0:0:
448,192,82726,1,0,0:0:0:0:
192,192,82808,1,0,0:0:0:0:
64,192,82808,1,0,0:0:0:0:
448,192,82891,1,0,0:0:0:0:
320,192,82891,1,0,0:0:0:0:
192,192,82973,1,0,0:0:0:0:
64,192,82973,1,0,0:0:0:0:
320,192,83056,1,0,0:0:0:0:
448,192,83138,1,0,0:0:0:0:
320,192,83221,1,0,0:0:0:0:
64,192,83221,1,0,0:0:0:0:
192,192,83303,1,0,0:0:0:0:
64,192,83385,1,0,0:0:0:0:
448,192,83385,1,0,0:0:0:0:
320,192,83468,1,0,0:0:0:0:
192,192,83550,1,0,0:0:0:0:
448,192,83550,1,0,0:0:0:0:
64,192,83633,1,0,0:0:0:0:
320,192,83715,1,0,0:0:0:0:
448,192,83715,1,0,0:0:0:0:
192,192,83797,1,0,0:0:0:0:
64,192,83880,1,0,0:0:0:0:
320,192,83880,1,0,0:0:0:0:
448,192,83962,1,0,0:0:0:0:
320,192,84045,1,0,0:0:0:0:
64,192,84045,1,0,0:0:0:0:
192,192,84127,1,0,0:0:0:0:
64,192,84210,1,0,0:0:0:0:
448,192,84210,1,0,0:0:0:0:
320,192,84292,1,0,0:0:0:0:
448,192,84374,1,0,0:0:0:0:
192,192,84374,1,0,0:0:0:0:
64,192,84374,1,0,0:0:0:0:
320,192,84457,1,0,0:0:0:0:
192,192,84539,1,0,0:0:0:0:
64,192,84622,1,0,0:0:0:0:
448,192,84704,1,0,0:0:0:0:
192,192,84787,1,0,0:0:0:0:
448,192,84869,1,0,0:0:0:0:
192,192,84951,1,0,0:0:0:0:
64,192,85034,1,0,0:0:0:0:
320,192,85034,1,0,0:0:0:0:
448,192,85034,1,0,0:0:0:0:
192,192,85116,1,0,0:0:0:0:
320,192,85199,1,0,0:0:0:0:
448,192,85281,1,0,0:0:0:0:
64,192,85363,1,0,0:0:0:0:
320,192,85446,1,0,0:0:0:0:
64,192,85528,1,0,0:0:0:0:
320,192,85611,1,0,0:0:0:0:
192,192,85693,1,0,0:0:0:0:
64,192,85693,1,0,0:0:0:0:
448,192,85693,1,0,0:0:0:0:
320,192,85776,1,0,0:0:0:0:
448,192,85858,1,0,0:0:0:0:
320,192,85940,1,0,0:0:0:0:
192,192,86023,1,0,0:0:0:0:
64,192,86023,1,0,0:0:0:0:
448,192,86105,1,0,0:0:0:0:
320,192,86188,1,0,0:0:0:0:
448,192,86270,1,0,0:0:0:0:
192,192,86352,1,0,0:0:0:0:
64,192,86352,1,0,0:0:0:0:
320,192,86435,1,0,0:0:0:0:
448,192,86517,1,0,0:0:0:0:
64,192,86517,1,0,0:0:0:0:
192,192,86600,1,0,0:0:0:0:
64,192,86682,1,0,0:0:0:0:
320,192,86682,1,0,0:0:0:0:
448,192,86682,1,0,0:0:0:0:
192,192,86847,1,0,0:0:0:0:
320,192,86847,1,0,0:0:0:0:
448,192,87012,1,0,0:0:0:0:
320,192,87012,1,0,0:0:0:0:
64,192,87012,1,0,0:0:0:0:
192,192,87094,1,0,0:0:0:0:
448,192,87177,1,0,0:0:0:0:
64,192,87177,1,0,0:0:0:0:
320,192,87259,1,0,0:0:0:0:
192,192,87259,1,0,0:0:0:0:
448,192,87341,1,0,0:0:0:0:
64,192,87341,1,0,0:0:0:0:
320,192,87424,1,0,0:0:0:0:
192,192,87506,1,0,0:0:0:0:
64,192,87506,1,0,0:0:0:0:
448,192,87589,1,0,0:0:0:0:
320,192,87671,1,0,0:0:0:0:
64,192,87671,1,0,0:0:0:0:
192,192,87754,1,0,0:0:0:0:
448,192,87754,1,0,0:0:0:0:
64,192,87836,1,0,0:0:0:0:
320,192,87918,1,0,0:0:0:0:
448,192,87918,1,0,0:0:0:0:
192,192,88001,1,0,0:0:0:0:
64,192,88083,1,0,0:0:0:0:
320,192,88083,1,0,0:0:0:0:
192,192,88166,1,0,0:0:0:0:
448,192,88166,1,0,0:0:0:0:
320,192,88248,1,0,0:0:0:0:
192,192,88330,1,0,0:0:0:0:
64,192,88330,1,0,0:0:0:0:
320,192,88413,1,0,0:0:0:0:
448,192,88413,1,0,0:0:0:0:
192,192,88495,1,0,0:0:0:0:
64,192,88495,1,0,0:0:0:0:
320,192,88578,1,0,0:0:0:0:
448,192,88660,1,0,0:0:0:0:
64,192,88660,1,0,0:0:0:0:
320,192,88743,1,0,0:0:0:0:
192,192,88743,1,0,0:0:0:0:
64,192,88825,1,0,0:0:0:0:
448,192,88825,1,0,0:0:0:0:
192,192,88907,1,0,0:0:0:0:
448,192,88990,1,0,0:0:0:0:
320,192,89031,1,0,0:0:0:0:
64,192,89072,1,0,0:0:0:0:
192,192,89113,1,0,0:0:0:0:
320,192,89155,1,0,0:0:0:0:
448,192,89155,1,0,0:0:0:0:
64,192,89237,1,0,0:0:0:0:
320,192,89319,1,0,0:0:0:0:
448,192,89319,1,0,0:0:0:0:
320,192,89484,1,0,0:0:0:0:
448,192,89484,1,0,0:0:0:0:
64,192,89484,1,0,0:0:0:0:
192,192,89649,1,0,0:0:0:0:
192,192,89814,1,0,0:0:0:0:
64,192,89814,1,0,0:0:0:0:
448,192,89814,1,0,0:0:0:0:
320,192,89979,1,0,0:0:0:0:
448,192,89979,1,0,0:0:0:0:
320,192,90144,1,0,0:0:0:0:
192,192,90144,1,0,0:0:0:0:
64,192,90144,1,0,0:0:0:0:
448,192,90226,1,0,0:0:0:0:
192,192,90308,1,0,0:0:0:0:
64,192,90308,1,0,0:0:0:0:
320,192,90391,1,0,0:0:0:0:
448,192,90391,1,0,0:0:0:0:
192,192,90473,1,0,0:0:0:0:
64,192,90473,1,0,0:0:0:0:
64,192,90638,1,0,0:0:0:0:
320,192,90638,1,0,0:0:0:0:
448,192,90721,1,0,0:0:0:0:
64,192,90803,1,0,0:0:0:0:
320,192,90803,1,0,0:0:0:0:
192,192,90803,1,0,0:0:0:0:
320,192,90968,1,0,0:0:0:0:
64,192,91133,1,0,0:0:0:0:
192,192,91133,1,0,0:0:0:0:
448,192,91133,1,0,0:0:0:0:
64,192,91297,1,0,0:0:0:0:
320,192,91462,1,0,0:0:0:0:
448,192,91462,1,0,0:0:0:0:
192,192,91462,1,0,0:0:0:0:
64,192,91545,1,0,0:0:0:0:
320,192,91627,1,0,0:0:0:0:
448,192,91627,1,0,0:0:0:0:
192,192,91710,1,0,0:0:0:0:
64,192,91710,1,0,0:0:0:0:
320,192,91792,1,0,0:0:0:0:
448,192,91792,1,0,0:0:0:0:
192,192,91957,1,0,0:0:0:0:
64,192,91957,1,0,0:0:0:0:
320,192,92122,1,0,0:0:0:0:
192,192,92122,1,0,0:0:0:0:
448,192,92204,1,0,0:0:0:0:
192,192,92287,1,0,0:0:0:0:
64,192,92287,1,0,0:0:0:0:
320,192,92369,1,0,0:0:0:0:
448,192,92369,1,0,0:0:0:0:
192,192,92451,1,0,0:0:0:0:
64,192,92451,1,0,0:0:0:0:
320,192,92534,1,0,0:0:0:0:
448,192,92534,1,0,0:0:0:0:
192,192,92616,1,0,0:0:0:0:
64,192,92616,1,0,0:0:0:0:
448,192,92699,1,0,0:0:0:0:
320,192,92699,1,0,0:0:0:0:
192,192,92781,1,0,0:0:0:0:
64,192,92781,1,0,0:0:0:0:
320,192,92863,1,0,0:0:0:0:
448,192,92863,1,0,0:0:0:0:
64,192,92946,1,0,0:0:0:0:
192,192,92987,1,0,0:0:0:0:
448,192,93028,1,0,0:0:0:0:
320,192,93069,1,0,0:0:0:0:
64,192,93111,1,0,0:0:0:0:
192,192,93152,1,0,0:0:0:0:
448,192,93193,1,0,0:0:0:0:
320,192,93234,1,0,0:0:0:0:
192,192,93276,1,0,0:0:0:0:
64,192,93276,1,0,0:0:0:0:
320,192,93358,1,0,0:0:0:0:
448,192,93358,1,0,0:0:0:0:
192,192,93440,1,0,0:0:0:0:
64,192,93440,1,0,0:0:0:0:
320,192,93523,1,0,0:0:0:0:
448,192,93523,1,0,0:0:0:0:
64,192,93605,1,0,0:0:0:0:
192,192,93660,1,0,0:0:0:0:
320,192,93715,1,0,0:0:0:0:
448,192,93770,1,0,0:0:0:0:
64,192,93825,1,0,0:0:0:0:
320,192,93880,1,0,0:0:0:0:
192,192,93935,1,0,0:0:0:0:
448,192,93990,1,0,0:0:0:0:
64,192,94045,1,0,0:0:0:0:
320,192,94100,1,0,0:0:0:0:
192,192,94155,1,0,0:0:0:0:
64,192,94210,1,0,0:0:0:0:
448,192,94265,1,0,0:0:0:0:
320,192,94319,1,0,0:0:0:0:
192,192,94374,1,0,0:0:0:0:
64,192,94429,1,0,0:0:0:0:
448,192,94484,1,0,0:0:0:0:
320,192,94539,1,0,0:0:0:0:
192,192,94594,1,0,0:0:0:0:
448,192,94649,1,0,0:0:0:0:
64,192,94704,1,0,0:0:0:0:
192,192,94759,1,0,0:0:0:0:
320,192,94814,1,0,0:0:0:0:
448,192,94869,1,0,0:0:0:0:
64,192,94924,1,0,0:0:0:0:
192,192,94924,1,0,0:0:0:0:
64,192,95254,1,0,0:0:0:0:
64,192,95418,1,0,0:0:0:0:
64,192,95583,1,0,0:0:0:0:
64,192,95748,1,0,0:0:0:0:
64,192,95913,1,0,0:0:0:0:
64,192,96078,1,0,0:0:0:0:
64,192,96243,1,0,0:0:0:0:
64,192,96572,1,0,0:0:0:0:
192,192,96655,1,0,0:0:0:0:
64,192,96737,1,0,0:0:0:0:
320,192,97067,1,0,0:0:0:0:
64,192,97149,1,0,0:0:0:0:
448,192,97232,1,0,0:0:0:0:
64,192,97314,1,0,0:0:0:0:
448,192,97396,1,0,0:0:0:0:
320,192,97479,1,0,0:0:0:0:
192,192,97561,1,0,0:0:0:0:
64,192,97561,1,0,0:0:0:0:
320,192,98056,1,0,0:0:0:0:
64,192,98138,1,0,0:0:0:0:
192,192,98221,1,0,0:0:0:0:
320,192,98385,1,0,0:0:0:0:
448,192,98550,1,0,0:0:0:0:
448,192,98715,1,0,0:0:0:0:
64,192,99045,1,0,0:0:0:0:
192,192,99374,1,0,0:0:0:0:
64,192,99457,1,0,0:0:0:0:
192,192,99539,1,0,0:0:0:0:
64,192,99704,1,0,0:0:0:0:
192,192,99869,1,0,0:0:0:0:
448,192,100034,1,0,0:0:0:0:
320,192,100199,1,0,0:0:0:0:
64,192,100693,1,0,0:0:0:0:
192,192,100776,1,0,0:0:0:0:
64,192,100858,1,0,0:0:0:0:
192,192,101023,1,0,0:0:0:0:
320,192,101188,1,0,0:0:0:0:
320,192,101352,1,0,0:0:0:0:
448,192,101682,1,0,0:0:0:0:
448,192,102012,1,0,0:0:0:0:
320,192,102094,1,0,0:0:0:0:
448,192,102177,1,0,0:0:0:0:
192,192,102341,1,0,0:0:0:0:
448,192,102396,1,0,0:0:0:0:
320,192,102451,1,0,0:0:0:0:
192,192,102506,1,0,0:0:0:0:
64,192,102671,1,0,0:0:0:0:
320,192,102726,1,0,0:0:0:0:
192,192,102781,1,0,0:0:0:0:
64,192,102836,1,0,0:0:0:0:
64,192,103166,1,0,0:0:0:0:
448,192,103166,1,0,0:0:0:0:
192,192,103495,1,0,0:0:0:0:
64,192,103578,1,0,0:0:0:0:
192,192,103660,1,0,0:0:0:0:
320,192,103743,1,0,0:0:0:0:
448,192,103825,1,0,0:0:0:0:
448,192,103990,1,0,0:0:0:0:
320,192,104319,1,0,0:0:0:0:
192,192,104649,1,0,0:0:0:0:
64,192,104979,1,0,0:0:0:0:
320,192,105061,1,0,0:0:0:0:
192,192,105144,1,0,0:0:0:0:
320,192,105308,1,0,0:0:0:0:
448,192,105473,1,0,0:0:0:0:
320,192,105638,1,0,0:0:0:0:
192,192,105721,1,0,0:0:0:0:
320,192,105803,1,0,0:0:0:0:
448,192,105968,1,0,0:0:0:0:
320,192,106009,1,0,0:0:0:0:
192,192,106050,1,0,0:0:0:0:
64,192,106091,1,0,0:0:0:0:
320,192,106133,1,0,0:0:0:0:
448,192,106133,1,0,0:0:0:0:
192,192,106215,1,0,0:0:0:0:
448,192,106297,1,0,0:0:0:0:
64,192,106380,1,0,0:0:0:0:
320,192,106462,1,0,0:0:0:0:
64,192,106545,1,0,0:0:0:0:
320,192,106627,1,0,0:0:0:0:
448,192,106627,1,0,0:0:0:0:
192,192,106627,1,0,0:0:0:0:
320,192,106957,1,0,0:0:0:0:
64,192,106957,1,0,0:0:0:0:
320,192,107287,1,0,0:0:0:0:
192,192,107287,1,0,0:0:0:0:
64,192,107287,1,0,0:0:0:0:
192,192,107616,1,0,0:0:0:0:
448,192,107616,1,0,0:0:0:0:
320,192,107699,1,0,0:0:0:0:
192,192,107781,1,0,0:0:0:0:
448,192,107781,1,0,0:0:0:0:
64,192,107781,1,0,0:0:0:0:
448,192,107946,1,0,0:0:0:0:
320,192,107946,1,0,0:0:0:0:
192,192,108028,1,0,0:0:0:0:
64,192,108111,1,0,0:0:0:0:
448,192,108111,1,0,0:0:0:0:
320,192,108111,1,0,0:0:0:0:
192,192,108193,1,0,0:0:0:0:
448,192,108276,1,0,0:0:0:0:
64,192,108276,1,0,0:0:0:0:
320,192,108358,1,0,0:0:0:0:
192,192,108440,1,0,0:0:0:0:
64,192,108440,1,0,0:0:0:0:
448,192,108523,1,0,0:0:0:0:
320,192,108605,1,0,0:0:0:0:
64,192,108605,1,0,0:0:0:0:
192,192,108688,1,0,0:0:0:0:
448,192,108688,1,0,0:0:0:0:
320,192,108770,1,0,0:0:0:0:
64,192,108770,1,0,0:0:0:0:
192,192,108852,1,0,0:0:0:0:
320,192,108935,1,0,0:0:0:0:
448,192,108935,1,0,0:0:0:0:
64,192,109017,1,0,0:0:0:0:
192,192,109100,1,0,0:0:0:0:
448,192,109100,1,0,0:0:0:0:
320,192,109182,1,0,0:0:0:0:
192,192,109265,1,0,0:0:0:0:
448,192,109265,1,0,0:0:0:0:
64,192,109347,1,0,0:0:0:0:
320,192,109429,1,0,0:0:0:0:
448,192,109429,1,0,0:0:0:0:
192,192,109512,1,0,0:0:0:0:
64,192,109594,1,0,0:0:0:0:
320,192,109594,1,0,0:0:0:0:
192,192,109677,1,0,0:0:0:0:
320,192,109759,1,0,0:0:0:0:
448,192,109759,1,0,0:0:0:0:
64,192,109841,1,0,0:0:0:0:
192,192,109924,1,0,0:0:0:0:
320,192,109924,1,0,0:0:0:0:
448,192,110006,1,0,0:0:0:0:
64,192,110006,1,0,0:0:0:0:
320,192,110089,1,0,0:0:0:0:
192,192,110089,1,0,0:0:0:0:
448,192,110171,1,0,0:0:0:0:
192,192,110254,1,0,0:0:0:0:
64,192,110254,1,0,0:0:0:0:
320,192,110336,1,0,0:0:0:0:
448,192,110418,1,0,0:0:0:0:
64,192,110418,1,0,0:0:0:0:
192,192,110501,1,0,0:0:0:0:
64,192,110583,1,0,0:0:0:0:
448,192,110583,1,0,0:0:0:0:
320,192,110666,1,0,0:0:0:0:
192,192,110748,1,0,0:0:0:0:
64,192,110748,1,0,0:0:0:0:
448,192,110830,1,0,0:0:0:0:
320,192,110913,1,0,0:0:0:0:
192,192,110913,1,0,0:0:0:0:
64,192,110995,1,0,0:0:0:0:
448,192,111078,1,0,0:0:0:0:
320,192,111078,1,0,0:0:0:0:
192,192,111160,1,0,0:0:0:0:
64,192,111243,1,0,0:0:0:0:
448,192,111243,1,0,0:0:0:0:
320,192,111325,1,0,0:0:0:0:
192,192,111325,1,0,0:0:0:0:
64,192,111407,1,0,0:0:0:0:
448,192,111407,1,0,0:0:0:0:
320,192,111490,1,0,0:0:0:0:
192,192,111572,1,0,0:0:0:0:
64,192,111572,1,0,0:0:0:0:
320,192,111655,1,0,0:0:0:0:
448,192,111737,1,0,0:0:0:0:
192,192,111737,1,0,0:0:0:0:
320,192,111819,1,0,0:0:0:0:
192,192,111902,1,0,0:0:0:0:
448,192,111902,1,0,0:0:0:0:
64,192,111984,1,0,0:0:0:0:
192,192,112067,1,0,0:0:0:0:
448,192,112067,1,0,0:0:0:0:
320,192,112067,1,0,0:0:0:0:
64,192,112149,1,0,0:0:0:0:
320,192,112232,1,0,0:0:0:0:
448,192,112232,1,0,0:0:0:0:
192,192,112314,1,0,0:0:0:0:
64,192,112396,1,0,0:0:0:0:
448,192,112479,1,0,0:0:0:0:
192,192,112561,1,0,0:0:0:0:
64,192,112561,1,0,0:0:0:0:
320,192,112644,1,0,0:0:0:0:
448,192,112726,1,0,0:0:0:0:
192,192,112726,1,0,0:0:0:0:
64,192,112726,1,0,0:0:0:0:
320,192,112808,1,0,0:0:0:0:
448,192,112891,1,0,0:0:0:0:
192,192,112891,1,0,0:0:0:0:
64,192,112973,1,0,0:0:0:0:
448,192,113056,1,0,0:0:0:0:
192,192,113056,1,0,0:0:0:0:
320,192,113138,1,0,0:0:0:0:
64,192,113221,1,0,0:0:0:0:
192,192,113221,1,0,0:0:0:0:
448,192,113303,1,0,0:0:0:0:
64,192,113385,1,0,0:0:0:0:
192,192,113385,1,0,0:0:0:0:
320,192,113468,1,0,0:0:0:0:
448,192,113468,1,0,0:0:0:0:
192,192,113550,1,0,0:0:0:0:
64,192,113550,1,0,0:0:0:0:
320,192,113633,1,0,0:0:0:0:
192,192,113715,1,0,0:0:0:0:
64,192,113715,1,0,0:0:0:0:
448,192,113715,1,0,0:0:0:0:
320,192,113797,1,0,0:0:0:0:
64,192,113880,1,0,0:0:0:0:
448,192,113880,1,0,0:0:0:0:
192,192,113962,1,0,0:0:0:0:
448,192,114045,1,0,0:0:0:0:
320,192,114045,1,0,0:0:0:0:
64,192,114127,1,0,0:0:0:0:
448,192,114210,1,0,0:0:0:0:
320,192,114210,1,0,0:0:0:0:
192,192,114292,1,0,0:0:0:0:
448,192,114374,1,0,0:0:0:0:
320,192,114374,1,0,0:0:0:0:
64,192,114457,1,0,0:0:0:0:
192,192,114539,1,0,0:0:0:0:
448,192,114539,1,0,0:0:0:0:
64,192,114622,1,0,0:0:0:0:
448,192,114704,1,0,0:0:0:0:
320,192,114704,1,0,0:0:0:0:
192,192,114787,1,0,0:0:0:0:
64,192,114869,1,0,0:0:0:0:
320,192,114869,1,0,0:0:0:0:
192,192,114951,1,0,0:0:0:0:
320,192,115034,1,0,0:0:0:0:
448,192,115034,1,0,0:0:0:0:
64,192,115116,1,0,0:0:0:0:
192,192,115199,1,0,0:0:0:0:
448,192,115199,1,0,0:0:0:0:
64,192,115281,1,0,0:0:0:0:
448,192,115363,1,0,0:0:0:0:
320,192,115363,1,0,0:0:0:0:
192,192,115446,1,0,0:0:0:0:
64,192,115528,1,0,0:0:0:0:
320,192,115528,1,0,0:0:0:0:
448,192,115611,1,0,0:0:0:0:
192,192,115693,1,0,0:0:0:0:
320,192,115693,1,0,0:0:0:0:
64,192,115776,1,0,0:0:0:0:
320,192,115858,1,0,0:0:0:0:
448,192,115858,1,0,0:0:0:0:
64,192,115940,1,0,0:0:0:0:
192,192,116023,1,0,0:0:0:0:
320,192,116023,1,0,0:0:0:0:
448,192,116023,1,0,0:0:0:0:
64,192,116105,1,0,0:0:0:0:
320,192,116188,1,0,0:0:0:0:
448,192,116188,1,0,0:0:0:0:
192,192,116270,1,0,0:0:0:0:
64,192,116270,1,0,0:0:0:0:
320,192,116352,1,0,0:0:0:0:
448,192,116352,1,0,0:0:0:0:
192,192,116435,1,0,0:0:0:0:
64,192,116517,1,0,0:0:0:0:
320,192,116517,1,0,0:0:0:0:
448,192,116517,1,0,0:0:0:0:
192,192,116600,1,0,0:0:0:0:
64,192,116682,1,0,0:0:0:0:
448,192,116682,1,0,0:0:0:0:
320,192,116765,1,0,0:0:0:0:
192,192,116765,1,0,0:0:0:0:
448,192,116847,1,0,0:0:0:0:
64,192,116847,1,0,0:0:0:0:
320,192,116929,1,0,0:0:0:0:
192,192,117012,1,0,0:0:0:0:
64,192,117012,1,0,0:0:0:0:
448,192,117012,1,0,0:0:0:0:
320,192,117177,1,0,0:0:0:0:
192,192,117177,1,0,0:0:0:0:
64,192,117177,1,0,0:0:0:0:
448,192,117259,1,0,0:0:0:0:
192,192,117341,1,0,0:0:0:0:
320,192,117424,1,0,0:0:0:0:
192,192,117506,1,0,0:0:0:0:
448,192,117589,1,0,0:0:0:0:
64,192,117671,1,0,0:0:0:0:
320,192,117671,1,0,0:0:0:0:
448,192,117754,1,0,0:0:0:0:
192,192,117836,1,0,0:0:0:0:
320,192,117918,1,0,0:0:0:0:
192,192,118001,1,0,0:0:0:0:
64,192,118001,1,0,0:0:0:0:
448,192,118083,1,0,0:0:0:0:
64,192,118166,1,0,0:0:0:0:
192,192,118166,1,0,0:0:0:0:
320,192,118248,1,0,0:0:0:0:
192,192,118330,1,0,0:0:0:0:
64,192,118330,1,0,0:0:0:0:
448,192,118330,1,0,0:0:0:0:
320,192,118413,1,0,0:0:0:0:
192,192,118495,1,0,0:0:0:0:
64,192,118495,1,0,0:0:0:0:
448,192,118578,1,0,0:0:0:0:
320,192,118660,1,0,0:0:0:0:
192,192,118660,1,0,0:0:0:0:
64,192,118660,1,0,0:0:0:0:
192,192,118825,1,0,0:0:0:0:
64,192,118907,1,0,0:0:0:0:
192,192,118990,1,0,0:0:0:0:
448,192,119155,1,0,0:0:0:0:
192,192,119319,1,0,0:0:0:0:
64,192,119402,1,0,0:0:0:0:
192,192,119484,1,0,0:0:0:0:
320,192,119567,1,0,0:0:0:0:
448,192,119649,1,0,0:0:0:0:
320,192,119814,1,0,0:0:0:0:
448,192,120144,1,0,0:0:0:0:
320,192,120308,1,0,0:0:0:0:
192,192,120391,1,0,0:0:0:0:
448,192,120473,1,0,0:0:0:0:
192,192,120638,1,0,0:0:0:0:
320,192,120803,1,0,0:0:0:0:
64,192,120803,1,0,0:0:0:0:
192,192,120885,1,0,0:0:0:0:
320,192,120968,1,0,0:0:0:0:
448,192,120968,1,0,0:0:0:0:
64,192,121133,1,0,0:0:0:0:
192,192,121174,1,0,0:0:0:0:
320,192,121215,1,0,0:0:0:0:
448,192,121256,1,0,0:0:0:0:
192,192,121297,1,0,0:0:0:0:
64,192,121297,1,0,0:0:0:0:
320,192,121380,1,0,0:0:0:0:
448,192,121462,1,0,0:0:0:0:
64,192,121462,1,0,0:0:0:0:
192,192,121545,1,0,0:0:0:0:
320,192,121545,1,0,0:0:0:0:
448,192,121627,1,0,0:0:0:0:
64,192,121627,1,0,0:0:0:0:
192,192,121710,1,0,0:0:0:0:
320,192,121792,1,0,0:0:0:0:
448,192,121792,1,0,0:0:0:0:
64,192,121792,1,0,0:0:0:0:
192,192,121874,1,0,0:0:0:0:
320,192,121957,1,0,0:0:0:0:
448,192,121957,1,0,0:0:0:0:
192,192,122039,1,0,0:0:0:0:
64,192,122039,1,0,0:0:0:0:
320,192,122122,1,0,0:0:0:0:
448,192,122122,1,0,0:0:0:0:
64,192,122204,1,0,0:0:0:0:
192,192,122287,1,0,0:0:0:0:
320,192,122287,1,0,0:0:0:0:
448,192,122287,1,0,0:0:0:0:
64,192,122369,1,0,0:0:0:0:
192,192,122451,1,0,0:0:0:0:
320,192,122451,1,0,0:0:0:0:
448,192,122451,1,0,0:0:0:0:
64,192,122534,1,0,0:0:0:0:
320,192,122616,1,0,0:0:0:0:
448,192,122616,1,0,0:0:0:0:
192,192,122699,1,0,0:0:0:0:
64,192,122781,1,0,0:0:0:0:
320,192,122781,1,0,0:0:0:0:
192,192,122863,1,0,0:0:0:0:
320,192,122946,1,0,0:0:0:0:
448,192,122946,1,0,0:0:0:0:
192,192,123028,1,0,0:0:0:0:
64,192,123111,1,0,0:0:0:0:
320,192,123111,1,0,0:0:0:0:
448,192,123193,1,0,0:0:0:0:
64,192,123276,1,0,0:0:0:0:
192,192,123276,1,0,0:0:0:0:
320,192,123358,1,0,0:0:0:0:
448,192,123440,1,0,0:0:0:0:
64,192,123440,1,0,0:0:0:0:
192,192,123523,1,0,0:0:0:0:
64,192,123605,1,0,0:0:0:0:
320,192,123605,1,0,0:0:0:0:
448,192,123605,1,0,0:0:0:0:
320,192,123770,1,0,0:0:0:0:
192,192,123770,1,0,0:0:0:0:
64,192,123935,1,0,0:0:0:0:
192,192,123935,1,0,0:0:0:0:
448,192,123935,1,0,0:0:0:0:
320,192,124017,1,0,0:0:0:0:
192,192,124100,1,0,0:0:0:0:
448,192,124182,1,0,0:0:0:0:
320,192,124265,1,0,0:0:0:0:
64,192,124265,1,0,0:0:0:0:
192,192,124347,1,0,0:0:0:0:
448,192,124429,1,0,0:0:0:0:
64,192,124512,1,0,0:0:0:0:
192,192,124594,1,0,0:0:0:0:
320,192,124594,1,0,0:0:0:0:
448,192,124677,1,0,0:0:0:0:
192,192,124759,1,0,0:0:0:0:
64,192,124841,1,0,0:0:0:0:
320,192,124841,1,0,0:0:0:0:
192,192,124924,1,0,0:0:0:0:
448,192,125006,1,0,0:0:0:0:
320,192,125089,1,0,0:0:0:0:
64,192,125089,1,0,0:0:0:0:
192,192,125171,1,0,0:0:0:0:
64,192,125254,1,0,0:0:0:0:
448,192,125254,1,0,0:0:0:0:
320,192,125254,1,0,0:0:0:0:
192,192,125336,1,0,0:0:0:0:
448,192,125418,1,0,0:0:0:0:
320,192,125501,1,0,0:0:0:0:
64,192,125583,1,0,0:0:0:0:
192,192,125583,1,0,0:0:0:0:
448,192,125666,1,0,0:0:0:0:
320,192,125748,1,0,0:0:0:0:
192,192,125830,1,0,0:0:0:0:
320,192,125913,1,0,0:0:0:0:
448,192,125913,1,0,0:0:0:0:
64,192,125995,1,0,0:0:0:0:
192,192,126078,1,0,0:0:0:0:
64,192,126160,1,0,0:0:0:0:
448,192,126160,1,0,0:0:0:0:
320,192,126243,1,0,0:0:0:0:
192,192,126325,1,0,0:0:0:0:
64,192,126407,1,0,0:0:0:0:
448,192,126407,1,0,0:0:0:0:
320,192,126490,1,0,0:0:0:0:
192,192,126572,1,0,0:0:0:0:
448,192,126572,1,0,0:0:0:0:
64,192,126572,1,0,0:0:0:0:
320,192,126655,1,0,0:0:0:0:
192,192,126737,1,0,0:0:0:0:
448,192,126819,1,0,0:0:0:0:
64,192,126902,1,0,0:0:0:0:
320,192,126902,1,0,0:0:0:0:
192,192,126984,1,0,0:0:0:0:
320,192,127067,1,0,0:0:0:0:
64,192,127149,1,0,0:0:0:0:
192,192,127232,1,0,0:0:0:0:
448,192,127232,1,0,0:0:0:0:
320,192,127314,1,0,0:0:0:0:
192,192,127396,1,0,0:0:0:0:
64,192,127479,1,0,0:0:0:0:
448,192,127479,1,0,0:0:0:0:
192,192,127561,1,0,0:0:0:0:
320,192,127644,1,0,0:0:0:0:
64,192,127726,1,0,0:0:0:0:
448,192,127726,1,0,0:0:0:0:
192,192,127808,1,0,0:0:0:0:
64,192,127891,1,0,0:0:0:0:
320,192,127891,1,0,0:0:0:0:
448,192,127891,1,0,0:0:0:0:
192,192,127973,1,0,0:0:0:0:
448,192,128056,1,0,0:0:0:0:
320,192,128138,1,0,0:0:0:0:
64,192,128221,1,0,0:0:0:0:
192,192,128221,1,0,0:0:0:0:
320,192,128303,1,0,0:0:0:0:
64,192,128385,1,0,0:0:0:0:
448,192,128468,1,0,0:0:0:0:
320,192,128550,1,0,0:0:0:0:
192,192,128550,1,0,0:0:0:0:
64,192,128633,1,0,0:0:0:0:
320,192,128715,1,0,0:0:0:0:
192,192,128797,1,0,0:0:0:0:
64,192,128797,1,0,0:0:0:0:
448,192,128880,1,0,0:0:0:0:
320,192,128962,1,0,0:0:0:0:
64,192,129045,1,0,0:0:0:0:
192,192,129045,1,0,0:0:0:0:
448,192,129127,1,0,0:0:0:0:
64,192,129210,1,0,0:0:0:0:
192,192,129210,1,0,0:0:0:0:
320,192,129210,1,0,0:0:0:0:
448,192,129292,1,0,0:0:0:0:
320,192,129374,1,0,0:0:0:0:
192,192,129374,1,0,0:0:0:0:
64,192,129457,1,0,0:0:0:0:
448,192,129539,1,0,0:0:0:0:
320,192,129539,1,0,0:0:0:0:
192,192,129622,1,0,0:0:0:0:
448,192,129704,1,0,0:0:0:0:
320,192,129704,1,0,0:0:0:0:
64,192,129787,1,0,0:0:0:0:
192,192,129869,1,0,0:0:0:0:
320,192,129869,1,0,0:0:0:0:
64,192,129951,1,0,0:0:0:0:
448,192,130034,1,0,0:0:0:0:
320,192,130034,1,0,0:0:0:0:
192,192,130116,1,0,0:0:0:0:
448,192,130199,1,0,0:0:0:0:
64,192,130199,1,0,0:0:0:0:
320,192,130281,1,0,0:0:0:0:
448,192,130363,1,0,0:0:0:0:
64,192,130363,1,0,0:0:0:0:
192,192,130446,1,0,0:0:0:0:
448,192,130528,1,0,0:0:0:0:
320,192,130528,1,0,0:0:0:0:
192,192,130611,1,0,0:0:0:0:
64,192,130693,1,0,0:0:0:0:
320,192,130693,1,0,0:0:0:0:
448,192,130776,1,0,0:0:0:0:
64,192,130858,1,0,0:0:0:0:
192,192,130858,1,0,0:0:0:0:
320,192,130940,1,0,0:0:0:0:
192,192,131023,1,0,0:0:0:0:
64,192,131023,1,0,0:0:0:0:
448,192,131105,1,0,0:0:0:0:
320,192,131188,1,0,0:0:0:0:
192,192,131188,1,0,0:0:0:0:
448,192,131270,1,0,0:0:0:0:
64,192,131352,1,0,0:0:0:0:
192,192,131352,1,0,0:0:0:0:
320,192,131435,1,0,0:0:0:0:
448,192,131517,1,0,0:0:0:0:
64,192,131517,1,0,0:0:0:0:
192,192,131600,1,0,0:0:0:0:
64,192,131682,1,0,0:0:0:0:
448,192,131682,1,0,0:0:0:0:
320,192,131765,1,0,0:0:0:0:
192,192,131847,1,0,0:0:0:0:
64,192,131847,1,0,0:0:0:0:
320,192,131929,1,0,0:0:0:0:
448,192,131929,1,0,0:0:0:0:
192,192,132012,1,0,0:0:0:0:
64,192,132012,1,0,0:0:0:0:
320,192,132094,1,0,0:0:0:0:
448,192,132094,1,0,0:0:0:0:
192,192,132177,1,0,0:0:0:0:
64,192,132177,1,0,0:0:0:0:
320,192,132259,1,0,0:0:0:0:
448,192,132259,1,0,0:0:0:0:
192,192,132341,1,0,0:0:0:0:
64,192,132341,1,0,0:0:0:0:
320,192,132424,1,0,0:0:0:0:
448,192,132424,1,0,0:0:0:0:
192,192,132506,1,0,0:0:0:0:
64,192,132506,1,0,0:0:0:0:
320,192,132589,1,0,0:0:0:0:
448,192,132589,1,0,0:0:0:0:
192,192,132671,1,0,0:0:0:0:
64,192,132671,1,0,0:0:0:0:
448,192,132754,1,0,0:0:0:0:
320,192,132754,1,0,0:0:0:0:
192,192,132836,1,0,0:0:0:0:
64,192,132836,1,0,0:0:0:0:
448,192,132918,1,0,0:0:0:0:
320,192,133001,1,0,0:0:0:0:
192,192,133001,1,0,0:0:0:0:
64,192,133001,1,0,0:0:0:0:
448,192,133083,1,0,0:0:0:0:
64,192,133166,1,0,0:0:0:0:
448,192,133248,1,0,0:0:0:0:
64,192,133330,1,0,0:0:0:0:
320,192,133495,1,0,0:0:0:0:
448,192,133660,1,0,0:0:0:0:
64,192,133660,1,0,0:0:0:0:
192,192,133660,1,0,0:0:0:0:
320,192,133743,1,0,0:0:0:0:
192,192,133825,1,0,0:0:0:0:
320,192,133907,1,0,0:0:0:0:
192,192,133990,1,0,0:0:0:0:
320,192,134155,1,0,0:0:0:0:
448,192,134319,1,0,0:0:0:0:
448,192,134484,1,0,0:0:0:0:
320,192,134484,1,0,0:0:0:0:
192,192,134484,1,0,0:0:0:0:
64,192,134484,1,0,0:0:0:0:
