osu file format v14

[General]
AudioFilename: audio.mp3
AudioLeadIn: 0
PreviewTime: 88827
Countdown: 0
SampleSet: Soft
StackLeniency: 0
Mode: 0
LetterboxInBreaks: 0
WidescreenStoryboard: 1

[Editor]
Bookmarks: 1188,10934,20680,30426,40172,49918,59665,69411,79157,88903,98649,108396
DistanceSpacing: 0.25
BeatDivisor: 4
GridSize: 32
TimelineZoom: 1.639999

[Metadata]
Title:8bit Adventurer
TitleUnicode:8bit Adventurer
Artist:Lime
ArtistUnicode:Lime
Creator:tutis
Version:Extra
Source:
Tags:
BeatmapID:3612068
BeatmapSetID:1764647

[Difficulty]
HPDrainRate:4
CircleSize:4.2
OverallDifficulty:8
ApproachRate:9.3
SliderMultiplier:1.6
SliderTickRate:1

[Events]
//Background and Video events
0,0,"download.jpg",0,0
//Break Periods
//Storyboard Layer 0 (Background)
//Storyboard Layer 1 (Fail)
//Storyboard Layer 2 (Pass)
//Storyboard Layer 3 (Foreground)
//Storyboard Layer 4 (Overlay)
//Storyboard Sound Samples

[TimingPoints]
1188,304.568527918782,4,2,0,69,1,0
1188,-100.559345757991,4,2,0,69,0,0
3472,-103.065060224797,4,2,0,69,0,0
5528,-188.144173679103,4,2,0,69,0,0
6061,-76.9230769230769,4,2,0,69,0,0
6289,-83.3333333333333,4,2,0,69,0,0
7736,-250,4,2,0,69,0,0
8269,-100,4,2,0,69,0,0
10934,-74.0740740740741,4,2,0,69,0,0
12609,-100,4,2,0,69,0,0
17863,-83.3333333333333,4,2,0,69,0,0
18814,-66.6666666666667,4,2,0,69,0,0
19005,-266.666666666667,4,2,0,69,0,0
19233,-166.666666666667,4,2,0,69,0,0
19538,-100,4,2,0,69,0,0
23040,-107.52688172043,4,2,0,69,0,0
25477,-66.6666666666667,4,2,0,69,0,0
25858,-58.8235294117647,4,2,0,69,0,0
27076,-52.6315789473684,4,2,0,69,0,0
27685,-83.3333333333333,4,2,0,69,0,0
30426,-43.4782608695652,4,2,0,69,0,0
30731,-58.8235294117647,4,2,0,69,0,0
31340,-76.9230769230769,4,2,0,69,0,0
31568,-50,4,2,0,69,0,0
31911,-100,4,2,0,69,0,0
32863,-50,4,2,0,69,0,0
34309,-100,4,2,0,69,0,0
35299,-40,4,2,0,69,0,0
35604,-57.1428571428571,4,2,0,69,0,0
36213,-74.0740740740741,4,2,0,69,0,0
36517,-47.6190476190476,4,2,0,69,0,0
36822,-66.6666666666667,4,2,0,69,0,0
37431,-100,4,2,0,69,0,0
38446,-250,4,2,0,69,0,0
38878,-58.8235294117647,4,2,0,69,0,0
40172,-37.037037037037,4,2,0,69,0,0
40477,-55.5555555555556,4,2,0,69,0,0
41086,-71.4285714285714,4,2,0,69,0,0
41391,-45.4545454545455,4,2,0,69,0,0
41695,-76.9230769230769,4,2,0,69,0,0
42609,-45.4545454545455,4,2,0,69,0,0
44436,-83.3333333333333,4,2,0,69,0,0
45045,-35.0877192982456,4,2,0,69,0,0
45350,-55.5555555555556,4,2,0,69,0,0
45959,-66.6666666666667,4,2,0,69,0,0
46188,-43.4782608695652,4,2,0,69,0,0
46568,-66.6666666666667,4,2,0,69,0,0
47482,-83.3333333333333,4,2,0,69,0,0
47786,-71.4285714285714,4,2,0,69,0,0
48091,-62.5,4,2,0,69,0,0
48396,-55.5555555555556,4,2,0,69,0,0
49081,-117.647058823529,4,2,0,69,0,0
49538,-90.9090909090909,4,2,0,69,0,0
49918,-66.6666666666667,4,2,0,69,0,0
51441,-76.9230769230769,4,2,0,69,0,0
51746,-90.9090909090909,4,2,0,69,0,0
52050,-111.111111111111,4,2,0,69,0,0
52355,-66.6666666666667,4,2,0,69,0,0
53878,-76.9230769230769,4,2,0,69,0,0
54182,-90.9090909090909,4,2,0,69,0,0
54487,-111.111111111111,4,2,0,69,0,0
54792,-66.6666666666667,4,2,0,69,0,0
56314,-76.9230769230769,4,2,0,69,0,0
56618,-90.9090909090909,4,2,0,69,0,0
56923,-111.111111111111,4,2,0,69,0,0
57228,-66.6666666666667,4,2,0,69,0,0
58446,-83.3333333333333,4,2,0,69,0,0
59665,-66.6666666666667,4,2,0,69,0,0
61188,-71.4285714285714,4,2,0,69,0,0
61492,-76.9230769230769,4,2,0,69,0,0
61797,-83.3333333333333,4,2,0,69,0,0
62101,-133.333333333333,4,2,0,69,0,0
62710,-66.6666666666667,4,2,0,69,0,0
63319,-66.6666666666667,4,2,0,69,0,0
63624,-71.4285714285714,4,2,0,69,0,0
63928,-76.9230769230769,4,2,0,69,0,0
64233,-83.3333333333333,4,2,0,69,0,0
64538,-90.9090909090909,4,2,0,69,0,0
65756,-66.6666666666667,4,2,0,69,0,0
66061,-80,4,2,0,69,0,0
66974,-100,4,2,0,69,0,0
67279,-86.9565217391304,4,2,0,69,0,0
67583,-76.9230769230769,4,2,0,69,0,0
67888,-68.9655172413793,4,2,0,69,0,0
69411,-101.534616513322,4,2,0,69,0,0
71847,-84.1406298145801,4,2,0,69,0,0

[Colours]
Combo1 : 0,128,255
Combo2 : 255,255,128
Combo3 : 255,128,255
Combo4 : 128,255,255

[HitObjects]
4,106,1188,6,0,L|81:86,1,79.5550098004517
158,66,1492,5,0,0:0:0:0:
158,66,1644,2,0,L|178:143,1,79.5550098004517
198,220,1949,2,0,L|275:200,1,79.5550098004517
352,180,2203,5,0,0:0:0:0:
352,180,2253,2,0,L|372:257,1,79.5550098004517
392,334,2507,1,0,0:0:0:0:
392,334,2558,2,0,L|469:314,1,79.5550098004517
275,200,2863,6,0,L|295:277,1,79.5550098004517
372,257,3167,2,0,L|449:237,1,79.5550098004517
481,117,3396,5,0,0:0:0:0:
477,132,3472,1,0,0:0:0:0:
473,147,3548,1,0,0:0:0:0:
469,162,3624,2,0,L|449:237,1,77.6208710318142
320,60,3852,5,0,0:0:0:0:
324,75,3929,1,0,0:0:0:0:
328,90,4005,1,0,0:0:0:0:
332,105,4081,2,0,L|352:180,1,77.6208710318142
195,312,4385,5,0,0:0:0:0:
195,312,4538,1,0,0:0:0:0:
215,237,4690,2,0,L|235:162,1,77.6208710318142
98,105,4995,2,0,L|118:180,1,77.6208710318142
48,364,5299,5,0,0:0:0:0:
48,364,5451,1,0,0:0:0:0:
0,224,5604,1,0,0:0:0:0:
8,231,5680,1,0,0:0:0:0:
16,238,5756,2,0,L|48:266,1,42.5205817545628
172,382,6061,6,0,L|132:232,1,103.999995239258
118,180,6365,5,0,0:0:0:0:
118,180,6441,1,0,0:0:0:0:
118,180,6517,2,0,L|229:210,1,95.9999970703126
302,230,6822,5,0,0:0:0:0:
239,125,6974,1,0,0:0:0:0:
257,120,7050,1,0,0:0:0:0:
275,115,7127,2,0,L|311:105,3,31.9999990234375
350,43,7431,2,0,L|386:53,3,31.9999990234375
511,193,7736,6,0,L|475:183,1,31.9999990234375
436,121,8040,2,0,L|400:131,1,31.9999990234375
316,286,8269,5,0,0:0:0:0:
320,264,8345,1,0,0:0:0:0:
324,242,8421,1,0,0:0:0:0:
328,220,8497,2,0,L|336:176,2,40
166,106,8726,5,0,0:0:0:0:
170,128,8802,1,0,0:0:0:0:
174,150,8878,1,0,0:0:0:0:
178,172,8954,2,0,L|186:216,2,40
76,206,9259,6,0,L|88:161,2,40
9,262,9563,2,0,L|0:233,2,26.6666666666667
32,338,9715,5,0,0:0:0:0:
256,192,9868,12,0,10781,0:0:0:0:
74,70,10934,6,0,P|69:126|26:200,1,108.000000411987
263,88,11238,1,0,0:0:0:0:
155,138,11391,2,0,P|160:189|212:255,1,108.000000411987
476,230,11695,5,0,0:0:0:0:
370,142,11847,1,0,0:0:0:0:
370,142,11924,1,0,0:0:0:0:
370,142,12000,2,0,P|331:176|317:249,1,108.000000411987
400,356,12304,5,0,0:0:0:0:
394,344,12380,1,0,0:0:0:0:
388,332,12457,1,0,0:0:0:0:
237,339,12609,5,0,0:0:0:0:
243,327,12685,1,0,0:0:0:0:
249,315,12761,2,0,L|233:219,1,80
29,173,13066,5,0,0:0:0:0:
7,195,13142,1,0,0:0:0:0:
0,230,13218,1,0,0:0:0:0:
22,264,13294,1,0,0:0:0:0:
73,273,13370,1,0,0:0:0:0:
176,167,13523,5,0,0:0:0:0:
213,152,13599,1,0,0:0:0:0:
252,158,13675,1,0,0:0:0:0:
268,175,13751,1,0,0:0:0:0:
274,191,13827,2,0,P|271:232|238:269,1,80
161,378,14132,5,0,0:0:0:0:
335,315,14284,1,0,0:0:0:0:
144,384,14436,2,0,P|129:328|99:292,1,80
109,216,14741,2,0,P|67:198|15:199,1,80
163,17,15045,5,0,0:0:0:0:
60,98,15198,1,0,0:0:0:0:
231,71,15350,1,0,0:0:0:0:
243,60,15426,1,0,0:0:0:0:
257,53,15502,2,0,P|310:38|360:43,1,80
512,175,15807,5,0,0:0:0:0:
297,313,15959,1,0,0:0:0:0:
344,113,16111,1,0,0:0:0:0:
351,136,16188,1,0,0:0:0:0:
358,159,16264,1,0,0:0:0:0:
423,352,16416,1,0,0:0:0:0:
226,194,16568,1,0,0:0:0:0:
486,260,16720,1,0,0:0:0:0:
230,356,16873,5,0,0:0:0:0:
251,332,16949,1,0,0:0:0:0:
280,320,17025,1,0,0:0:0:0:
125,243,17177,1,0,0:0:0:0:
148,248,17253,1,0,0:0:0:0:
167,262,17330,1,0,0:0:0:0:
112,121,17482,1,0,0:0:0:0:
123,131,17558,1,0,0:0:0:0:
128,146,17634,1,0,0:0:0:0:
167,33,17786,1,0,0:0:0:0:
71,39,17939,6,0,P|68:17|74:-18,1,47.9999985351563
299,4,18091,2,0,P|278:19|254:49,1,47.9999985351563
208,133,18243,5,0,0:0:0:0:
195,203,18319,1,0,0:0:0:0:
233,258,18396,1,0,0:0:0:0:
295,262,18472,1,0,0:0:0:0:
352,257,18548,1,0,0:0:0:0:
403,268,18624,1,0,0:0:0:0:
437,301,18700,1,0,0:0:0:0:
434,344,18776,1,0,0:0:0:0:
410,374,18852,6,0,P|389:357|381:331,1,30.0000011444092
391,368,18929,6,0,P|371:349|365:322,1,30.0000011444092
378,362,19005,6,0,P|360:341|356:314,1,30.0000011444092
408,215,19309,6,0,P|419:203|448:197,2,23.9999992675781
505,36,19614,6,0,P|488:63|486:93,1,40
406,125,19766,2,0,P|396:102|397:66,1,40
319,12,19918,6,0,P|318:41|307:72,1,40
218,131,20071,2,0,P|242:109|257:80,1,40
169,0,20223,5,0,0:0:0:0:
178,13,20299,1,0,0:0:0:0:
181,28,20375,1,0,0:0:0:0:
9,167,20528,5,0,0:0:0:0:
171,45,20680,2,0,B|155:0|103:-21|18:-8|-29:41|6:173|66:366|230:40|302:64|311:221|407:175|449:376|403:400|240:407|128:407|54:263|-64:73|437:-66|420:87|475:110|357:313|511:339,1,1200
111,163,23116,6,0,B|68:146|20:176|-16:226|20:300|78:307|101:327|193:335|244:222|259:137|186:99|312:292|442:146|477:113|327:254|344:363|439:223|524:381|540:166|540:166|339:193|291:383,1,1116.00003490906
386,36,25553,6,0,P|381:107|300:177,1,180.000006866455
130,111,25858,5,0,0:0:0:0:
117,86,25934,1,0,0:0:0:0:
122,66,26010,1,0,0:0:0:0:
120,52,26086,1,0,0:0:0:0:
121,45,26162,5,0,0:0:0:0:
200,166,26314,1,0,0:0:0:0:
64,261,26467,2,0,B|18:265|12:226|11:196|61:149|104:234|144:127|99:111,1,204.000003890991
16,24,26771,6,0,B|36:47|36:47|54:82|54:82|84:105|84:105|104:145|104:145|169:184,1,204.000003890991
320,85,27076,6,0,B|261:53|196:121|183:99|211:165|227:135|247:160|270:211|237:202|217:231,1,227.999993911743
124,307,27380,6,0,B|165:283|165:283|221:310|221:310|291:318,1,151.999995941162
361,258,27685,6,0,P|344:300|340:362,1,95.9999970703126
512,332,27990,5,0,0:0:0:0:
496,265,28066,1,0,0:0:0:0:
494,207,28142,1,0,0:0:0:0:
481,160,28218,1,0,0:0:0:0:
484,121,28294,6,0,L|502:69,1,47.9999985351563
343,140,28446,2,0,L|325:192,1,47.9999985351563
473,109,28599,6,0,L|491:57,1,47.9999985351563
354,138,28751,2,0,L|336:190,1,47.9999985351563
462,97,28903,6,0,L|480:45,1,47.9999985351563
365,136,29056,2,0,L|347:188,1,47.9999985351563
405,269,29208,5,0,0:0:0:0:
291,340,29360,2,0,B|289:320|289:320|284:298,3,23.9999992675781
267,242,29512,5,0,0:0:0:0:
166,171,29665,1,0,0:0:0:0:
50,178,29817,1,0,0:0:0:0:
15,277,29969,1,0,0:0:0:0:
87,340,30122,1,0,0:0:0:0:
161,296,30274,1,0,0:0:0:0:
107,125,30426,6,0,B|87:106|63:101|63:101|155:85|193:206|314:151,1,276.000005264282
307,16,30731,6,0,P|294:48|242:84,1,68.0000012969971
438,58,30883,2,0,P|404:69|343:52,1,68.0000012969971
512,112,31035,6,0,P|451:90|388:202,1,204.000003890991
491,250,31340,2,0,P|436:273|409:308,1,103.999995239258
254,265,31644,6,0,B|267:238|297:231|297:231|332:303|284:367|240:384,1,240
110,336,31949,5,0,0:0:0:0:
97,306,32025,1,0,0:0:0:0:
84,276,32101,1,0,0:0:0:0:
94,264,32177,1,0,0:0:0:0:
104,252,32253,2,0,L|164:180,1,80
5,117,32482,5,0,0:0:0:0:
17,127,32558,1,0,0:0:0:0:
29,137,32634,1,0,0:0:0:0:
41,147,32710,2,0,L|77:176,1,40
213,118,32863,6,0,B|177:160|177:160|203:279|203:279|169:251,1,213.333333333333
354,99,33167,5,0,0:0:0:0:
319,164,33269,1,0,0:0:0:0:
284,229,33370,1,0,0:0:0:0:
374,321,33472,6,0,B|344:350|344:350|364:232|364:232|441:182,1,213.333333333333
473,159,33776,5,0,0:0:0:0:
487,150,33877,1,0,0:0:0:0:
501,141,33979,1,0,0:0:0:0:
407,22,34081,6,0,B|431:44|431:44|533:61,2,106.666666666667
272,222,34385,5,0,0:0:0:0:
287,167,34462,1,0,0:0:0:0:
302,112,34538,1,0,0:0:0:0:
278,82,34614,1,0,0:0:0:0:
254,52,34690,6,0,L|296:43,1,40
214,145,34842,2,0,L|172:136,1,40
127,33,34995,6,0,L|169:24,1,40
87,164,35147,2,0,L|45:155,1,40
0,14,35299,6,0,B|33:13|47:37|47:37|-8:26|-42:62|-42:120|-8:160|63:108|58:200|47:215|13:236,1,300
71,308,35604,6,0,P|22:296|-3:267,1,70.000000667572
155,288,35756,2,0,P|128:244|131:206,1,70.000000667572
71,384,35908,6,0,P|83:315|184:190,1,210.000002002716
344,206,36213,2,0,P|297:199|240:222,1,108.000000411987
270,370,36517,6,0,B|255:382|222:390|222:390|168:309|233:232|272:224,1,251.999992309571
483,343,36822,5,0,0:0:0:0:
489,310,36898,1,0,0:0:0:0:
483,276,36974,1,0,0:0:0:0:
461,250,37050,1,0,0:0:0:0:
428,240,37127,2,0,P|396:267|384:310,1,60.0000022888184
497,120,37279,2,0,P|507:148|503:197,1,60.0000022888184
309,152,37431,5,0,0:0:0:0:
322,163,37507,1,0,0:0:0:0:
338,169,37583,1,0,0:0:0:0:
356,169,37660,1,0,0:0:0:0:
373,164,37736,6,0,L|386:109,1,40
368,13,37888,2,0,L|355:68,1,40
384,176,38040,6,0,L|397:121,1,40
356,0,38193,2,0,L|347:39,1,40
395,188,38345,6,0,L|408:133,1,40
475,121,38497,5,0,0:0:0:0:
475,121,38548,5,0,0:0:0:0:
475,121,38599,5,0,0:0:0:0:
475,121,38649,6,0,L|462:66,1,32
224,50,38954,6,0,P|279:110|292:215,2,136.000002593994
75,133,39411,6,0,P|156:129|245:186,1,136.000002593994
42,300,39715,6,0,P|91:235|192:204,2,136.000002593994
203,351,40172,6,0,B|284:341|290:390|290:390|277:378|184:296|332:248|315:200|285:165,1,324.000001235962
287,50,40477,6,0,P|323:87|335:125,1,71.9999978027344
166,127,40629,2,0,P|216:118|254:130,1,71.9999978027344
385,208,40781,6,0,P|366:121|473:7,1,215.999993408203
509,106,41086,2,0,P|459:132|386:125,1,111.999996582031
287,215,41391,6,0,B|285:196|300:178|300:178|353:172|394:207|371:316|280:328|237:296,1,264.000008056641
148,195,41695,5,0,0:0:0:0:
163,245,41771,1,0,0:0:0:0:
178,295,41847,1,0,0:0:0:0:
152,320,41924,1,0,0:0:0:0:
126,345,42000,2,0,L|87:382,1,51.999997619629
9,265,42152,5,0,0:0:0:0:
22,272,42228,1,0,0:0:0:0:
35,279,42304,1,0,0:0:0:0:
26,227,42380,1,0,0:0:0:0:
17,175,42457,2,0,L|8:123,1,51.999997619629
108,0,42609,6,0,B|127:49|127:49|95:162|95:162|150:101,1,234.666673828125
259,13,42913,5,0,0:0:0:0:
236,85,43014,1,0,0:0:0:0:
213,157,43116,1,0,0:0:0:0:
302,268,43218,6,0,B|362:289|362:289|299:200|299:200|294:110,1,234.666673828125
459,62,43523,5,0,0:0:0:0:
450,45,43624,1,0,0:0:0:0:
441,28,43726,1,0,0:0:0:0:
344,58,43827,5,0,0:0:0:0:
397,104,43929,1,0,0:0:0:0:
450,150,44030,1,0,0:0:0:0:
503,196,44132,5,0,0:0:0:0:
486,201,44208,1,0,0:0:0:0:
469,206,44284,1,0,0:0:0:0:
456,248,44360,1,0,0:0:0:0:
443,290,44436,6,0,L|417:374,1,47.9999985351563
367,232,44589,2,0,L|341:316,1,47.9999985351563
269,340,44741,6,0,L|243:256,1,47.9999985351563
174,337,44894,2,0,L|148:253,1,47.9999985351563
61,183,45045,6,0,B|81:210|83:236|83:236|91:105|-10:167|50:14|200:3|177:106,1,342.000003261566
280,19,45350,6,0,P|269:53|235:96,1,71.9999978027344
400,60,45502,2,0,P|355:92|317:102,1,71.9999978027344
189,173,45655,6,0,P|223:89|357:104,1,215.999993408203
446,216,45959,6,0,P|411:173|332:180,1,120.000004577637
260,318,46264,6,0,B|291:360|291:360|281:286|307:216|362:276|411:219|410:199,1,276.000005264282
285,43,46568,5,0,0:0:0:0:
266,80,46644,1,0,0:0:0:0:
277,120,46720,1,0,0:0:0:0:
310,145,46797,1,0,0:0:0:0:
351,147,46873,6,0,P|385:111|395:69,1,60.0000022888184
481,311,47025,2,0,P|457:264|430:243,1,60.0000022888184
263,286,47177,5,0,0:0:0:0:
257,309,47253,1,0,0:0:0:0:
260,332,47330,1,0,0:0:0:0:
273,351,47406,1,0,0:0:0:0:
292,364,47482,6,0,P|339:330|412:333,1,95.9999970703126
375,181,47786,6,0,P|316:209|286:256,1,111.999996582031
232,148,48091,6,0,P|244:94|304:34,1,128
91,1,48396,6,0,P|86:64|132:141,1,143.999995605469
144,340,48700,5,0,0:0:0:0:
200,236,48852,5,0,0:0:0:0:
200,236,48903,5,0,0:0:0:0:
200,236,48954,5,0,0:0:0:0:
200,236,49005,5,0,0:0:0:0:
0,164,49157,6,0,P|36:217|125:242,1,136.000002593994
272,179,49614,6,0,P|285:156|288:127,1,44.0000013427735
213,51,49766,2,0,P|217:77|234:104,1,44.0000013427735
379,171,49918,5,0,0:0:0:0:
394,178,50020,1,0,0:0:0:0:
411,178,50122,1,0,0:0:0:0:
430,165,50223,5,0,0:0:0:0:
439,143,50325,1,0,0:0:0:0:
434,120,50426,1,0,0:0:0:0:
412,91,50528,5,0,0:0:0:0:
373,76,50629,1,0,0:0:0:0:
326,81,50731,1,0,0:0:0:0:
283,111,50832,1,0,0:0:0:0:
225,122,50934,1,0,0:0:0:0:
167,93,51035,1,0,0:0:0:0:
141,27,51137,5,0,0:0:0:0:
141,27,51238,2,0,P|97:16|61:14,1,80.0000030517579
8,135,51441,5,0,0:0:0:0:
8,135,51543,2,0,P|60:115|90:112,1,69.3333301595054
141,213,51746,5,0,0:0:0:0:
141,213,51847,2,0,P|94:203|69:204,1,58.6666684570313
54,306,52050,5,0,0:0:0:0:
54,306,52152,2,0,P|85:296|120:295,1,47.9999985351563
241,278,52355,5,0,0:0:0:0:
256,281,52457,1,0,0:0:0:0:
270,287,52558,1,0,0:0:0:0:
298,303,52660,5,0,0:0:0:0:
312,322,52761,1,0,0:0:0:0:
320,344,52863,1,0,0:0:0:0:
313,375,52964,5,0,0:0:0:0:
278,354,53066,1,0,0:0:0:0:
263,308,53167,1,0,0:0:0:0:
286,258,53269,1,0,0:0:0:0:
328,210,53370,1,0,0:0:0:0:
337,138,53472,1,0,0:0:0:0:
295,69,53573,5,0,0:0:0:0:
295,69,53675,2,0,P|254:44|213:35,1,80.0000030517579
392,72,53878,5,0,0:0:0:0:
392,72,53979,2,0,P|379:22|350:-10,1,69.3333301595054
453,146,54182,5,0,0:0:0:0:
453,146,54284,2,0,P|475:101|475:66,1,58.6666684570313
463,227,54487,5,0,0:0:0:0:
463,227,54589,2,0,P|499:209|513:193,1,47.9999985351563
501,324,54792,5,0,0:0:0:0:
486,329,54893,1,0,0:0:0:0:
469,330,54995,1,0,0:0:0:0:
445,325,55096,5,0,0:0:0:0:
422,316,55198,1,0,0:0:0:0:
403,301,55299,1,0,0:0:0:0:
388,272,55401,5,0,0:0:0:0:
365,239,55502,1,0,0:0:0:0:
324,212,55604,1,0,0:0:0:0:
268,212,55705,1,0,0:0:0:0:
223,258,55807,1,0,0:0:0:0:
228,329,55908,1,0,0:0:0:0:
299,366,56010,5,0,0:0:0:0:
299,366,56111,2,0,P|350:333|363:295,1,80.0000030517579
290,191,56314,5,0,0:0:0:0:
290,191,56416,2,0,P|299:234|296:267,1,69.3333301595054
155,187,56619,5,0,0:0:0:0:
155,187,56720,2,0,P|190:221|195:242,1,58.6666684570313
61,260,56924,5,0,0:0:0:0:
61,260,57025,2,0,P|85:259|108:265,1,47.9999985351563
81,384,57228,5,0,0:0:0:0:
96,365,57330,1,0,0:0:0:0:
101,341,57431,1,0,0:0:0:0:
94,309,57533,5,0,0:0:0:0:
74,284,57634,1,0,0:0:0:0:
42,280,57736,1,0,0:0:0:0:
10,304,57837,5,0,0:0:0:0:
54,321,57939,1,0,0:0:0:0:
107,305,58040,1,0,0:0:0:0:
149,257,58142,1,0,0:0:0:0:
142,184,58243,1,0,0:0:0:0:
88,124,58345,1,0,0:0:0:0:
2,141,58446,2,0,P|-21:182|-23:219,1,63.9999980468751
139,314,58751,5,0,0:0:0:0:
148,297,58827,1,0,0:0:0:0:
157,280,58903,1,0,0:0:0:0:
144,243,58979,1,0,0:0:0:0:
131,206,59056,2,0,L|105:132,1,47.9999985351563
7,86,59208,5,0,0:0:0:0:
4,97,59284,1,0,0:0:0:0:
1,108,59360,1,0,0:0:0:0:
27,94,59436,1,0,0:0:0:0:
53,80,59512,2,0,L|105:52,1,60.0000022888184
278,20,59665,5,0,0:0:0:0:
254,14,59766,1,0,0:0:0:0:
223,23,59868,1,0,0:0:0:0:
199,55,59969,1,0,0:0:0:0:
208,102,60071,2,0,P|250:129|315:103,1,80.0000030517579
488,117,60274,5,0,0:0:0:0:
498,86,60375,1,0,0:0:0:0:
480,49,60477,1,0,0:0:0:0:
434,36,60578,1,0,0:0:0:0:
383,60,60680,1,0,0:0:0:0:
370,122,60781,1,0,0:0:0:0:
412,180,60883,5,0,0:0:0:0:
412,180,60984,2,0,P|463:202|517:196,1,80.0000030517579
444,332,61188,5,0,0:0:0:0:
444,332,61289,2,0,P|406:281|398:264,1,74.6666643880209
310,257,61492,5,0,0:0:0:0:
310,257,61594,2,0,P|305:311|314:342,1,69.3333301595054
183,289,61797,5,0,0:0:0:0:
183,289,61898,2,0,P|198:326|235:358,1,63.9999980468751
67,383,62101,5,0,0:0:0:0:
72,381,62203,1,0,0:0:0:0:
75,375,62304,1,0,0:0:0:0:
71,368,62406,1,0,0:0:0:0:
63,362,62507,2,0,P|36:338|31:326,1,40.000001525879
16,198,62710,5,0,0:0:0:0:
6,158,62812,1,0,0:0:0:0:
30,116,62913,1,0,0:0:0:0:
84,101,63015,1,0,0:0:0:0:
146,111,63116,1,0,0:0:0:0:
218,109,63218,1,0,0:0:0:0:
276,54,63319,5,0,0:0:0:0:
276,54,63421,2,0,P|292:7|283:-43,1,80.0000030517579
422,98,63624,5,0,0:0:0:0:
422,98,63726,2,0,P|400:53|358:24,1,74.6666643880209
376,225,63929,5,0,0:0:0:0:
376,225,64030,2,0,P|411:192|461:177,1,69.3333301595054
512,306,64233,5,0,0:0:0:0:
512,306,64335,2,0,P|480:288|427:281,1,63.9999980468751
280,282,64538,5,0,0:0:0:0:
268,284,64639,1,0,0:0:0:0:
253,293,64741,1,0,0:0:0:0:
240,312,64842,1,0,0:0:0:0:
220,334,64944,1,0,0:0:0:0:
186,343,65045,1,0,0:0:0:0:
146,330,65147,5,0,0:0:0:0:
133,285,65248,1,0,0:0:0:0:
139,232,65350,1,0,0:0:0:0:
183,194,65451,1,0,0:0:0:0:
246,180,65553,1,0,0:0:0:0:
314,198,65655,1,0,0:0:0:0:
389,205,65756,5,0,0:0:0:0:
389,205,65858,2,0,P|428:187|462:148,1,80.0000030517579
422,29,66061,5,0,0:0:0:0:
422,29,66162,2,0,P|418:74|392:111,1,66.6666666666667
297,112,66365,5,0,0:0:0:0:
238,94,66467,1,0,0:0:0:0:
223,55,66568,1,0,0:0:0:0:
243,30,66670,1,0,0:0:0:0:
263,26,66771,1,0,0:0:0:0:
281,34,66873,1,0,0:0:0:0:
289,42,66974,5,0,0:0:0:0:
289,42,67279,6,0,P|313:19|344:3,2,61.3333345031739
214,139,67583,6,0,P|245:152|273:173,2,69.3333301595054
74,163,67888,6,0,P|106:203|115:235,2,77.3333356933594
53,326,68193,6,0,P|61:316|69:301,2,19.3333339233399
256,192,68345,12,0,69259,0:0:0:0:
272,228,69411,5,0,0:0:0:0:
268,219,69487,1,0,0:0:0:0:
264,210,69563,1,0,0:0:0:0:
260,201,69639,2,0,L|244:165,1,39.3954319639294
244,165,69868,2,0,L|228:129,1,39.3954319639294
228,129,70096,2,0,L|212:93,1,39.3954319639294
109,215,70325,6,0,L|125:179,1,39.3954319639294
125,179,70553,2,0,L|141:143,1,39.3954319639294
38,265,70781,6,0,L|22:229,1,39.3954319639294
22,229,71010,2,0,L|6:193,1,39.3954319639294
70,337,71238,6,0,L|106:321,1,39.3954319639294
106,321,71467,2,0,L|142:305,1,39.3954319639294
142,305,71695,2,0,L|178:289,1,39.3954319639294
287,238,71847,6,0,L|269:282,1,47.5394571564298
233,370,72000,2,0,L|251:326,1,47.5394571564298
351,190,72152,6,0,L|369:234,1,47.5394571564298
405,322,72305,2,0,L|387:278,1,47.5394571564298
512,196,72457,6,0,L|468:178,1,47.5394571564298
424,160,72609,2,0,L|468:178,1,47.5394571564298
463,50,72761,6,0,L|419:68,1,47.5394571564298
375,86,72913,2,0,L|419:68,1,47.5394571564298
507,32,73066,2,0,L|463:50,1,47.5394571564298
