osu file format v14

[General]
AudioFilename: audio.mp3
AudioLeadIn: 0
PreviewTime: 50062
Countdown: 1
SampleSet: Soft
StackLeniency: 0.7
Mode: 3
LetterboxInBreaks: 0
SpecialStyle: 0
WidescreenStoryboard: 1

[Editor]
DistanceSpacing: 1.1
BeatDivisor: 4
GridSize: 32
TimelineZoom: 2.8

[Metadata]
Title:8bit Adventurer
TitleUnicode:8bit Adventurer
Artist:Lime
ArtistUnicode:Lime
Creator:Murumoo
Version:Hard
Source:
Tags:
BeatmapID:1443485
BeatmapSetID:682096

[Difficulty]
HPDrainRate:8
CircleSize:4
OverallDifficulty:7
ApproachRate:5
SliderMultiplier:1.4
SliderTickRate:1

[Events]
//Background and Video events
0,0,"bg.jpg",0,0
//Break Periods
2,70059,75664
2,79958,86629
2,88943,97593
//Storyboard Layer 0 (Background)
//Storyboard Layer 1 (Fail)
//Storyboard Layer 2 (Pass)
//Storyboard Layer 3 (Foreground)
//Storyboard Sound Samples

[TimingPoints]
1332,304.568527918782,4,2,0,0,1,0

[HitObjects]
64,192,1332,5,0,0:0:0:0:
448,192,1332,1,0,0:0:0:0:
320,192,1332,1,0,0:0:0:0:
192,192,1484,1,0,0:0:0:0:
64,192,1636,1,0,0:0:0:0:
448,192,1636,1,0,0:0:0:0:
320,192,1788,1,0,0:0:0:0:
192,192,1941,1,0,0:0:0:0:
448,192,1941,1,0,0:0:0:0:
64,192,2093,1,0,0:0:0:0:
448,192,2245,1,0,0:0:0:0:
320,192,2296,1,0,0:0:0:0:
192,192,2347,1,0,0:0:0:0:
64,192,2397,128,0,2550:0:0:0:0:
320,192,2550,1,0,0:0:0:0:
192,192,2550,1,0,0:0:0:0:
448,192,2702,128,0,2854:0:0:0:0:
192,192,2854,1,0,0:0:0:0:
64,192,2854,1,0,0:0:0:0:
320,192,3007,128,0,3159:0:0:0:0:
64,192,3159,1,0,0:0:0:0:
448,192,3159,1,0,0:0:0:0:
192,192,3311,128,0,3463:0:0:0:0:
448,192,3463,1,0,0:0:0:0:
320,192,3540,1,0,0:0:0:0:
192,192,3616,1,0,0:0:0:0:
64,192,3692,1,0,0:0:0:0:
320,192,3768,1,0,0:0:0:0:
448,192,3768,1,0,0:0:0:0:
192,192,3920,1,0,0:0:0:0:
320,192,3996,1,0,0:0:0:0:
448,192,4073,1,0,0:0:0:0:
192,192,4149,1,0,0:0:0:0:
64,192,4225,1,0,0:0:0:0:
320,192,4225,1,0,0:0:0:0:
192,192,4377,1,0,0:0:0:0:
64,192,4529,1,0,0:0:0:0:
448,192,4529,1,0,0:0:0:0:
320,192,4682,1,0,0:0:0:0:
192,192,4834,128,0,4986:0:0:0:0:
64,192,4986,1,0,0:0:0:0:
448,192,4986,1,0,0:0:0:0:
320,192,5139,128,0,5291:0:0:0:0:
64,192,5291,1,0,0:0:0:0:
448,192,5291,1,0,0:0:0:0:
192,192,5443,1,0,0:0:0:0:
320,192,5595,1,0,0:0:0:0:
64,192,5595,1,0,0:0:0:0:
448,192,5748,1,0,0:0:0:0:
320,192,5824,1,0,0:0:0:0:
192,192,5900,1,0,0:0:0:0:
64,192,5900,1,0,0:0:0:0:
320,192,6052,1,0,0:0:0:0:
448,192,6052,1,0,0:0:0:0:
64,192,6205,1,0,0:0:0:0:
192,192,6205,1,0,0:0:0:0:
448,192,6205,1,0,0:0:0:0:
320,192,6357,1,0,0:0:0:0:
64,192,6509,1,0,0:0:0:0:
448,192,6509,1,0,0:0:0:0:
192,192,6661,1,0,0:0:0:0:
320,192,6814,1,0,0:0:0:0:
64,192,6814,1,0,0:0:0:0:
448,192,6966,1,0,0:0:0:0:
64,192,7118,1,0,0:0:0:0:
192,192,7169,1,0,0:0:0:0:
320,192,7220,1,0,0:0:0:0:
448,192,7271,128,0,7423:0:0:0:0:
192,192,7423,1,0,0:0:0:0:
320,192,7423,1,0,0:0:0:0:
64,192,7575,128,0,7727:0:0:0:0:
320,192,7727,1,0,0:0:0:0:
448,192,7727,1,0,0:0:0:0:
192,192,7880,128,0,8032:0:0:0:0:
448,192,8032,1,0,0:0:0:0:
64,192,8032,1,0,0:0:0:0:
320,192,8184,128,0,8337:0:0:0:0:
64,192,8337,1,0,0:0:0:0:
192,192,8413,1,0,0:0:0:0:
448,192,8489,1,0,0:0:0:0:
320,192,8565,1,0,0:0:0:0:
64,192,8641,1,0,0:0:0:0:
192,192,8641,1,0,0:0:0:0:
320,192,8793,1,0,0:0:0:0:
192,192,8946,1,0,0:0:0:0:
320,192,9022,1,0,0:0:0:0:
448,192,9098,1,0,0:0:0:0:
64,192,9098,128,0,9250:0:0:0:0:
192,192,9250,1,0,0:0:0:0:
448,192,9250,1,0,0:0:0:0:
320,192,9403,128,0,9555:0:0:0:0:
64,192,9555,1,0,0:0:0:0:
192,192,9555,1,0,0:0:0:0:
448,192,9707,128,0,9859:0:0:0:0:
320,192,9859,1,0,0:0:0:0:
192,192,9859,1,0,0:0:0:0:
64,192,10012,1,0,0:0:0:0:
192,192,10050,1,0,0:0:0:0:
448,192,10088,1,0,0:0:0:0:
320,192,10126,1,0,0:0:0:0:
192,192,10164,1,0,0:0:0:0:
64,192,10316,128,0,10469:0:0:0:0:
192,192,10469,1,0,0:0:0:0:
320,192,10469,1,0,0:0:0:0:
448,192,10621,1,0,0:0:0:0:
320,192,10672,1,0,0:0:0:0:
192,192,10722,1,0,0:0:0:0:
64,192,10773,1,0,0:0:0:0:
192,192,10925,1,0,0:0:0:0:
320,192,10925,1,0,0:0:0:0:
64,192,11078,1,0,0:0:0:0:
320,192,11078,1,0,0:0:0:0:
448,192,11078,1,0,0:0:0:0:
192,192,11230,1,0,0:0:0:0:
64,192,11382,1,0,0:0:0:0:
320,192,11382,1,0,0:0:0:0:
448,192,11535,1,0,0:0:0:0:
64,192,11687,1,0,0:0:0:0:
192,192,11687,1,0,0:0:0:0:
320,192,11839,1,0,0:0:0:0:
64,192,11991,1,0,0:0:0:0:
448,192,11991,1,0,0:0:0:0:
320,192,12068,1,0,0:0:0:0:
192,192,12144,128,0,12296:0:0:0:0:
448,192,12296,1,0,0:0:0:0:
64,192,12296,1,0,0:0:0:0:
320,192,12448,128,0,12601:0:0:0:0:
64,192,12601,1,0,0:0:0:0:
192,192,12601,1,0,0:0:0:0:
448,192,12753,128,0,12905:0:0:0:0:
192,192,12905,1,0,0:0:0:0:
320,192,12905,1,0,0:0:0:0:
64,192,13057,128,0,13210:0:0:0:0:
320,192,13210,1,0,0:0:0:0:
448,192,13210,1,0,0:0:0:0:
192,192,13286,1,0,0:0:0:0:
448,192,13362,1,0,0:0:0:0:
320,192,13438,1,0,0:0:0:0:
192,192,13514,1,0,0:0:0:0:
64,192,13514,1,0,0:0:0:0:
320,192,13667,1,0,0:0:0:0:
64,192,13819,1,0,0:0:0:0:
448,192,13819,1,0,0:0:0:0:
192,192,13971,1,0,0:0:0:0:
320,192,14123,1,0,0:0:0:0:
64,192,14123,1,0,0:0:0:0:
448,192,14276,1,0,0:0:0:0:
320,192,14428,1,0,0:0:0:0:
192,192,14428,1,0,0:0:0:0:
64,192,14580,128,0,14733:0:0:0:0:
448,192,14733,1,0,0:0:0:0:
320,192,14733,1,0,0:0:0:0:
64,192,14885,128,0,15037:0:0:0:0:
320,192,15037,1,0,0:0:0:0:
192,192,15037,1,0,0:0:0:0:
448,192,15189,128,0,15342:0:0:0:0:
320,192,15342,1,0,0:0:0:0:
64,192,15342,1,0,0:0:0:0:
192,192,15494,1,0,0:0:0:0:
320,192,15545,1,0,0:0:0:0:
448,192,15595,1,0,0:0:0:0:
64,192,15646,1,0,0:0:0:0:
192,192,15646,1,0,0:0:0:0:
192,192,15799,1,0,0:0:0:0:
320,192,15799,1,0,0:0:0:0:
64,192,15951,1,0,0:0:0:0:
320,192,15951,1,0,0:0:0:0:
448,192,15951,1,0,0:0:0:0:
192,192,16103,1,0,0:0:0:0:
64,192,16103,1,0,0:0:0:0:
64,192,16255,1,0,0:0:0:0:
192,192,16255,1,0,0:0:0:0:
64,192,16408,1,0,0:0:0:0:
192,192,16408,1,0,0:0:0:0:
64,192,16560,1,0,0:0:0:0:
192,192,16560,1,0,0:0:0:0:
64,192,16712,1,0,0:0:0:0:
192,192,16712,1,0,0:0:0:0:
64,192,16864,1,0,0:0:0:0:
192,192,16864,1,0,0:0:0:0:
64,192,17017,1,0,0:0:0:0:
192,192,17017,1,0,0:0:0:0:
320,192,17169,1,0,0:0:0:0:
448,192,17169,1,0,0:0:0:0:
64,192,17169,1,0,0:0:0:0:
320,192,17321,1,0,0:0:0:0:
448,192,17321,1,0,0:0:0:0:
320,192,17474,1,0,0:0:0:0:
448,192,17474,1,0,0:0:0:0:
320,192,17626,1,0,0:0:0:0:
448,192,17626,1,0,0:0:0:0:
320,192,17778,1,0,0:0:0:0:
448,192,17778,1,0,0:0:0:0:
320,192,17930,1,0,0:0:0:0:
448,192,17930,1,0,0:0:0:0:
320,192,18083,1,0,0:0:0:0:
448,192,18083,1,0,0:0:0:0:
320,192,18235,1,0,0:0:0:0:
448,192,18235,1,0,0:0:0:0:
64,192,18387,1,0,0:0:0:0:
192,192,18387,1,0,0:0:0:0:
448,192,18387,1,0,0:0:0:0:
320,192,18463,1,0,0:0:0:0:
64,192,18540,1,0,0:0:0:0:
192,192,18616,1,0,0:0:0:0:
320,192,18692,1,0,0:0:0:0:
448,192,18768,1,0,0:0:0:0:
64,192,18844,1,0,0:0:0:0:
192,192,18920,1,0,0:0:0:0:
448,192,18996,1,0,0:0:0:0:
320,192,19047,1,0,0:0:0:0:
192,192,19098,1,0,0:0:0:0:
64,192,19149,1,0,0:0:0:0:
192,192,19301,1,0,0:0:0:0:
64,192,19453,1,0,0:0:0:0:
448,192,19453,128,0,19606:0:0:0:0:
320,192,19606,1,0,0:0:0:0:
448,192,19758,1,0,0:0:0:0:
64,192,19758,128,0,19910:0:0:0:0:
192,192,19910,1,0,0:0:0:0:
64,192,20062,1,0,0:0:0:0:
448,192,20062,128,0,20215:0:0:0:0:
320,192,20215,128,0,20367:0:0:0:0:
64,192,20367,1,0,0:0:0:0:
192,192,20418,1,0,0:0:0:0:
320,192,20469,1,0,0:0:0:0:
448,192,20519,1,0,0:0:0:0:
192,192,20672,1,0,0:0:0:0:
320,192,20824,1,0,0:0:0:0:
448,192,20824,1,0,0:0:0:0:
64,192,20824,1,0,0:0:0:0:
192,192,20976,1,0,0:0:0:0:
448,192,21128,1,0,0:0:0:0:
320,192,21281,1,0,0:0:0:0:
448,192,21433,128,0,21738:0:0:0:0:
192,192,21433,1,0,0:0:0:0:
64,192,21585,1,0,0:0:0:0:
320,192,21738,1,0,0:0:0:0:
64,192,21890,128,0,22042:0:0:0:0:
448,192,21890,1,0,0:0:0:0:
192,192,22042,1,0,0:0:0:0:
448,192,22194,128,0,22347:0:0:0:0:
64,192,22194,1,0,0:0:0:0:
320,192,22347,1,0,0:0:0:0:
192,192,22499,128,0,22956:0:0:0:0:
64,192,22499,1,0,0:0:0:0:
320,192,22651,1,0,0:0:0:0:
448,192,22804,1,0,0:0:0:0:
64,192,22956,1,0,0:0:0:0:
320,192,23108,1,0,0:0:0:0:
448,192,23260,1,0,0:0:0:0:
64,192,23260,1,0,0:0:0:0:
192,192,23260,1,0,0:0:0:0:
320,192,23413,1,0,0:0:0:0:
64,192,23565,1,0,0:0:0:0:
192,192,23717,1,0,0:0:0:0:
64,192,23870,128,0,24174:0:0:0:0:
320,192,23870,1,0,0:0:0:0:
448,192,24022,1,0,0:0:0:0:
192,192,24174,1,0,0:0:0:0:
64,192,24326,1,0,0:0:0:0:
448,192,24326,128,0,24479:0:0:0:0:
320,192,24479,1,0,0:0:0:0:
448,192,24631,1,0,0:0:0:0:
64,192,24631,128,0,24783:0:0:0:0:
192,192,24783,1,0,0:0:0:0:
448,192,24936,1,0,0:0:0:0:
320,192,24936,128,0,25392:0:0:0:0:
192,192,25088,1,0,0:0:0:0:
64,192,25240,1,0,0:0:0:0:
448,192,25392,1,0,0:0:0:0:
192,192,25545,1,0,0:0:0:0:
320,192,25697,1,0,0:0:0:0:
448,192,25697,1,0,0:0:0:0:
64,192,25697,1,0,0:0:0:0:
64,192,26002,1,0,0:0:0:0:
192,192,26078,1,0,0:0:0:0:
320,192,26154,1,0,0:0:0:0:
448,192,26230,1,0,0:0:0:0:
64,192,26306,1,0,0:0:0:0:
192,192,26306,1,0,0:0:0:0:
320,192,26458,1,0,0:0:0:0:
448,192,26458,1,0,0:0:0:0:
192,192,26611,128,0,26839:0:0:0:0:
192,192,26915,1,0,0:0:0:0:
64,192,26915,1,0,0:0:0:0:
448,192,26915,1,0,0:0:0:0:
320,192,27220,128,0,27448:0:0:0:0:
64,192,27524,1,0,0:0:0:0:
320,192,27524,1,0,0:0:0:0:
448,192,27524,1,0,0:0:0:0:
64,192,27677,1,0,0:0:0:0:
192,192,27727,1,0,0:0:0:0:
320,192,27778,1,0,0:0:0:0:
448,192,27829,1,0,0:0:0:0:
320,192,27981,1,0,0:0:0:0:
192,192,27981,1,0,0:0:0:0:
64,192,28134,1,0,0:0:0:0:
448,192,28134,1,0,0:0:0:0:
192,192,28210,1,0,0:0:0:0:
448,192,28286,1,0,0:0:0:0:
320,192,28362,1,0,0:0:0:0:
64,192,28438,128,0,28590:0:0:0:0:
448,192,28438,1,0,0:0:0:0:
320,192,28590,1,0,0:0:0:0:
448,192,28743,128,0,28895:0:0:0:0:
192,192,28743,1,0,0:0:0:0:
64,192,28895,1,0,0:0:0:0:
320,192,29047,1,0,0:0:0:0:
448,192,29047,1,0,0:0:0:0:
192,192,29200,1,0,0:0:0:0:
64,192,29200,1,0,0:0:0:0:
320,192,29352,1,0,0:0:0:0:
448,192,29352,1,0,0:0:0:0:
64,192,29504,1,0,0:0:0:0:
192,192,29555,1,0,0:0:0:0:
320,192,29606,1,0,0:0:0:0:
448,192,29656,1,0,0:0:0:0:
448,192,29809,1,0,0:0:0:0:
64,192,29961,1,0,0:0:0:0:
192,192,30113,1,0,0:0:0:0:
320,192,30113,1,0,0:0:0:0:
448,192,30266,1,0,0:0:0:0:
64,192,30266,1,0,0:0:0:0:
320,192,30342,1,0,0:0:0:0:
192,192,30418,1,0,0:0:0:0:
64,192,30494,1,0,0:0:0:0:
320,192,30570,1,0,0:0:0:0:
448,192,30570,128,0,30875:0:0:0:0:
192,192,30722,1,0,0:0:0:0:
64,192,30875,1,0,0:0:0:0:
320,192,30875,1,0,0:0:0:0:
448,192,31027,1,0,0:0:0:0:
64,192,31179,128,0,31484:0:0:0:0:
192,192,31179,1,0,0:0:0:0:
320,192,31332,1,0,0:0:0:0:
448,192,31484,1,0,0:0:0:0:
192,192,31636,1,0,0:0:0:0:
320,192,31788,128,0,32093:0:0:0:0:
64,192,31788,1,0,0:0:0:0:
192,192,31941,1,0,0:0:0:0:
448,192,32093,1,0,0:0:0:0:
320,192,32169,1,0,0:0:0:0:
192,192,32245,1,0,0:0:0:0:
64,192,32321,1,0,0:0:0:0:
320,192,32397,1,0,0:0:0:0:
448,192,32397,1,0,0:0:0:0:
192,192,32550,1,0,0:0:0:0:
320,192,32626,1,0,0:0:0:0:
64,192,32702,1,0,0:0:0:0:
192,192,32778,1,0,0:0:0:0:
448,192,32854,128,0,33007:0:0:0:0:
64,192,33007,1,0,0:0:0:0:
320,192,33007,1,0,0:0:0:0:
192,192,33159,1,0,0:0:0:0:
448,192,33311,1,0,0:0:0:0:
64,192,33413,1,0,0:0:0:0:
448,192,33514,1,0,0:0:0:0:
192,192,33616,128,0,33920:0:0:0:0:
320,192,33616,1,0,0:0:0:0:
448,192,33768,1,0,0:0:0:0:
64,192,33920,1,0,0:0:0:0:
448,192,34022,1,0,0:0:0:0:
64,192,34123,1,0,0:0:0:0:
192,192,34225,1,0,0:0:0:0:
320,192,34326,1,0,0:0:0:0:
448,192,34428,1,0,0:0:0:0:
192,192,34529,1,0,0:0:0:0:
320,192,34606,1,0,0:0:0:0:
64,192,34682,1,0,0:0:0:0:
192,192,34758,1,0,0:0:0:0:
448,192,34834,1,0,0:0:0:0:
320,192,34910,1,0,0:0:0:0:
64,192,34986,1,0,0:0:0:0:
192,192,34986,128,0,35062:0:0:0:0:
320,192,35139,128,0,35215:0:0:0:0:
192,192,35291,128,0,35367:0:0:0:0:
448,192,35443,1,0,0:0:0:0:
64,192,35443,128,0,35748:0:0:0:0:
320,192,35595,1,0,0:0:0:0:
448,192,35748,1,0,0:0:0:0:
192,192,35748,1,0,0:0:0:0:
64,192,35900,1,0,0:0:0:0:
448,192,36052,128,0,36357:0:0:0:0:
320,192,36052,1,0,0:0:0:0:
192,192,36205,1,0,0:0:0:0:
64,192,36357,1,0,0:0:0:0:
320,192,36509,1,0,0:0:0:0:
192,192,36661,128,0,36966:0:0:0:0:
448,192,36661,1,0,0:0:0:0:
320,192,36814,1,0,0:0:0:0:
64,192,36966,1,0,0:0:0:0:
192,192,37042,1,0,0:0:0:0:
320,192,37118,1,0,0:0:0:0:
448,192,37194,1,0,0:0:0:0:
192,192,37271,1,0,0:0:0:0:
64,192,37271,1,0,0:0:0:0:
320,192,37423,128,0,37575:0:0:0:0:
448,192,37575,1,0,0:0:0:0:
320,192,37651,1,0,0:0:0:0:
192,192,37727,1,0,0:0:0:0:
64,192,37804,1,0,0:0:0:0:
320,192,37880,1,0,0:0:0:0:
448,192,37880,1,0,0:0:0:0:
192,192,38032,128,0,38108:0:0:0:0:
320,192,38184,128,0,38260:0:0:0:0:
192,192,38337,128,0,38413:0:0:0:0:
448,192,38489,1,0,0:0:0:0:
64,192,38489,1,0,0:0:0:0:
64,192,38641,1,0,0:0:0:0:
192,192,38692,1,0,0:0:0:0:
320,192,38743,1,0,0:0:0:0:
448,192,38793,1,0,0:0:0:0:
192,192,38946,1,0,0:0:0:0:
320,192,39022,1,0,0:0:0:0:
64,192,39098,1,0,0:0:0:0:
448,192,39098,1,0,0:0:0:0:
192,192,39098,1,0,0:0:0:0:
320,192,39250,128,0,39403:0:0:0:0:
192,192,39403,128,0,39555:0:0:0:0:
64,192,39555,1,0,0:0:0:0:
448,192,39555,1,0,0:0:0:0:
320,192,39707,128,0,39859:0:0:0:0:
64,192,39859,1,0,0:0:0:0:
448,192,39859,1,0,0:0:0:0:
192,192,39859,128,0,40012:0:0:0:0:
192,192,40164,1,0,0:0:0:0:
448,192,40316,128,0,40621:0:0:0:0:
320,192,40316,1,0,0:0:0:0:
192,192,40469,1,0,0:0:0:0:
320,192,40621,1,0,0:0:0:0:
64,192,40621,1,0,0:0:0:0:
448,192,40773,1,0,0:0:0:0:
192,192,40925,1,0,0:0:0:0:
64,192,40925,128,0,41230:0:0:0:0:
320,192,41078,1,0,0:0:0:0:
448,192,41230,1,0,0:0:0:0:
192,192,41382,1,0,0:0:0:0:
64,192,41535,1,0,0:0:0:0:
320,192,41535,128,0,41839:0:0:0:0:
192,192,41687,1,0,0:0:0:0:
448,192,41839,1,0,0:0:0:0:
320,192,41915,1,0,0:0:0:0:
192,192,41991,1,0,0:0:0:0:
64,192,42068,1,0,0:0:0:0:
448,192,42144,1,0,0:0:0:0:
320,192,42144,1,0,0:0:0:0:
192,192,42296,1,0,0:0:0:0:
320,192,42372,1,0,0:0:0:0:
64,192,42448,1,0,0:0:0:0:
192,192,42524,1,0,0:0:0:0:
448,192,42601,128,0,42753:0:0:0:0:
320,192,42753,1,0,0:0:0:0:
64,192,42753,1,0,0:0:0:0:
192,192,42905,1,0,0:0:0:0:
448,192,43057,1,0,0:0:0:0:
64,192,43159,1,0,0:0:0:0:
448,192,43260,1,0,0:0:0:0:
320,192,43362,1,0,0:0:0:0:
192,192,43362,128,0,43667:0:0:0:0:
448,192,43514,1,0,0:0:0:0:
64,192,43667,1,0,0:0:0:0:
448,192,43768,1,0,0:0:0:0:
64,192,43870,1,0,0:0:0:0:
192,192,43971,1,0,0:0:0:0:
320,192,44073,1,0,0:0:0:0:
448,192,44174,1,0,0:0:0:0:
192,192,44276,1,0,0:0:0:0:
320,192,44352,1,0,0:0:0:0:
64,192,44428,1,0,0:0:0:0:
192,192,44504,1,0,0:0:0:0:
448,192,44580,1,0,0:0:0:0:
320,192,44656,1,0,0:0:0:0:
192,192,44733,128,0,44809:0:0:0:0:
64,192,44733,1,0,0:0:0:0:
320,192,44885,128,0,44961:0:0:0:0:
192,192,45037,128,0,45113:0:0:0:0:
448,192,45189,128,0,45494:0:0:0:0:
320,192,45189,1,0,0:0:0:0:
192,192,45342,1,0,0:0:0:0:
320,192,45494,1,0,0:0:0:0:
64,192,45494,1,0,0:0:0:0:
448,192,45646,1,0,0:0:0:0:
192,192,45799,1,0,0:0:0:0:
64,192,45799,128,0,46103:0:0:0:0:
320,192,45951,1,0,0:0:0:0:
448,192,46103,1,0,0:0:0:0:
192,192,46255,1,0,0:0:0:0:
64,192,46408,1,0,0:0:0:0:
320,192,46408,128,0,46712:0:0:0:0:
192,192,46560,1,0,0:0:0:0:
448,192,46712,1,0,0:0:0:0:
320,192,46788,1,0,0:0:0:0:
192,192,46864,1,0,0:0:0:0:
64,192,46941,1,0,0:0:0:0:
448,192,47017,1,0,0:0:0:0:
320,192,47017,1,0,0:0:0:0:
192,192,47169,1,0,0:0:0:0:
64,192,47321,1,0,0:0:0:0:
192,192,47397,1,0,0:0:0:0:
320,192,47474,1,0,0:0:0:0:
448,192,47550,1,0,0:0:0:0:
64,192,47626,1,0,0:0:0:0:
192,192,47626,128,0,47778:0:0:0:0:
320,192,47778,128,0,47930:0:0:0:0:
448,192,47930,128,0,48083:0:0:0:0:
64,192,48083,128,0,48235:0:0:0:0:
320,192,48235,128,0,48387:0:0:0:0:
448,192,48387,128,0,48540:0:0:0:0:
192,192,48540,128,0,48692:0:0:0:0:
64,192,48692,128,0,48844:0:0:0:0:
448,192,48844,1,0,0:0:0:0:
320,192,48844,1,0,0:0:0:0:
64,192,48996,1,0,0:0:0:0:
192,192,49047,1,0,0:0:0:0:
320,192,49098,1,0,0:0:0:0:
448,192,49149,1,0,0:0:0:0:
64,192,49301,1,0,0:0:0:0:
192,192,49301,1,0,0:0:0:0:
320,192,49453,1,0,0:0:0:0:
64,192,49606,1,0,0:0:0:0:
448,192,49606,1,0,0:0:0:0:
320,192,49758,1,0,0:0:0:0:
192,192,49834,1,0,0:0:0:0:
448,192,49910,1,0,0:0:0:0:
320,192,49986,1,0,0:0:0:0:
448,192,50062,1,0,0:0:0:0:
64,192,50062,1,0,0:0:0:0:
192,192,50164,1,0,0:0:0:0:
320,192,50266,1,0,0:0:0:0:
448,192,50367,1,0,0:0:0:0:
192,192,50469,1,0,0:0:0:0:
320,192,50570,1,0,0:0:0:0:
448,192,50672,1,0,0:0:0:0:
64,192,50672,1,0,0:0:0:0:
320,192,50773,1,0,0:0:0:0:
192,192,50875,1,0,0:0:0:0:
320,192,50976,1,0,0:0:0:0:
448,192,51078,1,0,0:0:0:0:
192,192,51179,1,0,0:0:0:0:
320,192,51281,1,0,0:0:0:0:
448,192,51281,1,0,0:0:0:0:
64,192,51382,1,0,0:0:0:0:
192,192,51484,1,0,0:0:0:0:
320,192,51585,1,0,0:0:0:0:
448,192,51687,1,0,0:0:0:0:
192,192,51788,1,0,0:0:0:0:
448,192,51890,1,0,0:0:0:0:
64,192,51890,1,0,0:0:0:0:
320,192,51991,1,0,0:0:0:0:
192,192,52093,1,0,0:0:0:0:
64,192,52194,1,0,0:0:0:0:
320,192,52296,1,0,0:0:0:0:
448,192,52397,1,0,0:0:0:0:
64,192,52499,1,0,0:0:0:0:
192,192,52499,1,0,0:0:0:0:
320,192,52601,1,0,0:0:0:0:
64,192,52702,1,0,0:0:0:0:
192,192,52804,1,0,0:0:0:0:
448,192,52905,1,0,0:0:0:0:
320,192,53007,1,0,0:0:0:0:
448,192,53108,1,0,0:0:0:0:
64,192,53108,1,0,0:0:0:0:
192,192,53210,1,0,0:0:0:0:
320,192,53311,1,0,0:0:0:0:
192,192,53413,1,0,0:0:0:0:
448,192,53514,1,0,0:0:0:0:
320,192,53616,1,0,0:0:0:0:
448,192,53717,1,0,0:0:0:0:
64,192,53717,1,0,0:0:0:0:
192,192,53819,1,0,0:0:0:0:
192,192,53920,1,0,0:0:0:0:
320,192,54022,1,0,0:0:0:0:
192,192,54123,1,0,0:0:0:0:
448,192,54225,1,0,0:0:0:0:
192,192,54326,1,0,0:0:0:0:
320,192,54326,1,0,0:0:0:0:
448,192,54428,1,0,0:0:0:0:
320,192,54529,1,0,0:0:0:0:
448,192,54631,1,0,0:0:0:0:
320,192,54733,1,0,0:0:0:0:
192,192,54834,1,0,0:0:0:0:
448,192,54936,5,0,0:0:0:0:
64,192,54936,1,0,0:0:0:0:
192,192,55037,1,0,0:0:0:0:
320,192,55139,1,0,0:0:0:0:
448,192,55240,1,0,0:0:0:0:
192,192,55342,1,0,0:0:0:0:
320,192,55443,1,0,0:0:0:0:
448,192,55545,1,0,0:0:0:0:
64,192,55545,1,0,0:0:0:0:
320,192,55646,1,0,0:0:0:0:
192,192,55748,1,0,0:0:0:0:
448,192,55849,1,0,0:0:0:0:
320,192,55951,1,0,0:0:0:0:
192,192,56052,1,0,0:0:0:0:
64,192,56154,1,0,0:0:0:0:
448,192,56154,1,0,0:0:0:0:
192,192,56255,1,0,0:0:0:0:
320,192,56357,1,0,0:0:0:0:
448,192,56458,1,0,0:0:0:0:
192,192,56560,1,0,0:0:0:0:
320,192,56661,1,0,0:0:0:0:
448,192,56763,1,0,0:0:0:0:
64,192,56763,1,0,0:0:0:0:
320,192,56864,1,0,0:0:0:0:
192,192,56966,1,0,0:0:0:0:
448,192,57068,1,0,0:0:0:0:
320,192,57169,1,0,0:0:0:0:
192,192,57271,1,0,0:0:0:0:
64,192,57372,1,0,0:0:0:0:
448,192,57372,1,0,0:0:0:0:
192,192,57474,1,0,0:0:0:0:
64,192,57575,1,0,0:0:0:0:
448,192,57677,1,0,0:0:0:0:
192,192,57778,1,0,0:0:0:0:
448,192,57880,1,0,0:0:0:0:
64,192,57981,1,0,0:0:0:0:
192,192,57981,1,0,0:0:0:0:
448,192,58083,1,0,0:0:0:0:
320,192,58184,1,0,0:0:0:0:
64,192,58286,1,0,0:0:0:0:
320,192,58387,1,0,0:0:0:0:
192,192,58489,1,0,0:0:0:0:
448,192,58590,5,0,0:0:0:0:
64,192,58590,1,0,0:0:0:0:
320,192,58743,128,0,58895:0:0:0:0:
192,192,58895,5,0,0:0:0:0:
320,192,58971,1,0,0:0:0:0:
192,192,59047,1,0,0:0:0:0:
320,192,59123,1,0,0:0:0:0:
448,192,59200,1,0,0:0:0:0:
64,192,59200,1,0,0:0:0:0:
320,192,59352,1,0,0:0:0:0:
192,192,59428,1,0,0:0:0:0:
320,192,59504,1,0,0:0:0:0:
192,192,59580,1,0,0:0:0:0:
320,192,59656,1,0,0:0:0:0:
192,192,59809,1,0,0:0:0:0:
64,192,59809,1,0,0:0:0:0:
320,192,59910,1,0,0:0:0:0:
192,192,60012,1,0,0:0:0:0:
64,192,60113,1,0,0:0:0:0:
320,192,60215,1,0,0:0:0:0:
64,192,60316,1,0,0:0:0:0:
192,192,60418,1,0,0:0:0:0:
448,192,60418,1,0,0:0:0:0:
320,192,60519,1,0,0:0:0:0:
64,192,60621,1,0,0:0:0:0:
320,192,60722,1,0,0:0:0:0:
192,192,60824,1,0,0:0:0:0:
64,192,60925,1,0,0:0:0:0:
192,192,61027,1,0,0:0:0:0:
320,192,61027,1,0,0:0:0:0:
64,192,61128,1,0,0:0:0:0:
192,192,61230,1,0,0:0:0:0:
448,192,61332,1,0,0:0:0:0:
192,192,61433,1,0,0:0:0:0:
64,192,61535,1,0,0:0:0:0:
448,192,61636,1,0,0:0:0:0:
192,192,61636,1,0,0:0:0:0:
320,192,61738,1,0,0:0:0:0:
64,192,61839,1,0,0:0:0:0:
320,192,61941,1,0,0:0:0:0:
448,192,62042,1,0,0:0:0:0:
320,192,62144,1,0,0:0:0:0:
448,192,62245,1,0,0:0:0:0:
64,192,62245,1,0,0:0:0:0:
320,192,62347,1,0,0:0:0:0:
192,192,62448,1,0,0:0:0:0:
448,192,62550,1,0,0:0:0:0:
192,192,62651,1,0,0:0:0:0:
320,192,62753,1,0,0:0:0:0:
448,192,62854,1,0,0:0:0:0:
64,192,62854,1,0,0:0:0:0:
192,192,62956,1,0,0:0:0:0:
448,192,63057,1,0,0:0:0:0:
320,192,63159,1,0,0:0:0:0:
192,192,63260,1,0,0:0:0:0:
448,192,63362,1,0,0:0:0:0:
192,192,63463,1,0,0:0:0:0:
320,192,63463,1,0,0:0:0:0:
64,192,63565,1,0,0:0:0:0:
192,192,63667,1,0,0:0:0:0:
448,192,63768,1,0,0:0:0:0:
64,192,63870,1,0,0:0:0:0:
448,192,63971,1,0,0:0:0:0:
192,192,64073,1,0,0:0:0:0:
320,192,64073,1,0,0:0:0:0:
64,192,64174,1,0,0:0:0:0:
448,192,64276,1,0,0:0:0:0:
64,192,64377,1,0,0:0:0:0:
192,192,64479,1,0,0:0:0:0:
448,192,64580,1,0,0:0:0:0:
64,192,64682,1,0,0:0:0:0:
192,192,64682,1,0,0:0:0:0:
320,192,64783,1,0,0:0:0:0:
448,192,64885,1,0,0:0:0:0:
64,192,64986,1,0,0:0:0:0:
320,192,65088,1,0,0:0:0:0:
192,192,65189,1,0,0:0:0:0:
448,192,65291,5,0,0:0:0:0:
64,192,65291,1,0,0:0:0:0:
192,192,65392,1,0,0:0:0:0:
320,192,65494,1,0,0:0:0:0:
448,192,65595,1,0,0:0:0:0:
192,192,65697,1,0,0:0:0:0:
320,192,65799,1,0,0:0:0:0:
64,192,65900,1,0,0:0:0:0:
448,192,65900,1,0,0:0:0:0:
320,192,66002,1,0,0:0:0:0:
192,192,66103,1,0,0:0:0:0:
448,192,66205,1,0,0:0:0:0:
320,192,66306,1,0,0:0:0:0:
192,192,66408,1,0,0:0:0:0:
448,192,66509,1,0,0:0:0:0:
64,192,66509,1,0,0:0:0:0:
192,192,66611,1,0,0:0:0:0:
320,192,66712,1,0,0:0:0:0:
448,192,66814,1,0,0:0:0:0:
192,192,66915,1,0,0:0:0:0:
320,192,67017,1,0,0:0:0:0:
64,192,67118,1,0,0:0:0:0:
448,192,67118,1,0,0:0:0:0:
320,192,67220,1,0,0:0:0:0:
192,192,67321,1,0,0:0:0:0:
64,192,67423,1,0,0:0:0:0:
448,192,67524,1,0,0:0:0:0:
320,192,67626,1,0,0:0:0:0:
192,192,67727,1,0,0:0:0:0:
64,192,67829,1,0,0:0:0:0:
192,192,67930,1,0,0:0:0:0:
320,192,68032,1,0,0:0:0:0:
448,192,68134,1,0,0:0:0:0:
192,192,68235,1,0,0:0:0:0:
64,192,68337,1,0,0:0:0:0:
448,192,68337,1,0,0:0:0:0:
320,192,68337,1,0,0:0:0:0:
64,192,68946,1,0,0:0:0:0:
448,192,68946,1,0,0:0:0:0:
320,192,69098,1,0,0:0:0:0:
448,192,69174,1,0,0:0:0:0:
192,192,69250,1,0,0:0:0:0:
320,192,69326,1,0,0:0:0:0:
64,192,69403,1,0,0:0:0:0:
192,192,69479,1,0,0:0:0:0:
320,192,69555,1,0,0:0:0:0:
448,192,69555,128,0,69859:0:0:0:0:
192,192,69707,1,0,0:0:0:0:
64,192,69859,1,0,0:0:0:0:
192,192,70012,1,0,0:0:0:0:
320,192,70012,1,0,0:0:0:0:
192,192,71839,128,0,71991:0:0:0:0:
64,192,71991,1,0,0:0:0:0:
448,192,71991,1,0,0:0:0:0:
320,192,72144,1,0,0:0:0:0:
192,192,72296,1,0,0:0:0:0:
64,192,72296,1,0,0:0:0:0:
448,192,72448,1,0,0:0:0:0:
320,192,72601,1,0,0:0:0:0:
192,192,72601,1,0,0:0:0:0:
64,192,76864,132,0,77017:0:0:0:0:
448,192,76864,1,0,0:0:0:0:
320,192,77017,1,0,0:0:0:0:
448,192,77169,128,0,77321:0:0:0:0:
192,192,77169,1,0,0:0:0:0:
64,192,77321,1,0,0:0:0:0:
192,192,77474,128,0,77626:0:0:0:0:
448,192,77474,1,0,0:0:0:0:
320,192,77626,1,0,0:0:0:0:
192,192,77778,1,0,0:0:0:0:
320,192,77778,128,0,77930:0:0:0:0:
64,192,77930,128,0,78083:0:0:0:0:
192,192,78083,1,0,0:0:0:0:
448,192,78083,1,0,0:0:0:0:
320,192,78083,1,0,0:0:0:0:
64,192,78235,1,0,0:0:0:0:
192,192,78286,1,0,0:0:0:0:
320,192,78337,1,0,0:0:0:0:
448,192,78387,1,0,0:0:0:0:
64,192,78540,1,0,0:0:0:0:
192,192,78540,1,0,0:0:0:0:
448,192,78540,1,0,0:0:0:0:
64,192,79301,1,0,0:0:0:0:
192,192,79301,1,0,0:0:0:0:
448,192,79301,1,0,0:0:0:0:
320,192,79453,1,0,0:0:0:0:
192,192,79606,1,0,0:0:0:0:
64,192,79606,1,0,0:0:0:0:
448,192,79758,1,0,0:0:0:0:
64,192,87829,5,0,0:0:0:0:
192,192,87905,1,0,0:0:0:0:
320,192,87981,1,0,0:0:0:0:
448,192,88057,1,0,0:0:0:0:
192,192,88134,1,0,0:0:0:0:
320,192,88210,1,0,0:0:0:0:
448,192,88286,1,0,0:0:0:0:
192,192,88362,1,0,0:0:0:0:
320,192,88438,1,0,0:0:0:0:
64,192,88590,1,0,0:0:0:0:
192,192,88667,1,0,0:0:0:0:
64,192,88743,1,0,0:0:0:0:
320,192,88743,1,0,0:0:0:0:
448,192,88743,1,0,0:0:0:0:
64,192,98793,5,0,0:0:0:0:
448,192,98793,1,0,0:0:0:0:
320,192,98870,1,0,0:0:0:0:
192,192,98946,1,0,0:0:0:0:
64,192,99022,1,0,0:0:0:0:
320,192,99098,1,0,0:0:0:0:
192,192,99174,1,0,0:0:0:0:
320,192,99250,1,0,0:0:0:0:
448,192,99326,1,0,0:0:0:0:
320,192,99403,1,0,0:0:0:0:
192,192,99479,1,0,0:0:0:0:
320,192,99555,1,0,0:0:0:0:
448,192,99631,1,0,0:0:0:0:
192,192,99707,1,0,0:0:0:0:
320,192,99783,1,0,0:0:0:0:
192,192,99859,1,0,0:0:0:0:
64,192,99936,1,0,0:0:0:0:
320,192,100012,1,0,0:0:0:0:
192,192,100088,1,0,0:0:0:0:
448,192,100164,1,0,0:0:0:0:
320,192,100240,1,0,0:0:0:0:
64,192,100316,1,0,0:0:0:0:
320,192,100392,1,0,0:0:0:0:
448,192,100469,1,0,0:0:0:0:
64,192,100545,1,0,0:0:0:0:
192,192,100621,1,0,0:0:0:0:
448,192,100697,1,0,0:0:0:0:
320,192,100773,1,0,0:0:0:0:
192,192,100849,1,0,0:0:0:0:
64,192,100925,1,0,0:0:0:0:
192,192,101002,1,0,0:0:0:0:
320,192,101078,1,0,0:0:0:0:
448,192,101154,1,0,0:0:0:0:
64,192,101230,1,0,0:0:0:0:
192,192,101306,1,0,0:0:0:0:
64,192,101382,1,0,0:0:0:0:
320,192,101458,1,0,0:0:0:0:
448,192,101535,1,0,0:0:0:0:
64,192,101611,1,0,0:0:0:0:
320,192,101687,1,0,0:0:0:0:
448,192,101763,1,0,0:0:0:0:
192,192,101839,1,0,0:0:0:0:
64,192,101915,1,0,0:0:0:0:
320,192,101991,1,0,0:0:0:0:
192,192,102068,1,0,0:0:0:0:
64,192,102144,1,0,0:0:0:0:
320,192,102220,1,0,0:0:0:0:
64,192,102296,1,0,0:0:0:0:
192,192,102372,1,0,0:0:0:0:
448,192,102448,1,0,0:0:0:0:
192,192,102524,1,0,0:0:0:0:
64,192,102601,1,0,0:0:0:0:
320,192,102677,1,0,0:0:0:0:
64,192,102753,1,0,0:0:0:0:
320,192,102829,1,0,0:0:0:0:
448,192,102905,1,0,0:0:0:0:
64,192,102981,1,0,0:0:0:0:
320,192,103057,1,0,0:0:0:0:
448,192,103134,1,0,0:0:0:0:
320,192,103210,1,0,0:0:0:0:
192,192,103286,1,0,0:0:0:0:
64,192,103362,1,0,0:0:0:0:
192,192,103438,1,0,0:0:0:0:
320,192,103514,1,0,0:0:0:0:
192,192,103590,1,0,0:0:0:0:
64,192,103667,1,0,0:0:0:0:
448,192,103667,128,0,103819:0:0:0:0:
320,192,103819,1,0,0:0:0:0:
192,192,103971,1,0,0:0:0:0:
64,192,103971,128,0,104123:0:0:0:0:
320,192,104123,1,0,0:0:0:0:
448,192,104123,1,0,0:0:0:0:
192,192,104200,1,0,0:0:0:0:
64,192,104200,1,0,0:0:0:0:
320,192,104276,1,0,0:0:0:0:
448,192,104276,1,0,0:0:0:0:
448,192,104504,1,0,0:0:0:0:
192,192,104504,1,0,0:0:0:0:
64,192,104733,1,0,0:0:0:0:
192,192,104733,1,0,0:0:0:0:
64,192,104885,1,0,0:0:0:0:
448,192,104885,1,0,0:0:0:0:
320,192,105037,1,0,0:0:0:0:
64,192,105189,5,0,0:0:0:0:
192,192,105189,1,0,0:0:0:0:
320,192,105266,1,0,0:0:0:0:
448,192,105266,1,0,0:0:0:0:
192,192,105342,1,0,0:0:0:0:
64,192,105342,1,0,0:0:0:0:
320,192,105418,1,0,0:0:0:0:
448,192,105418,1,0,0:0:0:0:
192,192,105494,1,0,0:0:0:0:
64,192,105494,1,0,0:0:0:0:
64,192,105646,1,0,0:0:0:0:
448,192,105646,1,0,0:0:0:0:
448,192,105799,1,0,0:0:0:0:
64,192,105799,1,0,0:0:0:0:
320,192,105875,1,0,0:0:0:0:
192,192,105951,1,0,0:0:0:0:
64,192,106027,1,0,0:0:0:0:
320,192,106103,1,0,0:0:0:0:
192,192,106103,1,0,0:0:0:0:
448,192,106103,1,0,0:0:0:0:
192,192,106255,1,0,0:0:0:0:
320,192,106332,1,0,0:0:0:0:
64,192,106408,128,0,106484:0:0:0:0:
192,192,106484,128,0,106560:0:0:0:0:
448,192,106560,128,0,106636:0:0:0:0:
192,192,106712,1,0,0:0:0:0:
320,192,106712,1,0,0:0:0:0:
320,192,106864,1,0,0:0:0:0:
64,192,107017,1,0,0:0:0:0:
192,192,107017,1,0,0:0:0:0:
448,192,107017,1,0,0:0:0:0:
