osu file format v14

[General]
AudioFilename: adventure.mp3
AudioLeadIn: 0
PreviewTime: -1
Countdown: 0
SampleSet: Normal
StackLeniency: 0.7
Mode: 3
LetterboxInBreaks: 0
SpecialStyle: 0
WidescreenStoryboard: 0

[Editor]
DistanceSpacing: 0.8
BeatDivisor: 16
GridSize: 32
TimelineZoom: 1

[Metadata]
Title:8bit Adventurer
TitleUnicode:8bit Adventurer
Artist:Lime
ArtistUnicode:Lime
Creator:Daikyi
Version:Blast Off!
Source:
Tags:
BeatmapID:1218334
BeatmapSetID:575327

[Difficulty]
HPDrainRate:5
CircleSize:4
OverallDifficulty:10
ApproachRate:5
SliderMultiplier:1.4
SliderTickRate:1

[Events]
//Background and Video events
0,0,"8bit-bg.png",0,0
//Break Periods
//Storyboard Layer 0 (Background)
//Storyboard Layer 1 (Fail)
//Storyboard Layer 2 (Pass)
//Storyboard Layer 3 (Foreground)
//Storyboard Sound Samples

[TimingPoints]
1288,304.568528,4,1,0,100,1,0
88718,-10,4,1,0,100,0,0
88775,-1000,4,1,0,100,0,0
89003,-100,4,1,0,100,0,1
108496,-100,4,1,0,100,0,0

[HitObjects]
64,192,1288,5,0,0:0:0:0:
320,192,1288,1,0,0:0:0:0:
448,192,1288,1,0,0:0:0:0:
192,192,1440,1,0,0:0:0:0:
320,192,1516,1,0,0:0:0:0:
64,192,1592,1,0,0:0:0:0:
448,192,1592,1,0,0:0:0:0:
64,192,1744,1,0,0:0:0:0:
320,192,1744,1,0,0:0:0:0:
192,192,1897,1,0,0:0:0:0:
320,192,2049,1,0,0:0:0:0:
448,192,2049,1,0,0:0:0:0:
64,192,2201,1,0,0:0:0:0:
192,192,2252,1,0,0:0:0:0:
320,192,2303,1,0,0:0:0:0:
448,192,2353,1,0,0:0:0:0:
192,192,2392,1,0,0:0:0:0:
64,192,2430,1,0,0:0:0:0:
320,192,2468,1,0,0:0:0:0:
448,192,2506,1,0,0:0:0:0:
320,192,2658,1,0,0:0:0:0:
64,192,2696,1,0,0:0:0:0:
448,192,2734,1,0,0:0:0:0:
192,192,2772,1,0,0:0:0:0:
320,192,2810,1,0,0:0:0:0:
64,192,2963,1,0,0:0:0:0:
448,192,2963,1,0,0:0:0:0:
192,192,3115,1,0,0:0:0:0:
320,192,3242,1,0,0:0:0:0:
64,192,3267,1,0,0:0:0:0:
448,192,3267,1,0,0:0:0:0:
192,192,3419,1,0,0:0:0:0:
320,192,3496,1,0,0:0:0:0:
192,192,3572,1,0,0:0:0:0:
448,192,3572,1,0,0:0:0:0:
64,192,3648,1,0,0:0:0:0:
320,192,3724,1,0,0:0:0:0:
448,192,3724,1,0,0:0:0:0:
192,192,3876,1,0,0:0:0:0:
64,192,3952,1,0,0:0:0:0:
192,192,4029,1,0,0:0:0:0:
448,192,4029,1,0,0:0:0:0:
320,192,4105,1,0,0:0:0:0:
64,192,4181,1,0,0:0:0:0:
448,192,4181,1,0,0:0:0:0:
192,192,4333,1,0,0:0:0:0:
320,192,4485,1,0,0:0:0:0:
448,192,4485,1,0,0:0:0:0:
192,192,4638,1,0,0:0:0:0:
320,192,4638,1,0,0:0:0:0:
64,192,4790,1,0,0:0:0:0:
320,192,4790,1,0,0:0:0:0:
64,192,4942,1,0,0:0:0:0:
192,192,4942,1,0,0:0:0:0:
64,192,5095,1,0,0:0:0:0:
448,192,5095,1,0,0:0:0:0:
192,192,5247,1,0,0:0:0:0:
320,192,5247,1,0,0:0:0:0:
192,192,5399,1,0,0:0:0:0:
448,192,5399,1,0,0:0:0:0:
64,192,5551,1,0,0:0:0:0:
320,192,5551,1,0,0:0:0:0:
192,192,5704,1,0,0:0:0:0:
448,192,5755,1,0,0:0:0:0:
320,192,5805,1,0,0:0:0:0:
64,192,5856,1,0,0:0:0:0:
192,192,5856,1,0,0:0:0:0:
192,192,6008,1,0,0:0:0:0:
320,192,6008,1,0,0:0:0:0:
64,192,6161,1,0,0:0:0:0:
320,192,6161,1,0,0:0:0:0:
448,192,6161,1,0,0:0:0:0:
192,192,6313,1,0,0:0:0:0:
320,192,6389,1,0,0:0:0:0:
64,192,6465,1,0,0:0:0:0:
448,192,6465,1,0,0:0:0:0:
192,192,6541,1,0,0:0:0:0:
320,192,6617,1,0,0:0:0:0:
448,192,6617,1,0,0:0:0:0:
192,192,6770,1,0,0:0:0:0:
320,192,6922,1,0,0:0:0:0:
448,192,6922,1,0,0:0:0:0:
64,192,7074,1,0,0:0:0:0:
320,192,7125,1,0,0:0:0:0:
192,192,7176,1,0,0:0:0:0:
448,192,7227,1,0,0:0:0:0:
320,192,7265,1,0,0:0:0:0:
64,192,7303,1,0,0:0:0:0:
192,192,7341,1,0,0:0:0:0:
448,192,7379,1,0,0:0:0:0:
192,192,7531,1,0,0:0:0:0:
448,192,7569,1,0,0:0:0:0:
64,192,7607,1,0,0:0:0:0:
320,192,7645,1,0,0:0:0:0:
192,192,7683,1,0,0:0:0:0:
64,192,7836,1,0,0:0:0:0:
320,192,7836,1,0,0:0:0:0:
448,192,7988,1,0,0:0:0:0:
64,192,8115,1,0,0:0:0:0:
192,192,8140,1,0,0:0:0:0:
320,192,8140,1,0,0:0:0:0:
448,192,8293,1,0,0:0:0:0:
320,192,8369,1,0,0:0:0:0:
64,192,8445,1,0,0:0:0:0:
192,192,8445,1,0,0:0:0:0:
320,192,8521,1,0,0:0:0:0:
192,192,8597,1,0,0:0:0:0:
448,192,8597,1,0,0:0:0:0:
320,192,8749,1,0,0:0:0:0:
192,192,8826,1,0,0:0:0:0:
64,192,8902,1,0,0:0:0:0:
448,192,8902,1,0,0:0:0:0:
320,192,8978,1,0,0:0:0:0:
192,192,9054,1,0,0:0:0:0:
448,192,9054,1,0,0:0:0:0:
64,192,9206,1,0,0:0:0:0:
320,192,9206,1,0,0:0:0:0:
192,192,9359,1,0,0:0:0:0:
320,192,9359,1,0,0:0:0:0:
64,192,9511,1,0,0:0:0:0:
448,192,9663,1,0,0:0:0:0:
192,192,9701,1,0,0:0:0:0:
64,192,9739,1,0,0:0:0:0:
320,192,9777,1,0,0:0:0:0:
192,192,9815,1,0,0:0:0:0:
448,192,9815,1,0,0:0:0:0:
448,192,9968,1,0,0:0:0:0:
320,192,10006,1,0,0:0:0:0:
192,192,10044,1,0,0:0:0:0:
64,192,10082,1,0,0:0:0:0:
448,192,10120,1,0,0:0:0:0:
192,192,10272,1,0,0:0:0:0:
320,192,10272,1,0,0:0:0:0:
64,192,10425,1,0,0:0:0:0:
320,192,10425,1,0,0:0:0:0:
64,192,10577,1,0,0:0:0:0:
192,192,10577,1,0,0:0:0:0:
320,192,10628,1,0,0:0:0:0:
448,192,10628,1,0,0:0:0:0:
64,192,10678,1,0,0:0:0:0:
192,192,10678,1,0,0:0:0:0:
320,192,10729,1,0,0:0:0:0:
448,192,10729,1,0,0:0:0:0:
192,192,10881,1,0,0:0:0:0:
320,192,10881,1,0,0:0:0:0:
64,192,11034,1,0,0:0:0:0:
192,192,11034,1,0,0:0:0:0:
448,192,11034,1,0,0:0:0:0:
64,192,11186,1,0,0:0:0:0:
320,192,11338,1,0,0:0:0:0:
448,192,11338,1,0,0:0:0:0:
192,192,11491,1,0,0:0:0:0:
448,192,11491,1,0,0:0:0:0:
64,192,11643,1,0,0:0:0:0:
320,192,11643,1,0,0:0:0:0:
320,192,11795,1,0,0:0:0:0:
448,192,11795,1,0,0:0:0:0:
64,192,11947,1,0,0:0:0:0:
448,192,11947,1,0,0:0:0:0:
192,192,11998,1,0,0:0:0:0:
320,192,12049,1,0,0:0:0:0:
448,192,12100,1,0,0:0:0:0:
192,192,12138,1,0,0:0:0:0:
320,192,12176,1,0,0:0:0:0:
64,192,12214,1,0,0:0:0:0:
192,192,12252,1,0,0:0:0:0:
448,192,12252,1,0,0:0:0:0:
64,192,12404,1,0,0:0:0:0:
192,192,12442,1,0,0:0:0:0:
448,192,12480,1,0,0:0:0:0:
320,192,12518,1,0,0:0:0:0:
64,192,12557,1,0,0:0:0:0:
192,192,12557,1,0,0:0:0:0:
192,192,12709,1,0,0:0:0:0:
448,192,12709,1,0,0:0:0:0:
64,192,12861,1,0,0:0:0:0:
192,192,12861,1,0,0:0:0:0:
320,192,12988,1,0,0:0:0:0:
64,192,13013,1,0,0:0:0:0:
448,192,13013,1,0,0:0:0:0:
64,192,13166,1,0,0:0:0:0:
192,192,13166,1,0,0:0:0:0:
320,192,13242,1,0,0:0:0:0:
192,192,13318,1,0,0:0:0:0:
448,192,13318,1,0,0:0:0:0:
320,192,13394,1,0,0:0:0:0:
64,192,13470,1,0,0:0:0:0:
448,192,13470,1,0,0:0:0:0:
320,192,13623,1,0,0:0:0:0:
64,192,13699,1,0,0:0:0:0:
192,192,13775,1,0,0:0:0:0:
448,192,13775,1,0,0:0:0:0:
320,192,13851,1,0,0:0:0:0:
64,192,13927,1,0,0:0:0:0:
448,192,13927,1,0,0:0:0:0:
192,192,14079,1,0,0:0:0:0:
320,192,14079,1,0,0:0:0:0:
320,192,14232,1,0,0:0:0:0:
448,192,14232,1,0,0:0:0:0:
192,192,14384,1,0,0:0:0:0:
448,192,14384,1,0,0:0:0:0:
64,192,14536,1,0,0:0:0:0:
320,192,14536,1,0,0:0:0:0:
64,192,14689,1,0,0:0:0:0:
448,192,14689,1,0,0:0:0:0:
192,192,14841,1,0,0:0:0:0:
320,192,14841,1,0,0:0:0:0:
64,192,14993,1,0,0:0:0:0:
448,192,14993,1,0,0:0:0:0:
192,192,15145,1,0,0:0:0:0:
448,192,15145,1,0,0:0:0:0:
64,192,15298,1,0,0:0:0:0:
320,192,15298,1,0,0:0:0:0:
192,192,15450,1,0,0:0:0:0:
448,192,15501,1,0,0:0:0:0:
320,192,15551,1,0,0:0:0:0:
64,192,15602,1,0,0:0:0:0:
192,192,15602,1,0,0:0:0:0:
192,192,15755,1,0,0:0:0:0:
320,192,15755,1,0,0:0:0:0:
64,192,15907,1,0,0:0:0:0:
320,192,15907,1,0,0:0:0:0:
448,192,15907,1,0,0:0:0:0:
192,192,16059,1,0,0:0:0:0:
448,192,16059,1,0,0:0:0:0:
64,192,16211,1,0,0:0:0:0:
448,192,16211,1,0,0:0:0:0:
192,192,16288,1,0,0:0:0:0:
320,192,16364,1,0,0:0:0:0:
448,192,16364,1,0,0:0:0:0:
64,192,16516,1,0,0:0:0:0:
320,192,16516,1,0,0:0:0:0:
320,192,16668,1,0,0:0:0:0:
448,192,16668,1,0,0:0:0:0:
64,192,16820,1,0,0:0:0:0:
448,192,16820,1,0,0:0:0:0:
192,192,16871,1,0,0:0:0:0:
320,192,16922,1,0,0:0:0:0:
64,192,16973,1,0,0:0:0:0:
448,192,16973,1,0,0:0:0:0:
192,192,17011,1,0,0:0:0:0:
320,192,17049,1,0,0:0:0:0:
448,192,17087,1,0,0:0:0:0:
64,192,17125,1,0,0:0:0:0:
192,192,17125,1,0,0:0:0:0:
64,192,17277,1,0,0:0:0:0:
448,192,17277,1,0,0:0:0:0:
320,192,17315,1,0,0:0:0:0:
192,192,17353,1,0,0:0:0:0:
448,192,17392,1,0,0:0:0:0:
64,192,17430,1,0,0:0:0:0:
320,192,17430,1,0,0:0:0:0:
192,192,17582,1,0,0:0:0:0:
448,192,17582,1,0,0:0:0:0:
64,192,17734,1,0,0:0:0:0:
320,192,17734,1,0,0:0:0:0:
192,192,17861,1,0,0:0:0:0:
320,192,17886,1,0,0:0:0:0:
448,192,17886,1,0,0:0:0:0:
64,192,18039,1,0,0:0:0:0:
448,192,18039,1,0,0:0:0:0:
192,192,18115,1,0,0:0:0:0:
64,192,18191,1,0,0:0:0:0:
320,192,18191,1,0,0:0:0:0:
448,192,18267,1,0,0:0:0:0:
64,192,18343,1,0,0:0:0:0:
192,192,18343,1,0,0:0:0:0:
320,192,18343,1,0,0:0:0:0:
448,192,18419,1,0,0:0:0:0:
64,192,18496,1,0,0:0:0:0:
320,192,18496,1,0,0:0:0:0:
192,192,18572,1,0,0:0:0:0:
448,192,18572,1,0,0:0:0:0:
64,192,18648,1,0,0:0:0:0:
320,192,18648,1,0,0:0:0:0:
192,192,18724,1,0,0:0:0:0:
448,192,18724,1,0,0:0:0:0:
64,192,18800,1,0,0:0:0:0:
320,192,18800,1,0,0:0:0:0:
192,192,18876,1,0,0:0:0:0:
64,192,18952,1,0,0:0:0:0:
448,192,18952,1,0,0:0:0:0:
320,192,18991,1,0,0:0:0:0:
192,192,19029,1,0,0:0:0:0:
448,192,19029,1,0,0:0:0:0:
64,192,19067,1,0,0:0:0:0:
192,192,19105,1,0,0:0:0:0:
320,192,19105,1,0,0:0:0:0:
64,192,19257,1,0,0:0:0:0:
448,192,19257,1,0,0:0:0:0:
64,192,19409,1,0,0:0:0:0:
448,192,19409,1,0,0:0:0:0:
192,192,19447,1,0,0:0:0:0:
320,192,19485,1,0,0:0:0:0:
448,192,19524,1,0,0:0:0:0:
64,192,19562,1,0,0:0:0:0:
64,192,19714,1,0,0:0:0:0:
448,192,19714,1,0,0:0:0:0:
320,192,19752,1,0,0:0:0:0:
192,192,19790,1,0,0:0:0:0:
64,192,19828,1,0,0:0:0:0:
320,192,19866,1,0,0:0:0:0:
448,192,19866,1,0,0:0:0:0:
64,192,20018,1,0,0:0:0:0:
320,192,20018,1,0,0:0:0:0:
448,192,20018,1,0,0:0:0:0:
192,192,20171,1,0,0:0:0:0:
448,192,20171,1,0,0:0:0:0:
64,192,20323,1,0,0:0:0:0:
448,192,20323,1,0,0:0:0:0:
192,192,20374,1,0,0:0:0:0:
320,192,20374,1,0,0:0:0:0:
64,192,20425,1,0,0:0:0:0:
448,192,20425,1,0,0:0:0:0:
192,192,20475,1,0,0:0:0:0:
320,192,20475,1,0,0:0:0:0:
64,192,20628,1,0,0:0:0:0:
320,192,20628,1,0,0:0:0:0:
64,192,20780,1,0,0:0:0:0:
192,192,20780,1,0,0:0:0:0:
320,192,20780,1,0,0:0:0:0:
448,192,20780,1,0,0:0:0:0:
192,192,21084,1,0,0:0:0:0:
320,192,21161,1,0,0:0:0:0:
192,192,21237,1,0,0:0:0:0:
320,192,21389,1,0,0:0:0:0:
192,192,21541,1,0,0:0:0:0:
64,192,21617,1,0,0:0:0:0:
320,192,21694,1,0,0:0:0:0:
448,192,21770,1,0,0:0:0:0:
64,192,21846,1,0,0:0:0:0:
192,192,21998,1,0,0:0:0:0:
64,192,22074,1,0,0:0:0:0:
192,192,22150,1,0,0:0:0:0:
64,192,22303,1,0,0:0:0:0:
192,192,22379,1,0,0:0:0:0:
320,192,22455,1,0,0:0:0:0:
192,192,22607,1,0,0:0:0:0:
320,192,22683,1,0,0:0:0:0:
192,192,22760,1,0,0:0:0:0:
320,192,22912,1,0,0:0:0:0:
192,192,22988,1,0,0:0:0:0:
64,192,23064,1,0,0:0:0:0:
448,192,23064,1,0,0:0:0:0:
64,192,23216,1,0,0:0:0:0:
320,192,23216,1,0,0:0:0:0:
448,192,23216,1,0,0:0:0:0:
192,192,23369,1,0,0:0:0:0:
320,192,23521,1,0,0:0:0:0:
192,192,23597,1,0,0:0:0:0:
320,192,23673,1,0,0:0:0:0:
192,192,23826,1,0,0:0:0:0:
320,192,23978,1,0,0:0:0:0:
448,192,24130,1,0,0:0:0:0:
320,192,24206,1,0,0:0:0:0:
192,192,24282,1,0,0:0:0:0:
448,192,24435,1,0,0:0:0:0:
320,192,24511,1,0,0:0:0:0:
448,192,24587,1,0,0:0:0:0:
320,192,24739,1,0,0:0:0:0:
448,192,24815,1,0,0:0:0:0:
64,192,24892,1,0,0:0:0:0:
192,192,25044,1,0,0:0:0:0:
320,192,25120,1,0,0:0:0:0:
192,192,25196,1,0,0:0:0:0:
320,192,25348,1,0,0:0:0:0:
192,192,25425,1,0,0:0:0:0:
64,192,25501,1,0,0:0:0:0:
448,192,25501,1,0,0:0:0:0:
64,192,25653,1,0,0:0:0:0:
320,192,25653,1,0,0:0:0:0:
448,192,25653,1,0,0:0:0:0:
192,192,25805,1,0,0:0:0:0:
320,192,25958,1,0,0:0:0:0:
448,192,25958,1,0,0:0:0:0:
64,192,26034,1,0,0:0:0:0:
448,192,26034,1,0,0:0:0:0:
64,192,26110,1,0,0:0:0:0:
192,192,26110,1,0,0:0:0:0:
320,192,26186,1,0,0:0:0:0:
448,192,26186,1,0,0:0:0:0:
64,192,26262,1,0,0:0:0:0:
192,192,26262,1,0,0:0:0:0:
448,192,26262,1,0,0:0:0:0:
64,192,26414,1,0,0:0:0:0:
192,192,26414,1,0,0:0:0:0:
448,192,26414,1,0,0:0:0:0:
192,192,26567,128,0,26719:0:0:0:0:
320,192,26643,128,0,26719:0:0:0:0:
448,192,26719,1,0,0:0:0:0:
64,192,26871,1,0,0:0:0:0:
192,192,26871,1,0,0:0:0:0:
448,192,26871,1,0,0:0:0:0:
64,192,27176,128,0,27328:0:0:0:0:
192,192,27227,128,0,27328:0:0:0:0:
320,192,27277,128,0,27328:0:0:0:0:
448,192,27328,1,0,0:0:0:0:
64,192,27480,1,0,0:0:0:0:
192,192,27480,1,0,0:0:0:0:
448,192,27480,1,0,0:0:0:0:
320,192,27633,1,0,0:0:0:0:
192,192,27671,1,0,0:0:0:0:
448,192,27709,1,0,0:0:0:0:
320,192,27747,1,0,0:0:0:0:
64,192,27785,1,0,0:0:0:0:
64,192,27937,1,0,0:0:0:0:
192,192,28090,1,0,0:0:0:0:
320,192,28090,1,0,0:0:0:0:
64,192,28166,1,0,0:0:0:0:
320,192,28166,1,0,0:0:0:0:
192,192,28242,1,0,0:0:0:0:
448,192,28242,1,0,0:0:0:0:
64,192,28318,1,0,0:0:0:0:
320,192,28318,1,0,0:0:0:0:
64,192,28394,1,0,0:0:0:0:
192,192,28394,1,0,0:0:0:0:
448,192,28394,128,0,28546:0:0:0:0:
192,192,28546,1,0,0:0:0:0:
320,192,28546,1,0,0:0:0:0:
64,192,28699,128,0,28851:0:0:0:0:
320,192,28699,1,0,0:0:0:0:
448,192,28699,1,0,0:0:0:0:
192,192,28851,1,0,0:0:0:0:
320,192,28851,1,0,0:0:0:0:
192,192,29003,1,0,0:0:0:0:
320,192,29003,1,0,0:0:0:0:
64,192,29156,1,0,0:0:0:0:
192,192,29156,1,0,0:0:0:0:
448,192,29156,128,0,29308:0:0:0:0:
64,192,29308,1,0,0:0:0:0:
192,192,29308,1,0,0:0:0:0:
320,192,29308,1,0,0:0:0:0:
192,192,29460,1,0,0:0:0:0:
64,192,29498,1,0,0:0:0:0:
320,192,29536,1,0,0:0:0:0:
192,192,29574,1,0,0:0:0:0:
448,192,29612,1,0,0:0:0:0:
320,192,29765,1,0,0:0:0:0:
192,192,29841,1,0,0:0:0:0:
320,192,29917,1,0,0:0:0:0:
64,192,29993,1,0,0:0:0:0:
192,192,30069,1,0,0:0:0:0:
320,192,30069,1,0,0:0:0:0:
448,192,30069,1,0,0:0:0:0:
64,192,30145,1,0,0:0:0:0:
192,192,30222,1,0,0:0:0:0:
448,192,30222,1,0,0:0:0:0:
320,192,30298,1,0,0:0:0:0:
64,192,30374,1,0,0:0:0:0:
192,192,30374,1,0,0:0:0:0:
320,192,30450,1,0,0:0:0:0:
448,192,30450,1,0,0:0:0:0:
64,192,30526,1,0,0:0:0:0:
192,192,30526,1,0,0:0:0:0:
448,192,30526,128,0,30983:0:0:0:0:
64,192,30678,1,0,0:0:0:0:
192,192,30983,128,0,31135:0:0:0:0:
64,192,31135,128,0,31440:0:0:0:0:
320,192,31135,1,0,0:0:0:0:
448,192,31135,1,0,0:0:0:0:
320,192,31288,1,0,0:0:0:0:
192,192,31440,1,0,0:0:0:0:
448,192,31440,128,0,31592:0:0:0:0:
64,192,31592,1,0,0:0:0:0:
64,192,31744,128,0,32049:0:0:0:0:
320,192,31744,1,0,0:0:0:0:
448,192,31897,1,0,0:0:0:0:
192,192,32049,128,0,32125:0:0:0:0:
320,192,32125,128,0,32201:0:0:0:0:
64,192,32201,1,0,0:0:0:0:
448,192,32201,128,0,32277:0:0:0:0:
320,192,32277,128,0,32353:0:0:0:0:
64,192,32353,1,0,0:0:0:0:
192,192,32353,1,0,0:0:0:0:
448,192,32353,128,0,32506:0:0:0:0:
64,192,32506,128,0,32582:0:0:0:0:
320,192,32582,128,0,32658:0:0:0:0:
192,192,32658,128,0,32734:0:0:0:0:
320,192,32734,128,0,32810:0:0:0:0:
448,192,32810,128,0,32963:0:0:0:0:
64,192,32963,128,0,33267:0:0:0:0:
192,192,32963,1,0,0:0:0:0:
448,192,33115,1,0,0:0:0:0:
320,192,33267,128,0,33369:0:0:0:0:
192,192,33369,128,0,33470:0:0:0:0:
320,192,33470,128,0,33572:0:0:0:0:
64,192,33572,1,0,0:0:0:0:
192,192,33572,1,0,0:0:0:0:
448,192,33572,128,0,33876:0:0:0:0:
64,192,33724,1,0,0:0:0:0:
192,192,33876,128,0,33978:0:0:0:0:
320,192,33978,128,0,34079:0:0:0:0:
64,192,34079,128,0,34181:0:0:0:0:
192,192,34181,128,0,34282:0:0:0:0:
448,192,34181,1,0,0:0:0:0:
320,192,34282,128,0,34384:0:0:0:0:
448,192,34384,128,0,34485:0:0:0:0:
64,192,34485,128,0,34562:0:0:0:0:
320,192,34485,1,0,0:0:0:0:
192,192,34562,128,0,34638:0:0:0:0:
448,192,34562,1,0,0:0:0:0:
64,192,34638,128,0,34714:0:0:0:0:
320,192,34638,1,0,0:0:0:0:
192,192,34714,128,0,34790:0:0:0:0:
448,192,34714,1,0,0:0:0:0:
64,192,34790,1,0,0:0:0:0:
320,192,34790,1,0,0:0:0:0:
448,192,34790,128,0,34866:0:0:0:0:
192,192,34866,128,0,34942:0:0:0:0:
64,192,34942,1,0,0:0:0:0:
320,192,34942,128,0,35018:0:0:0:0:
192,192,35095,1,0,0:0:0:0:
320,192,35095,128,0,35171:0:0:0:0:
192,192,35247,1,0,0:0:0:0:
320,192,35247,128,0,35323:0:0:0:0:
64,192,35399,1,0,0:0:0:0:
192,192,35399,1,0,0:0:0:0:
448,192,35399,128,0,35704:0:0:0:0:
320,192,35551,1,0,0:0:0:0:
64,192,35704,128,0,35856:0:0:0:0:
192,192,35856,128,0,36008:0:0:0:0:
64,192,36008,128,0,36313:0:0:0:0:
320,192,36008,1,0,0:0:0:0:
448,192,36008,1,0,0:0:0:0:
448,192,36161,1,0,0:0:0:0:
320,192,36313,128,0,36465:0:0:0:0:
192,192,36465,1,0,0:0:0:0:
64,192,36617,1,0,0:0:0:0:
448,192,36617,128,0,36922:0:0:0:0:
64,192,36770,1,0,0:0:0:0:
64,192,36922,1,0,0:0:0:0:
320,192,36922,128,0,36998:0:0:0:0:
192,192,36998,128,0,37074:0:0:0:0:
448,192,36998,1,0,0:0:0:0:
64,192,37074,128,0,37150:0:0:0:0:
320,192,37074,1,0,0:0:0:0:
192,192,37150,128,0,37227:0:0:0:0:
448,192,37150,1,0,0:0:0:0:
64,192,37227,128,0,37379:0:0:0:0:
320,192,37227,1,0,0:0:0:0:
448,192,37227,1,0,0:0:0:0:
448,192,37379,128,0,37531:0:0:0:0:
64,192,37531,128,0,37607:0:0:0:0:
192,192,37531,1,0,0:0:0:0:
320,192,37607,128,0,37683:0:0:0:0:
64,192,37683,1,0,0:0:0:0:
192,192,37683,128,0,37760:0:0:0:0:
448,192,37683,1,0,0:0:0:0:
320,192,37760,128,0,37836:0:0:0:0:
64,192,37836,128,0,37912:0:0:0:0:
192,192,37836,1,0,0:0:0:0:
448,192,37912,1,0,0:0:0:0:
320,192,37988,128,0,38064:0:0:0:0:
320,192,38140,128,0,38216:0:0:0:0:
448,192,38293,128,0,38369:0:0:0:0:
64,192,38445,1,0,0:0:0:0:
192,192,38445,128,0,38597:0:0:0:0:
320,192,38445,1,0,0:0:0:0:
320,192,38597,1,0,0:0:0:0:
448,192,38597,1,0,0:0:0:0:
64,192,38648,1,0,0:0:0:0:
192,192,38648,1,0,0:0:0:0:
320,192,38699,1,0,0:0:0:0:
448,192,38699,1,0,0:0:0:0:
64,192,38749,128,0,38902:0:0:0:0:
192,192,38749,1,0,0:0:0:0:
192,192,38902,1,0,0:0:0:0:
448,192,38902,128,0,38978:0:0:0:0:
320,192,38978,128,0,39054:0:0:0:0:
64,192,39054,128,0,39359:0:0:0:0:
192,192,39054,128,0,39359:0:0:0:0:
448,192,39054,128,0,39359:0:0:0:0:
320,192,39206,1,0,0:0:0:0:
320,192,39359,1,0,0:0:0:0:
64,192,39511,128,0,39739:0:0:0:0:
320,192,39511,128,0,39815:0:0:0:0:
448,192,39511,128,0,39739:0:0:0:0:
192,192,39663,1,0,0:0:0:0:
64,192,39815,1,0,0:0:0:0:
448,192,39815,1,0,0:0:0:0:
320,192,39853,1,0,0:0:0:0:
192,192,39892,1,0,0:0:0:0:
64,192,39930,1,0,0:0:0:0:
448,192,39968,1,0,0:0:0:0:
192,192,40120,1,0,0:0:0:0:
320,192,40120,1,0,0:0:0:0:
64,192,40272,1,0,0:0:0:0:
320,192,40272,1,0,0:0:0:0:
448,192,40272,128,0,40729:0:0:0:0:
64,192,40425,1,0,0:0:0:0:
192,192,40577,1,0,0:0:0:0:
320,192,40729,128,0,40881:0:0:0:0:
64,192,40881,128,0,41186:0:0:0:0:
192,192,40881,1,0,0:0:0:0:
448,192,40881,1,0,0:0:0:0:
192,192,41034,1,0,0:0:0:0:
320,192,41186,1,0,0:0:0:0:
448,192,41186,128,0,41338:0:0:0:0:
64,192,41338,1,0,0:0:0:0:
64,192,41491,128,0,41795:0:0:0:0:
192,192,41491,1,0,0:0:0:0:
448,192,41643,1,0,0:0:0:0:
320,192,41795,128,0,41871:0:0:0:0:
192,192,41871,128,0,41947:0:0:0:0:
64,192,41947,1,0,0:0:0:0:
448,192,41947,128,0,42024:0:0:0:0:
192,192,42024,128,0,42100:0:0:0:0:
64,192,42100,1,0,0:0:0:0:
320,192,42100,1,0,0:0:0:0:
448,192,42100,128,0,42252:0:0:0:0:
64,192,42252,128,0,42328:0:0:0:0:
192,192,42328,128,0,42404:0:0:0:0:
320,192,42404,128,0,42480:0:0:0:0:
192,192,42480,128,0,42557:0:0:0:0:
448,192,42557,128,0,42709:0:0:0:0:
64,192,42709,128,0,43013:0:0:0:0:
320,192,42709,1,0,0:0:0:0:
448,192,42861,1,0,0:0:0:0:
192,192,43013,128,0,43115:0:0:0:0:
320,192,43115,128,0,43216:0:0:0:0:
192,192,43216,128,0,43318:0:0:0:0:
64,192,43318,1,0,0:0:0:0:
320,192,43318,1,0,0:0:0:0:
448,192,43318,128,0,43623:0:0:0:0:
64,192,43470,1,0,0:0:0:0:
320,192,43623,128,0,43724:0:0:0:0:
64,192,43724,128,0,43826:0:0:0:0:
192,192,43826,128,0,43927:0:0:0:0:
320,192,43927,128,0,44029:0:0:0:0:
448,192,43927,1,0,0:0:0:0:
64,192,44029,128,0,44130:0:0:0:0:
320,192,44130,128,0,44232:0:0:0:0:
64,192,44232,128,0,44308:0:0:0:0:
448,192,44232,1,0,0:0:0:0:
192,192,44308,1,0,0:0:0:0:
320,192,44308,128,0,44384:0:0:0:0:
64,192,44384,128,0,44460:0:0:0:0:
448,192,44384,1,0,0:0:0:0:
192,192,44460,1,0,0:0:0:0:
320,192,44460,128,0,44536:0:0:0:0:
64,192,44536,1,0,0:0:0:0:
192,192,44536,1,0,0:0:0:0:
448,192,44536,128,0,44612:0:0:0:0:
320,192,44612,128,0,44689:0:0:0:0:
64,192,44689,1,0,0:0:0:0:
192,192,44689,128,0,44765:0:0:0:0:
192,192,44841,128,0,44917:0:0:0:0:
320,192,44841,1,0,0:0:0:0:
192,192,44993,128,0,45069:0:0:0:0:
320,192,44993,1,0,0:0:0:0:
64,192,45145,1,0,0:0:0:0:
320,192,45145,1,0,0:0:0:0:
448,192,45145,128,0,45450:0:0:0:0:
192,192,45298,1,0,0:0:0:0:
64,192,45450,128,0,45602:0:0:0:0:
320,192,45602,128,0,45755:0:0:0:0:
64,192,45755,128,0,46059:0:0:0:0:
192,192,45755,1,0,0:0:0:0:
448,192,45755,1,0,0:0:0:0:
448,192,45907,1,0,0:0:0:0:
192,192,46059,128,0,46211:0:0:0:0:
320,192,46211,1,0,0:0:0:0:
64,192,46364,1,0,0:0:0:0:
448,192,46364,128,0,46668:0:0:0:0:
64,192,46516,1,0,0:0:0:0:
64,192,46668,1,0,0:0:0:0:
192,192,46668,128,0,46744:0:0:0:0:
320,192,46744,128,0,46820:0:0:0:0:
448,192,46744,1,0,0:0:0:0:
64,192,46820,128,0,46897:0:0:0:0:
192,192,46820,1,0,0:0:0:0:
320,192,46897,128,0,46973:0:0:0:0:
448,192,46897,1,0,0:0:0:0:
64,192,46973,128,0,47125:0:0:0:0:
192,192,46973,1,0,0:0:0:0:
448,192,46973,1,0,0:0:0:0:
320,192,47049,1,0,0:0:0:0:
448,192,47125,128,0,47277:0:0:0:0:
192,192,47201,1,0,0:0:0:0:
64,192,47277,128,0,47353:0:0:0:0:
320,192,47277,1,0,0:0:0:0:
192,192,47353,128,0,47430:0:0:0:0:
64,192,47430,1,0,0:0:0:0:
320,192,47430,128,0,47506:0:0:0:0:
448,192,47430,1,0,0:0:0:0:
192,192,47506,128,0,47582:0:0:0:0:
64,192,47582,128,0,47734:0:0:0:0:
320,192,47582,1,0,0:0:0:0:
448,192,47582,1,0,0:0:0:0:
192,192,47658,1,0,0:0:0:0:
320,192,47734,128,0,47886:0:0:0:0:
192,192,47886,128,0,48039:0:0:0:0:
448,192,48039,128,0,48191:0:0:0:0:
192,192,48191,128,0,48343:0:0:0:0:
64,192,48267,1,0,0:0:0:0:
320,192,48343,128,0,48496:0:0:0:0:
448,192,48419,1,0,0:0:0:0:
64,192,48496,128,0,48648:0:0:0:0:
320,192,48572,1,0,0:0:0:0:
192,192,48648,128,0,48800:0:0:0:0:
64,192,48800,128,0,48952:0:0:0:0:
320,192,48800,1,0,0:0:0:0:
448,192,48800,128,0,49105:0:0:0:0:
192,192,48952,1,0,0:0:0:0:
320,192,49003,1,0,0:0:0:0:
192,192,49054,1,0,0:0:0:0:
64,192,49105,1,0,0:0:0:0:
192,192,49257,1,0,0:0:0:0:
320,192,49257,1,0,0:0:0:0:
448,192,49257,128,0,49409:0:0:0:0:
64,192,49409,1,0,0:0:0:0:
192,192,49485,1,0,0:0:0:0:
64,192,49562,1,0,0:0:0:0:
320,192,49562,1,0,0:0:0:0:
448,192,49562,1,0,0:0:0:0:
192,192,49638,1,0,0:0:0:0:
64,192,49714,1,0,0:0:0:0:
320,192,49714,1,0,0:0:0:0:
448,192,49714,1,0,0:0:0:0:
192,192,49790,1,0,0:0:0:0:
64,192,49866,1,0,0:0:0:0:
448,192,49866,1,0,0:0:0:0:
192,192,49942,1,0,0:0:0:0:
320,192,49942,1,0,0:0:0:0:
64,192,50018,1,0,0:0:0:0:
320,192,50018,1,0,0:0:0:0:
448,192,50018,1,0,0:0:0:0:
192,192,50120,1,0,0:0:0:0:
448,192,50171,1,0,0:0:0:0:
320,192,50222,1,0,0:0:0:0:
64,192,50323,1,0,0:0:0:0:
192,192,50425,1,0,0:0:0:0:
320,192,50475,1,0,0:0:0:0:
448,192,50526,1,0,0:0:0:0:
64,192,50628,1,0,0:0:0:0:
192,192,50628,1,0,0:0:0:0:
320,192,50628,1,0,0:0:0:0:
448,192,50729,1,0,0:0:0:0:
64,192,50780,1,0,0:0:0:0:
320,192,50831,1,0,0:0:0:0:
192,192,50932,1,0,0:0:0:0:
64,192,51034,1,0,0:0:0:0:
320,192,51084,1,0,0:0:0:0:
448,192,51135,1,0,0:0:0:0:
64,192,51237,1,0,0:0:0:0:
192,192,51237,1,0,0:0:0:0:
320,192,51338,1,0,0:0:0:0:
64,192,51389,1,0,0:0:0:0:
448,192,51440,1,0,0:0:0:0:
192,192,51541,1,0,0:0:0:0:
64,192,51643,1,0,0:0:0:0:
448,192,51694,1,0,0:0:0:0:
320,192,51744,1,0,0:0:0:0:
64,192,51846,1,0,0:0:0:0:
192,192,51846,1,0,0:0:0:0:
448,192,51846,1,0,0:0:0:0:
320,192,51947,1,0,0:0:0:0:
192,192,51998,1,0,0:0:0:0:
64,192,52049,1,0,0:0:0:0:
320,192,52150,1,0,0:0:0:0:
192,192,52252,1,0,0:0:0:0:
320,192,52303,1,0,0:0:0:0:
448,192,52353,1,0,0:0:0:0:
64,192,52455,1,0,0:0:0:0:
320,192,52455,1,0,0:0:0:0:
192,192,52557,1,0,0:0:0:0:
320,192,52607,1,0,0:0:0:0:
64,192,52658,1,0,0:0:0:0:
448,192,52760,1,0,0:0:0:0:
192,192,52861,1,0,0:0:0:0:
64,192,52912,1,0,0:0:0:0:
320,192,52963,1,0,0:0:0:0:
64,192,53064,1,0,0:0:0:0:
192,192,53064,1,0,0:0:0:0:
448,192,53064,1,0,0:0:0:0:
320,192,53166,1,0,0:0:0:0:
448,192,53216,1,0,0:0:0:0:
64,192,53267,1,0,0:0:0:0:
320,192,53369,1,0,0:0:0:0:
192,192,53470,1,0,0:0:0:0:
64,192,53521,1,0,0:0:0:0:
448,192,53572,1,0,0:0:0:0:
192,192,53673,1,0,0:0:0:0:
320,192,53673,1,0,0:0:0:0:
64,192,53775,1,0,0:0:0:0:
448,192,53826,1,0,0:0:0:0:
192,192,53876,1,0,0:0:0:0:
320,192,53978,1,0,0:0:0:0:
64,192,54079,1,0,0:0:0:0:
192,192,54130,1,0,0:0:0:0:
448,192,54181,1,0,0:0:0:0:
64,192,54282,1,0,0:0:0:0:
192,192,54282,1,0,0:0:0:0:
320,192,54282,1,0,0:0:0:0:
448,192,54384,1,0,0:0:0:0:
64,192,54435,1,0,0:0:0:0:
192,192,54485,1,0,0:0:0:0:
320,192,54587,1,0,0:0:0:0:
448,192,54689,1,0,0:0:0:0:
320,192,54739,1,0,0:0:0:0:
64,192,54790,1,0,0:0:0:0:
192,192,54892,1,0,0:0:0:0:
448,192,54892,1,0,0:0:0:0:
320,192,54993,1,0,0:0:0:0:
192,192,55044,1,0,0:0:0:0:
64,192,55095,1,0,0:0:0:0:
448,192,55196,1,0,0:0:0:0:
64,192,55298,1,0,0:0:0:0:
192,192,55348,1,0,0:0:0:0:
320,192,55399,1,0,0:0:0:0:
64,192,55501,1,0,0:0:0:0:
192,192,55501,1,0,0:0:0:0:
448,192,55501,1,0,0:0:0:0:
320,192,55602,1,0,0:0:0:0:
64,192,55653,1,0,0:0:0:0:
448,192,55704,1,0,0:0:0:0:
192,192,55805,1,0,0:0:0:0:
320,192,55907,1,0,0:0:0:0:
448,192,55958,1,0,0:0:0:0:
64,192,56008,1,0,0:0:0:0:
192,192,56110,1,0,0:0:0:0:
320,192,56110,1,0,0:0:0:0:
448,192,56211,1,0,0:0:0:0:
64,192,56262,1,0,0:0:0:0:
320,192,56313,1,0,0:0:0:0:
192,192,56414,1,0,0:0:0:0:
448,192,56516,1,0,0:0:0:0:
64,192,56567,1,0,0:0:0:0:
320,192,56617,1,0,0:0:0:0:
64,192,56719,1,0,0:0:0:0:
192,192,56719,1,0,0:0:0:0:
448,192,56719,1,0,0:0:0:0:
320,192,56820,1,0,0:0:0:0:
192,192,56871,1,0,0:0:0:0:
448,192,56922,1,0,0:0:0:0:
64,192,57024,1,0,0:0:0:0:
320,192,57125,1,0,0:0:0:0:
192,192,57176,1,0,0:0:0:0:
448,192,57227,1,0,0:0:0:0:
64,192,57328,1,0,0:0:0:0:
192,192,57328,1,0,0:0:0:0:
320,192,57430,1,0,0:0:0:0:
448,192,57480,1,0,0:0:0:0:
192,192,57531,1,0,0:0:0:0:
320,192,57633,1,0,0:0:0:0:
64,192,57734,1,0,0:0:0:0:
448,192,57785,1,0,0:0:0:0:
192,192,57836,1,0,0:0:0:0:
64,192,57937,1,0,0:0:0:0:
320,192,57937,1,0,0:0:0:0:
448,192,57937,1,0,0:0:0:0:
192,192,58039,1,0,0:0:0:0:
320,192,58090,1,0,0:0:0:0:
64,192,58140,1,0,0:0:0:0:
448,192,58242,1,0,0:0:0:0:
320,192,58343,1,0,0:0:0:0:
192,192,58394,1,0,0:0:0:0:
448,192,58445,1,0,0:0:0:0:
64,192,58546,128,0,58699:0:0:0:0:
192,192,58546,1,0,0:0:0:0:
320,192,58546,1,0,0:0:0:0:
448,192,58699,128,0,58851:0:0:0:0:
64,192,58851,128,0,58927:0:0:0:0:
320,192,58851,1,0,0:0:0:0:
192,192,58927,1,0,0:0:0:0:
448,192,58927,128,0,59003:0:0:0:0:
64,192,59003,128,0,59079:0:0:0:0:
320,192,59003,1,0,0:0:0:0:
192,192,59079,1,0,0:0:0:0:
448,192,59079,128,0,59156:0:0:0:0:
64,192,59156,128,0,59308:0:0:0:0:
192,192,59156,1,0,0:0:0:0:
320,192,59156,1,0,0:0:0:0:
320,192,59308,128,0,59384:0:0:0:0:
448,192,59308,1,0,0:0:0:0:
192,192,59384,128,0,59460:0:0:0:0:
64,192,59460,128,0,59536:0:0:0:0:
192,192,59536,128,0,59612:0:0:0:0:
64,192,59612,1,0,0:0:0:0:
320,192,59612,1,0,0:0:0:0:
448,192,59612,128,0,59765:0:0:0:0:
64,192,59765,1,0,0:0:0:0:
192,192,59765,1,0,0:0:0:0:
320,192,59765,1,0,0:0:0:0:
448,192,59866,1,0,0:0:0:0:
64,192,59917,1,0,0:0:0:0:
192,192,59968,1,0,0:0:0:0:
320,192,60069,1,0,0:0:0:0:
64,192,60171,1,0,0:0:0:0:
448,192,60222,1,0,0:0:0:0:
192,192,60272,1,0,0:0:0:0:
64,192,60374,1,0,0:0:0:0:
320,192,60374,1,0,0:0:0:0:
448,192,60374,1,0,0:0:0:0:
192,192,60475,1,0,0:0:0:0:
64,192,60526,1,0,0:0:0:0:
448,192,60577,1,0,0:0:0:0:
192,192,60678,1,0,0:0:0:0:
320,192,60780,1,0,0:0:0:0:
448,192,60831,1,0,0:0:0:0:
64,192,60881,1,0,0:0:0:0:
192,192,60983,1,0,0:0:0:0:
320,192,60983,1,0,0:0:0:0:
448,192,61084,1,0,0:0:0:0:
64,192,61135,1,0,0:0:0:0:
192,192,61186,1,0,0:0:0:0:
64,192,61288,1,0,0:0:0:0:
448,192,61389,1,0,0:0:0:0:
192,192,61440,1,0,0:0:0:0:
320,192,61491,1,0,0:0:0:0:
64,192,61592,1,0,0:0:0:0:
192,192,61592,1,0,0:0:0:0:
448,192,61592,1,0,0:0:0:0:
320,192,61694,1,0,0:0:0:0:
192,192,61744,1,0,0:0:0:0:
64,192,61795,1,0,0:0:0:0:
448,192,61897,1,0,0:0:0:0:
192,192,61998,1,0,0:0:0:0:
448,192,62049,1,0,0:0:0:0:
320,192,62100,1,0,0:0:0:0:
64,192,62201,1,0,0:0:0:0:
192,192,62201,1,0,0:0:0:0:
320,192,62303,1,0,0:0:0:0:
192,192,62353,1,0,0:0:0:0:
448,192,62404,1,0,0:0:0:0:
64,192,62506,1,0,0:0:0:0:
320,192,62607,1,0,0:0:0:0:
448,192,62658,1,0,0:0:0:0:
192,192,62709,1,0,0:0:0:0:
64,192,62810,1,0,0:0:0:0:
320,192,62810,1,0,0:0:0:0:
448,192,62810,1,0,0:0:0:0:
192,192,62912,1,0,0:0:0:0:
320,192,62963,1,0,0:0:0:0:
448,192,63013,1,0,0:0:0:0:
64,192,63115,1,0,0:0:0:0:
192,192,63216,1,0,0:0:0:0:
448,192,63267,1,0,0:0:0:0:
320,192,63318,1,0,0:0:0:0:
64,192,63419,1,0,0:0:0:0:
448,192,63419,1,0,0:0:0:0:
192,192,63521,1,0,0:0:0:0:
448,192,63572,1,0,0:0:0:0:
320,192,63623,1,0,0:0:0:0:
64,192,63724,1,0,0:0:0:0:
448,192,63826,1,0,0:0:0:0:
192,192,63876,1,0,0:0:0:0:
320,192,63927,1,0,0:0:0:0:
64,192,64029,1,0,0:0:0:0:
192,192,64029,1,0,0:0:0:0:
448,192,64029,1,0,0:0:0:0:
320,192,64130,1,0,0:0:0:0:
192,192,64181,1,0,0:0:0:0:
64,192,64232,1,0,0:0:0:0:
320,192,64333,1,0,0:0:0:0:
192,192,64435,1,0,0:0:0:0:
448,192,64485,1,0,0:0:0:0:
320,192,64536,1,0,0:0:0:0:
64,192,64638,1,0,0:0:0:0:
192,192,64638,1,0,0:0:0:0:
320,192,64739,1,0,0:0:0:0:
192,192,64790,1,0,0:0:0:0:
448,192,64841,1,0,0:0:0:0:
64,192,64942,1,0,0:0:0:0:
320,192,65044,1,0,0:0:0:0:
448,192,65095,1,0,0:0:0:0:
192,192,65145,1,0,0:0:0:0:
64,192,65247,1,0,0:0:0:0:
320,192,65247,1,0,0:0:0:0:
448,192,65247,1,0,0:0:0:0:
192,192,65348,1,0,0:0:0:0:
320,192,65399,1,0,0:0:0:0:
448,192,65450,1,0,0:0:0:0:
64,192,65551,1,0,0:0:0:0:
320,192,65653,1,0,0:0:0:0:
192,192,65704,1,0,0:0:0:0:
448,192,65755,1,0,0:0:0:0:
64,192,65856,1,0,0:0:0:0:
320,192,65856,1,0,0:0:0:0:
192,192,65958,1,0,0:0:0:0:
64,192,66008,1,0,0:0:0:0:
448,192,66059,1,0,0:0:0:0:
320,192,66161,1,0,0:0:0:0:
64,192,66262,1,0,0:0:0:0:
448,192,66313,1,0,0:0:0:0:
192,192,66364,1,0,0:0:0:0:
64,192,66465,1,0,0:0:0:0:
320,192,66465,1,0,0:0:0:0:
448,192,66465,1,0,0:0:0:0:
192,192,66567,1,0,0:0:0:0:
64,192,66617,1,0,0:0:0:0:
448,192,66668,1,0,0:0:0:0:
320,192,66770,1,0,0:0:0:0:
192,192,66871,1,0,0:0:0:0:
64,192,66922,1,0,0:0:0:0:
320,192,66973,1,0,0:0:0:0:
64,192,67074,1,0,0:0:0:0:
192,192,67074,1,0,0:0:0:0:
448,192,67074,1,0,0:0:0:0:
320,192,67176,1,0,0:0:0:0:
192,192,67227,1,0,0:0:0:0:
448,192,67277,1,0,0:0:0:0:
64,192,67379,1,0,0:0:0:0:
192,192,67480,1,0,0:0:0:0:
448,192,67531,1,0,0:0:0:0:
320,192,67582,1,0,0:0:0:0:
192,192,67683,1,0,0:0:0:0:
320,192,67785,1,0,0:0:0:0:
64,192,67836,1,0,0:0:0:0:
448,192,67886,1,0,0:0:0:0:
64,192,67988,1,0,0:0:0:0:
192,192,68090,1,0,0:0:0:0:
448,192,68140,1,0,0:0:0:0:
320,192,68191,1,0,0:0:0:0:
64,192,68293,1,0,0:0:0:0:
448,192,68293,1,0,0:0:0:0:
192,192,68318,1,0,0:0:0:0:
320,192,68343,1,0,0:0:0:0:
64,192,68826,1,0,0:0:0:0:
320,192,68902,1,0,0:0:0:0:
448,192,68902,1,0,0:0:0:0:
192,192,69054,1,0,0:0:0:0:
320,192,69054,1,0,0:0:0:0:
64,192,69130,1,0,0:0:0:0:
192,192,69206,1,0,0:0:0:0:
448,192,69206,1,0,0:0:0:0:
320,192,69282,1,0,0:0:0:0:
64,192,69359,1,0,0:0:0:0:
448,192,69359,1,0,0:0:0:0:
192,192,69435,1,0,0:0:0:0:
64,192,69511,1,0,0:0:0:0:
320,192,69511,1,0,0:0:0:0:
448,192,69511,1,0,0:0:0:0:
192,192,69587,1,0,0:0:0:0:
448,192,69663,1,0,0:0:0:0:
192,192,69815,1,0,0:0:0:0:
64,192,69968,1,0,0:0:0:0:
448,192,69968,1,0,0:0:0:0:
192,192,70120,1,0,0:0:0:0:
448,192,70196,1,0,0:0:0:0:
64,192,70272,1,0,0:0:0:0:
320,192,70425,1,0,0:0:0:0:
64,192,70577,1,0,0:0:0:0:
320,192,70653,1,0,0:0:0:0:
448,192,70729,1,0,0:0:0:0:
192,192,70881,1,0,0:0:0:0:
320,192,70881,1,0,0:0:0:0:
448,192,70919,1,0,0:0:0:0:
64,192,70958,1,0,0:0:0:0:
192,192,70996,1,0,0:0:0:0:
320,192,71034,1,0,0:0:0:0:
64,192,71110,1,0,0:0:0:0:
448,192,71186,1,0,0:0:0:0:
192,192,71338,1,0,0:0:0:0:
320,192,71338,1,0,0:0:0:0:
320,192,71491,1,0,0:0:0:0:
448,192,71491,1,0,0:0:0:0:
64,192,71541,1,0,0:0:0:0:
192,192,71541,1,0,0:0:0:0:
320,192,71592,1,0,0:0:0:0:
448,192,71592,1,0,0:0:0:0:
64,192,71643,1,0,0:0:0:0:
192,192,71643,1,0,0:0:0:0:
64,192,71795,1,0,0:0:0:0:
448,192,71795,1,0,0:0:0:0:
64,192,71947,128,0,72100:0:0:0:0:
192,192,71947,1,0,0:0:0:0:
448,192,71947,1,0,0:0:0:0:
192,192,72100,128,0,72252:0:0:0:0:
64,192,72252,1,0,0:0:0:0:
320,192,72252,128,0,72404:0:0:0:0:
448,192,72404,128,0,72557:0:0:0:0:
192,192,72557,128,0,72709:0:0:0:0:
320,192,72557,1,0,0:0:0:0:
64,192,72709,128,0,72861:0:0:0:0:
192,192,72861,1,0,0:0:0:0:
320,192,72861,128,0,73013:0:0:0:0:
448,192,73013,128,0,73166:0:0:0:0:
64,192,73166,1,0,0:0:0:0:
320,192,73166,1,0,0:0:0:0:
448,192,73318,1,0,0:0:0:0:
64,192,73470,1,0,0:0:0:0:
192,192,73470,1,0,0:0:0:0:
192,192,73623,1,0,0:0:0:0:
448,192,73623,1,0,0:0:0:0:
64,192,73775,1,0,0:0:0:0:
448,192,73775,1,0,0:0:0:0:
192,192,73927,1,0,0:0:0:0:
320,192,73927,1,0,0:0:0:0:
64,192,74079,1,0,0:0:0:0:
320,192,74079,1,0,0:0:0:0:
192,192,74232,1,0,0:0:0:0:
448,192,74232,1,0,0:0:0:0:
64,192,74384,1,0,0:0:0:0:
448,192,74384,1,0,0:0:0:0:
320,192,74460,1,0,0:0:0:0:
192,192,74536,1,0,0:0:0:0:
448,192,74612,1,0,0:0:0:0:
64,192,74689,1,0,0:0:0:0:
192,192,74689,1,0,0:0:0:0:
64,192,74841,1,0,0:0:0:0:
448,192,74841,1,0,0:0:0:0:
192,192,74993,1,0,0:0:0:0:
320,192,74993,1,0,0:0:0:0:
448,192,75069,1,0,0:0:0:0:
64,192,75145,1,0,0:0:0:0:
192,192,75298,1,0,0:0:0:0:
320,192,75298,1,0,0:0:0:0:
64,192,75450,1,0,0:0:0:0:
320,192,75526,1,0,0:0:0:0:
64,192,75602,1,0,0:0:0:0:
448,192,75602,1,0,0:0:0:0:
192,192,75755,1,0,0:0:0:0:
320,192,75755,1,0,0:0:0:0:
320,192,75907,1,0,0:0:0:0:
64,192,75983,1,0,0:0:0:0:
448,192,76059,1,0,0:0:0:0:
192,192,76211,1,0,0:0:0:0:
320,192,76211,1,0,0:0:0:0:
192,192,76364,1,0,0:0:0:0:
448,192,76440,1,0,0:0:0:0:
64,192,76516,1,0,0:0:0:0:
320,192,76516,1,0,0:0:0:0:
64,192,76668,1,0,0:0:0:0:
448,192,76668,1,0,0:0:0:0:
64,192,76820,128,0,76973:0:0:0:0:
192,192,76820,1,0,0:0:0:0:
448,192,76820,128,0,77277:0:0:0:0:
192,192,76973,128,0,77125:0:0:0:0:
320,192,77125,128,0,77277:0:0:0:0:
64,192,77277,1,0,0:0:0:0:
192,192,77277,128,0,77430:0:0:0:0:
320,192,77353,1,0,0:0:0:0:
448,192,77353,1,0,0:0:0:0:
64,192,77430,128,0,77734:0:0:0:0:
320,192,77430,1,0,0:0:0:0:
448,192,77430,128,0,77582:0:0:0:0:
192,192,77582,128,0,77734:0:0:0:0:
320,192,77734,128,0,77886:0:0:0:0:
448,192,77734,128,0,77886:0:0:0:0:
64,192,77886,128,0,77963:0:0:0:0:
192,192,77886,128,0,77963:0:0:0:0:
320,192,77963,128,0,78039:0:0:0:0:
64,192,78039,1,0,0:0:0:0:
192,192,78039,1,0,0:0:0:0:
448,192,78039,1,0,0:0:0:0:
320,192,78191,1,0,0:0:0:0:
448,192,78242,1,0,0:0:0:0:
320,192,78293,1,0,0:0:0:0:
64,192,78343,1,0,0:0:0:0:
192,192,78343,1,0,0:0:0:0:
64,192,78496,128,0,78648:0:0:0:0:
192,192,78496,128,0,78648:0:0:0:0:
320,192,78496,128,0,78648:0:0:0:0:
448,192,78648,1,0,0:0:0:0:
64,192,78800,1,0,0:0:0:0:
320,192,78800,1,0,0:0:0:0:
448,192,78800,1,0,0:0:0:0:
192,192,78952,1,0,0:0:0:0:
64,192,79029,1,0,0:0:0:0:
192,192,79105,1,0,0:0:0:0:
448,192,79105,1,0,0:0:0:0:
320,192,79181,1,0,0:0:0:0:
64,192,79257,1,0,0:0:0:0:
192,192,79257,1,0,0:0:0:0:
448,192,79257,1,0,0:0:0:0:
320,192,79333,1,0,0:0:0:0:
192,192,79409,1,0,0:0:0:0:
448,192,79485,1,0,0:0:0:0:
64,192,79562,1,0,0:0:0:0:
192,192,79562,1,0,0:0:0:0:
320,192,79562,1,0,0:0:0:0:
64,192,79714,1,0,0:0:0:0:
448,192,79714,1,0,0:0:0:0:
192,192,79866,1,0,0:0:0:0:
320,192,79866,1,0,0:0:0:0:
448,192,79942,1,0,0:0:0:0:
64,192,80018,1,0,0:0:0:0:
192,192,80171,1,0,0:0:0:0:
320,192,80171,1,0,0:0:0:0:
448,192,80171,1,0,0:0:0:0:
64,192,80323,1,0,0:0:0:0:
320,192,80399,1,0,0:0:0:0:
64,192,80475,1,0,0:0:0:0:
448,192,80475,1,0,0:0:0:0:
192,192,80628,1,0,0:0:0:0:
320,192,80628,1,0,0:0:0:0:
64,192,80780,1,0,0:0:0:0:
320,192,80780,1,0,0:0:0:0:
448,192,80780,1,0,0:0:0:0:
192,192,80856,1,0,0:0:0:0:
448,192,80932,1,0,0:0:0:0:
64,192,81084,1,0,0:0:0:0:
192,192,81084,1,0,0:0:0:0:
448,192,81237,1,0,0:0:0:0:
320,192,81313,1,0,0:0:0:0:
64,192,81389,1,0,0:0:0:0:
192,192,81389,1,0,0:0:0:0:
448,192,81389,1,0,0:0:0:0:
64,192,81541,1,0,0:0:0:0:
448,192,81541,1,0,0:0:0:0:
64,192,81694,128,0,81846:0:0:0:0:
320,192,81694,1,0,0:0:0:0:
192,192,81846,128,0,81998:0:0:0:0:
64,192,81998,1,0,0:0:0:0:
320,192,81998,128,0,82150:0:0:0:0:
448,192,81998,1,0,0:0:0:0:
448,192,82150,128,0,82303:0:0:0:0:
64,192,82303,1,0,0:0:0:0:
320,192,82303,128,0,82455:0:0:0:0:
192,192,82455,128,0,82607:0:0:0:0:
64,192,82607,128,0,82760:0:0:0:0:
320,192,82607,1,0,0:0:0:0:
448,192,82607,1,0,0:0:0:0:
448,192,82760,128,0,82912:0:0:0:0:
64,192,82912,1,0,0:0:0:0:
320,192,82912,1,0,0:0:0:0:
192,192,83064,1,0,0:0:0:0:
64,192,83216,1,0,0:0:0:0:
320,192,83216,1,0,0:0:0:0:
448,192,83216,1,0,0:0:0:0:
192,192,83369,1,0,0:0:0:0:
448,192,83369,1,0,0:0:0:0:
64,192,83521,1,0,0:0:0:0:
192,192,83521,1,0,0:0:0:0:
64,192,83673,1,0,0:0:0:0:
448,192,83673,1,0,0:0:0:0:
192,192,83826,1,0,0:0:0:0:
320,192,83826,1,0,0:0:0:0:
448,192,83826,1,0,0:0:0:0:
64,192,83978,1,0,0:0:0:0:
448,192,83978,1,0,0:0:0:0:
64,192,84130,1,0,0:0:0:0:
320,192,84130,1,0,0:0:0:0:
448,192,84130,1,0,0:0:0:0:
192,192,84206,1,0,0:0:0:0:
320,192,84282,1,0,0:0:0:0:
448,192,84359,1,0,0:0:0:0:
64,192,84435,1,0,0:0:0:0:
192,192,84435,1,0,0:0:0:0:
448,192,84587,1,0,0:0:0:0:
64,192,84739,1,0,0:0:0:0:
192,192,84739,1,0,0:0:0:0:
448,192,84815,1,0,0:0:0:0:
320,192,84892,1,0,0:0:0:0:
64,192,85044,1,0,0:0:0:0:
192,192,85044,1,0,0:0:0:0:
320,192,85196,1,0,0:0:0:0:
192,192,85272,1,0,0:0:0:0:
64,192,85348,1,0,0:0:0:0:
320,192,85348,1,0,0:0:0:0:
448,192,85348,1,0,0:0:0:0:
192,192,85425,1,0,0:0:0:0:
64,192,85501,1,0,0:0:0:0:
320,192,85653,1,0,0:0:0:0:
448,192,85653,1,0,0:0:0:0:
64,192,85729,1,0,0:0:0:0:
192,192,85805,1,0,0:0:0:0:
320,192,85958,1,0,0:0:0:0:
448,192,85958,1,0,0:0:0:0:
64,192,86110,1,0,0:0:0:0:
192,192,86186,1,0,0:0:0:0:
320,192,86262,1,0,0:0:0:0:
448,192,86262,1,0,0:0:0:0:
64,192,86338,1,0,0:0:0:0:
192,192,86414,1,0,0:0:0:0:
64,192,86567,128,0,86719:0:0:0:0:
320,192,86567,1,0,0:0:0:0:
448,192,86567,1,0,0:0:0:0:
192,192,86719,128,0,86871:0:0:0:0:
64,192,86871,1,0,0:0:0:0:
320,192,86871,128,0,87024:0:0:0:0:
448,192,87024,128,0,87176:0:0:0:0:
64,192,87176,128,0,87328:0:0:0:0:
192,192,87176,1,0,0:0:0:0:
320,192,87252,1,0,0:0:0:0:
448,192,87328,128,0,87480:0:0:0:0:
320,192,87404,1,0,0:0:0:0:
64,192,87480,1,0,0:0:0:0:
192,192,87480,128,0,87633:0:0:0:0:
448,192,87557,1,0,0:0:0:0:
320,192,87633,128,0,87785:0:0:0:0:
192,192,87709,1,0,0:0:0:0:
64,192,87785,1,0,0:0:0:0:
448,192,87785,1,0,0:0:0:0:
320,192,87861,1,0,0:0:0:0:
448,192,87937,1,0,0:0:0:0:
320,192,88013,1,0,0:0:0:0:
64,192,88090,1,0,0:0:0:0:
448,192,88090,1,0,0:0:0:0:
192,192,88166,1,0,0:0:0:0:
64,192,88242,1,0,0:0:0:0:
192,192,88318,1,0,0:0:0:0:
64,192,88394,1,0,0:0:0:0:
448,192,88394,1,0,0:0:0:0:
192,192,88546,1,0,0:0:0:0:
192,192,88623,1,0,0:0:0:0:
64,192,88699,1,0,0:0:0:0:
320,192,88699,128,0,89003:0:0:0:0:
448,192,88699,1,0,0:0:0:0:
64,192,89003,128,0,89308:0:0:0:0:
192,192,89003,1,0,0:0:0:0:
448,192,89003,1,0,0:0:0:0:
320,192,89156,1,0,0:0:0:0:
192,192,89308,128,0,89460:0:0:0:0:
448,192,89308,1,0,0:0:0:0:
64,192,89460,128,0,89536:0:0:0:0:
192,192,89536,128,0,89612:0:0:0:0:
320,192,89612,128,0,89917:0:0:0:0:
448,192,89612,1,0,0:0:0:0:
192,192,89765,1,0,0:0:0:0:
64,192,89917,1,0,0:0:0:0:
448,192,89917,128,0,90526:0:0:0:0:
320,192,90069,1,0,0:0:0:0:
64,192,90222,1,0,0:0:0:0:
192,192,90222,1,0,0:0:0:0:
320,192,90374,1,0,0:0:0:0:
192,192,90526,1,0,0:0:0:0:
320,192,90564,1,0,0:0:0:0:
64,192,90602,128,0,90831:0:0:0:0:
448,192,90678,1,0,0:0:0:0:
192,192,90831,128,0,91135:0:0:0:0:
320,192,90831,1,0,0:0:0:0:
448,192,90983,1,0,0:0:0:0:
64,192,91135,128,0,91288:0:0:0:0:
320,192,91135,1,0,0:0:0:0:
192,192,91288,128,0,91440:0:0:0:0:
64,192,91440,1,0,0:0:0:0:
448,192,91440,128,0,91744:0:0:0:0:
192,192,91592,1,0,0:0:0:0:
64,192,91744,1,0,0:0:0:0:
320,192,91744,128,0,92049:0:0:0:0:
448,192,91897,1,0,0:0:0:0:
64,192,92049,128,0,92353:0:0:0:0:
192,192,92049,1,0,0:0:0:0:
448,192,92201,1,0,0:0:0:0:
192,192,92353,128,0,92963:0:0:0:0:
320,192,92353,1,0,0:0:0:0:
64,192,92506,1,0,0:0:0:0:
320,192,92658,1,0,0:0:0:0:
448,192,92658,1,0,0:0:0:0:
64,192,92810,1,0,0:0:0:0:
320,192,92963,128,0,93115:0:0:0:0:
448,192,92963,1,0,0:0:0:0:
192,192,93115,128,0,93267:0:0:0:0:
64,192,93267,1,0,0:0:0:0:
320,192,93267,128,0,93572:0:0:0:0:
448,192,93419,1,0,0:0:0:0:
64,192,93572,128,0,93876:0:0:0:0:
192,192,93572,1,0,0:0:0:0:
448,192,93724,1,0,0:0:0:0:
192,192,93876,128,0,94181:0:0:0:0:
320,192,93876,1,0,0:0:0:0:
64,192,94029,1,0,0:0:0:0:
320,192,94181,128,0,94333:0:0:0:0:
448,192,94181,1,0,0:0:0:0:
64,192,94333,128,0,94409:0:0:0:0:
192,192,94409,128,0,94485:0:0:0:0:
320,192,94485,1,0,0:0:0:0:
448,192,94485,128,0,94790:0:0:0:0:
192,192,94638,1,0,0:0:0:0:
64,192,94790,128,0,95018:0:0:0:0:
320,192,94790,1,0,0:0:0:0:
448,192,94942,1,0,0:0:0:0:
64,192,95095,128,0,95399:0:0:0:0:
320,192,95095,1,0,0:0:0:0:
192,192,95247,1,0,0:0:0:0:
320,192,95399,1,0,0:0:0:0:
448,192,95399,128,0,95704:0:0:0:0:
192,192,95551,1,0,0:0:0:0:
64,192,95704,1,0,0:0:0:0:
320,192,95704,128,0,96008:0:0:0:0:
192,192,95856,1,0,0:0:0:0:
64,192,96008,128,0,96084:0:0:0:0:
448,192,96008,128,0,96084:0:0:0:0:
192,192,96084,128,0,96161:0:0:0:0:
320,192,96161,128,0,96237:0:0:0:0:
64,192,96237,128,0,96313:0:0:0:0:
192,192,96313,1,0,0:0:0:0:
448,192,96313,128,0,96617:0:0:0:0:
320,192,96465,1,0,0:0:0:0:
64,192,96617,1,0,0:0:0:0:
192,192,96617,128,0,96719:0:0:0:0:
320,192,96719,128,0,96820:0:0:0:0:
448,192,96770,1,0,0:0:0:0:
192,192,96820,128,0,96922:0:0:0:0:
64,192,96922,128,0,97227:0:0:0:0:
320,192,96922,1,0,0:0:0:0:
448,192,97074,1,0,0:0:0:0:
192,192,97227,1,0,0:0:0:0:
320,192,97227,128,0,98445:0:0:0:0:
64,192,97379,1,0,0:0:0:0:
64,192,97531,1,0,0:0:0:0:
192,192,97531,1,0,0:0:0:0:
448,192,97531,1,0,0:0:0:0:
192,192,97683,1,0,0:0:0:0:
64,192,97836,1,0,0:0:0:0:
448,192,97836,1,0,0:0:0:0:
64,192,97988,1,0,0:0:0:0:
192,192,97988,1,0,0:0:0:0:
448,192,97988,1,0,0:0:0:0:
64,192,98293,1,0,0:0:0:0:
192,192,98331,1,0,0:0:0:0:
448,192,98369,1,0,0:0:0:0:
64,192,98407,1,0,0:0:0:0:
192,192,98445,1,0,0:0:0:0:
192,192,98597,1,0,0:0:0:0:
320,192,98597,1,0,0:0:0:0:
64,192,98749,1,0,0:0:0:0:
192,192,98749,1,0,0:0:0:0:
448,192,98749,128,0,99054:0:0:0:0:
320,192,98826,1,0,0:0:0:0:
192,192,98902,1,0,0:0:0:0:
64,192,98978,1,0,0:0:0:0:
192,192,99054,128,0,99206:0:0:0:0:
320,192,99054,1,0,0:0:0:0:
448,192,99130,1,0,0:0:0:0:
64,192,99206,128,0,99282:0:0:0:0:
192,192,99282,128,0,99359:0:0:0:0:
320,192,99359,128,0,99663:0:0:0:0:
448,192,99359,1,0,0:0:0:0:
64,192,99435,1,0,0:0:0:0:
192,192,99511,1,0,0:0:0:0:
448,192,99587,1,0,0:0:0:0:
64,192,99663,128,0,99892:0:0:0:0:
192,192,99663,1,0,0:0:0:0:
320,192,99739,1,0,0:0:0:0:
448,192,99815,1,0,0:0:0:0:
320,192,99892,1,0,0:0:0:0:
64,192,99968,128,0,100272:0:0:0:0:
192,192,99968,1,0,0:0:0:0:
448,192,100044,1,0,0:0:0:0:
320,192,100120,1,0,0:0:0:0:
192,192,100196,1,0,0:0:0:0:
320,192,100272,1,0,0:0:0:0:
448,192,100310,1,0,0:0:0:0:
192,192,100348,128,0,100577:0:0:0:0:
64,192,100425,1,0,0:0:0:0:
448,192,100501,1,0,0:0:0:0:
64,192,100577,1,0,0:0:0:0:
320,192,100577,128,0,100881:0:0:0:0:
192,192,100653,1,0,0:0:0:0:
64,192,100729,1,0,0:0:0:0:
192,192,100805,1,0,0:0:0:0:
64,192,100881,128,0,101034:0:0:0:0:
448,192,100881,1,0,0:0:0:0:
320,192,100958,1,0,0:0:0:0:
192,192,101034,128,0,101186:0:0:0:0:
320,192,101110,1,0,0:0:0:0:
64,192,101186,1,0,0:0:0:0:
448,192,101186,128,0,101491:0:0:0:0:
320,192,101262,1,0,0:0:0:0:
192,192,101338,1,0,0:0:0:0:
64,192,101414,1,0,0:0:0:0:
192,192,101491,1,0,0:0:0:0:
320,192,101491,128,0,101643:0:0:0:0:
64,192,101567,1,0,0:0:0:0:
448,192,101643,128,0,101795:0:0:0:0:
192,192,101719,1,0,0:0:0:0:
64,192,101795,128,0,102100:0:0:0:0:
320,192,101795,1,0,0:0:0:0:
192,192,101871,1,0,0:0:0:0:
320,192,101947,1,0,0:0:0:0:
448,192,102024,1,0,0:0:0:0:
192,192,102100,128,0,102709:0:0:0:0:
320,192,102100,1,0,0:0:0:0:
448,192,102176,1,0,0:0:0:0:
320,192,102252,1,0,0:0:0:0:
64,192,102328,1,0,0:0:0:0:
320,192,102404,1,0,0:0:0:0:
448,192,102480,1,0,0:0:0:0:
320,192,102557,1,0,0:0:0:0:
448,192,102633,1,0,0:0:0:0:
64,192,102709,1,0,0:0:0:0:
320,192,102709,128,0,102861:0:0:0:0:
448,192,102785,1,0,0:0:0:0:
192,192,102861,128,0,103013:0:0:0:0:
64,192,102937,1,0,0:0:0:0:
320,192,103013,128,0,103318:0:0:0:0:
448,192,103013,1,0,0:0:0:0:
192,192,103090,1,0,0:0:0:0:
64,192,103166,1,0,0:0:0:0:
192,192,103242,1,0,0:0:0:0:
64,192,103318,128,0,103546:0:0:0:0:
448,192,103318,1,0,0:0:0:0:
320,192,103394,1,0,0:0:0:0:
192,192,103470,1,0,0:0:0:0:
320,192,103546,1,0,0:0:0:0:
64,192,103623,1,0,0:0:0:0:
192,192,103623,1,0,0:0:0:0:
448,192,103623,1,0,0:0:0:0:
320,192,103699,1,0,0:0:0:0:
448,192,103775,1,0,0:0:0:0:
64,192,103851,1,0,0:0:0:0:
192,192,103927,1,0,0:0:0:0:
320,192,103927,1,0,0:0:0:0:
448,192,104003,1,0,0:0:0:0:
64,192,104079,1,0,0:0:0:0:
192,192,104079,1,0,0:0:0:0:
320,192,104156,1,0,0:0:0:0:
448,192,104156,1,0,0:0:0:0:
64,192,104232,1,0,0:0:0:0:
192,192,104232,1,0,0:0:0:0:
448,192,104232,1,0,0:0:0:0:
320,192,104308,1,0,0:0:0:0:
192,192,104384,1,0,0:0:0:0:
64,192,104460,1,0,0:0:0:0:
320,192,104460,1,0,0:0:0:0:
192,192,104536,1,0,0:0:0:0:
448,192,104536,1,0,0:0:0:0:
320,192,104612,1,0,0:0:0:0:
192,192,104689,1,0,0:0:0:0:
448,192,104689,1,0,0:0:0:0:
64,192,104765,1,0,0:0:0:0:
320,192,104765,1,0,0:0:0:0:
64,192,104841,1,0,0:0:0:0:
192,192,104841,1,0,0:0:0:0:
320,192,104917,1,0,0:0:0:0:
64,192,104993,1,0,0:0:0:0:
192,192,104993,1,0,0:0:0:0:
448,192,104993,1,0,0:0:0:0:
320,192,105069,1,0,0:0:0:0:
64,192,105145,1,0,0:0:0:0:
448,192,105145,1,0,0:0:0:0:
192,192,105222,1,0,0:0:0:0:
320,192,105222,1,0,0:0:0:0:
64,192,105298,1,0,0:0:0:0:
448,192,105298,1,0,0:0:0:0:
192,192,105374,1,0,0:0:0:0:
320,192,105374,1,0,0:0:0:0:
64,192,105450,1,0,0:0:0:0:
192,192,105450,1,0,0:0:0:0:
448,192,105450,1,0,0:0:0:0:
320,192,105526,1,0,0:0:0:0:
192,192,105602,1,0,0:0:0:0:
320,192,105678,1,0,0:0:0:0:
64,192,105755,1,0,0:0:0:0:
448,192,105755,1,0,0:0:0:0:
192,192,105831,1,0,0:0:0:0:
320,192,105831,1,0,0:0:0:0:
320,192,105907,1,0,0:0:0:0:
448,192,105907,1,0,0:0:0:0:
64,192,105983,1,0,0:0:0:0:
192,192,105983,1,0,0:0:0:0:
64,192,106059,128,0,106364:0:0:0:0:
320,192,106059,1,0,0:0:0:0:
448,192,106059,1,0,0:0:0:0:
192,192,106211,1,0,0:0:0:0:
192,192,106364,1,0,0:0:0:0:
320,192,106364,128,0,106465:0:0:0:0:
448,192,106465,128,0,106567:0:0:0:0:
64,192,106516,1,0,0:0:0:0:
192,192,106554,1,0,0:0:0:0:
320,192,106567,128,0,106668:0:0:0:0:
448,192,106592,1,0,0:0:0:0:
64,192,106630,1,0,0:0:0:0:
192,192,106668,128,0,106973:0:0:0:0:
64,192,106820,1,0,0:0:0:0:
448,192,106820,1,0,0:0:0:0:
64,192,106973,1,0,0:0:0:0:
320,192,106973,1,0,0:0:0:0:
448,192,106973,128,0,107430:0:0:0:0:
64,192,107277,1,0,0:0:0:0:
320,192,107430,1,0,0:0:0:0:
192,192,107468,1,0,0:0:0:0:
64,192,107506,1,0,0:0:0:0:
448,192,107544,1,0,0:0:0:0:
192,192,107582,128,0,107734:0:0:0:0:
320,192,107582,1,0,0:0:0:0:
64,192,107734,128,0,107886:0:0:0:0:
320,192,107734,1,0,0:0:0:0:
448,192,107886,128,0,108039:0:0:0:0:
64,192,108039,1,0,0:0:0:0:
192,192,108039,1,0,0:0:0:0:
320,192,108039,128,0,108090:0:0:0:0:
448,192,108090,128,0,108140:0:0:0:0:
320,192,108140,128,0,108191:0:0:0:0:
192,192,108191,1,0,0:0:0:0:
64,192,108267,1,0,0:0:0:0:
320,192,108343,1,0,0:0:0:0:
192,192,108419,1,0,0:0:0:0:
64,192,108496,1,0,0:0:0:0:
320,192,108496,1,0,0:0:0:0:
448,192,108496,1,0,0:0:0:0:
192,192,108800,1,0,0:0:0:0:
320,192,108876,1,0,0:0:0:0:
192,192,108952,1,0,0:0:0:0:
448,192,109105,1,0,0:0:0:0:
320,192,109181,1,0,0:0:0:0:
192,192,109257,1,0,0:0:0:0:
64,192,109409,1,0,0:0:0:0:
192,192,109485,1,0,0:0:0:0:
64,192,109562,1,0,0:0:0:0:
192,192,109714,1,0,0:0:0:0:
320,192,109790,1,0,0:0:0:0:
448,192,109866,1,0,0:0:0:0:
320,192,109942,1,0,0:0:0:0:
192,192,110018,1,0,0:0:0:0:
320,192,110095,1,0,0:0:0:0:
192,192,110171,1,0,0:0:0:0:
64,192,110323,1,0,0:0:0:0:
448,192,110399,1,0,0:0:0:0:
64,192,110475,1,0,0:0:0:0:
320,192,110628,1,0,0:0:0:0:
192,192,110704,1,0,0:0:0:0:
320,192,110780,1,0,0:0:0:0:
64,192,110932,1,0,0:0:0:0:
192,192,110932,1,0,0:0:0:0:
448,192,110932,1,0,0:0:0:0:
320,192,111237,1,0,0:0:0:0:
192,192,111313,1,0,0:0:0:0:
320,192,111389,1,0,0:0:0:0:
320,192,111541,1,0,0:0:0:0:
320,192,111694,1,0,0:0:0:0:
192,192,111846,1,0,0:0:0:0:
448,192,111922,1,0,0:0:0:0:
64,192,111998,1,0,0:0:0:0:
192,192,112074,1,0,0:0:0:0:
320,192,112150,1,0,0:0:0:0:
448,192,112227,1,0,0:0:0:0:
192,192,112303,1,0,0:0:0:0:
320,192,112455,1,0,0:0:0:0:
192,192,112531,1,0,0:0:0:0:
320,192,112607,1,0,0:0:0:0:
448,192,112683,1,0,0:0:0:0:
64,192,112760,1,0,0:0:0:0:
192,192,112836,1,0,0:0:0:0:
320,192,112912,1,0,0:0:0:0:
192,192,112988,1,0,0:0:0:0:
320,192,113064,1,0,0:0:0:0:
192,192,113140,1,0,0:0:0:0:
64,192,113216,1,0,0:0:0:0:
448,192,113216,1,0,0:0:0:0:
64,192,113369,1,0,0:0:0:0:
320,192,113369,1,0,0:0:0:0:
448,192,113369,1,0,0:0:0:0:
64,192,113673,1,0,0:0:0:0:
448,192,113673,1,0,0:0:0:0:
192,192,113749,1,0,0:0:0:0:
320,192,113749,1,0,0:0:0:0:
64,192,113826,1,0,0:0:0:0:
192,192,113826,1,0,0:0:0:0:
320,192,113902,1,0,0:0:0:0:
448,192,113902,1,0,0:0:0:0:
64,192,113978,1,0,0:0:0:0:
192,192,113978,1,0,0:0:0:0:
448,192,113978,1,0,0:0:0:0:
64,192,114130,1,0,0:0:0:0:
192,192,114130,1,0,0:0:0:0:
448,192,114130,1,0,0:0:0:0:
192,192,114282,128,0,114435:0:0:0:0:
320,192,114359,128,0,114435:0:0:0:0:
448,192,114435,1,0,0:0:0:0:
64,192,114587,1,0,0:0:0:0:
192,192,114587,1,0,0:0:0:0:
448,192,114587,1,0,0:0:0:0:
64,192,114892,128,0,115044:0:0:0:0:
192,192,114942,128,0,115044:0:0:0:0:
320,192,114993,128,0,115044:0:0:0:0:
448,192,115044,1,0,0:0:0:0:
64,192,115196,1,0,0:0:0:0:
192,192,115196,1,0,0:0:0:0:
448,192,115196,1,0,0:0:0:0:
64,192,115348,1,0,0:0:0:0:
192,192,115386,1,0,0:0:0:0:
448,192,115425,1,0,0:0:0:0:
320,192,115463,1,0,0:0:0:0:
192,192,115501,1,0,0:0:0:0:
64,192,115653,1,0,0:0:0:0:
320,192,115805,1,0,0:0:0:0:
448,192,115805,1,0,0:0:0:0:
64,192,115881,1,0,0:0:0:0:
192,192,115881,1,0,0:0:0:0:
64,192,115958,1,0,0:0:0:0:
448,192,115958,1,0,0:0:0:0:
192,192,116034,1,0,0:0:0:0:
320,192,116034,1,0,0:0:0:0:
64,192,116110,1,0,0:0:0:0:
320,192,116110,1,0,0:0:0:0:
448,192,116110,128,0,116262:0:0:0:0:
192,192,116262,1,0,0:0:0:0:
320,192,116262,1,0,0:0:0:0:
64,192,116414,128,0,116567:0:0:0:0:
320,192,116414,1,0,0:0:0:0:
448,192,116414,1,0,0:0:0:0:
192,192,116567,1,0,0:0:0:0:
320,192,116567,1,0,0:0:0:0:
192,192,116719,1,0,0:0:0:0:
320,192,116719,1,0,0:0:0:0:
64,192,116871,1,0,0:0:0:0:
192,192,116871,1,0,0:0:0:0:
320,192,116871,128,0,117024:0:0:0:0:
64,192,117024,1,0,0:0:0:0:
448,192,117024,1,0,0:0:0:0:
64,192,117328,1,0,0:0:0:0:
448,192,117328,1,0,0:0:0:0:
64,192,117633,1,0,0:0:0:0:
448,192,117633,1,0,0:0:0:0:
192,192,117785,1,0,0:0:0:0:
192,192,117861,1,0,0:0:0:0:
64,192,117937,128,0,118166:0:0:0:0:
320,192,117937,1,0,0:0:0:0:
448,192,117937,128,0,118166:0:0:0:0:
