osu file format v14

[General]
AudioFilename: audio.mp3
AudioLeadIn: 0
PreviewTime: 129321
Countdown: 0
SampleSet: Soft
StackLeniency: 0.6
Mode: 0
LetterboxInBreaks: 0
WidescreenStoryboard: 1

[Editor]
Bookmarks: 86373
DistanceSpacing: 1.7
BeatDivisor: 16
GridSize: 32
TimelineZoom: 1

[Metadata]
Title:dreamy night
TitleUnicode:dreamy night
Artist:LilyPichu
ArtistUnicode:LilyPichu
Creator:Battle
Version:lonely
Source:
Tags:english hip hop offlinetv twitch streamer comfi beats comfy rezyon yungi chang zorsy megan shipman 18moptop gwinshin pop lofi piano jazz
BeatmapID:2693226
BeatmapSetID:1298416

[Difficulty]
HPDrainRate:6
CircleSize:4
OverallDifficulty:8
ApproachRate:9
SliderMultiplier:1.8
SliderTickRate:1

[Events]
//Background and Video events
0,0,"bg.jpg",0,0
//Break Periods
2,86573,88368
2,172590,187109
//Storyboard Layer 0 (Background)
//Storyboard Layer 1 (Fail)
//Storyboard Layer 2 (Pass)
//Storyboard Layer 3 (Foreground)
//Storyboard Layer 4 (Overlay)
//Storyboard Sound Samples

[TimingPoints]
573,652.173913043478,4,2,1,25,1,0
3181,-400,4,2,1,25,0,0
24051,-133.333333333333,4,2,1,25,0,0
32529,-133.333333333333,4,2,1,5,0,0
34486,-200,4,2,1,30,0,0
39703,-333.333333333333,4,2,1,25,0,0
44268,618.556701030928,4,2,1,30,1,0
44891,652.173913043478,4,2,1,35,1,0
44891,-125,4,2,1,35,0,0
81738,674.157303370787,4,2,1,35,1,0
81738,-125,4,2,1,35,0,0
82412,652.173913043478,4,2,1,33,1,0
83064,674.157303370787,4,2,1,31,1,0
83401,697.674418604651,4,2,1,29,1,0
83401,-125,4,2,1,29,0,0
83749,722.89156626506,4,2,1,27,1,0
84110,769.230769230769,4,2,1,25,1,0
84494,909.090909090909,4,2,1,23,1,0
84948,1176.47058823529,4,2,1,21,1,0
84948,-125,4,2,1,21,0,0
86373,1176.47058823529,4,2,1,21,1,0
88968,652.173913043478,4,2,2,35,1,0
88968,-50,4,2,2,35,0,0
128750,-66.6666666666667,4,2,2,35,0,0
129402,-100,4,2,2,35,0,0
130707,-50,4,2,2,40,0,0
169837,638.297872340426,4,2,2,40,1,0
169837,-50,4,2,2,40,0,0
172390,-66.6666666666667,4,2,2,40,0,0
188985,645.161290322581,4,2,2,40,1,0
188985,-50,4,2,2,40,0,0
190275,666.666666666667,4,2,2,40,1,0
190275,-50,4,2,2,40,0,0
191608,689.655172413793,4,2,2,35,1,0
191608,-50,4,2,2,35,0,0
192997,681.818181818182,4,2,1,35,1,0
193678,666.666666666667,4,2,1,35,1,0
195011,655.737704918033,4,2,1,35,1,0
197633,-66.6666666666667,4,2,1,40,0,0
198291,652.173913043478,4,2,2,40,1,1
198291,-66.6666666666667,4,2,2,40,0,1
198943,-50,4,2,2,40,0,1
229595,-50,4,2,2,40,0,0
233834,-50,4,2,2,35,0,0
234160,-50,4,2,2,30,0,0
234486,750,4,2,2,35,1,0
234486,-50,4,2,2,25,0,0
234861,-50,4,2,2,20,0,0

[Colours]
Combo1 : 41,205,214
Combo2 : 227,21,135
Combo3 : 79,158,255
Combo4 : 126,105,190

[HitObjects]
70,337,573,5,2,0:0:0:0:
89,265,736,1,0,0:0:0:0:
154,228,899,1,0,0:0:0:0:
230,250,1062,1,0,0:0:0:0:
161,308,1225,5,2,0:0:0:0:
89,265,1388,1,0,0:0:0:0:
91,184,1551,1,0,0:0:0:0:
157,137,1714,1,0,0:0:0:0:
231,168,1877,5,2,0:0:0:0:
307,140,2040,1,0,0:0:0:0:
334,63,2203,1,0,0:0:0:0:
278,4,2366,1,0,0:0:0:0:
241,76,2529,1,2,0:0:0:0:
241,76,2692,2,0,P|254:151|255:199,1,90,2|0,0:0|0:0,0:0:0:0:
198,260,3181,6,0,B|301:242|259:315|375:288,1,180,2|0,0:0|0:0,0:0:0:0:
451,157,8399,2,0,P|413:123|336:196,1,180,2|0,0:0|0:0,0:0:0:0:
414,336,13616,2,0,P|364:320|232:307,1,180,2|0,0:0|0:0,0:0:0:0:
86,357,18833,2,0,P|54:298|132:240,1,180,2|0,0:0|0:0,0:0:0:0:
197,175,22094,5,2,0:0:0:0:
197,175,22420,2,0,P|193:149|185:129,1,45,2|2,0:0|0:0,0:0:0:0:
100,86,23725,1,2,0:0:0:0:
100,86,24051,6,0,P|88:62|90:17,2,67.5000025749208,2|0|2,0:0|0:0|0:0,0:0:0:0:
186,131,25029,2,0,P|243:110|330:117,1,135.000005149842,2|0,0:0|0:0,0:0:0:0:
453,48,26007,2,0,P|403:37|379:13,1,67.5000025749208,2|2,0:0|0:0,0:0:0:0:
384,189,26659,2,0,P|419:173|460:173,2,67.5000025749208,2|0|2,0:0|0:0|0:0,0:0:0:0:
295,376,27638,2,0,B|318:301|277:322|298:243,1,135.000005149842,2|0,0:0|0:0,0:0:0:0:
143,369,28616,2,0,P|192:347|223:346,1,67.5000025749208,2|2,0:0|0:0,0:0:0:0:
298,243,29268,6,0,P|235:254|158:210,1,135.000005149842,2|0,0:0|0:0,0:0:0:0:
70,274,30246,2,0,P|63:229|47:185,1,67.5000025749208,2|0,0:0|0:0,0:0:0:0:
134,149,30899,2,0,P|141:99|157:55,1,67.5000025749208,2|0,0:0|0:0,0:0:0:0:
57,1,31551,1,2,0:0:0:0:
57,1,31877,2,0,P|111:36|189:-3,1,135.000005149842
267,29,34486,6,0,P|229:43|218:176,1,180,2|0,0:0|0:0,0:0:0:0:
173,259,37094,2,0,B|274:289|233:228|363:254,1,180,2|0,0:0|0:0,0:0:0:0:
443,322,39703,2,0,P|445:239|463:105,1,215.999993408203,2|2,0:0|0:0,0:0:0:0:
462,107,43616,5,2,0:0:0:0:
358,84,44268,1,2,0:0:0:0:
241,40,44891,6,0,P|258:94|244:136,2,72,2|0|0,3:2|0:0|3:0,0:0:0:0:
169,144,45869,1,0,0:0:0:0:
245,190,46195,1,0,3:0:0:0:
164,55,46521,1,2,0:0:0:0:
110,209,46847,1,2,3:2:0:0:
264,107,47173,1,2,0:0:0:0:
264,107,47499,6,0,P|318:117|365:128,1,72,0|0,3:0|0:0,0:0:0:0:
80,188,48151,1,2,3:2:0:0:
180,194,48477,2,0,P|161:142|145:97,1,72,2|0,0:0|3:0,0:0:0:0:
281,220,49130,2,0,P|245:261|214:297,1,72,2|0,0:0|3:0,0:0:0:0:
67,340,49782,1,0,0:0:0:0:
92,254,50108,6,0,P|142:288|147:377,1,144,2|0,3:2|3:0,0:0:0:0:
209,205,51086,2,0,P|162:256|73:241,1,144,2|0,0:0|0:0,0:0:0:0:
22,127,52064,1,2,3:2:0:0:
124,153,52391,1,2,0:0:0:0:
124,153,52717,6,0,P|111:102|100:71,1,72,0|0,3:0|0:0,0:0:0:0:
247,5,53369,2,0,P|236:39|227:74,1,72,0|0,3:0|0:0,0:0:0:0:
323,132,54021,2,0,P|415:116|489:117,1,144,2|2,3:2|3:2,0:0:0:0:
233,247,55325,6,0,P|228:212|208:160,2,72,2|0|0,3:2|0:0|3:0,0:0:0:0:
161,303,56304,1,0,0:0:0:0:
300,366,56630,2,0,P|312:304|326:278,1,72,0|2,3:0|0:0,0:0:0:0:
396,242,57282,1,2,3:2:0:0:
483,175,57608,1,2,0:0:0:0:
483,175,57934,6,0,P|424:207|338:155,1,144,2|2,3:2|3:2,0:0:0:0:
288,21,58912,2,0,P|315:61|318:101,1,72,2|0,0:0|3:0,0:0:0:0:
227,151,59564,2,0,P|245:196|230:232,1,72,2|0,0:0|3:0,0:0:0:0:
143,295,60217,1,2,0:0:0:0:
143,295,60543,6,0,P|69:297|-18:301,1,144,2|0,3:2|3:0,0:0:0:0:
250,383,61847,1,2,3:2:0:0:
202,302,62173,1,2,0:0:0:0:
273,229,62499,1,2,3:2:0:0:
215,148,62825,1,2,0:0:0:0:
215,148,63151,6,0,P|156:136|121:133,1,72,0|0,3:0|0:0,0:0:0:0:
275,52,63804,2,0,P|334:40|369:37,1,72,0|0,3:0|0:0,0:0:0:0:
465,12,64456,2,0,B|434:107|492:68|454:184,1,144,2|2,3:2|3:2,0:0:0:0:
410,317,65760,6,0,P|384:274|403:234,2,72,2|0|0,3:2|0:0|3:0,0:0:0:0:
479,240,66738,1,0,0:0:0:0:
343,163,67064,2,0,P|304:201|303:247,1,72,0|2,3:0|0:0,0:0:0:0:
291,373,67717,1,2,3:2:0:0:
348,296,68043,6,0,L|266:288,1,72,2|0,0:0|3:0,0:0:0:0:
188,229,68695,2,0,L|100:244,1,72,2|0,0:0|3:0,0:0:0:0:
43,329,69347,2,0,P|35:256|2:160,1,144,2|0,0:0|0:0,0:0:0:0:
114,63,70325,2,0,P|101:113|99:149,1,72,2|0,3:2|0:0,0:0:0:0:
218,280,70977,5,2,3:2:0:0:
189,190,71304,1,0,0:0:0:0:
268,136,71630,1,2,3:2:0:0:
135,254,71956,2,0,P|81:249|36:242,1,72,2|0,0:0|3:0,0:0:0:0:
178,368,72608,2,0,P|213:363|249:360,1,72,2|0,0:0|3:0,0:0:0:0:
385,266,73260,1,2,0:0:0:0:
385,266,73586,6,0,P|359:313|362:349,1,72,0|0,3:0|0:0,0:0:0:0:
189,202,74238,1,0,3:0:0:0:
243,102,74564,2,0,P|279:170|276:262,1,144,0|2,0:0|0:0,0:0:0:0:
496,177,75543,1,2,3:2:0:0:
406,222,75869,1,2,0:0:0:0:
354,128,76195,6,0,P|377:76|405:72,1,72,2|0,3:2|0:0,0:0:0:0:
190,249,76847,1,2,3:2:0:0:
289,281,77173,2,0,P|284:202|211:154,1,144,2|0,0:0|0:0,0:0:0:0:
166,85,78151,1,2,3:2:0:0:
66,142,78477,1,2,0:0:0:0:
66,142,78804,6,0,P|33:100|27:73,1,72,0|0,3:0|0:0,0:0:0:0:
140,220,79456,2,0,P|106:267|100:309,1,72,2|2,3:2|0:0,0:0:0:0:
227,155,80108,1,2,3:2:0:0:
317,220,80434,1,0,0:2:0:0:
138,112,80760,1,2,3:2:0:0:
337,54,81086,1,0,0:0:0:0:
216,23,81412,6,0,P|234:69|227:102,1,72,2|2,0:0|0:0,0:0:0:0:
166,251,82075,2,0,P|163:216|181:183,1,72,2|2,0:0|0:0,0:0:0:0:
279,198,82738,1,2,0:0:0:0:
320,101,83064,1,2,0:0:0:0:
418,126,83401,2,0,P|467:115|498:117,1,72,2|2,0:0|0:0,0:0:0:0:
449,209,84110,1,2,0:0:0:0:
497,292,84494,1,2,0:0:0:0:
433,360,84948,2,0,P|398:353|343:355,1,72,2|2,0:0|0:0,0:0:0:0:
361,352,86373,5,2,0:0:0:0:
268,368,88968,6,0,P|291:302|360:353,1,180,0|2,3:0|0:0,0:0:0:0:
471,153,89457,1,0,0:0:0:0:
494,249,89620,2,0,P|430:247|394:206,1,90,10|0,1:2|0:0,0:0:0:0:
317,50,89946,2,0,P|355:82|360:138,1,90,2|0,3:2|0:0,0:0:0:0:
200,270,90272,1,2,0:0:0:0:
303,220,90435,1,0,3:0:0:0:
200,270,90598,1,0,3:0:0:0:
212,154,90761,1,0,0:0:0:0:
346,324,90924,2,0,B|231:298|295:388|151:365,1,180,8|2,1:2|0:0,0:0:0:0:
76,307,91413,1,0,0:0:0:0:
193,149,91576,6,0,P|149:155|121:189,1,90,2|0,3:2|0:0,0:0:0:0:
269,301,91902,1,2,0:0:0:0:
195,234,92065,1,0,3:0:0:0:
310,195,92228,2,0,P|296:122|303:91,1,90,10|0,1:2|3:0,0:0:0:0:
411,139,92554,2,0,P|428:71|462:45,1,90,2|0,3:2|0:0,0:0:0:0:
403,257,92881,1,2,0:0:0:0:
509,213,93044,1,2,3:2:0:0:
403,257,93207,1,0,3:0:0:0:
411,139,93370,1,2,0:0:0:0:
499,355,93533,2,0,B|435:346|435:346|388:367|388:367|303:356,1,180,10|0,1:2|0:0,0:0:0:0:
217,301,94022,1,0,3:0:0:0:
304,159,94185,6,0,B|320:187|320:187|307:256,1,90,0|0,3:0|0:0,0:0:0:0:
147,346,94511,2,0,P|185:305|241:309,1,90,2|0,0:0|3:0,0:0:0:0:
30,305,94837,2,0,P|47:238|92:224,1,90,10|0,1:2|0:0,0:0:0:0:
166,201,95163,1,2,3:2:0:0:
166,201,95326,1,0,0:0:0:0:
88,39,95489,2,0,B|72:67|72:67|85:136,1,90,0|0,0:0|3:0,0:0:0:0:
248,137,95815,2,0,P|210:79|176:75,1,90,2|0,3:2|0:0,0:0:0:0:
341,212,96141,2,0,P|365:151|350:112,1,90,10|0,1:2|0:0,0:0:0:0:
247,259,96468,1,2,0:0:0:0:
247,259,96631,1,0,3:0:0:0:
345,320,96794,5,2,3:2:0:0:
341,212,96957,1,2,0:0:0:0:
246,357,97120,1,2,0:0:0:0:
430,267,97283,1,2,3:2:0:0:
255,100,97446,2,0,P|238:151|258:195,1,90,10|0,1:2|3:0,0:0:0:0:
342,372,97772,2,0,P|352:329|335:288,1,90,2|0,3:2|0:0,0:0:0:0:
221,287,98098,2,0,P|162:300|114:306,1,90,2|0,0:0|1:0,0:0:0:0:
343,175,98424,2,0,P|386:164|431:157,1,90,2|0,3:2|0:0,0:0:0:0:
171,190,98750,2,0,P|115:165|73:142,1,90,10|0,1:2|0:0,0:0:0:0:
335,279,99076,2,0,P|376:296|416:317,1,90,2|0,0:0|3:0,0:0:0:0:
221,287,99402,6,0,P|213:220|250:103,1,180,0|2,3:0|0:0,0:0:0:0:
317,42,99891,1,0,3:0:0:0:
484,130,100054,2,0,P|410:124|387:113,2,90,10|0|2,1:2|0:0|3:2,0:0:0:0:
273,309,100544,1,0,0:0:0:0:
371,227,100707,2,0,P|246:197|166:236,1,180,2|0,0:0|3:0,0:0:0:0:
8,124,101196,2,0,P|96:135|176:97,1,180,2|0,0:0|0:0,0:0:0:0:
301,22,101685,2,0,P|278:78|280:124,1,90,0|0,0:0|3:0,0:0:0:0:
257,323,102011,5,2,3:2:0:0:
200,213,102174,1,0,0:0:0:0:
303,215,102337,1,2,0:0:0:0:
150,312,102500,1,0,0:0:0:0:
367,378,102663,2,0,B|357:321|357:321|379:278,1,90,10|0,1:2|3:0,0:0:0:0:
451,54,102989,1,2,3:2:0:0:
491,147,103152,1,0,3:0:0:0:
357,204,103315,2,0,P|402:205|438:232,2,90,2|0|0,0:0|0:0|3:0,0:0:0:0:
193,61,103804,1,2,0:0:0:0:
289,95,103968,2,0,P|234:151|111:127,1,180,8|0,1:2|0:0,0:0:0:0:
193,61,104457,1,0,3:0:0:0:
50,198,104620,6,0,P|39:136|20:82,2,90,2|2|0,3:2|0:0|0:3,0:0:0:0:
128,115,105109,1,2,3:2:0:0:
121,288,105272,2,0,P|148:231|164:176,2,90,10|2|0,1:2|0:0|3:0,0:0:0:0:
128,115,105761,1,2,0:0:0:0:
8,371,105924,2,0,P|16:303|48:272,1,90,2|0,0:0|3:0,0:0:0:0:
121,288,106250,2,0,P|177:252|223:257,1,90,0|0,3:0|0:0,0:0:0:0:
324,284,106576,5,10,1:2:0:0:
273,187,106739,1,2,0:0:0:0:
362,122,106902,1,2,0:0:0:0:
312,19,107065,1,2,3:2:0:0:
273,187,107228,6,0,P|206:189|176:158,1,90,2|0,1:2|0:0,0:0:0:0:
362,122,107554,2,0,P|401:102|445:112,1,90,2|0,0:0|3:0,0:0:0:0:
483,331,107881,1,8,1:2:0:0:
495,218,108044,1,0,3:0:0:0:
495,218,108207,6,0,B|392:227|452:288|317:299,1,180,0|0,1:0|0:0,0:0:0:0:
247,216,108696,1,0,3:0:0:0:
290,123,108859,2,0,P|330:142|345:191,1,90,8|0,1:2|0:0,0:0:0:0:
185,332,109185,5,8,0:0:0:0:
88,355,109348,1,8,0:0:0:0:
247,216,109511,2,0,P|171:216|151:241,1,90,8|8,0:0|0:0,0:0:0:0:
0,125,109837,6,0,P|55:143|64:191,1,90,2|0,1:2|0:0,0:0:0:0:
206,12,110163,2,0,P|144:27|126:67,1,90,2|0,0:0|1:0,0:0:0:0:
230,205,110489,2,0,P|221:142|202:108,1,90,10|0,0:0|0:0,0:0:0:0:
10,346,110815,2,0,P|70:266|155:287,1,180,2|0,1:2|0:0,0:0:0:0:
101,359,111304,1,0,0:0:0:0:
275,288,111468,2,0,P|251:342|258:384,1,90,2|0,1:2|0:0,0:0:0:0:
182,51,111794,2,0,P|236:121|214:216,1,180,10|0,0:0|0:0,0:0:0:0:
145,146,112283,1,0,3:0:0:0:
314,51,112446,6,0,P|372:55|404:30,1,90,2|0,1:2|0:0,0:0:0:0:
463,133,112772,2,0,P|511:74|506:30,1,90,2|0,0:0|1:0,0:0:0:0:
326,152,113098,2,0,P|344:216|344:252,1,90,10|0,0:0|0:0,0:0:0:0:
475,382,113424,2,0,P|429:351|271:352,1,180,2|0,1:2|0:0,0:0:0:0:
155,204,113913,1,0,3:0:0:0:
246,149,114076,2,0,P|258:203|242:241,1,90,2|0,1:2|0:0,0:0:0:0:
164,383,114402,2,0,P|152:329|168:291,1,90,10|0,0:0|0:0,0:0:0:0:
263,319,114728,1,2,0:0:0:0:
155,204,114891,1,0,3:0:0:0:
410,93,115054,6,0,B|305:85|345:152|241:148,1,180,2|0,1:2|0:0,0:0:0:0:
120,86,115544,1,0,1:0:0:0:
254,50,115707,2,0,P|231:14|188:16,1,90,10|0,0:2|0:0,0:0:0:0:
83,192,116033,2,0,B|188:184|148:251|252:247,1,180,2|0,1:2|0:0,0:0:0:0:
308,171,116522,1,0,3:0:0:0:
420,302,116685,2,0,P|425:251|386:212,1,90,2|0,1:2|0:0,0:0:0:0:
356,29,117011,2,0,P|299:70|328:188,1,180,8|2,0:0|0:0,0:0:0:0:
331,268,117500,1,0,3:0:0:0:
482,121,117663,6,0,P|410:124|376:103,1,90,0|0,1:0|0:0,0:0:0:0:
331,268,117989,1,2,0:0:0:0:
307,170,118152,1,0,1:0:0:0:
216,344,118315,2,0,P|232:286|214:260,1,90,8|0,0:0|3:0,0:0:0:0:
152,73,118641,2,0,P|98:193|117:233,1,180,2|0,1:2|0:0,0:0:0:0:
339,86,119131,1,0,1:0:0:0:
193,174,119294,2,0,P|228:152|290:164,1,90,2|0,3:2|0:0,0:0:0:0:
194,382,119620,2,0,P|149:386|111:363,1,90,2|0,1:2|3:0,0:0:0:0:
253,242,119946,2,0,P|299:268|313:309,1,90,2|0,1:2|3:0,0:0:0:0:
92,227,120272,6,0,P|54:161|80:44,1,180,2|0,1:2|0:0,0:0:0:0:
149,125,120761,1,0,1:0:0:0:
242,83,120924,2,0,P|259:26|314:1,1,90,10|0,0:2|0:0,0:0:0:0:
390,246,121250,2,0,P|410:172|324:84,1,180,2|0,1:2|0:0,0:0:0:0:
299,189,121739,1,0,3:0:0:0:
500,27,121902,2,0,P|437:33|403:6,1,90,2|0,1:2|0:0,0:0:0:0:
144,197,122228,2,0,P|203:156|302:192,1,180,10|2,0:2|0:0,0:0:0:0:
221,262,122717,1,0,3:0:0:0:
421,114,122881,6,0,P|403:178|405:222,1,90,2|0,3:2|0:0,0:0:0:0:
512,371,123207,2,0,P|508:326|493:283,1,90,2|0,0:0|1:0,0:0:0:0:
291,132,123533,2,0,P|291:198|308:237,1,90,10|0,0:0|0:0,0:0:0:0:
412,359,123859,2,0,B|363:338|363:338|205:347,1,180,2|0,1:2|0:0,0:0:0:0:
86,265,124348,1,0,3:0:0:0:
164,178,124511,2,0,P|204:223|182:268,1,90,0|0,1:0|0:0,0:0:0:0:
62,374,124837,2,0,P|81:303|96:281,1,90,10|0,0:0|0:0,0:0:0:0:
27,181,125163,2,0,P|8:110|-7:88,1,90,2|0,0:0|3:0,0:0:0:0:
68,4,125489,6,0,B|111:0|148:45|148:45|188:14|229:28,1,180,2|0,3:2|0:0,0:0:0:0:
298,170,125978,1,0,1:0:0:0:
206,202,126141,2,0,P|194:145|217:113,1,90,10|0,0:0|0:0,0:0:0:0:
409,64,126467,2,0,P|368:84|322:64,1,90,2|0,1:2|0:0,0:0:0:0:
204,269,126794,2,0,P|219:181|307:175,1,180,0|2,0:0|1:2,0:0:0:0:
378,242,127283,1,0,0:0:0:0:
500,146,127446,2,0,P|475:198|482:242,1,90,8|0,0:0|0:0,0:0:0:0:
331,344,127772,1,2,0:0:0:0:
378,242,127935,1,2,0:2:0:0:
501,339,128098,6,0,B|400:322|442:401|329:383,1,180,2|0,3:2|0:0,0:0:0:0:
292,146,128750,2,0,P|310:192|314:224,1,67.5000025749208,2|0,0:0|0:0,0:0:0:0:
204,377,129076,2,0,P|211:344|224:313,1,67.5000025749208,2|0,3:2|0:0,0:0:0:0:
162,214,129402,6,0,P|69:219|-11:285,1,180,2|2,0:0|0:0,0:0:0:0:
162,214,130707,6,0,P|139:184|152:113,1,90,2|0,3:2|0:0,0:0:0:0:
243,121,131033,2,0,P|269:60|309:56,1,90,0|0,0:0|1:0,0:0:0:0:
316,204,131359,1,8,0:0:0:0:
391,136,131522,1,0,0:0:0:0:
431,326,131685,2,0,P|412:257|429:227,1,90,0|0,1:0|0:0,0:0:0:0:
503,7,132011,2,0,B|529:62|529:62|494:184,1,180,0|2,0:0|1:2,0:0:0:0:
417,56,132500,1,0,0:0:0:0:
279,131,132663,2,0,P|318:108|376:136,1,90,10|0,0:0|0:0,0:0:0:0:
510,308,132989,1,2,0:0:0:0:
416,290,133152,1,0,3:0:0:0:
327,200,133315,6,0,B|305:263|305:263|319:309|319:309|299:379,1,180,0|0,3:2|0:0,0:0:0:0:
175,108,133968,2,0,L|275:93,1,90,10|0,1:2|3:0,0:0:0:0:
209,269,134294,2,0,P|173:226|56:241,1,180,2|0,3:2|0:0,0:0:0:0:
46,43,134783,1,0,3:0:0:0:
0,122,134946,2,0,P|64:135|101:115,1,90,2|0,1:2|0:0,0:0:0:0:
165,23,135272,2,0,P|252:18|305:85,1,180,8|0,0:0|0:0,0:0:0:0:
201,116,135761,1,0,3:0:0:0:
139,203,135924,6,0,B|137:254|187:286|187:286|150:319|162:379,1,180,2|0,3:2|0:0,0:0:0:0:
72,297,136413,1,0,1:0:0:0:
230,198,136576,2,0,P|283:201|321:156,1,90,8|0,0:0|0:0,0:0:0:0:
499,114,136902,2,0,B|400:104|451:45|340:32,1,180,2|0,1:2|0:0,0:0:0:0:
488,213,137391,1,0,3:0:0:0:
380,291,137554,2,0,P|387:222|401:201,1,90,0|0,1:0|0:0,0:0:0:0:
269,0,137881,2,0,P|304:76|288:192,1,180,10|2,0:2|0:0,0:0:0:0:
207,112,138370,1,0,3:0:0:0:
268,262,138533,6,0,P|193:244|164:249,1,90,0|0,3:0|0:0,0:0:0:0:
98,181,138859,2,0,P|32:194|4:218,1,90,0|0,0:0|1:0,0:0:0:0:
296,376,139185,2,0,P|260:349|209:342,1,90,8|0,0:0|3:0,0:0:0:0:
90,287,139511,2,0,P|32:344|29:373,1,90,0|0,3:0|0:0,0:0:0:0:
183,245,139837,1,2,0:0:0:0:
98,181,140000,1,0,1:0:0:0:
183,245,140163,2,0,P|210:190|196:137,1,90,0|0,3:0|0:0,0:0:0:0:
83,17,140489,2,0,P|58:60|153:52,1,180,2|0,1:2|0:0,0:0:0:0:
14,281,141141,6,0,P|81:244|187:246,1,180,2|0,3:2|0:0,0:0:0:0:
266,295,141631,1,0,1:0:0:0:
348,224,141794,2,0,P|328:163|315:114,1,90,8|0,0:0|0:0,0:0:0:0:
443,135,142120,2,0,P|459:73|482:27,1,90,0|0,1:0|0:0,0:0:0:0:
227,108,142446,2,0,P|269:23|342:31,1,180,0|2,0:0|1:2,0:0:0:0:
174,204,142935,1,0,0:0:0:0:
174,204,143098,2,0,P|109:166|70:176,1,90,10|0,0:0|0:0,0:0:0:0:
228,318,143424,2,0,P|272:282|312:276,1,90,2|0,0:0|3:0,0:0:0:0:
447,374,143750,6,0,P|462:246|492:177,1,180,0|0,3:0|0:0,0:0:0:0:
266,48,144402,2,0,P|294:100|298:142,1,90,10|0,1:2|3:0,0:0:0:0:
320,284,144728,2,0,B|222:276|252:355|119:335,1,180,2|0,3:2|0:0,0:0:0:0:
0,274,145217,1,0,3:0:0:0:
0,274,145381,2,0,B|98:282|68:203|201:223,1,180,2|8,1:2|0:0,0:0:0:0:
242,136,145870,1,0,0:0:0:0:
145,88,146033,2,0,P|129:36|132:-13,1,90,2|0,0:0|3:0,0:0:0:0:
358,167,146359,6,0,P|291:153|281:251,1,180,2|0,3:2|0:0,0:0:0:0:
446,115,147011,2,0,P|427:67|438:20,1,90,8|0,1:2|0:0,0:0:0:0:
499,294,147337,2,0,P|517:253|512:209,1,90,0|0,3:0|0:0,0:0:0:0:
446,115,147663,1,2,0:0:0:0:
369,108,147826,1,0,3:0:0:0:
285,186,147989,1,2,1:2:0:0:
195,199,148152,1,0,0:0:0:0:
86,66,148315,2,0,B|58:166|114:138|83:246,1,180,10|2,0:0|0:0,0:0:0:0:
0,204,148804,1,0,3:0:0:0:
183,92,148967,6,0,P|170:34|198:4,1,90,0|0,3:0|0:0,0:0:0:0:
271,233,149294,2,0,P|284:175|256:145,1,90,0|0,0:0|1:0,0:0:0:0:
182,300,149620,1,8,0:0:0:0:
258,384,149783,1,0,3:0:0:0:
73,275,149946,2,0,P|96:217|142:205,1,90,0|0,1:0|0:0,0:0:0:0:
334,118,150272,2,0,B|290:102|245:131|245:131|216:94|168:98,1,180,2|0,3:2|3:0,0:0:0:0:
369,352,150924,1,8,0:0:0:0:
317,229,151087,1,8,0:0:0:0:
444,175,151250,2,0,B|477:152|477:152|449:259,1,135,8|0,1:2|0:0,0:0:0:0:
369,352,151576,6,0,P|305:302|222:357,1,180,2|0,3:2|0:0,0:0:0:0:
31,243,152065,1,0,1:0:0:0:
108,305,152228,2,0,P|44:347|22:343,1,90,8|0,0:0|0:0,0:0:0:0:
193,217,152554,2,0,P|231:188|281:194,1,90,0|0,1:0|0:0,0:0:0:0:
99,206,152881,2,0,P|56:154|75:36,1,180,0|2,0:0|1:2,0:0:0:0:
150,106,153370,1,0,0:0:0:0:
206,300,153533,2,0,P|186:235|202:201,1,90,10|0,0:2|0:0,0:0:0:0:
244,24,153859,2,0,P|263:78|242:122,1,90,2|0,0:2|3:0,0:0:0:0:
118,310,154185,6,0,P|166:261|273:260,1,180,0|2,3:0|0:0,0:0:0:0:
435,128,154674,1,0,1:0:0:0:
345,169,154837,2,0,P|392:225|434:220,1,90,8|0,0:0|3:0,0:0:0:0:
512,364,155163,2,0,B|375:337|375:337|408:384,1,180,2|0,1:2|0:0,0:0:0:0:
167,309,155652,1,0,3:0:0:0:
279,358,155815,2,0,P|287:292|308:260,1,90,0|0,1:0|0:0,0:0:0:0:
150,32,156141,2,0,P|190:79|192:213,1,180,10|0,0:0|0:0,0:0:0:0:
307,29,156794,6,0,P|248:67|145:25,1,180,2|0,3:2|0:0,0:0:0:0:
55,88,157283,1,0,1:0:0:0:
133,234,157446,2,0,P|145:172|155:128,1,90,10|0,0:0|3:0,0:0:0:0:
21,351,157772,2,0,P|120:335|203:324,1,180,2|0,1:2|0:0,0:0:0:0:
375,291,158261,1,0,3:0:0:0:
251,161,158424,2,0,P|260:204|268:249,1,90,2|0,1:2|0:0,0:0:0:0:
375,291,158750,2,0,P|365:334|357:379,1,90,8|0,0:0|0:0,0:0:0:0:
170,240,159076,1,2,0:0:0:0:
344,137,159239,1,0,0:2:0:0:
344,137,159321,1,0,0:0:0:0:
344,137,159402,6,0,B|380:153|401:194|401:194|444:160|503:168,1,180,0|0,3:2|0:0,0:0:0:0:
423,72,159891,1,0,1:0:0:0:
301,223,160054,1,8,0:0:0:0:
200,279,160217,1,0,3:0:0:0:
301,223,160381,2,0,P|326:285|307:320,1,90,0|0,1:0|0:0,0:0:0:0:
200,279,160707,1,0,0:0:0:0:
376,141,160870,1,0,1:0:0:0:
284,40,161033,2,0,P|241:31|162:19,1,90,2|0,3:2|0:0,0:0:0:0:
88,100,161359,2,0,P|45:109|-34:121,1,90,10|0,1:2|0:0,0:0:0:0:
239,153,161685,1,2,3:2:0:0:
239,153,161848,1,0,3:0:0:0:
93,216,162011,6,0,B|76:327|146:273|133:401,1,180,2|0,3:2|0:0,0:0:0:0:
207,21,162663,2,0,P|164:70|130:58,1,90,10|0,1:2|0:0,0:0:0:0:
184,223,162989,2,0,P|244:170|337:191,1,180,2|0,3:2|0:0,0:0:0:0:
413,9,163478,1,0,3:0:0:0:
413,9,163641,2,0,P|366:38|358:81,1,90,0|0,1:0|0:0,0:0:0:0:
466,195,163967,2,0,P|480:131|492:93,1,90,10|0,0:0|0:0,0:0:0:0:
337,189,164294,1,2,0:0:0:0:
369,284,164457,1,0,3:0:0:0:
493,384,164620,6,0,P|436:366|292:387,1,180,0|0,3:0|0:0,0:0:0:0:
69,371,165272,2,0,P|53:318|51:277,1,90,10|0,1:2|3:0,0:0:0:0:
200,197,165598,2,0,P|195:241|181:284,1,90,2|0,3:2|0:0,0:0:0:0:
0,199,165924,1,2,0:0:0:0:
89,180,166087,1,0,3:0:0:0:
148,74,166250,1,2,1:2:0:0:
242,88,166413,1,0,0:0:0:0:
335,181,166576,2,0,P|301:232|328:361,1,180,10|2,0:0|0:0,0:0:0:0:
398,274,167065,1,0,3:0:0:0:
208,369,167228,6,0,P|190:306|151:291,1,90,2|0,3:2|0:0,0:0:0:0:
75,268,167554,2,0,P|14:289|-9:336,1,90,2|0,0:0|1:0,0:0:0:0:
278,185,167881,2,0,B|188:198,1,90,8|0,0:0|0:0,0:0:0:0:
64,161,168207,2,0,P|44:103|67:65,1,90,2|0,3:2|0:0,0:0:0:0:
157,16,168533,1,2,0:2:0:0:
143,108,168696,1,0,3:0:0:0:
249,19,168859,1,2,1:2:0:0:
264,108,169022,1,0,0:0:0:0:
351,22,169185,2,0,B|388:50|388:50|492:28,1,135,10|0,0:2|0:0,0:0:0:0:
512,27,169511,2,0,P|474:90|485:122,1,90,2|0,0:0|0:0,0:0:0:0:
512,255,169837,6,0,P|473:213|343:241,1,180,2|0,3:2|0:0,0:0:0:0:
421,295,170315,1,0,1:0:0:0:
277,79,170475,1,10,0:0:0:0:
380,114,170634,1,0,3:0:0:0:
277,79,170794,2,0,P|242:125|255:169,1,90,0|0,1:0|0:0,0:0:0:0:
283,384,171113,2,0,B|296:318|296:318|257:232,1,135,2|0,0:0|0:0,0:0:0:0:
229,235,171432,2,0,P|164:270|168:316,1,90,0|0,3:0|0:0,0:0:0:0:
3,115,171751,2,0,P|40:167|134:120,1,180,8|0,0:0|0:0,0:0:0:0:
70,52,172230,1,0,3:0:0:0:
268,131,172390,5,2,3:2:0:0:
210,227,187709,5,2,0:0:0:0:
147,90,188028,2,0,P|129:129|142:168,1,67.5000025749208,2|0,0:0|3:0,0:0:0:0:
249,337,188347,2,0,P|258:279|197:223,1,135.000005149842,10|2,0:0|3:2,0:0:0:0:
112,248,188826,1,0,0:0:0:0:
221,133,188985,2,0,P|282:123|330:116,1,90,2|0,0:0|3:0,0:0:0:0:
412,250,189307,2,0,P|367:243|323:235,1,90,2|0,1:2|0:0,0:0:0:0:
396,13,189630,2,0,P|335:17|321:132,1,180,10|2,0:0|0:0,0:0:0:0:
406,133,190114,1,0,3:0:0:0:
293,301,190275,6,0,P|286:248|270:196,1,90,2|0,3:2|0:0,0:0:0:0:
426,295,190608,2,0,P|414:338|409:383,1,90,2|0,0:0|3:0,0:0:0:0:
197,177,190941,2,0,P|279:212|372:165,1,180,10|0,0:0|0:0,0:0:0:0:
407,96,191441,1,0,0:0:0:0:
331,24,191608,5,0,0:0:0:0:
457,193,191780,1,0,1:0:0:0:
273,118,191952,1,0,3:0:0:0:
479,32,192297,6,0,P|445:73|464:202,1,180,0|0,1:0|0:0,0:0:0:0:
408,311,192814,1,0,0:0:0:0:
299,230,192997,6,0,B|202:203|224:293|107:263,1,180,2|0,0:0|0:0,0:0:0:0:
38,216,194011,1,0,0:0:0:0:
139,156,194344,1,0,0:0:0:0:
38,96,194678,2,0,P|28:50|67:12,1,90,2|2,0:0|0:0,0:0:0:0:
154,27,195338,1,2,0:0:0:0:
154,27,195666,6,0,B|203:27|230:65|230:65|267:25|334:30,1,180,0|2,0:0|0:0,0:0:0:0:
320,203,196650,2,0,P|297:146|313:107,1,90,2|0,0:0|0:0,0:0:0:0:
405,43,197306,1,2,0:0:0:0:
421,216,197633,2,0,B|423:149|550:161|502:296|421:326,1,236.250009012223,8|0,0:0|0:0,0:0:0:0:
388,342,198291,6,0,P|316:324|259:364,1,135.000005149842,2|0,3:2|0:0,0:0:0:0:
80,248,198780,1,0,1:0:0:0:
150,296,198943,2,0,P|107:334|57:332,1,90,8|0,0:0|0:0,0:0:0:0:
6,200,199269,2,0,P|57:160|110:172,1,90,2|0,1:2|0:0,0:0:0:0:
205,205,199595,5,0,0:0:0:0:
152,80,199758,1,0,3:0:0:0:
328,252,199921,2,0,P|336:202|305:155,1,90,0|0,1:0|0:0,0:0:0:0:
152,80,200247,2,0,P|207:108|238:100,1,90,10|0,0:0|0:0,0:0:0:0:
334,67,200573,1,2,0:0:0:0:
223,203,200736,1,0,3:0:0:0:
409,125,200899,6,0,P|430:65|404:15,1,90,0|0,3:0|0:0,0:0:0:0:
507,289,201225,2,0,P|512:244|492:205,1,90,0|0,0:0|1:0,0:0:0:0:
330,327,201551,1,8,0:0:0:0:
412,263,201714,1,0,3:0:0:0:
317,211,201877,2,0,P|254:232|188:177,1,135,0|0,1:0|0:0,0:0:0:0:
158,121,202204,5,2,0:0:0:0:
273,114,202367,1,0,3:0:0:0:
177,349,202530,2,0,P|122:323|68:339,1,90,0|0,1:0|0:0,0:0:0:0:
7,130,202856,2,0,B|50:173|50:173|180:157,1,180,10|0,0:0|0:0,0:0:0:0:
131,7,203508,6,0,P|91:63|108:96,1,90,2|0,3:2|0:0,0:0:0:0:
204,228,203834,2,0,P|202:184|167:157,1,90,0|0,0:0|1:0,0:0:0:0:
49,273,204160,1,8,0:0:0:0:
2,163,204323,1,0,0:0:0:0:
160,310,204486,2,0,P|116:368|127:409,1,90,0|0,1:0|0:0,0:0:0:0:
123,160,204812,6,0,P|171:202|238:192,1,135
300,114,205138,2,0,P|295:66|280:5,1,90,2|0,1:2|0:0,0:0:0:0:
409,183,205464,2,0,P|399:226|395:271,1,90,10|0,0:0|0:0,0:0:0:0:
482,111,205791,1,2,0:0:0:0:
307,210,205954,1,0,3:0:0:0:
461,22,206117,6,0,B|404:14|404:14|345:35|345:35|273:23,1,180,0|0,3:2|0:0,0:0:0:0:
59,79,206769,2,0,P|61:27|101:2,1,90,10|0,1:2|0:0,0:0:0:0:
195,92,207095,2,0,P|174:141|174:182,2,90,2|0|0,3:2|0:0|0:0,0:0:0:0:
0,280,207584,1,0,3:0:0:0:
35,168,207747,2,0,P|89:231|70:346,1,180,2|8,1:2|0:0,0:0:0:0:
169,381,208236,1,0,0:0:0:0:
257,315,208399,2,0,P|246:248|279:220,1,90,2|0,3:2|3:0,0:0:0:0:
151,123,208725,6,0,B|243:148|215:95|340:115,1,180,2|0,3:2|0:0,0:0:0:0:
136,42,209377,2,0,P|158:76|142:133,1,90,8|0,1:2|0:0,0:0:0:0:
50,276,209704,2,0,P|41:232|64:195,1,90,0|0,3:0|0:0,0:0:0:0:
171,360,210030,5,2,0:0:0:0:
136,245,210193,1,0,3:0:0:0:
246,284,210356,1,2,1:2:0:0:
262,153,210519,1,0,0:0:0:0:
352,240,210682,2,0,P|399:228|472:227,1,90,10|0,0:0|0:0,0:0:0:0:
512,99,211008,2,0,P|467:95|423:83,1,90,2|0,1:2|3:0,0:0:0:0:
256,0,211334,6,0,P|284:54|281:185,1,180,0|0,3:0|0:0,0:0:0:0:
187,203,211823,1,0,3:0:0:0:
281,287,211986,1,0,1:0:0:0:
192,352,212149,1,0,3:0:0:0:
109,141,212312,2,0,P|159:104|207:114,1,90,0|0,3:0|0:0,0:0:0:0:
465,185,212638,6,0,P|377:176|276:170,1,180,2|0,0:2|3:0,0:0:0:0:
78,376,213291,1,8,0:0:0:0:
19,237,213455,1,8,0:0:0:0:
176,320,213618,2,0,B|223:340|223:340|311:324,1,135,8|0,1:2|0:0,0:0:0:0:
371,248,213943,6,0,P|314:217|265:250,1,90,2|0,3:2|0:0,0:0:0:0:
266,107,214269,2,0,P|215:123|189:169,1,90,0|0,0:0|1:0,0:0:0:0:
104,384,214595,2,0,P|103:290|63:185,1,180,8|0,0:0|1:0,0:0:0:0:
11,308,215084,1,0,0:0:0:0:
39,95,215247,6,0,P|75:121|131:110,1,90,0|0,0:0|3:0,0:0:0:0:
247,16,215573,2,0,P|216:84|227:126,1,90,2|0,1:2|0:0,0:0:0:0:
359,199,215899,2,0,P|354:154|329:118,1,90,10|0,0:2|0:0,0:0:0:0:
171,270,216225,1,2,0:0:0:0:
250,195,216388,1,0,3:0:0:0:
64,194,216551,6,0,B|43:300|105:255|82:382,1,180,0|2,3:0|0:0,0:0:0:0:
0,335,217041,1,0,1:0:0:0:
154,229,217204,1,8,0:0:0:0:
87,114,217367,1,0,3:0:0:0:
154,229,217530,2,0,P|213:202|264:223,1,90,2|0,1:2|0:0,0:0:0:0:
424,264,217856,6,0,P|366:274|323:242,2,90,0|0|0,3:0|0:0|3:0,0:0:0:0:
176,302,218345,1,0,0:0:0:0:
259,378,218508,2,0,P|267:294|225:191,1,180,10|0,1:2|0:0,0:0:0:0:
432,120,218997,1,0,3:0:0:0:
316,127,219160,6,0,P|322:68|347:28,2,90,2|0|0,0:0|0:0|0:0,0:0:0:0:
476,311,219649,1,0,1:0:0:0:
472,208,219812,2,0,P|430:208|395:245,1,90,8|0,0:0|0:0,0:0:0:0:
389,381,220138,2,0,P|336:341|224:369,1,180,2|0,1:2|0:0,0:0:0:0:
136,303,220627,5,0,3:0:0:0:
182,180,220791,2,0,P|224:232|208:284,1,90,2|0,1:2|0:0,0:0:0:0:
46,372,221117,2,0,P|33:297|47:278,1,90,8|0,0:0|0:0,0:0:0:0:
89,198,221443,1,2,0:0:0:0:
58,15,221606,1,0,0:0:0:0:
2,89,221769,6,0,P|59:109|145:22,1,180,0|0,3:2|0:0,0:0:0:0:
300,156,222258,1,0,1:0:0:0:
230,231,222421,2,0,P|180:195|178:147,1,90,8|0,0:0|3:0,0:0:0:0:
363,230,222747,2,0,P|413:194|415:146,1,90,0|0,1:0|0:0,0:0:0:0:
255,59,223073,5,0,0:0:0:0:
300,156,223236,1,0,1:0:0:0:
465,73,223399,2,0,P|420:63|367:55,1,90,2|0,3:2|0:0,0:0:0:0:
274,246,223725,2,0,P|318:236|372:228,1,90,8|0,1:2|0:0,0:0:0:0:
487,182,224051,1,2,0:0:0:0:
487,182,224214,1,0,3:0:0:0:
240,71,224377,6,0,P|270:160|268:280,1,180,2|0,3:2|0:0,0:0:0:0:
68,380,225030,2,0,P|85:313|125:325,1,90,10|0,1:2|3:0,0:0:0:0:
340,314,225356,6,0,P|285:352|191:305,1,180,2|0,3:2|0:0,0:0:0:0:
137,224,225845,1,0,3:0:0:0:
205,132,226008,2,0,P|268:115|323:109,1,90,0|0,1:0|0:0,0:0:0:0:
120,57,226334,2,0,P|75:49|32:36,1,90,10|0,0:0|0:0,0:0:0:0:
220,25,226660,1,2,0:0:0:0:
112,161,226823,1,0,3:0:0:0:
340,22,226986,6,0,P|309:126|313:216,1,180,0|0,3:0|0:0,0:0:0:0:
507,283,227638,2,0,P|453:280|452:308,1,90,10|0,1:2|3:0,0:0:0:0:
257,374,227964,2,0,P|325:360|341:337,1,90,0|0,3:0|0:0,0:0:0:0:
362,238,228291,5,2,0:0:0:0:
267,288,228454,1,0,3:0:0:0:
374,126,228617,1,2,1:2:0:0:
276,172,228780,1,0,0:0:0:0:
453,179,228943,2,0,P|468:111|451:80,1,90,10|0,0:0|0:0,0:0:0:0:
280,2,229269,2,0,P|271:45|288:86,1,90,2|0,0:0|3:0,0:0:0:0:
435,267,229595,6,0,B|381:243|381:243|262:273,1,180,0|0,3:0|0:0,0:0:0:0:
164,207,230084,1,0,1:0:0:0:
263,168,230247,1,8,0:0:0:0:
150,329,230410,1,0,3:0:0:0:
95,162,230573,2,0,P|165:210|164:243,1,90,0|0,1:0|0:0,0:0:0:0:
41,365,230899,6,0,P|29:302|18:263,2,90,0|0|0,3:0|3:0|1:0,0:0:0:0:
150,329,231388,1,0,3:0:0:0:
9,137,231551,2,0,P|91:155|161:86,1,180,8|0,0:0|0:0,0:0:0:0:
362,66,232041,1,0,3:0:0:0:
281,4,232204,6,0,P|257:54|272:91,1,90,0|0,3:0|0:0,0:0:0:0:
365,247,232530,2,0,P|374:203|350:166,1,90,0|0,0:0|1:0,0:0:0:0:
253,175,232856,1,8,0:0:0:0:
362,66,233019,1,0,3:0:0:0:
166,71,233182,2,0,P|111:60|56:51,1,90,0|0,1:0|0:0,0:0:0:0:
1,289,233508,6,0,P|89:269|181:254,1,180,2|0,0:0|3:0,0:0:0:0:
207,159,233997,1,0,0:0:0:0:
207,159,234160,2,0,P|277:164|315:169,1,90,10|0,1:2|0:0,0:0:0:0:
364,243,234486,2,0,P|408:239|453:233,1,90,2|0,0:0|0:0,0:0:0:0:
512,154,234861,5,2,0:0:0:0:
