osu file format v14

[General]
AudioFilename: audio.ogg
AudioLeadIn: 0
PreviewTime: 129402
Countdown: 0
SampleSet: Soft
StackLeniency: 0.7
Mode: 3
LetterboxInBreaks: 0
SpecialStyle: 0
WidescreenStoryboard: 1

[Editor]
DistanceSpacing: 1
BeatDivisor: 4
GridSize: 32
TimelineZoom: 0.5

[Metadata]
Title:dreamy night
TitleUnicode:dreamy night
Artist:LilyPichu
ArtistUnicode:LilyPichu
Creator:HimitsuHiketsu
Version:ucitysm's normal
Source:
Tags:mappers' guild mg fa featured artist hip hop pop lofi english offlinetv twitch streamer comfi beats comfibeats rezyon yungi chang zorsy megan shipman gwinshin indoroid tigerinity ucitysm
BeatmapID:4062454
BeatmapSetID:1960341

[Difficulty]
HPDrainRate:7.5
CircleSize:4
OverallDifficulty:7.5
ApproachRate:5
SliderMultiplier:1.4
SliderTickRate:1

[Events]
//Background and Video events
0,0,"bg.jpg",0,0
//Break Periods
//Storyboard Layer 0 (Background)
//Storyboard Layer 1 (Fail)
//Storyboard Layer 2 (Pass)
//Storyboard Layer 3 (Foreground)
//Storyboard Layer 4 (Overlay)
//Storyboard Sound Samples
Sample,965,0,"F6.wav",50
Sample,1617,0,"C6.wav",50
Sample,2269,0,"G#5.wav",50
Sample,2921,0,"F5.wav",50
Sample,44794,0,"F4_alt.wav",20
Sample,45120,0,"G#4_alt.wav",20
Sample,45446,0,"C5_alt.wav",20
Sample,45772,0,"D#5_alt.wav",20
Sample,46098,0,"G5_alt.wav",20
Sample,46750,0,"C5_alt.wav",20
Sample,47402,0,"A#4_alt.wav",20
Sample,47728,0,"D5_alt.wav",20
Sample,48054,0,"F5_alt.wav",20
Sample,48707,0,"D6_alt.wav",20
Sample,49359,0,"F5_alt.wav",20
Sample,49685,0,"D5_alt.wav",20
Sample,50011,0,"G4_alt.wav",20
Sample,50337,0,"A#4_alt.wav",20
Sample,50663,0,"D#5_alt.wav",20
Sample,51315,0,"A#5_alt.wav",20
Sample,51641,0,"G5_alt.wav",20
Sample,51967,0,"D#5_alt.wav",20
Sample,52620,0,"C5_alt.wav",20
Sample,52946,0,"D#5_alt.wav",20
Sample,53272,0,"G5_alt.wav",20
Sample,53598,0,"C6_alt.wav",20
Sample,53924,0,"D#6_alt.wav",20
Sample,54250,0,"C6_alt.wav",20
Sample,54576,0,"G5_alt.wav",20
Sample,54902,0,"D#5_alt.wav",20
Sample,55228,0,"F4_alt.wav",20
Sample,55554,0,"G#4_alt.wav",20
Sample,55880,0,"C5_alt.wav",20
Sample,56207,0,"F5_alt.wav",20
Sample,56533,0,"C6_alt.wav",20
Sample,57185,0,"F5_alt.wav",20
Sample,57837,0,"G4_alt.wav",20
Sample,58163,0,"B4_alt.wav",20
Sample,58489,0,"D5_alt.wav",20
Sample,59141,0,"B5_alt.wav",20
Sample,59793,0,"D5_alt.wav",20
Sample,60446,0,"C5_alt.wav",20
Sample,60772,0,"D#5_alt.wav",20
Sample,61098,0,"G5_alt.wav",20
Sample,61424,0,"C6_alt.wav",20
Sample,61750,0,"D#6_alt.wav",20
Sample,62402,0,"D5_alt.wav",20
Sample,63054,0,"D#5_alt.wav",20
Sample,63380,0,"G5_alt.wav",20
Sample,63707,0,"A#5_alt.wav",20
Sample,64033,0,"D#6_alt.wav",20
Sample,64359,0,"G6_alt.wav",20
Sample,64685,0,"G5_alt.wav",20
Sample,65011,0,"A#5_alt.wav",20
Sample,65337,0,"D#6_alt.wav",20
Sample,65663,0,"G#4_alt.wav",20
Sample,65989,0,"C5_alt.wav",20
Sample,66315,0,"D#5_alt.wav",20
Sample,66641,0,"G5_alt.wav",20
Sample,66967,0,"C6_alt.wav",20
Sample,67620,0,"D#5_alt.wav",20
Sample,68272,0,"A#4_alt.wav",20
Sample,68924,0,"F5_alt.wav",20
Sample,69576,0,"D6_alt.wav",20
Sample,69902,0,"A#5_alt.wav",20
Sample,70228,0,"F5_alt.wav",20
Sample,70554,0,"D5_alt.wav",20
Sample,70880,0,"G4_alt.wav",20
Sample,71207,0,"A#4_alt.wav",20
Sample,71533,0,"D5_alt.wav",20
Sample,72837,0,"D5_alt.wav",20
Sample,73489,0,"G#4_alt.wav",20
Sample,73815,0,"D#5_alt.wav",20
Sample,74141,0,"G5_alt.wav",20
Sample,74467,0,"A#5_alt.wav",20
Sample,74793,0,"C#6_alt.wav",20
Sample,75446,0,"G5_alt.wav",20
Sample,76098,0,"F4_alt.wav",20
Sample,76424,0,"G#4_alt.wav",20
Sample,76750,0,"C5_alt.wav",20
Sample,77402,0,"G5_alt.wav",20
Sample,77728,0,"D#5_alt.wav",20
Sample,78054,0,"C5_alt.wav",20
Sample,78707,0,"G4_alt.wav",20
Sample,79033,0,"B4_alt.wav",20
Sample,79359,0,"D5_alt.wav",20
Sample,80011,0,"B5_alt.wav",20
Sample,80663,0,"D5_alt.wav",20
Sample,81315,0,"C6.wav",50
Sample,81315,0,"C6_alt.wav",20
Sample,81641,0,"G6.wav",50
Sample,81978,0,"C7.wav",50
Sample,82315,0,"D#7.wav",50
Sample,82641,0,"D6.wav",50
Sample,82967,0,"A#6.wav",50
Sample,83304,0,"D7.wav",50
Sample,83652,0,"F7.wav",50
Sample,84013,0,"D#6.wav",50
Sample,84397,0,"A#6.wav",50
Sample,84851,0,"D#7.wav",50
Sample,85439,0,"G7.wav",50
Sample,86276,0,"E6.wav",50
Sample,88871,0,"C5.wav",20
Sample,88871,0,"G#4.wav",20
Sample,91479,0,"F4.wav",20
Sample,91479,0,"A#4.wav",20
Sample,91479,0,"D4.wav",20
Sample,94088,0,"A#3.wav",20
Sample,94088,0,"G4.wav",20
Sample,94088,0,"D4.wav",20
Sample,96697,0,"C4.wav",20
Sample,96697,0,"D#4.wav",20
Sample,96697,0,"G#3.wav",20
Sample,99305,0,"F4.wav",20
Sample,99305,0,"G#4.wav",20
Sample,99305,0,"C5.wav",20
Sample,101914,0,"F4.wav",20
Sample,101914,0,"A#4.wav",20
Sample,101914,0,"D4.wav",20
Sample,104523,0,"A#3.wav",20
Sample,104523,0,"D4.wav",20
Sample,104523,0,"G4.wav",20
Sample,107131,0,"E4.wav",20
Sample,107131,0,"G4.wav",20
Sample,107131,0,"C4.wav",20
Sample,109740,0,"F4.wav",20
Sample,109740,0,"G#4.wav",20
Sample,109740,0,"C5.wav",20
Sample,112349,0,"A#4.wav",20
Sample,112349,0,"F4.wav",20
Sample,112349,0,"D4.wav",20
Sample,114957,0,"A#3.wav",20
Sample,114957,0,"G4.wav",20
Sample,114957,0,"D4.wav",20
Sample,117566,0,"D#4.wav",20
Sample,117566,0,"C4.wav",20
Sample,117566,0,"G#3.wav",20
Sample,120175,0,"F4.wav",20
Sample,120175,0,"C5.wav",20
Sample,120175,0,"G#4.wav",20
Sample,122784,0,"F4.wav",20
Sample,122784,0,"A#4.wav",20
Sample,122784,0,"D4.wav",20
Sample,125392,0,"A#3.wav",20
Sample,125392,0,"G4.wav",20
Sample,125392,0,"D4.wav",20
Sample,125881,0,"kick.wav",50
Sample,130610,0,"F4_alt.wav",20
Sample,130936,0,"G#4_alt.wav",20
Sample,131588,0,"D#5_alt.wav",20
Sample,131914,0,"G5_alt.wav",20
Sample,132240,0,"D#5_alt.wav",20
Sample,133218,0,"A#4_alt.wav",20
Sample,133544,0,"D5_alt.wav",20
Sample,134197,0,"A#5_alt.wav",20
Sample,134523,0,"D6_alt.wav",20
Sample,134849,0,"A#5_alt.wav",20
Sample,135501,0,"D5_alt.wav",20
Sample,135827,0,"G4_alt.wav",20
Sample,136153,0,"A#4_alt.wav",20
Sample,136805,0,"G5_alt.wav",20
Sample,137131,0,"A#5_alt.wav",20
Sample,137457,0,"G5_alt.wav",20
Sample,138436,0,"C5_alt.wav",20
Sample,138762,0,"D#5_alt.wav",20
Sample,139414,0,"C6_alt.wav",20
Sample,140066,0,"C6_alt.wav",20
Sample,140718,0,"D#5_alt.wav",20
Sample,141044,0,"F4_alt.wav",20
Sample,141370,0,"G#4_alt.wav",20
Sample,142023,0,"F5_alt.wav",20
Sample,142349,0,"C6_alt.wav",20
Sample,142675,0,"G#5_alt.wav",20
Sample,143653,0,"G4_alt.wav",20
Sample,143979,0,"B4_alt.wav",20
Sample,144631,0,"G5_alt.wav",20
Sample,144957,0,"B5_alt.wav",20
Sample,145284,0,"G5_alt.wav",20
Sample,146588,0,"D#5_alt.wav",20
Sample,147240,0,"C6_alt.wav",20
Sample,147892,0,"C6_alt.wav",20
Sample,148870,0,"D#5_alt.wav",20
Sample,149197,0,"G5_alt.wav",20
Sample,149849,0,"D#6_alt.wav",20
Sample,150501,0,"G5_alt.wav",20
Sample,151153,0,"D#6_alt.wav",20
Sample,151479,0,"G#4_alt.wav",20
Sample,151805,0,"C5_alt.wav",20
Sample,152457,0,"G5_alt.wav",20
Sample,152784,0,"C6_alt.wav",20
Sample,153110,0,"G5_alt.wav",20
Sample,154088,0,"A#4_alt.wav",20
Sample,155066,0,"A#5_alt.wav",20
Sample,155392,0,"D6_alt.wav",20
Sample,155718,0,"A#5_alt.wav",20
Sample,156370,0,"D5_alt.wav",20
Sample,156697,0,"G4_alt.wav",20
Sample,157023,0,"A#4_alt.wav",20
Sample,157675,0,"G5_alt.wav",20
Sample,158327,0,"A#5_alt.wav",20
Sample,159305,0,"G#4_alt.wav",20
Sample,159631,0,"D#5_alt.wav",20
Sample,160284,0,"A#5_alt.wav",20
Sample,160610,0,"C#6_alt.wav",20
Sample,160936,0,"A#5_alt.wav",20
Sample,161914,0,"F4_alt.wav",20
Sample,162240,0,"G#4_alt.wav",20
Sample,162892,0,"D#5_alt.wav",20
Sample,163218,0,"G5_alt.wav",20
Sample,163544,0,"D#5_alt.wav",20
Sample,164523,0,"G4_alt.wav",20
Sample,164849,0,"B4_alt.wav",20
Sample,165501,0,"F5_alt.wav",20
Sample,166153,0,"F5_alt.wav",20
Sample,172293,0,"A#6.wav",50
Sample,172771,0,"D#7.wav",50
Sample,173330,0,"G#6.wav",50
Sample,173490,0,"G#6.wav",50
Sample,175803,0,"F6.wav",50
Sample,177040,0,"C#7.wav",50
Sample,177399,0,"A#6.wav",50
Sample,179048,0,"F7.wav",50
Sample,179952,0,"kick.wav",50
Sample,180471,0,"C#7.wav",50
Sample,180750,0,"G#6.wav",50
Sample,181495,0,"F6.wav",50
Sample,184341,0,"F#6.wav",50
Sample,184620,0,"F#6.wav",50
Sample,184779,0,"G6.wav",50
Sample,184939,0,"G#6.wav",50
Sample,185059,0,"A#6.wav",50
Sample,185591,0,"D#7.wav",50
Sample,185777,0,"F7.wav",50
Sample,186495,0,"G#7.wav",50
Sample,188569,0,"F7.wav",50
Sample,189210,0,"A#6.wav",50
Sample,190178,0,"C#6.wav",50
Sample,193240,0,"G#4_alt.wav",20
Sample,193581,0,"C5_alt.wav",20
Sample,193914,0,"D#5_alt.wav",20
Sample,194247,0,"G5_alt.wav",20
Sample,195569,0,"A#4_alt.wav",20
Sample,195897,0,"D5_alt.wav",20
Sample,196225,0,"F5_alt.wav",20
Sample,196881,0,"D6_alt.wav",20
Sample,198194,0,"G4_alt.wav",20
Sample,198520,0,"A#4_alt.wav",20
Sample,199172,0,"G5_alt.wav",20
Sample,199498,0,"A#5_alt.wav",20
Sample,199824,0,"G5_alt.wav",20
Sample,200802,0,"C5_alt.wav",20
Sample,201128,0,"D#5_alt.wav",20
Sample,201780,0,"C6_alt.wav",20
Sample,202433,0,"C6_alt.wav",20
Sample,203085,0,"D#5_alt.wav",20
Sample,203411,0,"F4_alt.wav",20
Sample,203737,0,"G#4_alt.wav",20
Sample,204389,0,"F5_alt.wav",20
Sample,204715,0,"C6_alt.wav",20
Sample,205041,0,"G#5_alt.wav",20
Sample,206020,0,"G4_alt.wav",20
Sample,206346,0,"B4_alt.wav",20
Sample,206998,0,"G5_alt.wav",20
Sample,207324,0,"B5_alt.wav",20
Sample,207650,0,"G5_alt.wav",20
Sample,208954,0,"D#5_alt.wav",20
Sample,209607,0,"C6_alt.wav",20
Sample,210259,0,"C6_alt.wav",20
Sample,211237,0,"D#5_alt.wav",20
Sample,211563,0,"G5_alt.wav",20
Sample,212215,0,"D#6_alt.wav",20
Sample,212867,0,"G5_alt.wav",20
Sample,213520,0,"D#6_alt.wav",20
Sample,213846,0,"G#4_alt.wav",20
Sample,214172,0,"C5_alt.wav",20
Sample,214824,0,"G5_alt.wav",20
Sample,215150,0,"C6_alt.wav",20
Sample,215476,0,"G5_alt.wav",20
Sample,216454,0,"A#4_alt.wav",20
Sample,217433,0,"A#5_alt.wav",20
Sample,217759,0,"D6_alt.wav",20
Sample,218085,0,"A#5_alt.wav",20
Sample,218737,0,"D5_alt.wav",20
Sample,219063,0,"G4_alt.wav",20
Sample,219389,0,"A#4_alt.wav",20
Sample,220041,0,"G5_alt.wav",20
Sample,220694,0,"A#5_alt.wav",20
Sample,221672,0,"G#4_alt.wav",20
Sample,221998,0,"D#5_alt.wav",20
Sample,222650,0,"A#5_alt.wav",20
Sample,222976,0,"C#6_alt.wav",20
Sample,223302,0,"A#5_alt.wav",20
Sample,224280,0,"F4_alt.wav",20
Sample,224607,0,"G#4_alt.wav",20
Sample,225259,0,"D#5_alt.wav",20
Sample,225585,0,"G5_alt.wav",20
Sample,225911,0,"D#5_alt.wav",20
Sample,226889,0,"G4_alt.wav",20
Sample,227215,0,"B4_alt.wav",20
Sample,227867,0,"F5_alt.wav",20
Sample,228520,0,"F5_alt.wav",20

[TimingPoints]
476,652.173913043478,4,2,1,25,1,0
44171,618.556701030928,4,2,1,25,1,0
44171,-105.263157894737,4,2,1,25,0,0
44794,652.173913043478,4,2,1,25,1,0
81641,674.157303370787,4,2,1,25,1,0
81641,-97.0873786407767,4,2,1,25,0,0
82315,652.173913043478,4,2,1,25,1,0
82967,674.157303370787,4,2,1,25,1,0
82967,-97.0873786407767,4,2,1,25,0,0
83304,697.674418604651,4,2,1,25,1,0
83304,-93.4579439252336,4,2,1,25,0,0
83652,722.89156626506,4,2,1,25,1,0
83652,-90.0900900900901,4,2,1,25,0,0
84013,769.230769230769,4,2,1,25,1,0
84013,-84.7457627118644,4,2,1,25,0,0
84397,909.090909090909,4,2,1,25,1,0
84397,-71.9424460431655,4,2,1,25,0,0
84851,1176.47058823529,4,2,1,25,1,0
84851,-55.5555555555556,4,2,1,25,0,0
86276,1176.47058823529,4,2,1,25,1,0
86276,-55.5555555555556,4,2,1,25,0,0
88871,652.173913043478,4,2,1,25,1,0
130610,-100,4,2,1,25,0,1
169740,638.297872340426,4,2,1,25,1,1
169740,-102.040816326531,4,2,1,25,0,1
172293,-102.040816326531,4,2,1,25,0,0
188888,645.161290322581,4,2,1,25,1,0
188888,-101.010101010101,4,2,1,25,0,0
190178,666.666666666667,4,2,1,25,1,0
190178,-98.0392156862745,4,2,1,25,0,0
191511,689.655172413793,4,2,1,25,1,0
191511,-94.3396226415094,4,2,1,25,0,0
192900,681.818181818182,4,2,1,25,1,0
192900,-95.2380952380952,4,2,1,25,0,0
193581,666.666666666667,4,2,1,25,1,0
193581,-98.0392156862745,4,2,1,25,0,0
194914,655.737704918033,4,2,1,25,1,0
194914,-99.009900990099,4,2,1,25,0,0
198194,652.173913043478,4,2,1,25,1,1
234764,714.285714285714,4,2,1,25,1,0
234764,-90.9090909090909,4,2,1,25,0,0
237621,689.655172413793,4,2,1,25,1,0
237621,-94.3396226415094,4,2,1,25,0,0
239000,857.142857142857,4,2,1,25,1,0
239000,-76.3358778625954,4,2,1,25,0,0

[HitObjects]
320,192,476,5,0,0:0:0:50:D#7.wav
64,192,639,1,0,0:0:0:50:C7.wav
448,192,802,1,0,0:0:0:50:G#6.wav
192,192,1128,1,0,0:0:0:50:C7.wav
448,192,1291,1,0,0:0:0:50:G#6.wav
320,192,1454,1,0,0:0:0:50:F6.wav
64,192,1780,1,0,0:0:0:50:G#6.wav
320,192,1943,1,0,0:0:0:50:F6.wav
192,192,2106,1,0,0:0:0:50:C6.wav
448,192,2432,1,0,0:0:0:50:F6.wav
192,192,2595,1,0,0:0:0:50:C6.wav
64,192,2758,1,0,0:0:0:50:G#5.wav
320,192,3084,1,0,0:0:0:0:
320,192,3736,1,0,0:0:0:0:
448,192,4225,1,0,0:0:0:0:
64,192,4715,1,0,0:0:0:0:
448,192,5041,128,0,5367:0:0:0:0:
192,192,5367,1,0,0:0:0:0:
64,192,5530,128,0,6019:0:0:0:0:
320,192,6019,1,0,0:0:0:0:
448,192,7975,1,0,0:0:0:0:
320,192,8139,1,0,0:0:0:0:
64,192,8302,128,0,8628:0:0:0:0:
448,192,8628,1,0,0:0:0:0:
192,192,8954,128,0,9280:0:0:0:0:
64,192,9280,1,0,0:0:0:0:
320,192,9606,128,0,9932:0:0:0:0:
448,192,9932,128,0,10584:0:0:0:0:
192,192,10584,1,0,0:0:0:0:
64,192,10910,1,0,0:0:0:0:
320,192,12867,1,0,0:0:0:0:
192,192,13030,1,0,0:0:0:0:
448,192,13356,1,0,0:0:0:0:
64,192,13519,1,0,0:0:0:0:
320,192,14171,1,0,0:0:0:0:
448,192,14497,128,0,14823:0:0:0:0:
192,192,14823,1,0,0:0:0:0:
64,192,15149,128,0,15475:0:0:0:0:
448,192,15475,128,0,15802:0:0:0:0:
320,192,15802,128,0,16454:0:0:0:0:
192,192,16454,1,0,0:0:0:0:
448,192,17758,128,0,18084:0:0:0:0:
192,192,18084,1,0,0:0:0:0:
64,192,18247,1,0,0:0:0:0:
320,192,18573,1,0,0:0:0:0:
192,192,18736,1,0,0:0:0:0:
448,192,19062,1,0,0:0:0:0:
64,192,19389,128,0,19715:0:0:0:0:
448,192,19715,1,0,0:0:0:0:
192,192,20041,1,0,0:0:0:0:
320,192,20367,1,0,0:0:0:0:
448,192,20693,128,0,21019:0:0:0:0:
192,192,21019,128,0,21345:0:0:0:0:
320,192,21345,1,0,0:0:0:0:
64,192,21997,1,0,0:0:0:0:
192,192,22323,128,0,22975:0:0:0:0:
448,192,22975,1,0,0:0:0:0:
64,192,23628,128,0,23954:0:0:0:0:
448,192,23954,128,0,24280:0:0:0:0:
192,192,24280,1,0,0:0:0:0:
64,192,24606,128,0,24932:0:0:0:0:
320,192,24932,128,0,25258:0:0:0:0:
448,192,25258,1,0,0:0:0:0:
64,192,25584,1,0,0:0:0:0:
192,192,25910,128,0,26236:0:0:0:0:
320,192,26236,1,0,0:0:0:0:
448,192,26562,128,0,26889:0:0:0:0:
64,192,26889,1,0,0:0:0:0:
320,192,27215,128,0,27541:0:0:0:0:
192,192,27541,128,0,27867:0:0:0:0:
64,192,27867,1,0,0:0:0:0:
448,192,28193,1,0,0:0:0:0:
192,192,28519,128,0,28845:0:0:0:0:
64,192,28845,1,0,0:0:0:0:
448,192,29171,128,0,29823:0:0:0:0:
192,192,29823,1,0,0:0:0:0:
64,192,30149,128,0,30475:0:0:0:0:
320,192,30802,128,0,31128:0:0:0:0:
192,192,31454,128,0,31780:0:0:0:0:
448,192,31780,1,0,0:0:0:0:
320,192,34389,128,0,35693:0:0:0:0:
64,192,35693,128,0,36997:0:0:0:0:
448,192,36997,128,0,38302:0:0:0:0:
192,192,38302,128,0,39606:0:0:0:0:
64,192,39606,128,0,42215:0:0:0:0:
448,192,42215,1,0,0:0:0:0:
64,192,43519,128,0,43845:0:0:0:0:
192,192,44171,128,0,44794:0:0:0:0:
320,192,44794,128,0,46098:0:0:0:50:kick2.wav
64,192,45446,1,0,0:0:0:50:kick2.wav
448,192,46098,1,0,0:0:0:50:kick2.wav
64,192,46424,128,0,46750:0:0:0:20:D#5_alt.wav
192,192,46750,128,0,47076:0:0:0:50:kick2.wav
448,192,47076,128,0,47728:0:0:0:20:G#4_alt.wav
64,192,47402,1,0,0:0:0:50:kick2.wav
320,192,48054,128,0,48380:0:0:0:50:kick2.wav
192,192,48380,128,0,48707:0:0:0:20:A#5_alt.wav
448,192,48707,1,0,0:0:0:50:kick2.wav
64,192,49033,128,0,49359:0:0:0:20:A#5_alt.wav
320,192,49359,1,0,0:0:0:50:kick2.wav
448,192,50011,128,0,50663:0:0:0:50:kick2.wav
192,192,50663,1,0,0:0:0:50:kick2.wav
64,192,50989,128,0,51641:0:0:0:20:G5_alt.wav
320,192,51315,1,0,0:0:0:50:kick2.wav
448,192,51967,128,0,52294:0:0:0:50:kick2.wav
64,192,52294,128,0,52946:0:0:0:20:A#4_alt.wav
320,192,52620,1,0,0:0:0:50:kick2.wav
192,192,53272,1,0,0:0:0:50:kick2.wav
64,192,53924,128,0,54576:0:0:0:50:kick2.wav
320,192,54576,128,0,55228:0:0:0:50:kick2.wav
448,192,55228,128,0,56533:0:0:0:50:kick2.wav
64,192,55880,1,0,0:0:0:50:kick2.wav
192,192,56533,1,0,0:0:0:50:kick2.wav
64,192,56859,128,0,57185:0:0:0:20:G#5_alt.wav
320,192,57185,128,0,57511:0:0:0:50:kick2.wav
448,192,57511,128,0,58163:0:0:0:20:C5_alt.wav
192,192,57837,1,0,0:0:0:50:kick2.wav
320,192,58489,128,0,58815:0:0:0:50:kick2.wav
192,192,58815,128,0,59141:0:0:0:20:G5_alt.wav
448,192,59141,1,0,0:0:0:50:kick2.wav
64,192,59467,128,0,59793:0:0:0:20:G5_alt.wav
448,192,59793,1,0,0:0:0:50:kick2.wav
320,192,60120,128,0,60446:0:0:0:20:B4_alt.wav
192,192,60446,128,0,61098:0:0:0:50:kick2.wav
448,192,61098,1,0,0:0:0:50:kick2.wav
192,192,61750,128,0,62076:0:0:0:50:kick2.wav
64,192,62076,128,0,62402:0:0:0:20:C6_alt.wav
320,192,62402,128,0,62728:0:0:0:50:kick2.wav
448,192,62728,128,0,63707:0:0:0:20:F5_alt.wav
64,192,63054,1,0,0:0:0:50:kick2.wav
192,192,63707,1,0,0:0:0:50:kick2.wav
320,192,64359,128,0,64685:0:0:0:50:kick2.wav
192,192,65011,128,0,65663:0:0:0:50:kick2.wav
448,192,65663,128,0,66641:0:0:0:50:kick2.wav
64,192,66315,1,0,0:0:0:50:kick2.wav
320,192,66967,1,0,0:0:0:50:kick2.wav
192,192,67294,128,0,67620:0:0:0:20:G5_alt.wav
320,192,67620,128,0,67946:0:0:0:50:kick2.wav
448,192,67946,128,0,68598:0:0:0:20:C5_alt.wav
64,192,68272,1,0,0:0:0:50:kick2.wav
192,192,68598,128,0,69250:0:0:0:20:D5_alt.wav
320,192,68924,1,0,0:0:0:50:kick2.wav
64,192,69250,128,0,69576:0:0:0:20:A#5_alt.wav
448,192,69576,1,0,0:0:0:50:kick2.wav
192,192,70228,128,0,70554:0:0:0:50:kick2.wav
64,192,70880,128,0,71533:0:0:0:50:kick2.wav
448,192,71533,128,0,71859:0:0:0:50:kick2.wav
192,192,71859,128,0,72511:0:0:0:20:G5_alt.wav
320,192,72185,1,0,0:0:0:50:kick2.wav
448,192,72511,128,0,72837:0:0:0:20:A#5_alt.wav
64,192,72837,1,0,0:0:0:50:kick2.wav
192,192,73163,128,0,74467:0:0:0:20:A#4_alt.wav
320,192,73489,1,0,0:0:0:50:kick2.wav
448,192,74141,1,0,0:0:0:50:kick2.wav
64,192,74793,1,0,0:0:0:50:kick2.wav
320,192,75120,128,0,75446:0:0:0:20:A#5_alt.wav
192,192,75446,128,0,75772:0:0:0:50:kick2.wav
64,192,75772,128,0,76098:0:0:0:20:C#5_alt.wav
448,192,76098,128,0,76750:0:0:0:50:kick2.wav
64,192,76750,128,0,77076:0:0:0:50:kick2.wav
192,192,77076,128,0,77728:0:0:0:20:D#5_alt.wav
320,192,77402,1,0,0:0:0:50:kick2.wav
448,192,78054,128,0,78380:0:0:0:50:kick2.wav
64,192,78380,128,0,79033:0:0:0:20:G#4_alt.wav
320,192,78707,1,0,0:0:0:50:kick2.wav
192,192,79359,128,0,79685:0:0:0:50:kick2.wav
64,192,79685,128,0,80011:0:0:0:20:F5_alt.wav
448,192,80011,128,0,80337:0:0:0:50:kick2.wav
192,192,80337,128,0,80663:0:0:0:20:F5_alt.wav
320,192,80663,128,0,80989:0:0:0:50:kick2.wav
448,192,80989,128,0,81641:0:0:0:20:B4_alt.wav
64,192,81315,1,0,0:0:0:50:kick2.wav
320,192,81641,1,0,0:0:0:20:G6_alt.wav
192,192,81978,1,0,0:0:0:20:C7_alt.wav
448,192,82315,1,0,0:0:0:20:D#7_alt.wav
64,192,82641,1,0,0:0:0:20:D6_alt.wav
192,192,82967,1,0,0:0:0:20:A#6_alt.wav
320,192,83304,1,0,0:0:0:20:D7_alt.wav
448,192,83652,1,0,0:0:0:20:F7_alt.wav
192,192,84013,1,0,0:0:0:20:D#6_alt.wav
64,192,84397,1,0,0:0:0:20:A#6_alt.wav
320,192,84851,1,0,0:0:0:20:D#7_alt.wav
448,192,85439,1,0,0:0:0:20:G7_alt.wav
192,192,86276,128,0,88040:0:0:0:20:C6_alt.wav
64,192,88871,1,0,0:0:0:50:kick.wav
320,192,88871,1,0,0:0:0:20:F4.wav
448,192,89197,128,0,89523:0:0:0:0:
64,192,89523,1,0,0:0:0:50:snare.wav
192,192,89523,1,0,0:0:0:0:
320,192,89686,1,0,0:0:0:0:
64,192,89849,128,0,90175:0:0:0:50:kick.wav
448,192,90175,128,0,90501:0:0:0:0:
192,192,90501,1,0,0:0:0:50:kick.wav
64,192,90664,1,0,0:0:0:0:
320,192,90827,1,0,0:0:0:50:snare.wav
448,192,90827,1,0,0:0:0:0:
192,192,91153,128,0,91479:0:0:0:0:
320,192,91479,128,0,91805:0:0:0:50:kick.wav
64,192,91805,1,0,0:0:0:0:
192,192,91968,1,0,0:0:0:50:kick2.wav
320,192,92131,1,0,0:0:0:50:snare.wav
448,192,92131,1,0,0:0:0:0:
64,192,92457,128,0,92784:0:0:0:50:kick.wav
320,192,92784,1,0,0:0:0:0:
192,192,92947,1,0,0:0:0:50:kick2.wav
448,192,93273,1,0,0:0:0:0:
64,192,93436,1,0,0:0:0:50:snare.wav
192,192,93436,1,0,0:0:0:0:
448,192,94088,1,0,0:0:0:50:kick.wav
192,192,94414,128,0,94740:0:0:0:0:
320,192,94740,128,0,95066:0:0:0:50:snare.wav
448,192,94740,1,0,0:0:0:0:
64,192,95066,128,0,95392:0:0:0:50:kick.wav
320,192,95718,128,0,96044:0:0:0:50:kick.wav
64,192,96044,1,0,0:0:0:50:snare.wav
192,192,96044,128,0,96371:0:0:0:0:
448,192,96371,128,0,96697:0:0:0:0:
64,192,96697,1,0,0:0:0:50:kick.wav
192,192,96860,1,0,0:0:0:0:
448,192,97023,1,0,0:0:0:0:
320,192,97186,1,0,0:0:0:50:kick2.wav
64,192,97349,128,0,97675:0:0:0:50:snare.wav
192,192,97349,1,0,0:0:0:0:
448,192,97675,128,0,98001:0:0:0:50:kick.wav
64,192,98001,1,0,0:0:0:0:
320,192,98164,1,0,0:0:0:50:snare.wav
448,192,98164,1,0,0:0:0:0:
192,192,98327,128,0,98653:0:0:0:50:kick.wav
320,192,98653,128,0,98979:0:0:0:50:snare.wav
448,192,98653,1,0,0:0:0:0:
64,192,98979,128,0,99305:0:0:0:0:
448,192,99305,1,0,0:0:0:50:kick.wav
320,192,99631,128,0,99957:0:0:0:0:
64,192,99957,1,0,0:0:0:50:snare.wav
192,192,99957,1,0,0:0:0:0:
448,192,100121,1,0,0:0:0:0:
192,192,100284,128,0,100610:0:0:0:50:kick.wav
320,192,100610,128,0,100936:0:0:0:0:
64,192,100936,1,0,0:0:0:50:kick.wav
192,192,101099,1,0,0:0:0:0:
320,192,101262,1,0,0:0:0:50:snare.wav
448,192,101262,1,0,0:0:0:0:
64,192,101751,1,0,0:0:0:50:kick2.wav
448,192,101914,1,0,0:0:0:50:kick.wav
192,192,102077,1,0,0:0:0:0:
320,192,102240,1,0,0:0:0:0:
448,192,102403,1,0,0:0:0:50:kick2.wav
64,192,102566,1,0,0:0:0:50:snare.wav
192,192,102566,128,0,102892:0:0:0:0:
448,192,102892,1,0,0:0:0:50:kick.wav
320,192,103055,1,0,0:0:0:0:
64,192,103218,128,0,103544:0:0:0:0:
192,192,103544,1,0,0:0:0:50:kick.wav
448,192,103707,1,0,0:0:0:0:
64,192,103871,1,0,0:0:0:50:snare.wav
320,192,103871,1,0,0:0:0:0:
192,192,104360,1,0,0:0:0:50:kick2.wav
448,192,104523,1,0,0:0:0:50:kick.wav
64,192,104686,1,0,0:0:0:0:
320,192,105012,1,0,0:0:0:50:kick.wav
64,192,105175,1,0,0:0:0:50:snare.wav
192,192,105175,1,0,0:0:0:0:
448,192,105338,1,0,0:0:0:0:
320,192,105664,1,0,0:0:0:0:
192,192,105827,128,0,106153:0:0:0:0:
448,192,106153,1,0,0:0:0:50:kick.wav
64,192,106479,1,0,0:0:0:50:snare.wav
192,192,106479,1,0,0:0:0:0:
320,192,106642,1,0,0:0:0:0:
448,192,106805,1,0,0:0:0:0:
192,192,106968,1,0,0:0:0:50:kick2.wav
64,192,107131,128,0,107457:0:0:0:50:kick.wav
448,192,107457,128,0,107784:0:0:0:0:
64,192,107784,1,0,0:0:0:50:snare.wav
192,192,107784,128,0,108110:0:0:0:0:
320,192,108110,128,0,108762:0:0:0:50:kick.wav
64,192,108762,128,0,109088:0:0:0:50:kick.wav
320,192,109088,1,0,0:0:0:50:snare.wav
448,192,109088,1,0,0:0:0:0:
192,192,109251,1,0,0:0:0:50:snare.wav
448,192,109414,128,0,109740:0:0:0:50:snare.wav
64,192,109740,128,0,110066:0:0:0:50:kick.wav
320,192,110066,128,0,110392:0:0:0:0:
64,192,110392,1,0,0:0:0:50:snare.wav
192,192,110392,128,0,110718:0:0:0:0:
448,192,110718,128,0,111044:0:0:0:50:kick.wav
64,192,111371,128,0,111697:0:0:0:50:kick.wav
320,192,111697,128,0,112023:0:0:0:50:snare.wav
448,192,111697,1,0,0:0:0:0:
192,192,112023,128,0,112349:0:0:0:0:
448,192,112349,128,0,112675:0:0:0:50:kick.wav
320,192,112675,128,0,113001:0:0:0:0:
64,192,113001,128,0,113327:0:0:0:50:snare.wav
192,192,113001,1,0,0:0:0:0:
448,192,113327,128,0,113653:0:0:0:50:kick.wav
192,192,113979,128,0,114305:0:0:0:50:kick.wav
320,192,114305,1,0,0:0:0:50:snare.wav
448,192,114305,128,0,114631:0:0:0:0:
64,192,114631,128,0,114957:0:0:0:0:
448,192,114957,128,0,115610:0:0:0:50:kick.wav
64,192,115610,1,0,0:0:0:50:snare.wav
192,192,115610,128,0,115936:0:0:0:0:
320,192,115936,128,0,116262:0:0:0:50:kick.wav
64,192,116588,128,0,117240:0:0:0:50:kick.wav
320,192,116914,1,0,0:0:0:50:snare.wav
448,192,116914,1,0,0:0:0:0:
192,192,117240,128,0,117892:0:0:0:0:
448,192,117892,1,0,0:0:0:0:
64,192,118218,1,0,0:0:0:50:snare.wav
192,192,118218,1,0,0:0:0:0:
320,192,118544,128,0,119197:0:0:0:50:kick.wav
192,192,119034,1,0,0:0:0:50:snare.wav
64,192,119197,128,0,119523:0:0:0:50:kick.wav
320,192,119523,128,0,119849:0:0:0:50:snare.wav
448,192,119523,1,0,0:0:0:0:
192,192,119849,128,0,120175:0:0:0:0:
64,192,120175,128,0,120501:0:0:0:50:kick.wav
448,192,120501,128,0,120827:0:0:0:0:
64,192,120827,1,0,0:0:0:50:snare.wav
192,192,120827,128,0,121153:0:0:0:0:
320,192,121153,128,0,121479:0:0:0:50:kick.wav
64,192,121805,128,0,122131:0:0:0:50:kick.wav
320,192,122131,128,0,122457:0:0:0:50:snare.wav
448,192,122131,1,0,0:0:0:0:
192,192,122457,128,0,122784:0:0:0:0:
448,192,122784,128,0,123110:0:0:0:50:kick.wav
64,192,123110,128,0,123436:0:0:0:0:
320,192,123436,128,0,123762:0:0:0:50:snare.wav
448,192,123436,1,0,0:0:0:0:
192,192,123762,128,0,124088:0:0:0:50:kick.wav
448,192,124414,1,0,0:0:0:50:kick.wav
64,192,124740,128,0,125066:0:0:0:50:snare.wav
192,192,124740,1,0,0:0:0:0:
320,192,125066,128,0,125392:0:0:0:0:
192,192,125392,128,0,126044:0:0:0:50:kick.wav
320,192,126044,1,0,0:0:0:50:snare.wav
448,192,126044,128,0,126370:0:0:0:0:
64,192,126370,128,0,127023:0:0:0:50:kick.wav
320,192,127023,128,0,127675:0:0:0:50:kick.wav
64,192,127349,1,0,0:0:0:50:snare.wav
192,192,127349,1,0,0:0:0:0:
448,192,127675,128,0,128653:0:0:0:0:
64,192,128001,1,0,0:0:0:50:kick.wav
192,192,128979,1,0,0:0:0:50:kick.wav
64,192,129305,128,0,129631:0:0:0:0:
192,192,129957,128,0,130610:0:0:0:0:
448,192,130610,128,0,131588:0:0:0:50:kick.wav
64,192,131099,1,0,0:0:0:50:kick.wav
192,192,131262,1,0,0:0:0:50:snare.wav
320,192,131262,1,0,0:0:0:20:C5_alt.wav
64,192,131588,1,0,0:0:0:50:kick.wav
448,192,132077,1,0,0:0:0:50:kick2.wav
64,192,132240,128,0,132566:0:0:0:50:kick.wav
320,192,132566,128,0,132892:0:0:0:50:snare.wav
448,192,132566,1,0,0:0:0:20:C5_alt.wav
64,192,132892,1,0,0:0:0:20:G#4_alt.wav
192,192,133055,1,0,0:0:0:50:kick2.wav
448,192,133218,1,0,0:0:0:50:kick.wav
320,192,133707,1,0,0:0:0:50:kick2.wav
64,192,133871,1,0,0:0:0:50:snare.wav
192,192,133871,1,0,0:0:0:20:F5_alt.wav
448,192,134034,1,0,0:0:0:50:kick2.wav
64,192,134197,128,0,134849:0:0:0:50:kick.wav
448,192,134686,1,0,0:0:0:50:kick2.wav
320,192,134849,128,0,135175:0:0:0:50:kick.wav
64,192,135175,1,0,0:0:0:50:snare.wav
192,192,135175,1,0,0:0:0:20:F5_alt.wav
192,192,135664,1,0,0:0:0:50:kick2.wav
448,192,135827,128,0,136316:0:0:0:50:kick.wav
64,192,136316,1,0,0:0:0:50:kick.wav
192,192,136479,1,0,0:0:0:50:snare.wav
320,192,136479,1,0,0:0:0:20:D#5_alt.wav
64,192,136805,128,0,137294:0:0:0:50:kick.wav
320,192,137294,1,0,0:0:0:50:kick2.wav
192,192,137457,1,0,0:0:0:50:kick.wav
320,192,137784,1,0,0:0:0:50:snare.wav
448,192,137784,128,0,138110:0:0:0:20:D#5_alt.wav
64,192,138110,1,0,0:0:0:20:A#4_alt.wav
192,192,138273,1,0,0:0:0:50:kick2.wav
320,192,138436,1,0,0:0:0:50:kick.wav
448,192,138925,1,0,0:0:0:50:kick2.wav
64,192,139088,1,0,0:0:0:50:snare.wav
192,192,139088,1,0,0:0:0:20:G5_alt.wav
320,192,139251,1,0,0:0:0:50:kick2.wav
448,192,139414,1,0,0:0:0:50:kick.wav
64,192,139740,1,0,0:0:0:20:D#6_alt.wav
320,192,139903,1,0,0:0:0:50:snare.wav
448,192,139903,1,0,0:0:0:0:
192,192,140066,1,0,0:0:0:50:kick.wav
64,192,140392,1,0,0:0:0:50:snare.wav
448,192,140392,128,0,140881:0:0:0:20:G5_alt.wav
192,192,140881,1,0,0:0:0:50:kick2.wav
64,192,141044,128,0,142023:0:0:0:50:kick.wav
448,192,141534,1,0,0:0:0:50:kick.wav
192,192,141697,1,0,0:0:0:50:snare.wav
320,192,141697,1,0,0:0:0:20:C5_alt.wav
448,192,142023,1,0,0:0:0:50:kick.wav
320,192,142512,1,0,0:0:0:50:kick2.wav
64,192,142675,128,0,143001:0:0:0:50:kick.wav
320,192,143001,128,0,143327:0:0:0:50:snare.wav
448,192,143001,1,0,0:0:0:20:F5_alt.wav
64,192,143327,1,0,0:0:0:20:C5_alt.wav
192,192,143490,1,0,0:0:0:50:kick2.wav
448,192,143653,1,0,0:0:0:50:kick.wav
64,192,144142,1,0,0:0:0:50:kick2.wav
320,192,144305,1,0,0:0:0:50:snare.wav
448,192,144305,1,0,0:0:0:20:D5_alt.wav
192,192,144468,1,0,0:0:0:50:kick2.wav
64,192,144631,128,0,144957:0:0:0:50:kick.wav
320,192,145120,1,0,0:0:0:50:kick2.wav
192,192,145284,128,0,145610:0:0:0:50:kick.wav
64,192,145610,1,0,0:0:0:50:snare.wav
448,192,145610,1,0,0:0:0:20:D5_alt.wav
320,192,145936,1,0,0:0:0:20:B4_alt.wav
448,192,146099,1,0,0:0:0:50:kick2.wav
64,192,146262,1,0,0:0:0:50:kick.wav
192,192,146262,128,0,146914:0:0:0:20:C5_alt.wav
320,192,146751,1,0,0:0:0:50:kick.wav
64,192,146914,1,0,0:0:0:50:snare.wav
448,192,146914,1,0,0:0:0:20:G5_alt.wav
320,192,147240,1,0,0:0:0:50:kick.wav
192,192,147566,1,0,0:0:0:20:D#6_alt.wav
448,192,147729,1,0,0:0:0:50:kick2.wav
320,192,147892,128,0,148218:0:0:0:50:kick.wav
64,192,148218,1,0,0:0:0:50:snare.wav
192,192,148218,128,0,148544:0:0:0:20:D5_alt.wav
448,192,148544,1,0,0:0:0:20:F5_alt.wav
320,192,148707,1,0,0:0:0:50:kick2.wav
64,192,148870,1,0,0:0:0:50:kick.wav
448,192,149360,1,0,0:0:0:50:kick2.wav
64,192,149523,1,0,0:0:0:50:snare.wav
192,192,149523,1,0,0:0:0:20:A#5_alt.wav
320,192,149686,1,0,0:0:0:50:kick2.wav
448,192,149849,1,0,0:0:0:50:kick.wav
320,192,150175,128,0,150501:0:0:0:20:G6_alt.wav
64,192,150501,1,0,0:0:0:50:kick.wav
320,192,150827,1,0,0:0:0:50:snare.wav
448,192,150827,1,0,0:0:0:20:A#5_alt.wav
192,192,150990,1,0,0:0:0:50:snare.wav
448,192,151153,1,0,0:0:0:50:snare.wav
64,192,151479,128,0,152457:0:0:0:50:kick.wav
448,192,151968,1,0,0:0:0:50:kick.wav
192,192,152131,1,0,0:0:0:50:snare.wav
320,192,152131,1,0,0:0:0:20:D#5_alt.wav
448,192,152457,1,0,0:0:0:50:kick.wav
320,192,152947,1,0,0:0:0:50:kick2.wav
192,192,153110,128,0,153436:0:0:0:50:kick.wav
320,192,153436,128,0,153762:0:0:0:50:snare.wav
448,192,153436,1,0,0:0:0:20:D#5_alt.wav
64,192,153762,1,0,0:0:0:20:C5_alt.wav
192,192,153925,1,0,0:0:0:50:kick2.wav
448,192,154088,1,0,0:0:0:50:kick.wav
320,192,154414,1,0,0:0:0:20:D5_alt.wav
448,192,154577,1,0,0:0:0:50:kick2.wav
64,192,154740,1,0,0:0:0:50:snare.wav
192,192,154740,1,0,0:0:0:20:F5_alt.wav
320,192,154903,1,0,0:0:0:50:kick2.wav
64,192,155066,128,0,155555:0:0:0:50:kick.wav
320,192,155555,1,0,0:0:0:50:kick2.wav
448,192,155718,1,0,0:0:0:50:kick.wav
64,192,156044,1,0,0:0:0:50:snare.wav
320,192,156044,128,0,156534:0:0:0:20:F5_alt.wav
192,192,156534,1,0,0:0:0:50:kick2.wav
64,192,156697,128,0,157186:0:0:0:50:kick.wav
448,192,157186,1,0,0:0:0:50:kick.wav
192,192,157349,1,0,0:0:0:50:snare.wav
320,192,157349,1,0,0:0:0:20:D5_alt.wav
448,192,157675,128,0,158164:0:0:0:50:kick.wav
192,192,158164,1,0,0:0:0:50:kick2.wav
64,192,158327,128,0,158653:0:0:0:50:kick.wav
320,192,158653,1,0,0:0:0:50:snare.wav
448,192,158653,1,0,0:0:0:20:D5_alt.wav
192,192,158979,1,0,0:0:0:20:A#4_alt.wav
64,192,159142,1,0,0:0:0:50:kick2.wav
320,192,159305,1,0,0:0:0:50:kick.wav
192,192,159794,1,0,0:0:0:50:kick2.wav
320,192,159957,1,0,0:0:0:50:snare.wav
448,192,159957,1,0,0:0:0:20:G5_alt.wav
64,192,160120,1,0,0:0:0:50:kick2.wav
448,192,160284,1,0,0:0:0:50:kick.wav
64,192,160773,1,0,0:0:0:50:snare.wav
192,192,160773,1,0,0:0:0:0:
448,192,160936,128,0,161262:0:0:0:50:kick.wav
64,192,161262,1,0,0:0:0:50:snare.wav
192,192,161262,128,0,161588:0:0:0:20:G5_alt.wav
320,192,161588,1,0,0:0:0:20:C#5_alt.wav
64,192,161751,1,0,0:0:0:50:kick2.wav
448,192,161914,128,0,162403:0:0:0:50:kick.wav
192,192,162403,1,0,0:0:0:50:kick.wav
64,192,162566,1,0,0:0:0:50:snare.wav
320,192,162566,128,0,162892:0:0:0:20:C5_alt.wav
192,192,162892,128,0,163381:0:0:0:50:kick.wav
448,192,163381,1,0,0:0:0:50:kick2.wav
320,192,163544,1,0,0:0:0:50:kick.wav
192,192,163870,1,0,0:0:0:50:snare.wav
448,192,163870,128,0,164197:0:0:0:20:C5_alt.wav
64,192,164197,1,0,0:0:0:20:G#4_alt.wav
192,192,164360,1,0,0:0:0:50:kick2.wav
320,192,164523,1,0,0:0:0:50:kick.wav
64,192,165012,1,0,0:0:0:50:kick2.wav
320,192,165175,1,0,0:0:0:50:snare.wav
448,192,165175,1,0,0:0:0:20:D5_alt.wav
192,192,165338,1,0,0:0:0:50:kick2.wav
448,192,165501,128,0,165827:0:0:0:50:kick.wav
64,192,165827,1,0,0:0:0:20:B5_alt.wav
192,192,165990,1,0,0:0:0:50:kick2.wav
320,192,166153,128,0,166479:0:0:0:50:kick.wav
64,192,166479,1,0,0:0:0:50:snare.wav
448,192,166479,128,0,166805:0:0:0:20:D5_alt.wav
192,192,166805,128,0,167131:0:0:0:20:B4_alt.wav
64,192,167131,1,0,0:0:0:50:kick.wav
448,192,167457,1,0,0:0:0:0:
64,192,167784,1,0,0:0:0:50:snare.wav
320,192,167784,1,0,0:0:0:0:
448,192,168110,1,0,0:0:0:50:kick.wav
192,192,168436,1,0,0:0:0:0:
448,192,168762,1,0,0:0:0:50:kick.wav
64,192,169088,1,0,0:0:0:50:snare.wav
192,192,169088,1,0,0:0:0:0:
448,192,169414,1,0,0:0:0:0:
320,192,169740,1,0,0:0:0:50:kick.wav
64,192,170059,1,0,0:0:0:0:
192,192,170378,1,0,0:0:0:50:snare.wav
448,192,170378,1,0,0:0:0:0:
64,192,170697,1,0,0:0:0:50:kick.wav
320,192,170857,1,0,0:0:0:0:
448,192,171016,1,0,0:0:0:0:
64,192,171335,1,0,0:0:0:50:kick.wav
192,192,171654,1,0,0:0:0:50:snare.wav
448,192,171654,1,0,0:0:0:0:
64,192,171974,1,0,0:0:0:0:
320,192,172293,1,0,0:0:0:50:kick.wav
448,192,172771,1,0,0:0:0:50:kick.wav
64,192,172931,1,0,0:0:0:50:snare.wav
192,192,172931,1,0,0:0:0:0:
448,192,173250,1,0,0:0:0:50:kick.wav
320,192,173410,1,0,0:0:0:50:A#6.wav
64,192,173569,1,0,0:0:0:50:G6.wav
192,192,173888,1,0,0:0:0:50:kick.wav
320,192,174208,1,0,0:0:0:50:snare.wav
448,192,174208,1,0,0:0:0:0:
64,192,174527,1,0,0:0:0:0:
448,192,174846,1,0,0:0:0:50:kick.wav
64,192,175165,1,0,0:0:0:0:
320,192,175484,1,0,0:0:0:50:snare.wav
448,192,175484,1,0,0:0:0:0:
192,192,175803,1,0,0:0:0:50:kick.wav
320,192,176016,1,0,0:0:0:50:D#6.wav
64,192,176242,1,0,0:0:0:50:D6.wav
320,192,176601,1,0,0:0:0:50:D#6.wav
64,192,176761,1,0,0:0:0:50:snare.wav
192,192,176761,1,0,0:0:0:0:
448,192,176960,1,0,0:0:0:50:C7.wav
320,192,177160,1,0,0:0:0:50:D7.wav
64,192,177399,1,0,0:0:0:50:kick.wav
192,192,177878,1,0,0:0:0:50:kick.wav
320,192,178037,1,0,0:0:0:50:snare.wav
448,192,178037,1,0,0:0:0:0:
192,192,178357,1,0,0:0:0:50:kick.wav
64,192,178676,1,0,0:0:0:0:
448,192,178995,1,0,0:0:0:50:kick.wav
64,192,179314,1,0,0:0:0:50:snare.wav
192,192,179314,1,0,0:0:0:50:F#7.wav
320,192,179580,1,0,0:0:0:50:F7.wav
64,192,179753,1,0,0:0:0:50:C#7.wav
192,192,180032,1,0,0:0:0:50:A#6.wav
448,192,180431,1,0,0:0:0:50:kick2.wav
64,192,180591,1,0,0:0:0:50:snare.wav
192,192,180591,1,0,0:0:0:0:
320,192,180750,1,0,0:0:0:50:kick2.wav
64,192,181189,1,0,0:0:0:50:F#6.wav
320,192,181388,1,0,0:0:0:50:snare.wav
448,192,181388,1,0,0:0:0:0:
192,192,181548,1,0,0:0:0:50:kick.wav
64,192,181867,1,0,0:0:0:50:snare.wav
448,192,181867,1,0,0:0:0:50:D#7.wav
320,192,182240,1,0,0:0:0:50:C#7.wav
192,192,182505,1,0,0:0:0:50:kick.wav
448,192,182984,1,0,0:0:0:50:kick.wav
64,192,183144,1,0,0:0:0:50:snare.wav
192,192,183144,1,0,0:0:0:0:
320,192,183463,1,0,0:0:0:50:kick.wav
448,192,183782,1,0,0:0:0:0:
64,192,184261,1,0,0:0:0:50:G#6.wav
320,192,184420,1,0,0:0:0:50:snare.wav
448,192,184420,1,0,0:0:0:50:F6.wav
192,192,184740,1,0,0:0:0:0:
320,192,184899,1,0,0:0:0:50:kick2.wav
64,192,185059,1,0,0:0:0:50:kick.wav
320,192,185271,1,0,0:0:0:50:C7.wav
448,192,185431,1,0,0:0:0:50:C#7.wav
64,192,185697,1,0,0:0:0:50:snare.wav
192,192,185697,1,0,0:0:0:0:
320,192,185936,1,0,0:0:0:50:F#7.wav
192,192,186122,1,0,0:0:0:50:F7.wav
64,192,186282,1,0,0:0:0:50:D#7.wav
448,192,186495,1,0,0:0:0:50:kick2.wav
192,192,186761,1,0,0:0:0:50:F#7.wav
64,192,186974,1,0,0:0:0:50:snare.wav
448,192,186974,1,0,0:0:0:50:D#7.wav
320,192,187293,1,0,0:0:0:0:
192,192,187612,1,0,0:0:0:50:kick.wav
448,192,187931,1,0,0:0:0:50:C#7.wav
64,192,188250,1,0,0:0:0:50:snare.wav
192,192,188250,1,0,0:0:0:50:D#7.wav
320,192,188569,1,0,0:0:0:50:kick.wav
64,192,188888,1,0,0:0:0:50:D7.wav
192,192,189210,1,0,0:0:0:50:kick.wav
64,192,189533,1,0,0:0:0:50:snare.wav
448,192,189533,1,0,0:0:0:50:F#6.wav
320,192,189855,1,0,0:0:0:50:D6.wav
192,192,190178,1,0,0:0:0:50:kick.wav
448,192,190511,1,0,0:0:0:50:A#5.wav
64,192,190844,1,0,0:0:0:50:snare.wav
192,192,190844,1,0,0:0:0:50:G#5.wav
320,192,191178,1,0,0:0:0:50:kick.wav
448,192,191511,1,0,0:0:0:0:
64,192,191683,1,0,0:0:0:50:snare.wav
192,192,191683,1,0,0:0:0:0:
320,192,191855,1,0,0:0:0:50:kick.wav
64,192,192200,128,0,192900:0:0:0:50:snare.wav
448,192,192200,1,0,0:0:0:0:
320,192,192900,128,0,194247:0:0:0:20:F4_alt.wav
64,192,194581,128,0,194914:0:0:0:20:D#5_alt.wav
192,192,194914,128,0,195241:0:0:0:20:C5_alt.wav
448,192,195241,128,0,195897:0:0:0:20:G#4_alt.wav
64,192,195569,1,0,0:0:0:30:kick2.wav
320,192,196225,128,0,196553:0:0:0:40:kick2.wav
192,192,196553,128,0,196881:0:0:0:20:A#5_alt.wav
448,192,196881,1,0,0:0:0:50:kick2.wav
64,192,197209,128,0,197536:0:0:0:20:A#5_alt.wav
192,192,197536,1,0,0:0:0:50:snare.wav
320,192,197536,1,0,0:0:0:0:
448,192,198194,128,0,198683:0:0:0:50:kick.wav
64,192,198683,1,0,0:0:0:50:kick.wav
192,192,198846,1,0,0:0:0:50:snare.wav
320,192,198846,1,0,0:0:0:20:D#5_alt.wav
64,192,199172,128,0,199661:0:0:0:50:kick.wav
320,192,199661,1,0,0:0:0:50:kick2.wav
192,192,199824,1,0,0:0:0:50:kick.wav
320,192,200150,1,0,0:0:0:50:snare.wav
448,192,200150,128,0,200476:0:0:0:20:D#5_alt.wav
64,192,200476,1,0,0:0:0:20:A#4_alt.wav
192,192,200639,1,0,0:0:0:50:kick2.wav
320,192,200802,1,0,0:0:0:50:kick.wav
448,192,201291,1,0,0:0:0:50:kick2.wav
64,192,201454,1,0,0:0:0:50:snare.wav
192,192,201454,1,0,0:0:0:20:G5_alt.wav
320,192,201617,1,0,0:0:0:50:kick2.wav
448,192,201780,1,0,0:0:0:50:kick.wav
64,192,202107,1,0,0:0:0:20:D#6_alt.wav
320,192,202270,1,0,0:0:0:50:snare.wav
448,192,202270,1,0,0:0:0:0:
192,192,202433,1,0,0:0:0:50:kick.wav
64,192,202759,1,0,0:0:0:50:snare.wav
448,192,202759,128,0,203248:0:0:0:20:G5_alt.wav
192,192,203248,1,0,0:0:0:50:kick2.wav
64,192,203411,128,0,204389:0:0:0:50:kick.wav
448,192,203900,1,0,0:0:0:50:kick.wav
192,192,204063,1,0,0:0:0:50:snare.wav
320,192,204063,1,0,0:0:0:20:C5_alt.wav
448,192,204389,1,0,0:0:0:50:kick.wav
320,192,204878,1,0,0:0:0:50:kick2.wav
64,192,205041,128,0,205367:0:0:0:50:kick.wav
320,192,205367,128,0,205694:0:0:0:50:snare.wav
448,192,205367,1,0,0:0:0:20:F5_alt.wav
64,192,205694,1,0,0:0:0:20:C5_alt.wav
192,192,205857,1,0,0:0:0:50:kick2.wav
448,192,206020,1,0,0:0:0:50:kick.wav
64,192,206509,1,0,0:0:0:50:kick2.wav
320,192,206672,1,0,0:0:0:50:snare.wav
448,192,206672,1,0,0:0:0:20:D5_alt.wav
192,192,206835,1,0,0:0:0:50:kick2.wav
64,192,206998,128,0,207324:0:0:0:50:kick.wav
320,192,207487,1,0,0:0:0:50:kick2.wav
192,192,207650,128,0,207976:0:0:0:50:kick.wav
64,192,207976,1,0,0:0:0:50:snare.wav
448,192,207976,1,0,0:0:0:20:D5_alt.wav
320,192,208302,1,0,0:0:0:20:B4_alt.wav
448,192,208465,1,0,0:0:0:50:kick2.wav
64,192,208628,1,0,0:0:0:50:kick.wav
192,192,208628,128,0,209280:0:0:0:20:C5_alt.wav
320,192,209117,1,0,0:0:0:50:kick.wav
64,192,209280,1,0,0:0:0:50:snare.wav
448,192,209280,1,0,0:0:0:20:G5_alt.wav
320,192,209607,1,0,0:0:0:50:kick.wav
192,192,209933,1,0,0:0:0:20:D#6_alt.wav
448,192,210096,1,0,0:0:0:50:kick2.wav
320,192,210259,128,0,210585:0:0:0:50:kick.wav
64,192,210585,1,0,0:0:0:50:snare.wav
192,192,210585,128,0,210911:0:0:0:20:D5_alt.wav
448,192,210911,1,0,0:0:0:20:F5_alt.wav
320,192,211074,1,0,0:0:0:50:kick2.wav
64,192,211237,1,0,0:0:0:50:kick.wav
448,192,211726,1,0,0:0:0:50:kick2.wav
64,192,211889,1,0,0:0:0:50:snare.wav
192,192,211889,1,0,0:0:0:20:A#5_alt.wav
320,192,212052,1,0,0:0:0:50:kick2.wav
448,192,212215,1,0,0:0:0:50:kick.wav
320,192,212541,128,0,212867:0:0:0:20:G6_alt.wav
64,192,212867,1,0,0:0:0:50:kick.wav
320,192,213194,1,0,0:0:0:50:snare.wav
448,192,213194,1,0,0:0:0:20:A#5_alt.wav
192,192,213357,1,0,0:0:0:50:snare.wav
448,192,213520,1,0,0:0:0:50:snare.wav
64,192,213846,128,0,214824:0:0:0:50:kick.wav
448,192,214335,1,0,0:0:0:50:kick.wav
192,192,214498,1,0,0:0:0:50:snare.wav
320,192,214498,1,0,0:0:0:20:D#5_alt.wav
448,192,214824,1,0,0:0:0:50:kick.wav
320,192,215313,1,0,0:0:0:50:kick2.wav
192,192,215476,128,0,215802:0:0:0:50:kick.wav
320,192,215802,128,0,216128:0:0:0:50:snare.wav
448,192,215802,1,0,0:0:0:20:D#5_alt.wav
64,192,216128,1,0,0:0:0:20:C5_alt.wav
192,192,216291,1,0,0:0:0:50:kick2.wav
448,192,216454,1,0,0:0:0:50:kick.wav
320,192,216780,1,0,0:0:0:20:D5_alt.wav
448,192,216944,1,0,0:0:0:50:kick2.wav
64,192,217107,1,0,0:0:0:50:snare.wav
192,192,217107,1,0,0:0:0:20:F5_alt.wav
320,192,217270,1,0,0:0:0:50:kick2.wav
64,192,217433,128,0,217922:0:0:0:50:kick.wav
320,192,217922,1,0,0:0:0:50:kick2.wav
448,192,218085,1,0,0:0:0:50:kick.wav
64,192,218411,1,0,0:0:0:50:snare.wav
320,192,218411,128,0,218900:0:0:0:20:F5_alt.wav
192,192,218900,1,0,0:0:0:50:kick2.wav
64,192,219063,128,0,219552:0:0:0:50:kick.wav
448,192,219552,1,0,0:0:0:50:kick.wav
192,192,219715,1,0,0:0:0:50:snare.wav
320,192,219715,1,0,0:0:0:20:D5_alt.wav
448,192,220041,128,0,220530:0:0:0:50:kick.wav
192,192,220530,1,0,0:0:0:50:kick2.wav
64,192,220694,128,0,221020:0:0:0:50:kick.wav
320,192,221020,1,0,0:0:0:50:snare.wav
448,192,221020,1,0,0:0:0:20:D5_alt.wav
192,192,221346,1,0,0:0:0:20:A#4_alt.wav
64,192,221509,1,0,0:0:0:50:kick2.wav
320,192,221672,1,0,0:0:0:50:kick.wav
192,192,222161,1,0,0:0:0:50:kick2.wav
320,192,222324,1,0,0:0:0:50:snare.wav
448,192,222324,1,0,0:0:0:20:G5_alt.wav
64,192,222487,1,0,0:0:0:50:kick2.wav
448,192,222650,1,0,0:0:0:50:kick.wav
64,192,223139,1,0,0:0:0:50:snare.wav
192,192,223139,1,0,0:0:0:0:
448,192,223302,128,0,223628:0:0:0:50:kick.wav
64,192,223628,1,0,0:0:0:50:snare.wav
192,192,223628,128,0,223954:0:0:0:20:G5_alt.wav
320,192,223954,1,0,0:0:0:20:C#5_alt.wav
64,192,224117,1,0,0:0:0:50:kick2.wav
448,192,224280,128,0,224770:0:0:0:50:kick.wav
192,192,224770,1,0,0:0:0:50:kick.wav
64,192,224933,1,0,0:0:0:50:snare.wav
320,192,224933,128,0,225259:0:0:0:20:C5_alt.wav
192,192,225259,128,0,225748:0:0:0:50:kick.wav
448,192,225748,1,0,0:0:0:50:kick2.wav
320,192,225911,1,0,0:0:0:50:kick.wav
192,192,226237,1,0,0:0:0:50:snare.wav
448,192,226237,128,0,226563:0:0:0:20:C5_alt.wav
64,192,226563,1,0,0:0:0:20:G#4_alt.wav
192,192,226726,1,0,0:0:0:50:kick2.wav
320,192,226889,1,0,0:0:0:50:kick.wav
64,192,227378,1,0,0:0:0:50:kick2.wav
320,192,227541,1,0,0:0:0:50:snare.wav
448,192,227541,1,0,0:0:0:20:D5_alt.wav
192,192,227704,1,0,0:0:0:50:kick2.wav
448,192,227867,128,0,228194:0:0:0:50:kick.wav
64,192,228194,1,0,0:0:0:20:B5_alt.wav
192,192,228357,1,0,0:0:0:50:kick2.wav
320,192,228520,128,0,228846:0:0:0:50:kick.wav
64,192,228846,1,0,0:0:0:50:snare.wav
448,192,228846,128,0,229172:0:0:0:20:D5_alt.wav
192,192,229172,128,0,229498:0:0:0:20:B4_alt.wav
320,192,229498,1,0,0:0:0:50:kick.wav
64,192,229987,1,0,0:0:0:50:kick.wav
320,192,230150,1,0,0:0:0:50:snare.wav
448,192,230150,1,0,0:0:0:0:
192,192,230476,1,0,0:0:0:50:kick.wav
448,192,230802,1,0,0:0:0:0:
320,192,230965,1,0,0:0:0:50:kick2.wav
64,192,231128,1,0,0:0:0:50:kick.wav
192,192,231454,1,0,0:0:0:50:snare.wav
448,192,231454,1,0,0:0:0:0:
64,192,231780,1,0,0:0:0:0:
448,192,231944,1,0,0:0:0:50:kick2.wav
320,192,232107,1,0,0:0:0:50:kick.wav
192,192,232596,1,0,0:0:0:50:kick2.wav
320,192,232759,1,0,0:0:0:50:snare.wav
448,192,232759,1,0,0:0:0:0:
64,192,232922,1,0,0:0:0:50:kick2.wav
448,192,233085,1,0,0:0:0:50:kick.wav
192,192,233411,1,0,0:0:0:0:
320,192,233737,1,0,0:0:0:50:kick.wav
64,192,234063,1,0,0:0:0:50:snare.wav
192,192,234063,1,0,0:0:0:0:
448,192,234430,1,0,0:0:0:0:
64,192,234764,128,0,235478:0:0:0:50:kick.wav
320,192,235478,128,0,235835:0:0:0:0:
192,192,235835,128,0,236549:0:0:0:0:
448,192,236906,128,0,237264:0:0:0:0:
64,192,237264,128,0,237965:0:0:0:0:
192,192,238310,128,0,238655:0:0:0:0:
64,192,238655,128,0,239000:0:0:0:0:
448,192,239000,128,0,239428:0:0:0:0:
192,192,239428,128,0,239857:0:0:0:0:
320,192,239857,128,0,240285:0:0:0:0:
448,192,240285,128,0,240714:0:0:0:0:
64,192,240714,128,0,244142:0:0:0:0:
