osu file format v14

[General]
AudioFilename: audio.ogg
AudioLeadIn: 0
PreviewTime: 129402
Countdown: 0
SampleSet: Soft
StackLeniency: 0.7
Mode: 3
LetterboxInBreaks: 0
SpecialStyle: 0
WidescreenStoryboard: 1

[Editor]
DistanceSpacing: 1
BeatDivisor: 4
GridSize: 32
TimelineZoom: 1

[Metadata]
Title:dreamy night
TitleUnicode:dreamy night
Artist:LilyPichu
ArtistUnicode:LilyPichu
Creator:HimitsuHiketsu
Version:easy
Source:
Tags:mappers' guild mg fa featured artist hip hop pop lofi english offlinetv twitch streamer comfi beats comfibeats rezyon yungi chang zorsy megan shipman gwinshin indoroid tigerinity ucitysm
BeatmapID:4062451
BeatmapSetID:1960341

[Difficulty]
HPDrainRate:7
CircleSize:4
OverallDifficulty:7
ApproachRate:5
SliderMultiplier:1.4
SliderTickRate:1

[Events]
//Background and Video events
0,0,"bg.jpg",0,0
//Break Periods
//Storyboard Layer 0 (Background)
//Storyboard Layer 1 (Fail)
//Storyboard Layer 2 (Pass)
//Storyboard Layer 3 (Foreground)
//Storyboard Layer 4 (Overlay)
//Storyboard Sound Samples
Sample,476,0,"D#7.wav",50
Sample,639,0,"C7.wav",50
Sample,802,0,"G#6.wav",50
Sample,965,0,"F6.wav",50
Sample,1128,0,"C7.wav",50
Sample,1291,0,"G#6.wav",50
Sample,1454,0,"F6.wav",50
Sample,1617,0,"C6.wav",50
Sample,1780,0,"G#6.wav",50
Sample,1943,0,"F6.wav",50
Sample,2106,0,"C6.wav",50
Sample,2269,0,"G#5.wav",50
Sample,2758,0,"G#5.wav",50
Sample,44794,0,"F4_alt.wav",20
Sample,45120,0,"G#4_alt.wav",20
Sample,45446,0,"C5_alt.wav",20
Sample,45772,0,"D#5_alt.wav",20
Sample,46098,0,"G5_alt.wav",20
Sample,46750,0,"C5_alt.wav",20
Sample,47402,0,"A#4_alt.wav",20
Sample,47728,0,"D5_alt.wav",20
Sample,48054,0,"F5_alt.wav",20
Sample,48707,0,"D6_alt.wav",20
Sample,49359,0,"F5_alt.wav",20
Sample,49685,0,"D5_alt.wav",20
Sample,50011,0,"G4_alt.wav",20
Sample,50337,0,"A#4_alt.wav",20
Sample,50663,0,"D#5_alt.wav",20
Sample,51315,0,"A#5_alt.wav",20
Sample,51641,0,"G5_alt.wav",20
Sample,51967,0,"D#5_alt.wav",20
Sample,52620,0,"C5_alt.wav",20
Sample,52946,0,"D#5_alt.wav",20
Sample,53272,0,"G5_alt.wav",20
Sample,53598,0,"C6_alt.wav",20
Sample,53924,0,"D#6_alt.wav",20
Sample,54250,0,"C6_alt.wav",20
Sample,54576,0,"G5_alt.wav",20
Sample,54902,0,"D#5_alt.wav",20
Sample,55228,0,"F4_alt.wav",20
Sample,55554,0,"G#4_alt.wav",20
Sample,55880,0,"C5_alt.wav",20
Sample,56207,0,"F5_alt.wav",20
Sample,56533,0,"C6_alt.wav",20
Sample,57185,0,"F5_alt.wav",20
Sample,57837,0,"G4_alt.wav",20
Sample,58163,0,"B4_alt.wav",20
Sample,58489,0,"D5_alt.wav",20
Sample,59141,0,"B5_alt.wav",20
Sample,59793,0,"D5_alt.wav",20
Sample,60446,0,"C5_alt.wav",20
Sample,60772,0,"D#5_alt.wav",20
Sample,61098,0,"G5_alt.wav",20
Sample,61424,0,"C6_alt.wav",20
Sample,61750,0,"D#6_alt.wav",20
Sample,62402,0,"D5_alt.wav",20
Sample,63054,0,"D#5_alt.wav",20
Sample,63380,0,"G5_alt.wav",20
Sample,63707,0,"A#5_alt.wav",20
Sample,64033,0,"D#6_alt.wav",20
Sample,64359,0,"G6_alt.wav",20
Sample,64685,0,"G5_alt.wav",20
Sample,65011,0,"A#5_alt.wav",20
Sample,65337,0,"D#6_alt.wav",20
Sample,65663,0,"G#4_alt.wav",20
Sample,65989,0,"C5_alt.wav",20
Sample,66315,0,"D#5_alt.wav",20
Sample,66641,0,"G5_alt.wav",20
Sample,66967,0,"C6_alt.wav",20
Sample,67620,0,"D#5_alt.wav",20
Sample,68272,0,"A#4_alt.wav",20
Sample,68924,0,"F5_alt.wav",20
Sample,69576,0,"D6_alt.wav",20
Sample,69902,0,"A#5_alt.wav",20
Sample,70228,0,"F5_alt.wav",20
Sample,70554,0,"D5_alt.wav",20
Sample,70880,0,"G4_alt.wav",20
Sample,71207,0,"A#4_alt.wav",20
Sample,71533,0,"D5_alt.wav",20
Sample,72185,0,"kick2.wav",50
Sample,72837,0,"D5_alt.wav",20
Sample,73489,0,"G#4_alt.wav",20
Sample,73815,0,"D#5_alt.wav",20
Sample,74141,0,"G5_alt.wav",20
Sample,74467,0,"A#5_alt.wav",20
Sample,74793,0,"C#6_alt.wav",20
Sample,75446,0,"G5_alt.wav",20
Sample,76098,0,"F4_alt.wav",20
Sample,76424,0,"G#4_alt.wav",20
Sample,76750,0,"C5_alt.wav",20
Sample,77402,0,"G5_alt.wav",20
Sample,77728,0,"D#5_alt.wav",20
Sample,78054,0,"C5_alt.wav",20
Sample,78707,0,"G4_alt.wav",20
Sample,79033,0,"B4_alt.wav",20
Sample,79359,0,"D5_alt.wav",20
Sample,80011,0,"B5_alt.wav",20
Sample,80663,0,"D5_alt.wav",20
Sample,81315,0,"C6_alt.wav",20
Sample,81315,0,"C6.wav",50
Sample,81641,0,"G6_alt.wav",20
Sample,81641,0,"G6.wav",50
Sample,81978,0,"C7.wav",50
Sample,82315,0,"D#7_alt.wav",20
Sample,82315,0,"D#7.wav",50
Sample,82641,0,"D6.wav",50
Sample,82967,0,"A#6_alt.wav",20
Sample,82967,0,"A#6.wav",50
Sample,83304,0,"D7.wav",50
Sample,83652,0,"F7_alt.wav",20
Sample,83652,0,"F7.wav",50
Sample,84013,0,"D#6.wav",50
Sample,84397,0,"A#6_alt.wav",20
Sample,84397,0,"A#6.wav",50
Sample,84851,0,"D#7.wav",50
Sample,85439,0,"G7_alt.wav",20
Sample,85439,0,"G7.wav",50
Sample,86248,0,"E6.wav",50
Sample,88871,0,"F4.wav",20
Sample,88871,0,"G#4.wav",20
Sample,88871,0,"C5.wav",20
Sample,91479,0,"F4.wav",20
Sample,91479,0,"A#4.wav",20
Sample,91479,0,"D4.wav",20
Sample,94088,0,"G4.wav",20
Sample,94088,0,"A#3.wav",20
Sample,94088,0,"D4.wav",20
Sample,96697,0,"C4.wav",20
Sample,96697,0,"D#4.wav",20
Sample,96697,0,"G#3.wav",20
Sample,99305,0,"F4.wav",20
Sample,99305,0,"G#4.wav",20
Sample,99305,0,"C5.wav",20
Sample,101914,0,"A#4.wav",20
Sample,101914,0,"D4.wav",20
Sample,101914,0,"F4.wav",20
Sample,104523,0,"G4.wav",20
Sample,104523,0,"A#3.wav",20
Sample,104523,0,"D4.wav",20
Sample,107131,0,"G4.wav",20
Sample,107131,0,"C4.wav",20
Sample,107131,0,"E4.wav",20
Sample,109740,0,"C5.wav",20
Sample,109740,0,"F4.wav",20
Sample,109740,0,"G#4.wav",20
Sample,112349,0,"F4.wav",20
Sample,112349,0,"A#4.wav",20
Sample,112349,0,"D4.wav",20
Sample,114957,0,"A#3.wav",20
Sample,114957,0,"D4.wav",20
Sample,114957,0,"G4.wav",20
Sample,117566,0,"C4.wav",20
Sample,117566,0,"D#4.wav",20
Sample,117566,0,"G#3.wav",20
Sample,120175,0,"C5.wav",20
Sample,120175,0,"F4.wav",20
Sample,120175,0,"G#4.wav",20
Sample,122784,0,"F4.wav",20
Sample,122784,0,"A#4.wav",20
Sample,122784,0,"D4.wav",20
Sample,125392,0,"A#3.wav",20
Sample,125392,0,"D4.wav",20
Sample,125392,0,"G4.wav",20
Sample,130610,0,"F4_alt.wav",20
Sample,130936,0,"G#4_alt.wav",20
Sample,131262,0,"C5_alt.wav",20
Sample,131588,0,"D#5_alt.wav",20
Sample,131914,0,"G5_alt.wav",20
Sample,132240,0,"D#5_alt.wav",20
Sample,132566,0,"C5_alt.wav",20
Sample,133218,0,"A#4_alt.wav",20
Sample,133544,0,"D5_alt.wav",20
Sample,133871,0,"F5_alt.wav",20
Sample,134197,0,"A#5_alt.wav",20
Sample,134523,0,"D6_alt.wav",20
Sample,134849,0,"A#5_alt.wav",20
Sample,135175,0,"F5_alt.wav",20
Sample,135501,0,"D5_alt.wav",20
Sample,135827,0,"G4_alt.wav",20
Sample,136153,0,"A#4_alt.wav",20
Sample,136479,0,"D#5_alt.wav",20
Sample,136805,0,"G5_alt.wav",20
Sample,137131,0,"A#5_alt.wav",20
Sample,137457,0,"G5_alt.wav",20
Sample,137784,0,"D#5_alt.wav",20
Sample,138436,0,"C5_alt.wav",20
Sample,138762,0,"D#5_alt.wav",20
Sample,139088,0,"G5_alt.wav",20
Sample,139414,0,"C6_alt.wav",20
Sample,140066,0,"C6_alt.wav",20
Sample,140392,0,"G5_alt.wav",20
Sample,140718,0,"D#5_alt.wav",20
Sample,141044,0,"F4_alt.wav",20
Sample,141370,0,"G#4_alt.wav",20
Sample,141697,0,"C5_alt.wav",20
Sample,142023,0,"F5_alt.wav",20
Sample,142349,0,"C6_alt.wav",20
Sample,142675,0,"G#5_alt.wav",20
Sample,143001,0,"F5_alt.wav",20
Sample,143653,0,"G4_alt.wav",20
Sample,143979,0,"B4_alt.wav",20
Sample,144305,0,"D5_alt.wav",20
Sample,144631,0,"G5_alt.wav",20
Sample,145284,0,"G5_alt.wav",20
Sample,145610,0,"D5_alt.wav",20
Sample,146262,0,"C5_alt.wav",20
Sample,146588,0,"D#5_alt.wav",20
Sample,146914,0,"G5_alt.wav",20
Sample,147240,0,"C6_alt.wav",20
Sample,147892,0,"C6_alt.wav",20
Sample,148218,0,"D5_alt.wav",20
Sample,148870,0,"D#5_alt.wav",20
Sample,149197,0,"G5_alt.wav",20
Sample,149523,0,"A#5_alt.wav",20
Sample,149849,0,"D#6_alt.wav",20
Sample,150501,0,"G5_alt.wav",20
Sample,150827,0,"A#5_alt.wav",20
Sample,151153,0,"D#6_alt.wav",20
Sample,151479,0,"G#4_alt.wav",20
Sample,151805,0,"C5_alt.wav",20
Sample,152131,0,"D#5_alt.wav",20
Sample,152457,0,"G5_alt.wav",20
Sample,152784,0,"C6_alt.wav",20
Sample,153110,0,"G5_alt.wav",20
Sample,153436,0,"D#5_alt.wav",20
Sample,154088,0,"A#4_alt.wav",20
Sample,154740,0,"F5_alt.wav",20
Sample,155066,0,"A#5_alt.wav",20
Sample,155392,0,"D6_alt.wav",20
Sample,155718,0,"A#5_alt.wav",20
Sample,156044,0,"F5_alt.wav",20
Sample,156370,0,"D5_alt.wav",20
Sample,156697,0,"G4_alt.wav",20
Sample,157023,0,"A#4_alt.wav",20
Sample,157349,0,"D5_alt.wav",20
Sample,157675,0,"G5_alt.wav",20
Sample,158327,0,"A#5_alt.wav",20
Sample,158653,0,"D5_alt.wav",20
Sample,159305,0,"G#4_alt.wav",20
Sample,159631,0,"D#5_alt.wav",20
Sample,159957,0,"G5_alt.wav",20
Sample,160284,0,"A#5_alt.wav",20
Sample,160610,0,"C#6_alt.wav",20
Sample,160936,0,"A#5_alt.wav",20
Sample,161262,0,"G5_alt.wav",20
Sample,161914,0,"F4_alt.wav",20
Sample,162240,0,"G#4_alt.wav",20
Sample,162566,0,"C5_alt.wav",20
Sample,162892,0,"D#5_alt.wav",20
Sample,163218,0,"G5_alt.wav",20
Sample,163544,0,"D#5_alt.wav",20
Sample,163870,0,"C5_alt.wav",20
Sample,164523,0,"G4_alt.wav",20
Sample,164849,0,"B4_alt.wav",20
Sample,165175,0,"D5_alt.wav",20
Sample,165501,0,"F5_alt.wav",20
Sample,166153,0,"F5_alt.wav",20
Sample,166479,0,"D5_alt.wav",20
Sample,172293,0,"A#6.wav",50
Sample,172771,0,"D#7.wav",50
Sample,173330,0,"G#6.wav",50
Sample,173490,0,"G#6.wav",50
Sample,175803,0,"F6.wav",50
Sample,177040,0,"C#7.wav",50
Sample,177160,0,"D7.wav",50
Sample,177399,0,"A#6.wav",50
Sample,179314,0,"F#7.wav",50
Sample,180750,0,"G#6.wav",50
Sample,181867,0,"D#7.wav",50
Sample,184341,0,"F#6.wav",50
Sample,184420,0,"F6.wav",50
Sample,184620,0,"F#6.wav",50
Sample,184939,0,"G#6.wav",50
Sample,185059,0,"A#6.wav",50
Sample,185271,0,"C7.wav",50
Sample,185591,0,"D#7.wav",50
Sample,185936,0,"F#7.wav",50
Sample,186282,0,"D#7.wav",50
Sample,186495,0,"G#7.wav",50
Sample,186974,0,"D#7.wav",50
Sample,188250,0,"D#7.wav",50
Sample,188569,0,"F7.wav",50
Sample,189210,0,"A#6.wav",50
Sample,189533,0,"F#6.wav",50
Sample,190178,0,"C#6.wav",50
Sample,190844,0,"G#5.wav",50
Sample,193240,0,"G#4_alt.wav",20
Sample,193581,0,"C5_alt.wav",20
Sample,193914,0,"D#5_alt.wav",20
Sample,194247,0,"G5_alt.wav",20
Sample,195569,0,"A#4_alt.wav",20
Sample,195897,0,"D5_alt.wav",20
Sample,196225,0,"F5_alt.wav",20
Sample,196881,0,"D6_alt.wav",20
Sample,198194,0,"G4_alt.wav",20
Sample,198520,0,"A#4_alt.wav",20
Sample,198846,0,"D#5_alt.wav",20
Sample,199172,0,"G5_alt.wav",20
Sample,199498,0,"A#5_alt.wav",20
Sample,199824,0,"G5_alt.wav",20
Sample,200150,0,"D#5_alt.wav",20
Sample,200802,0,"C5_alt.wav",20
Sample,201128,0,"D#5_alt.wav",20
Sample,201454,0,"G5_alt.wav",20
Sample,201780,0,"C6_alt.wav",20
Sample,202433,0,"C6_alt.wav",20
Sample,202759,0,"G5_alt.wav",20
Sample,203085,0,"D#5_alt.wav",20
Sample,203411,0,"F4_alt.wav",20
Sample,203737,0,"G#4_alt.wav",20
Sample,204063,0,"C5_alt.wav",20
Sample,204389,0,"F5_alt.wav",20
Sample,204715,0,"C6_alt.wav",20
Sample,205041,0,"G#5_alt.wav",20
Sample,205367,0,"F5_alt.wav",20
Sample,206020,0,"G4_alt.wav",20
Sample,206346,0,"B4_alt.wav",20
Sample,206672,0,"D5_alt.wav",20
Sample,206998,0,"G5_alt.wav",20
Sample,207650,0,"G5_alt.wav",20
Sample,207976,0,"D5_alt.wav",20
Sample,208628,0,"C5_alt.wav",20
Sample,208954,0,"D#5_alt.wav",20
Sample,209280,0,"G5_alt.wav",20
Sample,209607,0,"C6_alt.wav",20
Sample,210259,0,"C6_alt.wav",20
Sample,210585,0,"D5_alt.wav",20
Sample,211237,0,"D#5_alt.wav",20
Sample,211563,0,"G5_alt.wav",20
Sample,211889,0,"A#5_alt.wav",20
Sample,212215,0,"D#6_alt.wav",20
Sample,212867,0,"G5_alt.wav",20
Sample,213194,0,"A#5_alt.wav",20
Sample,213520,0,"D#6_alt.wav",20
Sample,213846,0,"G#4_alt.wav",20
Sample,214172,0,"C5_alt.wav",20
Sample,214498,0,"D#5_alt.wav",20
Sample,214824,0,"G5_alt.wav",20
Sample,215150,0,"C6_alt.wav",20
Sample,215476,0,"G5_alt.wav",20
Sample,215802,0,"D#5_alt.wav",20
Sample,216454,0,"A#4_alt.wav",20
Sample,217107,0,"F5_alt.wav",20
Sample,217433,0,"A#5_alt.wav",20
Sample,217759,0,"D6_alt.wav",20
Sample,218085,0,"A#5_alt.wav",20
Sample,218411,0,"F5_alt.wav",20
Sample,218737,0,"D5_alt.wav",20
Sample,219063,0,"G4_alt.wav",20
Sample,219389,0,"A#4_alt.wav",20
Sample,219715,0,"D5_alt.wav",20
Sample,220041,0,"G5_alt.wav",20
Sample,220694,0,"A#5_alt.wav",20
Sample,221020,0,"D5_alt.wav",20
Sample,221672,0,"G#4_alt.wav",20
Sample,221998,0,"D#5_alt.wav",20
Sample,222324,0,"G5_alt.wav",20
Sample,222650,0,"A#5_alt.wav",20
Sample,222976,0,"C#6_alt.wav",20
Sample,223302,0,"A#5_alt.wav",20
Sample,223628,0,"G5_alt.wav",20
Sample,224280,0,"F4_alt.wav",20
Sample,224607,0,"G#4_alt.wav",20
Sample,224933,0,"C5_alt.wav",20
Sample,225259,0,"D#5_alt.wav",20
Sample,225585,0,"G5_alt.wav",20
Sample,225911,0,"D#5_alt.wav",20
Sample,226237,0,"C5_alt.wav",20
Sample,226889,0,"G4_alt.wav",20
Sample,227215,0,"B4_alt.wav",20
Sample,227541,0,"D5_alt.wav",20
Sample,227867,0,"F5_alt.wav",20
Sample,228520,0,"F5_alt.wav",20
Sample,228846,0,"D5_alt.wav",20

[TimingPoints]
476,652.173913043478,4,2,1,25,1,0
44171,618.556701030928,4,2,1,25,1,0
44171,-105.263157894737,4,2,1,25,0,0
44794,652.173913043478,4,2,1,25,1,0
81641,674.157303370787,4,2,1,25,1,0
81641,-97.0873786407767,4,2,1,25,0,0
82315,652.173913043478,4,2,1,25,1,0
82967,674.157303370787,4,2,1,25,1,0
82967,-97.0873786407767,4,2,1,25,0,0
83304,697.674418604651,4,2,1,25,1,0
83304,-93.4579439252336,4,2,1,25,0,0
83652,722.89156626506,4,2,1,25,1,0
83652,-90.0900900900901,4,2,1,25,0,0
84013,769.230769230769,4,2,1,25,1,0
84013,-84.7457627118644,4,2,1,25,0,0
84397,909.090909090909,4,2,1,25,1,0
84397,-71.9424460431655,4,2,1,25,0,0
84851,1176.47058823529,4,2,1,25,1,0
84851,-55.5555555555556,4,2,1,25,0,0
86276,1176.47058823529,4,2,1,25,1,0
86276,-55.5555555555556,4,2,1,25,0,0
88871,652.173913043478,4,2,1,25,1,0
130610,-100,4,2,1,25,0,1
169740,638.297872340426,4,2,1,25,1,1
169740,-102.040816326531,4,2,1,25,0,1
172293,-102.040816326531,4,2,1,25,0,0
188888,645.161290322581,4,2,1,25,1,0
188888,-101.010101010101,4,2,1,25,0,0
190178,666.666666666667,4,2,1,25,1,0
190178,-98.0392156862745,4,2,1,25,0,0
191511,689.655172413793,4,2,1,25,1,0
191511,-94.3396226415094,4,2,1,25,0,0
192900,681.818181818182,4,2,1,25,1,0
192900,-95.2380952380952,4,2,1,25,0,0
193581,666.666666666667,4,2,1,25,1,0
193581,-98.0392156862745,4,2,1,25,0,0
194914,655.737704918033,4,2,1,25,1,0
194914,-99.009900990099,4,2,1,25,0,0
198194,652.173913043478,4,2,1,25,1,1
234764,714.285714285714,4,2,1,25,1,0
234764,-90.9090909090909,4,2,1,25,0,0
237621,689.655172413793,4,2,1,25,1,0
237621,-94.3396226415094,4,2,1,25,0,0
239000,857.142857142857,4,2,1,25,1,0
239000,-76.3358778625954,4,2,1,25,0,0

[HitObjects]
448,192,2432,5,0,0:0:0:50:F6.wav
192,192,2595,1,0,0:0:0:50:C6.wav
320,192,2921,1,0,0:0:0:50:F5.wav
448,192,3736,128,0,4225:0:0:0:0:
192,192,4225,128,0,4715:0:0:0:0:
320,192,4715,1,0,0:0:0:0:
64,192,5041,1,0,0:0:0:0:
192,192,5367,1,0,0:0:0:0:
448,192,5530,128,0,6019:0:0:0:0:
64,192,6019,1,0,0:0:0:0:
192,192,7975,1,0,0:0:0:0:
448,192,8302,1,0,0:0:0:0:
64,192,8628,1,0,0:0:0:0:
320,192,8954,1,0,0:0:0:0:
192,192,9280,1,0,0:0:0:0:
64,192,9606,1,0,0:0:0:0:
448,192,9932,128,0,10584:0:0:0:0:
192,192,10584,1,0,0:0:0:0:
320,192,12867,1,0,0:0:0:0:
64,192,13030,1,0,0:0:0:0:
448,192,13356,1,0,0:0:0:0:
192,192,14171,1,0,0:0:0:0:
64,192,14497,1,0,0:0:0:0:
320,192,14823,1,0,0:0:0:0:
192,192,15149,1,0,0:0:0:0:
320,192,15475,1,0,0:0:0:0:
448,192,15802,128,0,16454:0:0:0:0:
64,192,16454,1,0,0:0:0:0:
448,192,17758,1,0,0:0:0:0:
320,192,18084,1,0,0:0:0:0:
192,192,18247,1,0,0:0:0:0:
64,192,18573,1,0,0:0:0:0:
320,192,19062,1,0,0:0:0:0:
192,192,19389,1,0,0:0:0:0:
320,192,19715,1,0,0:0:0:0:
448,192,20041,1,0,0:0:0:0:
64,192,20367,1,0,0:0:0:0:
192,192,20693,1,0,0:0:0:0:
448,192,21019,1,0,0:0:0:0:
192,192,21997,1,0,0:0:0:0:
320,192,22323,128,0,22975:0:0:0:0:
64,192,22975,1,0,0:0:0:0:
192,192,23628,1,0,0:0:0:0:
448,192,23954,1,0,0:0:0:0:
320,192,24280,1,0,0:0:0:0:
64,192,24606,1,0,0:0:0:0:
192,192,24932,1,0,0:0:0:0:
320,192,25584,1,0,0:0:0:0:
448,192,25910,1,0,0:0:0:0:
192,192,26236,1,0,0:0:0:0:
64,192,26562,1,0,0:0:0:0:
320,192,26889,1,0,0:0:0:0:
192,192,27215,1,0,0:0:0:0:
448,192,27541,1,0,0:0:0:0:
320,192,28193,1,0,0:0:0:0:
192,192,28519,1,0,0:0:0:0:
64,192,28845,1,0,0:0:0:0:
448,192,29171,128,0,29823:0:0:0:0:
192,192,29823,1,0,0:0:0:0:
320,192,30149,1,0,0:0:0:0:
192,192,30802,1,0,0:0:0:0:
64,192,31454,128,0,32106:0:0:0:0:
320,192,34389,128,0,35693:0:0:0:0:
64,192,35693,128,0,36997:0:0:0:0:
448,192,36997,128,0,38302:0:0:0:0:
192,192,38302,128,0,39606:0:0:0:0:
64,192,39606,128,0,42215:0:0:0:0:
448,192,42215,1,0,0:0:0:0:
192,192,43519,128,0,43845:0:0:0:0:
448,192,44171,128,0,44794:0:0:0:0:
320,192,44794,128,0,45772:0:0:0:50:kick2.wav
64,192,46424,1,0,0:0:0:20:D#5_alt.wav
192,192,46750,1,0,0:0:0:50:kick2.wav
448,192,47076,128,0,47728:0:0:0:20:G#4_alt.wav
192,192,48054,1,0,0:0:0:50:kick2.wav
320,192,48380,128,0,49033:0:0:0:20:A#5_alt.wav
64,192,49033,128,0,49359:0:0:0:20:A#5_alt.wav
448,192,50011,128,0,50989:0:0:0:50:kick2.wav
192,192,50989,128,0,51967:0:0:0:20:G5_alt.wav
320,192,51967,1,0,0:0:0:50:kick2.wav
64,192,52294,128,0,52946:0:0:0:20:A#4_alt.wav
64,192,53924,128,0,54576:0:0:0:50:kick2.wav
320,192,54576,128,0,55228:0:0:0:50:kick2.wav
448,192,55228,128,0,56533:0:0:0:50:kick2.wav
192,192,56859,1,0,0:0:0:20:G#5_alt.wav
320,192,57185,1,0,0:0:0:50:kick2.wav
64,192,57511,128,0,58163:0:0:0:20:C5_alt.wav
448,192,58489,1,0,0:0:0:50:kick2.wav
192,192,58815,128,0,59467:0:0:0:20:G5_alt.wav
64,192,59467,1,0,0:0:0:20:G5_alt.wav
192,192,60120,1,0,0:0:0:20:B4_alt.wav
320,192,60446,128,0,61098:0:0:0:50:kick2.wav
64,192,61750,1,0,0:0:0:50:kick2.wav
192,192,62076,1,0,0:0:0:20:C6_alt.wav
320,192,62402,1,0,0:0:0:50:kick2.wav
448,192,62728,128,0,63707:0:0:0:20:F5_alt.wav
192,192,64359,128,0,64685:0:0:0:50:kick2.wav
320,192,65011,128,0,65663:0:0:0:50:kick2.wav
448,192,65663,128,0,66641:0:0:0:50:kick2.wav
64,192,67294,1,0,0:0:0:20:G5_alt.wav
192,192,67620,1,0,0:0:0:50:kick2.wav
320,192,67946,128,0,68598:0:0:0:20:C5_alt.wav
192,192,68598,128,0,69250:0:0:0:20:D5_alt.wav
448,192,69250,128,0,69576:0:0:0:20:A#5_alt.wav
64,192,70228,128,0,70880:0:0:0:50:kick2.wav
448,192,70880,128,0,71533:0:0:0:50:kick2.wav
192,192,71533,1,0,0:0:0:50:kick2.wav
320,192,71859,128,0,72511:0:0:0:20:G5_alt.wav
192,192,72511,128,0,73163:0:0:0:20:A#5_alt.wav
64,192,73163,128,0,74467:0:0:0:20:A#4_alt.wav
64,192,75120,1,0,0:0:0:20:A#5_alt.wav
192,192,75446,1,0,0:0:0:50:kick2.wav
320,192,75772,1,0,0:0:0:20:C#5_alt.wav
448,192,76098,128,0,76750:0:0:0:50:kick2.wav
192,192,76750,1,0,0:0:0:50:kick2.wav
64,192,77076,128,0,77728:0:0:0:20:D#5_alt.wav
192,192,78054,1,0,0:0:0:50:kick2.wav
320,192,78380,128,0,79033:0:0:0:20:G#4_alt.wav
64,192,79359,1,0,0:0:0:50:kick2.wav
192,192,79685,1,0,0:0:0:20:F5_alt.wav
448,192,80011,1,0,0:0:0:50:kick2.wav
64,192,80337,1,0,0:0:0:20:F5_alt.wav
320,192,80663,1,0,0:0:0:50:kick2.wav
192,192,80989,128,0,81315:0:0:0:20:B4_alt.wav
448,192,81315,1,0,0:0:0:50:kick2.wav
192,192,81978,1,0,0:0:0:20:C7_alt.wav
320,192,82641,1,0,0:0:0:20:D6_alt.wav
64,192,83304,1,0,0:0:0:20:D7_alt.wav
192,192,84013,1,0,0:0:0:20:D#6_alt.wav
320,192,84851,1,0,0:0:0:20:D#7_alt.wav
64,192,86276,128,0,88040:0:0:0:20:C6_alt.wav
448,192,88871,1,0,0:0:0:50:kick.wav
64,192,89197,128,0,89523:0:0:0:0:
448,192,89523,1,0,0:0:0:50:snare.wav
192,192,89849,128,0,90175:0:0:0:50:kick.wav
448,192,90175,128,0,90501:0:0:0:0:
64,192,90501,1,0,0:0:0:50:kick.wav
320,192,90664,1,0,0:0:0:0:
192,192,91153,128,0,91479:0:0:0:0:
320,192,91479,128,0,91805:0:0:0:50:kick.wav
448,192,91805,1,0,0:0:0:0:
64,192,92131,128,0,92457:0:0:0:50:snare.wav
320,192,92457,128,0,92784:0:0:0:50:kick.wav
448,192,92784,1,0,0:0:0:0:
192,192,92947,1,0,0:0:0:50:kick2.wav
64,192,93273,1,0,0:0:0:0:
448,192,94088,1,0,0:0:0:50:kick.wav
192,192,94414,128,0,94740:0:0:0:0:
448,192,94740,128,0,95066:0:0:0:50:snare.wav
64,192,95066,128,0,95392:0:0:0:50:kick.wav
320,192,95718,128,0,96044:0:0:0:50:kick.wav
192,192,96044,128,0,96371:0:0:0:50:snare.wav
64,192,96371,128,0,96697:0:0:0:0:
448,192,96697,1,0,0:0:0:50:kick.wav
320,192,97023,1,0,0:0:0:0:
192,192,97349,128,0,97675:0:0:0:50:snare.wav
320,192,97675,128,0,98001:0:0:0:50:kick.wav
64,192,98001,128,0,98327:0:0:0:0:
192,192,98327,128,0,98653:0:0:0:50:kick.wav
448,192,98653,128,0,98979:0:0:0:50:snare.wav
64,192,98979,128,0,99305:0:0:0:0:
320,192,99305,1,0,0:0:0:50:kick.wav
448,192,99631,1,0,0:0:0:0:
192,192,99957,1,0,0:0:0:50:snare.wav
320,192,100284,128,0,100610:0:0:0:50:kick.wav
64,192,100610,128,0,100936:0:0:0:0:
192,192,100936,1,0,0:0:0:50:kick.wav
448,192,101099,1,0,0:0:0:0:
64,192,101751,1,0,0:0:0:50:kick2.wav
320,192,101914,1,0,0:0:0:50:kick.wav
192,192,102240,1,0,0:0:0:0:
64,192,102566,128,0,102892:0:0:0:50:snare.wav
320,192,102892,1,0,0:0:0:50:kick.wav
448,192,103218,128,0,103544:0:0:0:0:
192,192,103544,1,0,0:0:0:50:kick.wav
320,192,103707,1,0,0:0:0:0:
192,192,104360,1,0,0:0:0:50:kick2.wav
448,192,104523,1,0,0:0:0:50:kick.wav
320,192,105012,1,0,0:0:0:50:kick.wav
64,192,105175,1,0,0:0:0:50:snare.wav
448,192,105664,1,0,0:0:0:0:
64,192,105827,128,0,106153:0:0:0:0:
192,192,106479,1,0,0:0:0:50:snare.wav
448,192,106805,1,0,0:0:0:0:
320,192,107131,128,0,107457:0:0:0:50:kick.wav
192,192,107457,128,0,107784:0:0:0:0:
64,192,107784,128,0,108110:0:0:0:50:snare.wav
448,192,108110,128,0,108762:0:0:0:50:kick.wav
64,192,108762,128,0,109088:0:0:0:50:kick.wav
320,192,109088,1,0,0:0:0:50:snare.wav
192,192,109251,1,0,0:0:0:50:snare.wav
320,192,109414,1,0,0:0:0:50:snare.wav
64,192,109740,128,0,110066:0:0:0:50:kick.wav
320,192,110066,128,0,110392:0:0:0:0:
192,192,110392,128,0,110718:0:0:0:50:snare.wav
64,192,110718,128,0,111044:0:0:0:50:kick.wav
448,192,111371,128,0,111697:0:0:0:50:kick.wav
192,192,111697,128,0,112023:0:0:0:50:snare.wav
320,192,112023,128,0,112349:0:0:0:0:
448,192,112349,128,0,112675:0:0:0:50:kick.wav
192,192,112675,128,0,113001:0:0:0:0:
320,192,113001,128,0,113327:0:0:0:50:snare.wav
64,192,113327,128,0,113653:0:0:0:50:kick.wav
192,192,113979,128,0,114305:0:0:0:50:kick.wav
320,192,114305,128,0,114631:0:0:0:50:snare.wav
64,192,114631,128,0,114957:0:0:0:0:
448,192,114957,128,0,115610:0:0:0:50:kick.wav
64,192,115610,128,0,115936:0:0:0:50:snare.wav
320,192,115936,128,0,116588:0:0:0:50:kick.wav
192,192,116588,128,0,116914:0:0:0:50:kick.wav
448,192,116914,1,0,0:0:0:50:snare.wav
64,192,117240,128,0,117892:0:0:0:0:
448,192,117892,128,0,118218:0:0:0:0:
192,192,118218,1,0,0:0:0:50:snare.wav
320,192,118544,128,0,119034:0:0:0:50:kick.wav
64,192,119034,1,0,0:0:0:50:snare.wav
448,192,119197,128,0,119523:0:0:0:50:kick.wav
192,192,119523,128,0,119849:0:0:0:50:snare.wav
320,192,119849,128,0,120175:0:0:0:0:
448,192,120175,128,0,120501:0:0:0:50:kick.wav
64,192,120501,128,0,120827:0:0:0:0:
320,192,120827,128,0,121153:0:0:0:50:snare.wav
192,192,121153,128,0,121479:0:0:0:50:kick.wav
448,192,121805,128,0,122131:0:0:0:50:kick.wav
64,192,122131,128,0,122457:0:0:0:50:snare.wav
320,192,122457,128,0,122784:0:0:0:0:
192,192,122784,128,0,123110:0:0:0:50:kick.wav
64,192,123110,128,0,123436:0:0:0:0:
320,192,123436,128,0,123762:0:0:0:50:snare.wav
448,192,123762,128,0,124088:0:0:0:50:kick.wav
64,192,124740,128,0,125066:0:0:0:50:snare.wav
320,192,125066,128,0,125392:0:0:0:0:
448,192,125392,128,0,126044:0:0:0:50:kick.wav
64,192,126044,128,0,126370:0:0:0:50:snare.wav
192,192,126370,128,0,127023:0:0:0:50:kick.wav
448,192,127023,128,0,127349:0:0:0:50:kick.wav
64,192,127349,1,0,0:0:0:50:snare.wav
320,192,127675,128,0,128001:0:0:0:0:
192,192,128001,1,0,0:0:0:50:kick.wav
320,192,128979,1,0,0:0:0:50:kick.wav
192,192,129305,128,0,129631:0:0:0:0:
448,192,129957,128,0,130610:0:0:0:0:
320,192,130610,128,0,131099:0:0:0:50:kick.wav
192,192,131099,1,0,0:0:0:50:kick.wav
448,192,131262,1,0,0:0:0:50:snare.wav
64,192,131588,1,0,0:0:0:50:kick.wav
320,192,132240,1,0,0:0:0:50:kick.wav
192,192,132566,1,0,0:0:0:50:snare.wav
448,192,132892,128,0,133218:0:0:0:20:G#4_alt.wav
64,192,133218,1,0,0:0:0:50:kick.wav
192,192,133871,1,0,0:0:0:50:snare.wav
320,192,134197,128,0,134849:0:0:0:50:kick.wav
64,192,134849,128,0,135175:0:0:0:50:kick.wav
448,192,135175,1,0,0:0:0:50:snare.wav
448,192,135827,128,0,136316:0:0:0:50:kick.wav
320,192,136316,1,0,0:0:0:50:kick.wav
64,192,136479,1,0,0:0:0:50:snare.wav
192,192,136805,128,0,137457:0:0:0:50:kick.wav
448,192,137457,1,0,0:0:0:50:kick.wav
320,192,137784,1,0,0:0:0:50:snare.wav
64,192,138110,128,0,138436:0:0:0:20:A#4_alt.wav
448,192,138436,1,0,0:0:0:50:kick.wav
320,192,139088,1,0,0:0:0:50:snare.wav
192,192,139414,1,0,0:0:0:50:kick.wav
64,192,139740,1,0,0:0:0:20:D#6_alt.wav
448,192,139903,1,0,0:0:0:50:snare.wav
192,192,140066,1,0,0:0:0:50:kick.wav
320,192,140392,128,0,141044:0:0:0:50:snare.wav
448,192,141044,128,0,141534:0:0:0:50:kick.wav
192,192,141534,1,0,0:0:0:50:kick.wav
320,192,141697,1,0,0:0:0:50:snare.wav
64,192,142023,1,0,0:0:0:50:kick.wav
320,192,142675,1,0,0:0:0:50:kick.wav
192,192,143001,1,0,0:0:0:50:snare.wav
64,192,143327,128,0,143653:0:0:0:20:C5_alt.wav
448,192,143653,1,0,0:0:0:50:kick.wav
448,192,144305,1,0,0:0:0:50:snare.wav
320,192,144631,1,0,0:0:0:50:kick.wav
192,192,144957,1,0,0:0:0:20:B5_alt.wav
64,192,145284,1,0,0:0:0:50:kick.wav
448,192,145610,1,0,0:0:0:50:snare.wav
192,192,145936,1,0,0:0:0:20:B4_alt.wav
320,192,146262,128,0,146751:0:0:0:50:kick.wav
64,192,146751,1,0,0:0:0:50:kick.wav
448,192,146914,1,0,0:0:0:50:snare.wav
192,192,147240,1,0,0:0:0:50:kick.wav
64,192,147566,1,0,0:0:0:20:D#6_alt.wav
192,192,147892,1,0,0:0:0:50:kick.wav
320,192,148218,1,0,0:0:0:50:snare.wav
448,192,148544,128,0,148870:0:0:0:20:F5_alt.wav
64,192,148870,1,0,0:0:0:50:kick.wav
320,192,149523,1,0,0:0:0:50:snare.wav
64,192,149849,1,0,0:0:0:50:kick.wav
192,192,150175,128,0,150501:0:0:0:20:G6_alt.wav
448,192,150501,1,0,0:0:0:50:kick.wav
320,192,150827,1,0,0:0:0:50:snare.wav
192,192,150990,1,0,0:0:0:50:snare.wav
320,192,151153,1,0,0:0:0:50:snare.wav
448,192,151479,128,0,151968:0:0:0:50:kick.wav
64,192,151968,1,0,0:0:0:50:kick.wav
320,192,152131,1,0,0:0:0:50:snare.wav
192,192,152457,1,0,0:0:0:50:kick.wav
64,192,153110,1,0,0:0:0:50:kick.wav
448,192,153436,1,0,0:0:0:50:snare.wav
320,192,153762,128,0,154088:0:0:0:20:C5_alt.wav
64,192,154088,1,0,0:0:0:50:kick.wav
192,192,154414,128,0,154740:0:0:0:20:D5_alt.wav
320,192,154740,1,0,0:0:0:50:snare.wav
448,192,155066,128,0,155392:0:0:0:50:kick.wav
192,192,155718,1,0,0:0:0:50:kick.wav
64,192,156044,128,0,156697:0:0:0:50:snare.wav
448,192,156697,128,0,157186:0:0:0:50:kick.wav
192,192,157186,1,0,0:0:0:50:kick.wav
64,192,157349,1,0,0:0:0:50:snare.wav
320,192,157675,128,0,158327:0:0:0:50:kick.wav
192,192,158327,128,0,158653:0:0:0:50:kick.wav
448,192,158653,1,0,0:0:0:50:snare.wav
64,192,158979,128,0,159305:0:0:0:20:A#4_alt.wav
320,192,159305,1,0,0:0:0:50:kick.wav
448,192,159957,1,0,0:0:0:50:snare.wav
192,192,160284,1,0,0:0:0:50:kick.wav
448,192,160773,1,0,0:0:0:50:snare.wav
64,192,160936,1,0,0:0:0:50:kick.wav
192,192,161262,1,0,0:0:0:50:snare.wav
320,192,161588,1,0,0:0:0:20:C#5_alt.wav
448,192,161914,128,0,162403:0:0:0:50:kick.wav
192,192,162403,1,0,0:0:0:50:kick.wav
320,192,162566,1,0,0:0:0:50:snare.wav
64,192,162892,128,0,163544:0:0:0:50:kick.wav
448,192,163544,1,0,0:0:0:50:kick.wav
192,192,163870,1,0,0:0:0:50:snare.wav
320,192,164197,128,0,164523:0:0:0:20:G#4_alt.wav
64,192,164523,1,0,0:0:0:50:kick.wav
64,192,165175,1,0,0:0:0:50:snare.wav
192,192,165501,1,0,0:0:0:50:kick.wav
448,192,165827,1,0,0:0:0:20:B5_alt.wav
64,192,166153,1,0,0:0:0:50:kick.wav
320,192,166479,1,0,0:0:0:50:snare.wav
192,192,166805,128,0,167131:0:0:0:20:B4_alt.wav
320,192,167131,1,0,0:0:0:50:kick.wav
192,192,167457,1,0,0:0:0:0:
448,192,167784,1,0,0:0:0:50:snare.wav
64,192,168110,1,0,0:0:0:50:kick.wav
448,192,168436,1,0,0:0:0:0:
320,192,168762,1,0,0:0:0:50:kick.wav
192,192,169088,1,0,0:0:0:50:snare.wav
448,192,169414,1,0,0:0:0:0:
64,192,169740,1,0,0:0:0:50:kick.wav
192,192,170059,1,0,0:0:0:0:
448,192,170378,1,0,0:0:0:50:snare.wav
320,192,170697,1,0,0:0:0:50:kick.wav
64,192,171016,1,0,0:0:0:0:
448,192,171335,1,0,0:0:0:50:kick.wav
192,192,171654,1,0,0:0:0:50:snare.wav
320,192,171974,1,0,0:0:0:0:
64,192,172293,128,0,172771:0:0:0:50:kick.wav
448,192,172771,1,0,0:0:0:50:kick.wav
192,192,172931,1,0,0:0:0:50:snare.wav
320,192,173250,1,0,0:0:0:50:kick.wav
192,192,173410,1,0,0:0:0:50:A#6.wav
64,192,173569,1,0,0:0:0:50:G6.wav
192,192,173888,1,0,0:0:0:50:kick.wav
448,192,174208,1,0,0:0:0:50:snare.wav
64,192,174527,1,0,0:0:0:0:
320,192,174846,1,0,0:0:0:50:kick.wav
64,192,175165,1,0,0:0:0:0:
192,192,175484,1,0,0:0:0:50:snare.wav
448,192,175803,1,0,0:0:0:50:kick.wav
320,192,176016,1,0,0:0:0:50:D#6.wav
192,192,176242,1,0,0:0:0:50:D6.wav
64,192,176601,1,0,0:0:0:50:D#6.wav
448,192,176960,128,0,177399:0:0:0:50:C7.wav
64,192,177399,1,0,0:0:0:50:kick.wav
192,192,177878,1,0,0:0:0:50:kick.wav
320,192,178037,1,0,0:0:0:50:snare.wav
64,192,178357,1,0,0:0:0:50:kick.wav
192,192,178676,1,0,0:0:0:0:
320,192,179048,1,0,0:0:0:50:F7.wav
448,192,179314,1,0,0:0:0:50:snare.wav
320,192,179580,1,0,0:0:0:50:F7.wav
192,192,179753,1,0,0:0:0:50:C#7.wav
64,192,180032,1,0,0:0:0:50:A#6.wav
448,192,180471,1,0,0:0:0:50:C#7.wav
192,192,180750,1,0,0:0:0:50:kick2.wav
320,192,181189,1,0,0:0:0:50:F#6.wav
64,192,181495,1,0,0:0:0:50:F6.wav
192,192,181867,1,0,0:0:0:50:snare.wav
448,192,182240,1,0,0:0:0:50:C#7.wav
64,192,182505,1,0,0:0:0:50:kick.wav
448,192,182984,1,0,0:0:0:50:kick.wav
192,192,183144,1,0,0:0:0:50:snare.wav
320,192,183463,1,0,0:0:0:50:kick.wav
448,192,184101,1,0,0:0:0:50:kick.wav
64,192,184261,1,0,0:0:0:50:G#6.wav
192,192,184420,1,0,0:0:0:50:snare.wav
320,192,184779,1,0,0:0:0:50:G6.wav
448,192,185059,1,0,0:0:0:50:kick.wav
192,192,185431,1,0,0:0:0:50:C#7.wav
320,192,185777,1,0,0:0:0:50:F7.wav
64,192,186122,1,0,0:0:0:50:F7.wav
192,192,186495,1,0,0:0:0:50:kick2.wav
448,192,186761,1,0,0:0:0:50:F#7.wav
320,192,186974,1,0,0:0:0:50:snare.wav
64,192,187612,1,0,0:0:0:50:kick.wav
320,192,187931,1,0,0:0:0:50:C#7.wav
448,192,188250,1,0,0:0:0:50:snare.wav
64,192,188569,1,0,0:0:0:50:kick.wav
448,192,188888,1,0,0:0:0:50:D7.wav
192,192,189210,1,0,0:0:0:50:kick.wav
320,192,189533,1,0,0:0:0:50:snare.wav
64,192,189855,1,0,0:0:0:50:D6.wav
320,192,190178,1,0,0:0:0:50:kick.wav
448,192,190511,1,0,0:0:0:50:A#5.wav
192,192,190844,1,0,0:0:0:50:snare.wav
64,192,191178,1,0,0:0:0:50:kick.wav
192,192,191511,1,0,0:0:0:0:
320,192,191683,1,0,0:0:0:50:snare.wav
64,192,191855,1,0,0:0:0:50:kick.wav
448,192,192200,128,0,192900:0:0:0:50:snare.wav
64,192,192900,128,0,193914:0:0:0:20:F4_alt.wav
192,192,194581,1,0,0:0:0:20:D#5_alt.wav
320,192,194914,1,0,0:0:0:20:C5_alt.wav
448,192,195241,128,0,196225:0:0:0:20:G#4_alt.wav
64,192,196225,1,0,0:0:0:40:kick2.wav
320,192,196553,128,0,197209:0:0:0:20:A#5_alt.wav
192,192,197209,1,0,0:0:0:20:A#5_alt.wav
64,192,197536,1,0,0:0:0:50:snare.wav
448,192,197536,1,0,0:0:0:0:
448,192,198194,128,0,198683:0:0:0:50:kick.wav
192,192,198683,1,0,0:0:0:50:kick.wav
320,192,198846,1,0,0:0:0:50:snare.wav
64,192,199172,128,0,199824:0:0:0:50:kick.wav
448,192,199824,1,0,0:0:0:50:kick.wav
320,192,200150,1,0,0:0:0:50:snare.wav
192,192,200476,128,0,200802:0:0:0:20:A#4_alt.wav
448,192,200802,1,0,0:0:0:50:kick.wav
320,192,201454,1,0,0:0:0:50:snare.wav
192,192,201780,1,0,0:0:0:50:kick.wav
64,192,202107,1,0,0:0:0:20:D#6_alt.wav
448,192,202270,1,0,0:0:0:50:snare.wav
192,192,202433,1,0,0:0:0:50:kick.wav
320,192,202759,128,0,203411:0:0:0:50:snare.wav
448,192,203411,128,0,203900:0:0:0:50:kick.wav
64,192,203900,1,0,0:0:0:50:kick.wav
320,192,204063,1,0,0:0:0:50:snare.wav
192,192,204389,1,0,0:0:0:50:kick.wav
64,192,205041,1,0,0:0:0:50:kick.wav
320,192,205367,1,0,0:0:0:50:snare.wav
192,192,205694,128,0,206020:0:0:0:20:C5_alt.wav
448,192,206020,1,0,0:0:0:50:kick.wav
448,192,206672,1,0,0:0:0:50:snare.wav
320,192,206998,1,0,0:0:0:50:kick.wav
192,192,207324,1,0,0:0:0:20:B5_alt.wav
64,192,207650,1,0,0:0:0:50:kick.wav
448,192,207976,1,0,0:0:0:50:snare.wav
192,192,208302,1,0,0:0:0:20:B4_alt.wav
320,192,208628,128,0,209117:0:0:0:50:kick.wav
64,192,209117,1,0,0:0:0:50:kick.wav
448,192,209280,1,0,0:0:0:50:snare.wav
192,192,209607,1,0,0:0:0:50:kick.wav
64,192,209933,1,0,0:0:0:20:D#6_alt.wav
192,192,210259,1,0,0:0:0:50:kick.wav
320,192,210585,1,0,0:0:0:50:snare.wav
448,192,210911,128,0,211237:0:0:0:20:F5_alt.wav
64,192,211237,1,0,0:0:0:50:kick.wav
320,192,211889,1,0,0:0:0:50:snare.wav
64,192,212215,1,0,0:0:0:50:kick.wav
192,192,212541,128,0,212867:0:0:0:20:G6_alt.wav
448,192,212867,1,0,0:0:0:50:kick.wav
320,192,213194,1,0,0:0:0:50:snare.wav
192,192,213357,1,0,0:0:0:50:snare.wav
320,192,213520,1,0,0:0:0:50:snare.wav
448,192,213846,128,0,214335:0:0:0:50:kick.wav
64,192,214335,1,0,0:0:0:50:kick.wav
320,192,214498,1,0,0:0:0:50:snare.wav
192,192,214824,1,0,0:0:0:50:kick.wav
64,192,215476,1,0,0:0:0:50:kick.wav
448,192,215802,1,0,0:0:0:50:snare.wav
320,192,216128,128,0,216454:0:0:0:20:C5_alt.wav
64,192,216454,1,0,0:0:0:50:kick.wav
192,192,216780,128,0,217107:0:0:0:20:D5_alt.wav
320,192,217107,1,0,0:0:0:50:snare.wav
448,192,217433,128,0,217759:0:0:0:50:kick.wav
192,192,218085,1,0,0:0:0:50:kick.wav
64,192,218411,128,0,219063:0:0:0:50:snare.wav
448,192,219063,128,0,219552:0:0:0:50:kick.wav
192,192,219552,1,0,0:0:0:50:kick.wav
320,192,219715,1,0,0:0:0:50:snare.wav
64,192,220041,128,0,220694:0:0:0:50:kick.wav
448,192,220694,128,0,221020:0:0:0:50:kick.wav
192,192,221020,1,0,0:0:0:50:snare.wav
64,192,221346,128,0,221672:0:0:0:20:A#4_alt.wav
320,192,221672,1,0,0:0:0:50:kick.wav
448,192,222324,1,0,0:0:0:50:snare.wav
192,192,222650,1,0,0:0:0:50:kick.wav
448,192,223139,1,0,0:0:0:50:snare.wav
64,192,223302,1,0,0:0:0:50:kick.wav
192,192,223628,1,0,0:0:0:50:snare.wav
320,192,223954,1,0,0:0:0:20:C#5_alt.wav
448,192,224280,128,0,224770:0:0:0:50:kick.wav
192,192,224770,1,0,0:0:0:50:kick.wav
320,192,224933,1,0,0:0:0:50:snare.wav
64,192,225259,128,0,225911:0:0:0:50:kick.wav
448,192,225911,1,0,0:0:0:50:kick.wav
192,192,226237,1,0,0:0:0:50:snare.wav
320,192,226563,128,0,226889:0:0:0:20:G#4_alt.wav
64,192,226889,1,0,0:0:0:50:kick.wav
64,192,227541,1,0,0:0:0:50:snare.wav
192,192,227867,1,0,0:0:0:50:kick.wav
448,192,228194,1,0,0:0:0:20:B5_alt.wav
64,192,228520,1,0,0:0:0:50:kick.wav
320,192,228846,1,0,0:0:0:50:snare.wav
192,192,229172,128,0,229498:0:0:0:20:B4_alt.wav
320,192,229498,1,0,0:0:0:50:kick.wav
192,192,229987,1,0,0:0:0:50:kick.wav
448,192,230150,1,0,0:0:0:50:snare.wav
64,192,230476,1,0,0:0:0:50:kick.wav
64,192,231128,1,0,0:0:0:50:kick.wav
448,192,231454,1,0,0:0:0:50:snare.wav
192,192,232107,1,0,0:0:0:50:kick.wav
320,192,232759,1,0,0:0:0:50:snare.wav
448,192,233085,1,0,0:0:0:50:kick.wav
64,192,233737,128,0,234063:0:0:0:50:kick.wav
192,192,234063,128,0,234389:0:0:0:50:snare.wav
320,192,234389,128,0,234764:0:0:0:0:
448,192,234764,128,0,235478:0:0:0:50:kick.wav
192,192,235478,128,0,235835:0:0:0:0:
320,192,235835,128,0,236549:0:0:0:0:
64,192,236906,128,0,237264:0:0:0:0:
192,192,237264,128,0,237621:0:0:0:0:
448,192,238310,128,0,238655:0:0:0:0:
320,192,238655,128,0,239000:0:0:0:0:
192,192,239000,128,0,239428:0:0:0:0:
64,192,239428,128,0,239857:0:0:0:0:
320,192,239857,128,0,240285:0:0:0:0:
192,192,240285,128,0,240714:0:0:0:0:
448,192,240714,128,0,244142:0:0:0:0:
