osu file format v14

[General]
AudioFilename: audio.mp3
AudioLeadIn: 0
PreviewTime: 129321
Countdown: 0
SampleSet: Soft
StackLeniency: 0.7
Mode: 0
LetterboxInBreaks: 0
WidescreenStoryboard: 1

[Editor]
DistanceSpacing: 1.7
BeatDivisor: 16
GridSize: 32
TimelineZoom: 1

[Metadata]
Title:dreamy night
TitleUnicode:dreamy night
Artist:LilyPichu
ArtistUnicode:LilyPichu
Creator:Battle
Version:hard
Source:
Tags:english hip hop offlinetv twitch streamer comfi beats comfy rezyon yungi chang zorsy megan shipman 18moptop gwinshin pop lofi piano jazz
BeatmapID:2796544
BeatmapSetID:1298416

[Difficulty]
HPDrainRate:5
CircleSize:3.6
OverallDifficulty:6
ApproachRate:7
SliderMultiplier:1.5
SliderTickRate:1

[Events]
//Background and Video events
0,0,"bg.jpg",0,0
//Break Periods
2,86573,87993
2,172590,186809
//Storyboard Layer 0 (Background)
//Storyboard Layer 1 (Fail)
//Storyboard Layer 2 (Pass)
//Storyboard Layer 3 (Foreground)
//Storyboard Layer 4 (Overlay)
//Storyboard Sound Samples

[TimingPoints]
573,652.173913043478,4,2,1,25,1,0
3181,-400,4,2,1,25,0,0
24051,-133.333333333333,4,2,1,25,0,0
32529,-133.333333333333,4,2,1,5,0,0
34486,-200,4,2,1,30,0,0
39703,-400,4,2,1,25,0,0
44268,618.556701030928,4,2,1,30,1,0
44891,652.173913043478,4,2,1,35,1,0
44891,-125,4,2,1,35,0,0
81738,674.157303370787,4,2,1,35,1,0
81738,-125,4,2,1,35,0,0
82412,652.173913043478,4,2,1,33,1,0
83064,674.157303370787,4,2,1,31,1,0
83401,697.674418604651,4,2,1,29,1,0
83401,-125,4,2,1,29,0,0
83749,722.89156626506,4,2,1,27,1,0
84110,769.230769230769,4,2,1,25,1,0
84494,909.090909090909,4,2,1,23,1,0
84948,1176.47058823529,4,2,1,21,1,0
84948,-125,4,2,1,21,0,0
86373,1176.47058823529,4,2,1,21,1,0
88968,652.173913043478,4,2,2,35,1,0
88968,-62.5,4,2,2,35,0,0
128750,-66.6666666666667,4,2,2,35,0,0
129402,-125,4,2,2,35,0,0
130707,-55.5555555555556,4,2,2,40,0,0
169837,638.297872340426,4,2,2,40,1,0
169837,-55.5555555555556,4,2,2,40,0,0
172390,-66.6666666666667,4,2,2,40,0,0
188985,645.161290322581,4,2,2,40,1,0
188985,-66.6666666666667,4,2,2,40,0,0
190275,666.666666666667,4,2,2,40,1,0
190275,-66.6666666666667,4,2,2,40,0,0
191608,689.655172413793,4,2,2,35,1,0
191608,-66.6666666666667,4,2,2,35,0,0
192997,681.818181818182,4,2,1,35,1,0
192997,-133.333333333333,4,2,1,35,0,0
193678,666.666666666667,4,2,1,35,1,0
193678,-133.333333333333,4,2,1,35,0,0
195011,655.737704918033,4,2,1,35,1,0
195011,-133.333333333333,4,2,1,35,0,0
197633,-66.6666666666667,4,2,1,40,0,0
198291,652.173913043478,4,2,2,40,1,1
198291,-50,4,2,2,40,0,1
229595,-62.5,4,2,2,40,0,0
233834,-90.9090909090909,4,2,2,35,0,0
234160,-50,4,2,2,30,0,0
234486,750,4,2,2,25,1,0
234861,-50,4,2,2,20,0,0

[Colours]
Combo1 : 41,205,214
Combo2 : 227,21,135
Combo3 : 79,158,255
Combo4 : 126,105,190

[HitObjects]
37,340,573,6,0,L|30:299,3,37.5,2|0|0|0,0:0|0:0|0:0|0:0,0:0:0:0:
79,264,1225,2,0,L|86:223,3,37.5,2|0|0|0,0:0|0:0|0:0|0:0,0:0:0:0:
144,213,1877,2,0,L|173:183,3,37.5,2|0|0|0,0:0|0:0|0:0|0:0,0:0:0:0:
231,198,2529,2,0,L|272:191,3,37.5,2|2|0|0,0:0|0:0|0:0|0:0,0:0:0:0:
331,205,3181,6,0,B|344:118|293:134|308:55,1,150,2|0,0:0|0:0,0:0:0:0:
331,205,8399,2,0,P|408:188|435:247,1,150,2|0,0:0|0:0,0:0:0:0:
352,344,13616,2,0,B|313:344|284:319|284:319|260:351|213:348,1,150,2|0,0:0|0:0,0:0:0:0:
116,288,18833,2,0,P|128:234|211:236,1,150,2|0,0:0|0:0,0:0:0:0:
312,287,22094,1,2,0:0:0:0:
312,287,22420,2,0,P|304:253|301:247,1,37.5,2|2,0:0|0:0,0:0:0:0:
379,172,23725,5,2,0:0:0:0:
379,172,24051,2,0,P|382:132|396:101,2,56.2500021457673,2|0|2,0:0|0:0|0:0,0:0:0:0:
451,40,25029,2,0,P|402:64|338:46,1,112.500004291535,2|0,0:0|0:0,0:0:0:0:
236,16,26007,1,2,0:0:0:0:
180,101,26333,1,2,0:0:0:0:
261,161,26659,6,0,P|278:203|270:222,2,56.2500021457673,2|0|2,0:0|0:0|0:0,0:0:0:0:
311,294,27638,2,0,P|272:263|200:275,1,112.500004291535,2|0,0:0|0:0,0:0:0:0:
129,315,28616,1,2,0:0:0:0:
58,233,28942,1,2,0:0:0:0:
134,178,29268,2,0,P|158:133|123:64,1,112.500004291535,2|0,0:0|0:0,0:0:0:0:
47,52,30246,1,2,0:0:0:0:
22,227,30899,1,2,0:0:0:0:
204,162,31551,1,2,0:0:0:0:
204,162,31877,2,0,B|266:170|242:134|338:144,1,112.500004291535
312,142,34486,6,0,P|303:210|298:300,1,150,2|0,0:0|0:0,0:0:0:0:
189,141,37094,2,0,P|159:69|221:60,1,150,2|0,0:0|0:0,0:0:0:0:
414,134,39703,2,0,P|428:58|374:57,1,150,2|2,0:0|0:0,0:0:0:0:
355,60,43616,5,2,0:0:0:0:
262,103,44268,1,2,0:0:0:0:
172,127,44891,6,0,P|159:69|211:26,1,120,2|0,3:2|3:0,0:0:0:0:
262,103,45869,1,0,0:0:0:0:
172,127,46195,2,0,P|125:119|100:132,1,60,0|2,3:0|0:0,0:0:0:0:
54,203,46847,1,2,3:2:0:0:
120,280,47173,1,2,0:0:0:0:
77,371,47499,6,0,P|125:335|194:371,1,120,0|2,3:0|3:2,0:0:0:0:
340,270,48477,2,0,P|293:292|267:283,1,60,2|0,0:0|3:0,0:0:0:0:
200,228,49130,2,0,P|247:206|269:210,1,60,2|0,0:0|3:0,0:0:0:0:
345,142,49782,1,0,0:0:0:0:
243,87,50108,6,0,P|256:163|249:228,1,120,2|0,3:2|3:0,0:0:0:0:
132,254,51086,2,0,P|105:194|166:183,1,120,2|0,0:0|0:0,0:0:0:0:
229,240,52064,1,2,3:2:0:0:
187,333,52391,1,2,0:0:0:0:
277,380,52717,6,0,L|358:373,2,60,0|0|0,3:0|0:0|3:0,0:0:0:0:
222,299,53695,1,0,0:0:0:0:
222,299,54021,2,0,L|367:286,1,120,2|2,3:2|3:2,0:0:0:0:
480,122,55325,6,0,P|440:89|373:127,1,120,2|0,3:2|3:0,0:0:0:0:
287,180,56304,1,0,0:0:0:0:
201,124,56630,2,0,P|190:83|202:53,1,60,0|2,3:0|0:0,0:0:0:0:
62,28,57282,1,2,3:2:0:0:
62,28,57608,6,0,P|95:101|80:164,1,120,2|0,0:0|0:0,0:0:0:0:
28,221,58586,1,2,3:2:0:0:
76,315,58912,2,0,P|104:298|114:254,1,60,2|0,0:0|3:0,0:0:0:0:
197,214,59564,2,0,P|218:260|211:293,1,60,2|0,0:0|3:0,0:0:0:0:
196,374,60217,1,2,0:0:0:0:
313,331,60543,6,0,B|386:340|356:292|447:299,1,120,2|0,3:2|3:0,0:0:0:0:
240,254,61847,1,2,3:2:0:0:
193,163,62173,1,2,0:0:0:0:
258,85,62499,1,2,3:2:0:0:
185,14,62825,1,2,0:0:0:0:
185,14,63151,6,0,P|143:4|107:21,1,60,0|0,3:0|0:0,0:0:0:0:
258,85,63804,2,0,P|290:92|322:82,1,60,0|0,3:0|0:0,0:0:0:0:
445,29,64456,2,0,B|436:71|436:71|446:103|446:103|426:169,1,120,2|2,3:2|3:2,0:0:0:0:
260,275,65760,6,0,P|252:182|286:157,1,120,2|0,3:2|3:0,0:0:0:0:
364,215,66738,1,0,0:0:0:0:
358,316,67064,2,0,L|326:387,1,60,0|2,3:0|0:0,0:0:0:0:
260,275,67717,1,2,3:2:0:0:
168,333,68043,6,0,L|20:316,1,120,2|2,0:0|0:0,0:0:0:0:
200,201,69347,2,0,L|335:185,1,120,2|0,0:0|0:0,0:0:0:0:
391,114,70325,2,0,P|399:66|379:34,1,60,2|0,3:2|0:0,0:0:0:0:
293,25,70977,6,0,B|222:33,2,60,2|0|2,3:2|0:0|3:2,0:0:0:0:
194,128,71956,2,0,B|124:108|124:108|56:131,1,120,2|2,0:0|0:0,0:0:0:0:
14,213,72934,1,0,3:0:0:0:
78,292,73260,1,2,0:0:0:0:
166,242,73586,6,0,P|186:283|173:318,1,60,0|0,3:0|0:0,0:0:0:0:
275,384,74238,2,0,P|273:350|291:322,1,60,0|0,3:0|0:0,0:0:0:0:
366,253,74890,1,0,0:0:0:0:
301,173,75217,1,2,0:0:0:0:
364,93,75543,2,0,L|442:88,1,60,2|2,3:2|0:0,0:0:0:0:
298,10,76195,6,0,P|249:18|212:98,1,120,2|2,3:2|3:2,0:0:0:0:
141,163,77173,2,0,P|190:171|225:252,1,120,2|0,0:0|0:0,0:0:0:0:
153,310,78151,1,2,3:2:0:0:
54,336,78477,6,0,P|18:280|39:218,1,120,2|0,0:0|0:0,0:0:0:0:
61,118,79456,2,0,P|125:149|130:148,1,60,2|2,3:2|0:0,0:0:0:0:
187,90,80108,1,2,3:2:0:0:
267,29,80434,1,0,0:2:0:0:
359,89,80760,1,2,3:2:0:0:
448,39,81086,1,0,0:0:0:0:
256,192,81412,12,2,86373,0:0:0:0:
52,287,88968,6,0,P|37:208|80:172,1,120,0|2,3:0|0:0,0:0:0:0:
155,204,89457,1,0,0:0:0:0:
155,204,89620,2,0,P|204:184|235:185,1,60,10|0,1:2|0:0,0:0:0:0:
297,119,89946,2,0,P|346:139|377:138,1,60,2|0,3:2|0:0,0:0:0:0:
473,98,90272,2,0,B|447:160|487:155|456:232,1,120,2|0,0:0|3:0,0:0:0:0:
363,257,90761,1,0,0:0:0:0:
363,257,90924,2,0,B|336:195|376:200|346:122,1,120,8|2,1:2|0:0,0:0:0:0:
303,49,91413,1,0,0:0:0:0:
217,104,91576,6,0,P|173:111|146:99,1,60,2|0,3:2|0:0,0:0:0:0:
40,29,91902,2,0,P|86:22|115:39,1,60,2|0,0:0|3:0,0:0:0:0:
159,106,92228,2,0,B|131:173|174:158|151:244,1,120,10|2,1:2|3:2,0:0:0:0:
30,384,92881,1,2,0:0:0:0:
30,384,93044,2,0,B|80:353|80:353|162:362,1,120,2|2,3:2|0:0,0:0:0:0:
240,338,93533,2,0,P|256:300|251:267,1,60,10|0,1:2|0:0,0:0:0:0:
189,193,93859,2,0,P|183:141|194:108,1,60,0|0,0:0|3:0,0:0:0:0:
259,55,94185,1,0,3:0:0:0:
480,195,94511,6,0,L|412:199,1,60,2|0,0:0|3:0,0:0:0:0:
361,110,94837,2,0,L|428:105,1,60,10|0,1:2|0:0,0:0:0:0:
324,200,95163,2,0,B|227:226|292:294|178:321,1,180,2|0,3:2|3:0,0:0:0:0:
95,303,95815,2,0,L|74:229,1,60,2|0,3:2|0:0,0:0:0:0:
157,181,96141,2,0,L|167:100,1,60,10|0,1:2|0:0,0:0:0:0:
34,77,96468,2,0,P|71:39|99:39,1,60,2|0,0:0|3:0,0:0:0:0:
183,28,96794,6,0,B|210:35|210:35|262:22,1,60,2|2,3:2|0:0,0:0:0:0:
325,123,97120,2,0,B|291:116|291:116|242:127,1,60,2|2,0:0|3:2,0:0:0:0:
180,176,97446,2,0,B|162:235|211:219|177:317,1,120,10|2,1:2|3:2,0:0:0:0:
338,379,98098,2,0,P|329:325|337:305,1,60,2|0,0:0|1:0,0:0:0:0:
413,223,98424,2,0,P|422:277|414:297,1,60,2|0,3:2|0:0,0:0:0:0:
305,205,98750,2,0,P|337:148|412:132,1,120,10|2,1:2|0:0,0:0:0:0:
466,191,99239,1,0,3:0:0:0:
471,96,99402,6,0,P|416:39|356:50,1,120,0|2,3:0|0:0,0:0:0:0:
295,96,99891,1,0,3:0:0:0:
197,66,100054,2,0,P|192:17|201:-7,2,60,10|0|2,1:2|0:0|3:2,0:0:0:0:
109,117,100544,1,0,0:0:0:0:
109,117,100707,2,0,B|99:162|99:162|109:190|109:190|98:257,1,120,2|0,0:0|3:0,0:0:0:0:
70,337,101196,2,0,P|124:289|178:305,1,120,2|0,0:0|0:0,0:0:0:0:
231,218,101685,2,0,P|271:243|304:241,1,60,0|0,0:0|3:0,0:0:0:0:
363,184,102011,6,0,L|358:106,2,60,2|0|2,3:2|0:0|0:0,0:0:0:0:
471,258,102500,1,0,0:0:0:0:
471,258,102663,2,0,L|461:115,1,120,10|2,1:2|3:2,0:0:0:0:
417,30,103152,1,0,3:0:0:0:
327,79,103315,2,0,B|258:81|287:127|191:123,1,120,2|0,0:0|3:0,0:0:0:0:
117,109,103804,2,0,P|129:37|186:26,1,120,2|0,0:0|0:0,0:0:0:0:
0,186,104457,5,0,3:0:0:0:
46,277,104620,1,2,3:2:0:0:
46,277,104783,2,0,P|139:244|180:251,1,120,2|2,0:0|3:2,0:0:0:0:
262,266,105272,1,10,1:2:0:0:
262,266,105435,2,0,P|355:299|398:291,1,120,2|2,0:0|0:0,0:0:0:0:
452,231,105924,2,0,P|482:180|450:110,1,120,2|0,0:0|3:0,0:0:0:0:
275,52,106576,2,0,L|188:51,1,60,10|2,1:2|0:0,0:0:0:0:
158,136,106902,2,0,L|245:137,1,60,2|2,0:0|3:2,0:0:0:0:
294,241,107228,6,0,P|220:222|161:252,1,120,2|2,1:2|0:0,0:0:0:0:
82,228,107718,1,0,3:0:0:0:
82,228,107881,2,0,P|100:274|95:306,1,60,8|0,1:2|3:0,0:0:0:0:
98,377,108207,2,0,B|153:378|175:337|175:337|201:376|261:378,1,180,0|0,1:0|3:0,0:0:0:0:
256,275,108859,2,0,P|234:232|254:204,1,60,8|0,1:2|0:0,0:0:0:0:
302,146,109185,1,8,0:0:0:0:
231,71,109348,1,8,0:0:0:0:
305,1,109511,2,0,P|355:14|386:12,1,60,8|8,0:0|0:0,0:0:0:0:
464,9,109837,6,0,B|438:77|485:64|451:150,2,120,2|2|10,1:2|0:0|0:0,0:0:0:0:
348,170,110815,2,0,P|401:215|388:284,1,120,2|0,1:2|0:0,0:0:0:0:
310,330,111304,1,0,0:0:0:0:
310,330,111468,2,0,P|257:313|229:319,1,60,2|0,1:2|0:0,0:0:0:0:
110,235,111794,2,0,P|172:234|242:201,1,120,10|0,0:0|0:0,0:0:0:0:
342,61,112446,6,0,P|334:28|352:-11,1,60,2|0,1:2|0:0,0:0:0:0:
442,10,112772,2,0,P|450:43|432:82,1,60,2|0,0:0|1:0,0:0:0:0:
349,165,113098,2,0,P|343:218|348:245,1,60,10|0,0:0|0:0,0:0:0:0:
444,282,113424,2,0,P|456:200|435:143,1,120,2|0,1:2|0:0,0:0:0:0:
322,335,114076,2,0,P|278:352|261:383,1,60,2|0,1:2|0:0,0:0:0:0:
164,359,114402,2,0,P|197:291|245:261,1,120,10|2,0:0|0:0,0:0:0:0:
283,178,114891,1,0,3:0:0:0:
244,70,115054,6,0,P|175:67|183:156,1,180,2|0,1:2|1:0,0:0:0:0:
283,178,115707,2,0,P|332:158|361:161,1,60,10|0,0:2|0:0,0:0:0:0:
395,55,116033,2,0,P|467:45|456:147,1,180,2|0,1:2|3:0,0:0:0:0:
412,210,116685,2,0,P|384:266|389:286,1,60,2|0,1:2|0:0,0:0:0:0:
406,379,117011,2,0,P|331:330|291:334,1,120,8|2,0:0|0:0,0:0:0:0:
214,293,117500,1,0,3:0:0:0:
214,293,117663,6,0,P|189:249|209:167,1,120,0|2,1:0|0:0,0:0:0:0:
303,175,118152,1,0,1:0:0:0:
303,175,118315,2,0,P|315:128|302:96,1,60,8|0,0:0|3:0,0:0:0:0:
257,24,118641,2,0,P|207:69|140:64,1,120,2|0,1:2|0:0,0:0:0:0:
60,35,119131,1,0,1:0:0:0:
1,122,119294,2,0,P|-8:172|-2:195,1,60,2|0,3:2|0:0,0:0:0:0:
90,225,119620,2,0,P|99:175|93:152,1,60,2|0,1:2|3:0,0:0:0:0:
5,289,119946,2,0,P|-4:339|2:362,1,60,2|0,1:2|3:0,0:0:0:0:
97,328,120272,6,0,B|176:337|142:294|234:303,2,120,2|0|10,1:2|0:0|0:2,0:0:0:0:
295,373,121250,2,0,P|277:296|322:254,1,120,2|0,1:2|0:0,0:0:0:0:
401,248,121739,1,0,3:0:0:0:
401,248,121902,2,0,P|455:245|484:246,1,60,2|0,1:2|0:0,0:0:0:0:
495,147,122228,2,0,P|416:158|357:146,1,120,10|2,0:2|0:0,0:0:0:0:
180,54,122881,6,0,P|119:43|97:54,1,60,2|0,3:2|0:0,0:0:0:0:
61,130,123207,2,0,P|122:141|144:130,1,60,2|0,0:0|1:0,0:0:0:0:
185,218,123533,2,0,P|178:274|186:302,1,60,10|0,0:0|0:0,0:0:0:0:
298,351,123859,2,0,P|307:273|289:208,1,120,2|0,1:2|0:0,0:0:0:0:
236,138,124348,1,0,3:0:0:0:
236,138,124511,2,0,P|276:106|301:100,1,60,0|0,1:0|0:0,0:0:0:0:
352,19,124837,2,0,P|417:72|473:71,1,120,10|2,0:0|0:0,0:0:0:0:
468,178,125326,1,0,3:0:0:0:
468,178,125489,6,0,P|401:185|353:231,1,120,2|0,3:2|0:0,0:0:0:0:
213,379,126141,2,0,L|206:307,1,60,10|0,0:0|0:0,0:0:0:0:
121,263,126467,2,0,P|184:216|240:213,1,120,2|0,1:2|0:0,0:0:0:0:
423,132,127120,2,0,P|376:126|351:107,1,60,2|0,1:2|0:0,0:0:0:0:
297,34,127446,6,0,P|237:17|161:31,1,120,8|2,0:0|0:0,0:0:0:0:
88,95,127935,1,2,0:2:0:0:
117,192,128098,1,2,3:2:0:0:
117,192,129402,6,0,P|69:223|71:282,1,120,2|2,0:0|0:0,0:0:0:0:
117,192,130707,6,0,B|201:201|164:144|268:160,1,134.999995880127,2|0,3:2|0:0,0:0:0:0:
335,99,131196,1,0,1:0:0:0:
335,99,131359,2,0,P|391:133|406:129,1,67.4999979400635,8|0,0:0|0:0,0:0:0:0:
477,193,131685,2,0,P|422:285|421:334,1,134.999995880127,0|0,1:0|0:0,0:0:0:0:
230,360,132337,2,0,P|188:354|147:366,1,67.4999979400635,2|0,1:2|0:0,0:0:0:0:
38,276,132663,2,0,P|79:281|120:269,1,67.4999979400635,10|0,0:0|0:0,0:0:0:0:
190,211,132989,1,2,0:0:0:0:
155,111,133152,1,0,3:0:0:0:
155,111,133315,6,0,P|96:56|35:91,1,134.999995880127,0|0,3:2|0:0,0:0:0:0:
38,276,133968,2,0,P|32:238|19:202,1,67.4999979400635,10|0,1:2|3:0,0:0:0:0:
162,210,134294,2,0,P|137:282|136:358,1,134.999995880127,2|0,3:2|0:0,0:0:0:0:
229,323,134783,1,0,3:0:0:0:
229,323,134946,2,0,P|275:308|314:314,1,67.4999979400635,2|0,1:2|0:0,0:0:0:0:
396,341,135272,2,0,P|394:264|361:194,1,134.999995880127,8|0,0:0|0:0,0:0:0:0:
188,114,135924,6,0,B|319:136|261:54|398:67,1,202.499993820191,2|0,3:2|1:0,0:0:0:0:
473,112,136576,2,0,P|462:168|463:203,1,67.4999979400635,8|0,0:0|0:0,0:0:0:0:
466,298,136902,2,0,B|401:298|377:253|377:253|348:297|282:308,1,202.499993820191,2|0,1:2|3:0,0:0:0:0:
193,277,137554,2,0,P|214:234|257:219,1,67.4999979400635,0|0,1:0|0:0,0:0:0:0:
319,111,137881,2,0,P|259:132|175:98,1,134.999995880127,10|2,0:2|0:0,0:0:0:0:
119,33,138370,1,0,3:0:0:0:
23,78,138533,6,0,P|4:117|20:162,1,67.4999979400635,0|0,3:0|0:0,0:0:0:0:
93,201,138859,2,0,P|111:233|105:271,1,67.4999979400635,0|0,0:0|1:0,0:0:0:0:
41,347,139185,2,0,P|119:315|193:342,1,134.999995880127,8|0,0:0|3:0,0:0:0:0:
265,279,139674,1,0,0:0:0:0:
202,201,139837,1,2,0:0:0:0:
287,150,140000,1,0,1:0:0:0:
211,84,140163,2,0,P|246:54|290:51,1,67.4999979400635,0|0,3:0|0:0,0:0:0:0:
363,3,140489,2,0,P|413:62|490:63,1,134.999995880127,2|0,1:2|0:0,0:0:0:0:
470,263,141141,6,0,P|420:204|343:203,1,134.999995880127,2|0,3:2|0:0,0:0:0:0:
272,245,141631,1,0,1:0:0:0:
161,241,141794,2,0,P|173:283|162:328,1,67.4999979400635,8|0,0:0|0:0,0:0:0:0:
52,384,142120,2,0,P|38:303|58:235,1,134.999995880127,0|0,1:0|0:0,0:0:0:0:
66,37,142772,2,0,L|139:57,1,67.4999979400635,2|0,1:2|0:0,0:0:0:0:
173,150,143098,2,0,L|248:138,1,67.4999979400635,10|0,0:0|0:0,0:0:0:0:
316,66,143424,1,2,0:0:0:0:
419,69,143587,1,0,3:0:0:0:
419,69,143750,6,0,P|472:142|458:203,1,134.999995880127,0|0,3:0|0:0,0:0:0:0:
371,376,144402,2,0,P|372:316|396:298,1,67.4999979400635,10|0,1:2|3:0,0:0:0:0:
326,221,144728,2,0,B|279:226|261:251|261:251|231:234|172:234,1,134.999995880127,2|0,3:2|0:0,0:0:0:0:
71,149,145217,1,0,3:0:0:0:
71,149,145381,2,0,B|111:145|131:116|131:116|162:138|214:137,1,134.999995880127,2|8,1:2|0:0,0:0:0:0:
405,107,146033,2,0,P|412:69|398:29,1,67.4999979400635,2|0,0:0|3:0,0:0:0:0:
298,22,146359,6,0,P|309:116|318:187,1,134.999995880127,2|0,3:2|0:0,0:0:0:0:
247,242,146848,1,0,0:0:0:0:
247,242,147011,2,0,P|286:289|291:321,1,67.4999979400635,8|0,1:2|0:0,0:0:0:0:
395,286,147337,2,0,P|396:248|413:213,1,67.4999979400635,0|0,3:0|0:0,0:0:0:0:
476,140,147663,2,0,P|491:84|470:55,1,67.4999979400635,2|0,0:0|3:0,0:0:0:0:
425,3,147989,2,0,P|367:-3|338:18,1,67.4999979400635,2|0,1:2|0:0,0:0:0:0:
293,85,148315,2,0,P|235:91|205:71,1,67.4999979400635,10|0,0:0|0:0,0:0:0:0:
162,9,148641,1,2,0:0:0:0:
71,44,148804,1,0,3:0:0:0:
71,44,148967,6,0,P|17:112|44:177,1,134.999995880127,0|0,3:0|0:0,0:0:0:0:
66,366,149620,2,0,L|33:287,1,67.4999979400635,8|0,0:0|3:0,0:0:0:0:
133,271,149946,2,0,L|172:203,1,67.4999979400635,0|0,1:0|0:0,0:0:0:0:
251,262,150272,2,0,B|327:273|290:225|408:241,1,134.999995880127,2|0,3:2|3:0,0:0:0:0:
501,69,150924,1,8,0:0:0:0:
415,119,151087,1,8,0:0:0:0:
333,61,151250,2,0,P|301:35|252:37,1,67.4999979400635,8|0,1:2|0:0,0:0:0:0:
178,78,151576,6,0,B|96:90|148:142|47:148,1,134.999995880127,2|0,3:2|0:0,0:0:0:0:
34,356,152228,2,0,P|24:299|43:276,1,67.4999979400635,8|0,0:0|0:0,0:0:0:0:
131,285,152554,2,0,P|145:319|133:355,1,67.4999979400635,0|0,1:0|0:0,0:0:0:0:
230,376,152881,2,0,P|244:302|209:226,1,134.999995880127,0|2,0:0|1:2,0:0:0:0:
136,195,153370,1,0,0:0:0:0:
136,195,153533,2,0,P|120:138|112:112,1,67.4999979400635,10|0,0:2|0:0,0:0:0:0:
216,87,153859,2,0,P|231:39|248:2,1,67.4999979400635,2|0,0:2|3:0,0:0:0:0:
327,82,154185,6,0,P|413:108|473:88,1,134.999995880127,0|2,3:0|0:0,0:0:0:0:
458,215,154674,1,0,1:0:0:0:
458,215,154837,2,0,P|398:207|374:214,1,67.4999979400635,8|0,0:0|3:0,0:0:0:0:
284,215,155163,2,0,P|305:290|286:370,1,134.999995880127,2|0,1:2|0:0,0:0:0:0:
192,355,155652,1,0,3:0:0:0:
192,355,155815,2,0,P|184:301|190:276,1,67.4999979400635,0|0,1:0|0:0,0:0:0:0:
122,201,156141,2,0,P|70:247|-17:232,1,134.999995880127,10|0,0:0|0:0,0:0:0:0:
122,85,156794,6,0,P|135:12|206:10,1,134.999995880127,2|0,3:2|0:0,0:0:0:0:
241,104,157283,1,0,1:0:0:0:
241,104,157446,2,0,P|226:174|234:190,1,67.4999979400635,10|0,0:0|3:0,0:0:0:0:
314,225,157772,2,0,B|396:223|361:179|461:184,1,134.999995880127,2|0,1:2|0:0,0:0:0:0:
446,375,158424,2,0,B|364:373|399:329|299:334,1,134.999995880127,2|8,1:2|0:0,0:0:0:0:
220,306,158913,1,0,0:0:0:0:
220,306,159076,2,0,P|164:352|144:354,1,67.4999979400635,2|0,0:0|0:2,0:0:0:0:
78,378,159402,6,0,B|95:295|40:333|59:233,1,134.999995880127,0|0,3:2|0:0,0:0:0:0:
8,85,160054,2,0,P|76:99|95:93,1,67.4999979400635,8|0,0:0|3:0,0:0:0:0:
163,47,160381,2,0,P|181:100|170:135,1,67.4999979400635,0|0,1:0|0:0,0:0:0:0:
290,198,160707,2,0,P|279:127|308:51,1,134.999995880127,0|2,0:0|3:2,0:0:0:0:
398,25,161196,1,0,0:0:0:0:
398,25,161359,2,0,P|455:60|481:55,1,67.4999979400635,10|0,1:2|0:0,0:0:0:0:
470,166,161685,2,0,P|422:187|407:220,1,67.4999979400635,2|0,3:2|3:0,0:0:0:0:
382,301,162011,6,0,B|260:283|318:380|175:373,1,202.499993820191,2|0,3:2|0:0,0:0:0:0:
100,340,162663,2,0,P|137:289|157:287,1,67.4999979400635,10|0,1:2|0:0,0:0:0:0:
217,216,162989,2,0,P|264:144|216:19,1,202.499993820191,2|0,3:2|3:0,0:0:0:0:
136,87,163641,2,0,P|154:142|128:156,1,67.4999979400635,0|0,1:0|0:0,0:0:0:0:
63,200,163967,2,0,P|19:276|35:348,1,134.999995880127,10|2,0:0|0:0,0:0:0:0:
112,282,164457,1,0,3:0:0:0:
180,354,164620,6,0,B|262:362|214:303|325:313,1,134.999995880127,0|0,3:0|0:0,0:0:0:0:
494,210,165272,2,0,P|515:164|506:122,1,67.4999979400635,10|0,1:2|3:0,0:0:0:0:
413,148,165598,2,0,P|402:81|379:66,1,67.4999979400635,2|0,3:2|0:0,0:0:0:0:
315,132,165924,2,0,B|248:158|248:158|168:133,1,134.999995880127,2|2,0:0|1:2,0:0:0:0:
135,44,166413,1,0,0:0:0:0:
42,72,166576,2,0,P|16:126|19:152,1,67.4999979400635,10|0,0:0|0:0,0:0:0:0:
96,200,166902,2,0,P|116:266|106:289,1,67.4999979400635,2|0,0:0|3:0,0:0:0:0:
52,347,167228,6,0,P|164:356|195:331,1,134.999995880127,2|2,3:2|0:0,0:0:0:0:
243,262,167717,1,0,1:0:0:0:
243,262,167881,2,0,P|220:201|222:174,1,67.4999979400635,8|0,0:0|0:0,0:0:0:0:
324,172,168207,2,0,P|338:117|359:95,1,67.4999979400635,2|0,3:2|0:0,0:0:0:0:
428,176,168533,2,0,P|510:230|508:280,1,134.999995880127,2|2,0:2|1:2,0:0:0:0:
349,11,169185,2,0,P|328:81|258:105,1,134.999995880127,10|2,0:2|0:0,0:0:0:0:
188,50,169674,1,0,0:0:0:0:
188,50,169837,6,0,P|146:89|145:126,1,67.4999979400635,2|0,3:2|0:0,0:0:0:0:
47,155,170156,2,0,P|89:194|90:231,1,67.4999979400635,0|0,0:0|1:0,0:0:0:0:
78,309,170475,2,0,P|156:277|234:286,1,134.999995880127,10|0,0:0|1:0,0:0:0:0:
305,236,170954,1,0,0:0:0:0:
227,161,171113,2,0,P|219:117|222:85,1,67.4999979400635,2|0,0:0|0:0,0:0:0:0:
328,56,171432,2,0,P|330:94|322:131,1,67.4999979400635,0|0,3:0|0:0,0:0:0:0:
305,236,171751,2,0,B|276:332|333:306|310:397,1,134.999995880127,8|0,0:0|0:0,0:0:0:0:
315,366,172390,5,2,3:2:0:0:
87,33,187709,5,2,0:0:0:0:
32,189,188028,2,0,P|45:222|49:249,1,56.2500021457673,2|0,0:0|3:0,0:0:0:0:
124,308,188347,2,0,P|132:277|137:245,1,56.2500021457673,10|0,0:0|0:0,0:0:0:0:
214,188,188666,2,0,P|222:218|227:250,1,56.2500021457673,2|0,3:2|0:0,0:0:0:0:
223,344,188985,6,0,P|300:326|355:324,1,112.500004291535,2|2,0:0|1:2,0:0:0:0:
427,271,189468,1,0,0:0:0:0:
427,271,189630,2,0,P|398:239|379:211,1,56.2500021457673,10|0,0:0|0:0,0:0:0:0:
469,176,189952,2,0,P|451:126|453:101,1,56.2500021457673,2|0,0:0|3:0,0:0:0:0:
463,24,190275,6,0,P|389:38|357:88,1,112.500004291535,2|2,3:2|0:0,0:0:0:0:
312,135,190775,1,0,3:0:0:0:
220,96,190941,2,0,P|171:129|163:144,1,56.2500021457673,10|0,0:0|0:0,0:0:0:0:
83,116,191275,2,0,P|87:166|104:190,1,56.2500021457673
149,233,191608,5,0,0:0:0:0:
93,303,191780,1,0,1:0:0:0:
156,374,191952,2,0,P|227:363|238:362,1,56.2500021457673,0|0,3:0|0:0,0:0:0:0:
317,384,192297,2,0,P|307:315|344:264,1,112.500004291535,0|0,1:0|0:0,0:0:0:0:
400,226,192814,1,0,0:0:0:0:
400,226,192997,6,0,P|441:151|421:121,1,112.500004291535,2|0,0:0|0:0,0:0:0:0:
380,55,194011,1,0,0:0:0:0:
293,95,194344,2,0,P|251:119|220:119,1,56.2500021457673,0|2,0:0|0:0,0:0:0:0:
159,69,195011,1,2,0:0:0:0:
159,69,195338,2,0,P|64:103|52:128,1,112.500004291535,2|0,0:0|0:0,0:0:0:0:
25,196,196322,1,2,0:0:0:0:
85,279,196650,2,0,P|104:329|102:345,2,56.2500021457673,2|0|2,0:0|0:0|0:0,0:0:0:0:
156,206,197633,1,8,0:0:0:0:
177,40,198291,6,0,P|115:35|72:117,1,150,2|0,3:2|0:0,0:0:0:0:
179,156,198780,1,0,1:0:0:0:
179,156,198943,2,0,P|241:138|272:144,1,75,8|0,0:0|0:0,0:0:0:0:
309,61,199269,2,0,B|398:76|359:141|471:134,1,150,2|0,1:2|0:0,0:0:0:0:
507,314,199921,2,0,P|478:260|435:258,1,75,0|0,1:0|0:0,0:0:0:0:
373,277,200247,2,0,P|363:342|359:377,1,75,10|0,0:0|0:0,0:0:0:0:
264,348,200573,2,0,P|258:305|251:263,1,75,2|0,0:0|3:0,0:0:0:0:
157,252,200899,6,0,P|171:191|265:158,1,150,0|0,3:0|0:0,0:0:0:0:
415,60,201551,2,0,P|359:81|328:66,1,75,8|0,0:0|3:0,0:0:0:0:
267,21,201877,2,0,P|219:7|193:16,1,75,0|0,1:0|0:0,0:0:0:0:
97,30,202204,2,0,B|85:84|85:84|102:135|102:135|89:211,1,150,2|0,0:0|1:0,0:0:0:0:
180,232,202693,1,0,0:0:0:0:
180,232,202856,2,0,B|190:292|190:292|173:343|173:343|185:397,1,150,10|0,0:0|0:0,0:0:0:0:
360,289,203508,6,0,P|401:217|341:160,1,150,2|0,3:2|0:0,0:0:0:0:
230,38,203997,1,0,1:0:0:0:
310,83,204160,2,0,P|265:131|231:132,1,75,8|0,0:0|0:0,0:0:0:0:
163,114,204486,2,0,P|140:66|145:22,1,75,0|0,1:0|0:0,0:0:0:0:
259,132,204812,2,0,P|250:222|241:299,1,150,0|2,0:0|1:2,0:0:0:0:
162,335,205301,1,0,0:0:0:0:
86,272,205464,2,0,P|144:253|178:245,1,75,10|0,0:0|0:0,0:0:0:0:
247,379,205791,2,0,P|305:360|339:352,1,75,2|0,0:0|3:0,0:0:0:0:
494,253,206117,6,0,P|408:230|371:286,1,150,0|0,3:2|0:0,0:0:0:0:
512,138,206769,2,0,P|460:114|417:126,1,75,10|0,1:2|0:0,0:0:0:0:
335,2,207095,2,0,B|361:84|293:61|334:173,1,150,2|0,3:2|0:0,0:0:0:0:
237,181,207584,1,0,3:0:0:0:
237,181,207747,2,0,B|211:263|279:240|243:355,1,150,2|8,1:2|0:0,0:0:0:0:
51,254,208399,2,0,L|56:171,1,75,2|0,3:2|3:0,0:0:0:0:
21,87,208725,6,0,B|81:83|81:83|121:101|121:101|200:94,1,150,2|0,3:2|0:0,0:0:0:0:
356,53,209377,2,0,L|271:40,1,75,8|0,1:2|0:0,0:0:0:0:
239,169,209704,2,0,L|324:156,1,75,0|0,3:0|0:0,0:0:0:0:
454,132,210030,2,0,P|419:186|424:226,1,75,2|0,0:0|3:0,0:0:0:0:
411,346,210356,2,0,P|399:298|367:268,1,75,2|0,1:2|0:0,0:0:0:0:
286,264,210682,2,0,P|250:287|225:341,1,75,10|0,0:0|0:0,0:0:0:0:
140,345,211008,1,2,1:2:0:0:
54,310,211171,1,0,3:0:0:0:
54,310,211334,6,0,P|16:216|32:139,1,150,0|0,3:0|0:0,0:0:0:0:
215,161,211986,2,0,P|226:228|208:253,1,75,0|0,1:0|3:0,0:0:0:0:
128,245,212312,2,0,P|117:178|135:153,1,75,0|0,3:0|0:0,0:0:0:0:
162,87,212638,2,0,B|271:87|211:42|338:41,1,150,2|0,0:2|3:0,0:0:0:0:
477,172,213291,1,8,0:0:0:0:
386,125,213454,1,8,0:0:0:0:
310,194,213617,2,0,L|323:298,1,75,8|0,1:2|0:0,0:0:0:0:
415,316,213943,6,0,B|316:307|363:366|256:368,1,150,2|0,3:2|0:0,0:0:0:0:
188,331,214432,1,0,1:0:0:0:
90,330,214595,2,0,P|114:272|131:263,1,75,8|0,0:0|0:0,0:0:0:0:
286,249,214921,2,0,P|244:243|210:223,1,75,0|0,1:0|0:0,0:0:0:0:
135,171,215247,1,0,0:0:0:0:
234,3,215573,2,0,B|267:15|267:15|329:-2,1,75,2|0,1:2|0:0,0:0:0:0:
436,81,215899,2,0,B|397:70|397:70|364:82,1,75,10|0,0:2|0:0,0:0:0:0:
281,133,216225,1,2,0:0:0:0:
356,194,216388,1,0,3:0:0:0:
282,257,216551,6,0,P|260:305|272:333,1,75,0|0,3:0|0:0,0:0:0:0:
344,381,216877,2,0,P|247:357|178:395,1,150,2|8,0:0|0:0,0:0:0:0:
29,283,217530,2,0,P|100:301|169:275,1,150,2|0,1:2|3:0,0:0:0:0:
207,186,218019,1,0,0:0:0:0:
207,186,218182,2,0,P|192:120|214:96,1,75,0|0,3:0|0:0,0:0:0:0:
288,97,218508,2,0,P|321:31|407:13,1,150,10|0,1:2|0:0,0:0:0:0:
488,177,219160,6,0,P|399:198|426:244,1,150,2|0,0:0|0:0,0:0:0:0:
479,288,219649,1,0,1:0:0:0:
416,362,219812,2,0,P|366:343|337:356,1,75,8|0,0:0|0:0,0:0:0:0:
170,247,220138,2,0,B|225:276|225:276|334:250,1,150,2|0,1:2|0:0,0:0:0:0:
440,109,220791,2,0,P|401:75|310:112,1,150,2|8,1:2|0:0,0:0:0:0:
241,38,221280,1,0,0:0:0:0:
241,38,221443,2,0,P|192:84|164:84,1,75,2|0,0:0|0:0,0:0:0:0:
95,51,221769,6,0,B|45:128|88:114|45:194,1,150,0|0,3:2|0:0,0:0:0:0:
51,351,222258,1,0,1:0:0:0:
51,351,222421,2,0,P|17:300|12:275,1,75,8|0,0:0|3:0,0:0:0:0:
111,283,222747,2,0,P|135:235|161:218,1,75,0|0,1:0|0:0,0:0:0:0:
248,219,223073,2,0,P|338:241|406:214,1,150,0|2,0:0|3:2,0:0:0:0:
374,128,223562,1,0,0:0:0:0:
374,128,223725,2,0,P|359:77|362:49,1,75,8|0,1:2|0:0,0:0:0:0:
489,94,224051,2,0,P|488:131|475:166,1,75,2|0,0:0|3:0,0:0:0:0:
390,224,224377,6,0,B|279:235|344:354|202:353,1,225,2|0,3:2|0:0,0:0:0:0:
135,265,225030,2,0,L|212:252,1,75,10|0,1:2|3:0,0:0:0:0:
257,167,225356,2,0,B|227:128|229:66|229:66|175:99|105:66,1,225,2|0,3:2|3:0,0:0:0:0:
31,24,226008,2,0,P|19:87|24:117,1,75,0|0,1:0|0:0,0:0:0:0:
0,218,226334,6,0,P|57:193|102:198,1,75,10|0,0:0|0:0,0:0:0:0:
163,170,226660,1,2,0:0:0:0:
199,265,226823,1,0,3:0:0:0:
199,265,226986,2,0,B|239:308|249:348|249:348|297:335|333:338,1,150,0|0,3:0|0:0,0:0:0:0:
483,266,227638,2,0,P|451:222|406:220,1,75,10|0,1:2|3:0,0:0:0:0:
340,188,227964,2,0,P|374:143|413:133,1,75,0|0,3:0|0:0,0:0:0:0:
507,42,228291,6,0,P|444:56|373:12,1,150,2|2,0:0|1:2,0:0:0:0:
290,64,228780,1,0,0:0:0:0:
290,64,228943,2,0,P|213:36|191:43,1,75,10|0,0:0|0:0,0:0:0:0:
126,33,229269,2,0,P|138:92|137:134,1,75,2|0,0:0|3:0,0:0:0:0:
228,142,229595,6,0,P|206:228|209:277,1,120,0|0,3:0|0:0,0:0:0:0:
91,362,230084,1,0,1:0:0:0:
91,362,230247,2,0,P|72:299|127:267,1,120,8|0,0:0|1:0,0:0:0:0:
183,336,230736,1,0,0:0:0:0:
183,336,230899,2,0,P|231:315|305:333,1,120,0|0,3:0|1:0,0:0:0:0:
446,229,231551,2,0,P|388:241|333:220,1,120,8|0,0:0|0:0,0:0:0:0:
261,164,232041,1,0,3:0:0:0:
261,164,232204,6,0,L|283:96,1,60,0|0,3:0|0:0,0:0:0:0:
160,24,232530,2,0,L|182:92,1,60,0|0,0:0|1:0,0:0:0:0:
231,255,232856,2,0,P|208:193|148:187,1,120,8|0,0:0|1:0,0:0:0:0:
84,134,233345,1,0,0:0:0:0:
6,179,233508,2,0,P|21:240|25:262,1,60,2|0,0:0|0:0,0:0:0:0:
102,304,233834,2,0,P|88:361|85:395,2,82.5000025177003,0|10|2,3:0|1:2|0:0,0:0:0:0:
101,302,234861,5,2,0:0:0:0:
