osu file format v14

[General]
AudioFilename: audio.mp3
AudioLeadIn: 0
PreviewTime: 129321
Countdown: 0
SampleSet: Soft
StackLeniency: 0.7
Mode: 0
LetterboxInBreaks: 0
WidescreenStoryboard: 1

[Editor]
DistanceSpacing: 1.7
BeatDivisor: 16
GridSize: 32
TimelineZoom: 1

[Metadata]
Title:dreamy night
TitleUnicode:dreamy night
Artist:LilyPichu
ArtistUnicode:LilyPichu
Creator:Battle
Version:normal
Source:
Tags:english hip hop offlinetv twitch streamer comfi beats comfy rezyon yungi chang zorsy megan shipman 18moptop gwinshin pop lofi piano jazz
BeatmapID:2796545
BeatmapSetID:1298416

[Difficulty]
HPDrainRate:4
CircleSize:3.2
OverallDifficulty:4
ApproachRate:5
SliderMultiplier:1.2
SliderTickRate:1

[Events]
//Background and Video events
0,0,"bg.jpg",0,0
//Break Periods
2,86573,87768
2,172590,186509
2,193197,196433
//Storyboard Layer 0 (Background)
//Storyboard Layer 1 (Fail)
//Storyboard Layer 2 (Pass)
//Storyboard Layer 3 (Foreground)
//Storyboard Layer 4 (Overlay)
//Storyboard Sound Samples

[TimingPoints]
573,652.173913043478,4,2,1,25,1,0
3181,-200,4,2,1,25,0,0
24051,-133.333333333333,4,2,1,25,0,0
32529,-133.333333333333,4,2,1,5,0,0
34486,-133.333333333333,4,2,1,30,0,0
39703,-200,4,2,1,25,0,0
44268,618.556701030928,4,2,1,30,1,0
44891,652.173913043478,4,2,1,35,1,0
44891,-90.9090909090909,4,2,1,35,0,0
65760,-83.3333333333333,4,2,1,35,0,0
81738,674.157303370787,4,2,1,35,1,0
81738,-125,4,2,1,35,0,0
82412,652.173913043478,4,2,1,33,1,0
83064,674.157303370787,4,2,1,31,1,0
83401,697.674418604651,4,2,1,29,1,0
83401,-125,4,2,1,29,0,0
83749,722.89156626506,4,2,1,27,1,0
84110,769.230769230769,4,2,1,25,1,0
84494,909.090909090909,4,2,1,23,1,0
84948,1176.47058823529,4,2,1,21,1,0
84948,-125,4,2,1,21,0,0
86373,1176.47058823529,4,2,1,21,1,0
88968,652.173913043478,4,2,2,35,1,0
88968,-55.5555555555556,4,2,2,35,0,0
128750,-55.5555555555556,4,2,2,35,0,0
129402,-62.5,4,2,2,35,0,0
130707,-55.5555555555556,4,2,2,40,0,0
169837,638.297872340426,4,2,2,40,1,0
169837,-55.5555555555556,4,2,2,40,0,0
172390,-55.5555555555556,4,2,2,40,0,0
188985,645.161290322581,4,2,2,40,1,0
188985,-55.5555555555556,4,2,2,40,0,0
190275,666.666666666667,4,2,2,40,1,0
190275,-55.5555555555556,4,2,2,40,0,0
191608,689.655172413793,4,2,2,35,1,0
191608,-55.5555555555556,4,2,2,35,0,0
192997,681.818181818182,4,2,1,35,1,0
192997,-111.111111111111,4,2,1,35,0,0
193678,666.666666666667,4,2,1,35,1,0
193678,-125,4,2,1,35,0,0
195011,655.737704918033,4,2,1,35,1,0
195011,-111.111111111111,4,2,1,35,0,0
197633,-111.111111111111,4,2,1,40,0,0
198291,652.173913043478,4,2,2,40,1,1
198291,-52.6315789473684,4,2,2,40,0,1
229595,-62.5,4,2,2,40,0,0
233834,-55.5555555555556,4,2,2,35,0,0
234160,-55.5555555555556,4,2,2,30,0,0
234486,750,4,2,2,25,1,0
234861,-100,4,2,2,20,0,0

[Colours]
Combo1 : 41,205,214
Combo2 : 227,21,135
Combo3 : 79,158,255
Combo4 : 126,105,190

[HitObjects]
20,363,573,6,0,P|52:306|111:304,3,120,2|2|2|2,0:0|0:0|0:0|0:0,0:0:0:0:
175,244,3181,2,0,B|312:210|266:321|413:274,1,240,2|0,0:0|0:0,0:0:0:0:
402,277,8399,6,0,B|394:226|438:171|438:171|381:139|399:60,1,240,2|0,0:0|0:0,0:0:0:0:
398,62,13616,6,0,B|332:34|264:67|264:67|315:111|306:166,1,240,2|0,0:0|0:0,0:0:0:0:
307,154,18833,6,0,B|243:172|226:236|226:236|171:204|111:230,1,240,2|0,0:0|0:0,0:0:0:0:
14,71,22094,5,2,0:0:0:0:
14,71,22420,2,0,P|47:103|70:102,1,60,2|2,0:0|0:0,0:0:0:0:
142,56,23725,1,2,0:0:0:0:
142,56,24051,6,0,P|197:37|242:57,1,90.0000034332276,2|2,0:0|0:0,0:0:0:0:
276,96,25029,2,0,P|265:144|260:204,1,90.0000034332276,2|0,0:0|0:0,0:0:0:0:
206,231,26007,1,2,0:0:0:0:
138,359,26659,2,0,P|188:348|239:362,1,90.0000034332276,2|2,0:0|0:0,0:0:0:0:
297,360,27638,2,0,P|363:357|384:332,1,90.0000034332276,2|0,0:0|0:0,0:0:0:0:
412,279,28616,1,2,0:0:0:0:
480,152,29268,6,0,P|486:98|416:62,1,135.000005149841,2|2,0:0|0:0,0:0:0:0:
312,153,30899,1,2,0:0:0:0:
204,57,31551,1,2,0:0:0:0:
204,57,31877,2,0,P|146:84|145:123,1,90.0000034332276
141,104,34486,6,0,B|152:202|195:167|208:270,1,180.000006866455,2|0,0:0|0:0,0:0:0:0:
122,272,37094,2,0,B|134:171|177:206|188:108,1,180.000006866455,2|0,0:0|0:0,0:0:0:0:
188,108,39703,2,0,B|247:66|300:122|300:122|356:173|407:137,1,240,2|2,0:0|0:0,0:0:0:0:
403,139,43616,5,2,0:0:0:0:
368,51,44268,1,2,0:0:0:0:
275,91,44891,6,0,P|231:119|157:89,1,132.00000402832,2|0,3:2|3:0,0:0:0:0:
144,48,45869,1,0,0:0:0:0:
144,48,46195,2,0,P|106:18|23:38,1,132.00000402832,0|2,3:0|3:2,0:0:0:0:
11,82,47173,1,2,0:0:0:0:
18,134,47499,1,0,3:0:0:0:
96,213,48151,1,2,3:2:0:0:
96,213,48477,2,0,P|137:276|116:336,1,132.00000402832,2|2,0:0|0:0,0:0:0:0:
273,376,50108,6,0,P|330:291|423:313,1,198.000006042481,2|2,3:2|0:0,0:0:0:0:
490,166,52064,2,0,P|455:175|411:151,1,66.0000020141602,2|2,3:2|0:0,0:0:0:0:
389,129,52717,2,0,L|397:58,2,66.0000020141602,0|0|0,3:0|0:0|3:0,0:0:0:0:
343,151,53695,1,0,0:0:0:0:
343,151,54021,2,0,P|277:175|224:136,1,132.00000402832,2|2,3:2|3:2,0:0:0:0:
174,54,55325,6,0,B|203:194|91:146|134:304,1,264.000008056641,2|0,3:2|3:0,0:0:0:0:
166,351,56956,1,2,0:0:0:0:
166,351,57282,2,0,L|246:349,1,66.0000020141602,2|2,3:2|0:0,0:0:0:0:
284,341,57934,2,0,P|289:294|367:261,1,132.00000402832,2|2,3:2|3:2,0:0:0:0:
409,277,58912,1,2,0:0:0:0:
473,193,59564,1,2,0:0:0:0:
401,115,60217,1,2,0:0:0:0:
401,115,60543,6,0,P|335:114|306:168,1,132.00000402832,2|0,3:2|3:0,0:0:0:0:
285,269,61847,2,0,L|206:273,2,66.0000020141602,2|2|2,3:2|0:0|3:2,0:0:0:0:
330,306,62825,1,2,0:0:0:0:
330,306,63151,2,0,P|402:283|463:315,1,132.00000402832,0|0,3:0|3:0,0:0:0:0:
498,208,64456,2,0,B|358:167,1,132.00000402832,2|2,3:2|3:2,0:0:0:0:
302,78,65760,6,0,P|247:113|255:202,1,143.999995605469,2|0,3:2|3:0,0:0:0:0:
284,234,66738,1,0,0:0:0:0:
284,234,67064,2,0,P|325:244|366:241,2,71.9999978027344,0|2|2,3:0|0:0|3:2,0:0:0:0:
241,272,68043,2,0,P|171:260|112:329,2,143.999995605469,2|2|2,0:0|0:0|0:0,0:0:0:0:
351,233,69999,1,0,0:0:0:0:
351,233,70325,2,0,P|360:192|340:148,1,71.9999978027344,2|0,3:2|0:0,0:0:0:0:
312,121,70977,6,0,B|261:145|261:145|160:116,1,143.999995605469,2|2,3:2|3:2,0:0:0:0:
136,78,71956,1,2,0:0:0:0:
21,88,72608,1,2,0:0:0:0:
7,205,73260,1,2,0:0:0:0:
7,205,73586,2,0,P|42:190|95:201,1,71.9999978027344,0|0,3:0|0:0,0:0:0:0:
120,228,74238,2,0,P|153:250|201:242,1,71.9999978027344,0|0,3:0|0:0,0:0:0:0:
238,229,74890,2,0,L|225:79,1,143.999995605469,0|2,0:0|3:2,0:0:0:0:
259,40,75869,1,2,0:0:0:0:
260,39,76195,6,0,P|309:4|399:36,1,143.999995605469,2|2,3:2|3:2,0:0:0:0:
425,64,77173,1,2,0:0:0:0:
403,177,77825,1,0,0:0:0:0:
345,177,78151,1,2,3:2:0:0:
297,144,78477,2,0,P|237:179|254:271,1,143.999995605469,2|0,0:0|0:0,0:0:0:0:
263,297,79456,1,2,3:2:0:0:
378,303,80108,2,0,P|363:335|367:376,2,71.9999978027344,2|0|2,3:2|0:2|3:2,0:0:0:0:
425,270,81086,1,0,0:0:0:0:
256,192,81412,12,2,86373,0:0:0:0:
14,367,88968,6,0,P|-5:319|32:274,1,107.999996704102,0|2,3:0|0:0,0:0:0:0:
92,192,89620,2,0,L|87:131,2,53.9999983520508,10|0|2,1:2|0:0|3:2,0:0:0:0:
171,265,90272,2,0,P|219:294|285:274,1,107.999996704102,2|0,0:0|3:0,0:0:0:0:
314,256,90761,1,0,0:0:0:0:
314,256,90924,2,0,P|386:222|424:234,1,107.999996704102,8|2,1:2|0:0,0:0:0:0:
474,140,91576,6,0,P|486:101|448:46,1,107.999996704102,2|2,3:2|0:0,0:0:0:0:
402,42,92065,1,0,3:0:0:0:
402,42,92228,2,0,P|350:71|302:57,1,107.999996704102,10|2,1:2|3:2,0:0:0:0:
197,80,92881,2,0,L|189:15,2,53.9999983520508,2|2|0,0:0|3:2|3:0,0:0:0:0:
233,111,93370,1,2,0:0:0:0:
233,111,93533,2,0,B|216:174|254:161|231:228,1,107.999996704102,10|0,1:2|0:0,0:0:0:0:
174,306,94185,5,0,3:0:0:0:
79,253,94511,2,0,P|34:278|7:344,2,107.999996704102,2|10|2,0:0|1:2|3:2,0:0:0:0:
133,159,95489,1,0,0:0:0:0:
227,210,95815,2,0,P|274:234|327:228,2,107.999996704102,2|10|2,3:2|1:2|0:0,0:0:0:0:
133,159,96794,6,0,L|67:162,2,53.9999983520508,2|2|2,3:2|0:0|0:0,0:0:0:0:
156,110,97283,1,2,3:2:0:0:
156,110,97446,2,0,P|141:54|165:9,1,107.999996704102,10|2,1:2|3:2,0:0:0:0:
263,49,98098,1,2,0:0:0:0:
315,143,98424,1,2,3:2:0:0:
412,96,98750,1,10,1:2:0:0:
499,158,99076,1,2,0:0:0:0:
466,261,99402,6,0,P|403:234|354:268,1,107.999996704102,0|2,3:0|0:0,0:0:0:0:
277,302,100054,2,0,L|282:362,2,53.9999983520508,10|0|2,1:2|0:0|3:2,0:0:0:0:
182,249,100707,2,0,P|164:184|192:129,1,107.999996704102,2|0,0:0|3:0,0:0:0:0:
218,113,101196,1,2,0:0:0:0:
271,113,101359,1,0,0:0:0:0:
397,11,101848,5,0,3:0:0:0:
397,11,102011,2,0,L|279:11,1,107.999996704102,2|2,3:2|0:0,0:0:0:0:
239,13,102500,1,0,0:0:0:0:
239,13,102663,2,0,P|187:28|159:85,1,107.999996704102,10|2,1:2|3:2,0:0:0:0:
63,118,103315,2,0,P|57:91|44:67,2,53.9999983520508,2|0|0,0:0|0:0|3:0,0:0:0:0:
36,166,103804,1,2,0:0:0:0:
36,166,103968,2,0,B|17:221|17:221|34:283,1,107.999996704102,8|0,1:2|0:0,0:0:0:0:
92,360,104620,6,0,B|188:368|139:311|246:313,1,161.999995056153,2|2,3:2|3:2,0:0:0:0:
292,298,105272,2,0,P|310:216|242:178,1,161.999995056153,10|2,1:2|0:0,0:0:0:0:
202,160,105924,2,0,P|177:92|197:58,1,107.999996704102,2|0,0:0|3:0,0:0:0:0:
287,16,106576,2,0,P|315:22|358:12,1,53.9999983520508,10|2,1:2|0:0,0:0:0:0:
376,58,106902,2,0,P|404:52|447:62,1,53.9999983520508,2|2,0:0|3:2,0:0:0:0:
478,32,107228,6,0,P|466:99|470:157,1,107.999996704102,2|2,1:2|0:0,0:0:0:0:
381,205,107881,2,0,P|339:197|319:205,1,53.9999983520508,8|0,1:2|3:0,0:0:0:0:
289,236,108207,2,0,P|238:271|145:246,1,161.999995056153,0|0,1:0|3:0,0:0:0:0:
95,229,108859,1,8,1:2:0:0:
6,166,109185,2,0,L|2:104,1,53.9999983520508,8|8,0:0|0:0,0:0:0:0:
2,58,109511,1,8,0:0:0:0:
96,6,109837,6,0,P|181:11|204:42,2,107.999996704102,2|2|10,1:2|0:0|0:0,0:0:0:0:
133,108,110815,2,0,B|186:137|186:137|286:113,1,161.999995056153,2|0,1:2|0:0,0:0:0:0:
303,62,111468,1,2,1:2:0:0:
404,24,111794,1,10,0:0:0:0:
479,100,112120,2,0,L|468:165,1,53.9999983520508,0|0,0:0|3:0,0:0:0:0:
421,177,112446,6,0,P|398:223|411:287,2,107.999996704102,2|2|10,1:2|0:0|0:0,0:0:0:0:
357,90,113424,2,0,P|307:134|295:232,1,161.999995056153,2|0,1:2|3:0,0:0:0:0:
310,275,114076,1,2,1:2:0:0:
350,375,114402,2,0,P|305:361|235:388,1,107.999996704102,10|2,0:0|0:0,0:0:0:0:
206,352,114891,1,0,3:0:0:0:
206,352,115054,6,0,B|122:374|122:374|33:333,1,161.999995056153,2|0,1:2|1:0,0:0:0:0:
41,289,115707,1,10,0:2:0:0:
5,189,116033,2,0,P|65:138|144:179,1,161.999995056153,2|0,1:2|3:0,0:0:0:0:
172,205,116685,1,2,1:2:0:0:
271,161,117011,1,8,0:0:0:0:
223,64,117337,2,0,P|219:29|231:10,1,53.9999983520508,2|0,0:0|3:0,0:0:0:0:
280,1,117663,6,0,P|357:9|400:11,1,107.999996704102,0|2,1:0|0:0,0:0:0:0:
443,102,118315,2,0,P|414:129|412:157,1,53.9999983520508,8|0,0:0|3:0,0:0:0:0:
358,155,118641,2,0,P|391:212|380:268,1,107.999996704102,2|0,1:2|0:0,0:0:0:0:
347,288,119131,1,0,1:0:0:0:
347,288,119294,2,0,L|276:290,1,53.9999983520508,2|0,3:2|0:0,0:0:0:0:
240,275,119620,2,0,P|191:296|171:369,1,107.999996704102,2|2,1:2|1:2,0:0:0:0:
64,370,120272,6,0,P|63:291|86:254,2,107.999996704102,2|0|10,1:2|0:0|0:2,0:0:0:0:
168,343,121250,2,0,B|264:353|205:294|330:308,1,161.999995056153,2|0,1:2|3:0,0:0:0:0:
372,318,121902,1,2,1:2:0:0:
457,252,122228,2,0,P|468:195|491:148,1,107.999996704102,10|2,0:2|0:0,0:0:0:0:
449,49,122881,6,0,P|383:59|374:109,1,107.999996704102,2|2,3:2|0:0,0:0:0:0:
347,139,123370,1,0,1:0:0:0:
347,139,123533,2,0,P|298:127|278:126,1,53.9999983520508,10|0,0:0|0:0,0:0:0:0:
259,85,123859,2,0,P|198:125|103:112,1,161.999995056153,2|0,1:2|3:0,0:0:0:0:
94,66,124511,1,0,1:0:0:0:
0,114,124837,2,0,P|-21:177|5:222,1,107.999996704102,10|2,0:0|0:0,0:0:0:0:
16,317,125489,6,0,B|151:324|78:243|226:254,1,215.999993408203,2|10,3:2|0:0,0:0:0:0:
276,340,126467,2,0,P|249:233|339:200,1,215.999993408203,2|2,1:2|1:2,0:0:0:0:
432,230,127446,2,0,P|439:180|461:120,1,107.999996704102,8|2,0:0|0:0,0:0:0:0:
465,69,127935,1,2,0:2:0:0:
465,69,128098,2,0,P|417:30|263:81,1,215.999993408203,2|2,3:2|0:0,0:0:0:0:
210,145,129076,1,2,3:2:0:0:
116,122,129402,1,2,0:0:0:0:
116,122,130707,6,0,B|66:108|66:108|99:235,1,161.999995056153,2|0,3:2|1:0,0:0:0:0:
53,250,131359,1,8,0:0:0:0:
96,348,131685,1,0,1:0:0:0:
188,292,132011,2,0,P|250:268|292:276,1,107.999996704102,0|2,0:0|1:2,0:0:0:0:
372,343,132663,2,0,P|441:349|466:299,1,107.999996704102,10|2,0:0|0:0,0:0:0:0:
449,271,133152,1,0,3:0:0:0:
449,271,133315,6,0,P|445:213|456:160,1,107.999996704102,0|0,3:2|0:0,0:0:0:0:
368,98,133968,2,0,P|350:134|343:160,1,53.9999983520508,10|0,1:2|3:0,0:0:0:0:
328,198,134294,2,0,P|262:193|215:210,1,107.999996704102,2|0,3:2|0:0,0:0:0:0:
147,128,134946,2,0,P|199:102|256:98,1,107.999996704102,2|8,1:2|0:0,0:0:0:0:
343,47,135598,1,0,0:0:0:0:
244,1,135924,6,0,B|179:-12|71:27|71:27|117:41,1,215.999993408203,2|8,3:2|0:0,0:0:0:0:
177,124,136902,2,0,B|213:137|213:137|104:173|39:160,1,215.999993408203,2|0,1:2|1:0,0:0:0:0:
2,261,137881,1,10,0:2:0:0:
84,331,138207,1,2,0:0:0:0:
159,253,138533,6,0,P|209:236|251:277,1,107.999996704102,0|0,3:0|0:0,0:0:0:0:
354,288,139185,2,0,P|356:235|323:194,1,107.999996704102,8|0,0:0|3:0,0:0:0:0:
244,120,139837,2,0,P|257:24|375:36,1,215.999993408203,2|2,0:0|1:2,0:0:0:0:
437,220,141141,6,0,B|345:209|387:282|288:267,1,161.999995056153,2|0,3:2|1:0,0:0:0:0:
237,257,141794,1,8,0:0:0:0:
270,154,142120,1,0,1:0:0:0:
220,57,142446,2,0,P|171:44|108:83,1,107.999996704102,0|2,0:0|1:2,0:0:0:0:
29,125,143098,2,0,P|44:170|51:235,1,107.999996704102,10|2,0:0|0:0,0:0:0:0:
96,268,143587,1,0,3:0:0:0:
96,268,143750,6,0,P|72:318|80:377,1,107.999996704102,0|0,3:0|0:0,0:0:0:0:
180,340,144402,2,0,P|213:333|247:337,1,53.9999983520508,10|0,1:2|3:0,0:0:0:0:
277,304,144728,2,0,P|341:332|425:299,1,161.999995056153,2|0,3:2|3:0,0:0:0:0:
464,265,145381,1,2,1:2:0:0:
377,200,145707,2,0,P|350:158|400:128,1,107.999996704102,8|2,0:0|0:0,0:0:0:0:
435,29,146359,6,0,B|291:11|357:88|209:68,1,215.999993408203,2|8,3:2|1:2,0:0:0:0:
129,28,147337,1,0,3:0:0:0:
49,100,147663,2,0,P|24:43|49:-9,2,107.999996704102,2|2|10,0:0|1:2|0:0,0:0:0:0:
97,196,148641,2,0,P|133:175|158:179,1,53.9999983520508,2|0,0:0|3:0,0:0:0:0:
175,131,148967,6,0,P|227:166|266:142,1,107.999996704102,0|0,3:0|0:0,0:0:0:0:
330,64,149620,2,0,P|392:18|432:32,1,107.999996704102,8|0,0:0|1:0,0:0:0:0:
478,111,150272,2,0,B|433:232|506:189|458:338,1,215.999993408203,2|8,3:2|0:0,0:0:0:0:
411,338,151087,1,8,0:0:0:0:
411,338,151250,2,0,P|368:358|345:354,1,53.9999983520508,8|0,1:2|0:0,0:0:0:0:
315,331,151576,6,0,P|331:263|303:219,1,107.999996704102,2|0,3:2|0:0,0:0:0:0:
215,272,152228,2,0,P|196:222|214:172,1,107.999996704102,8|0,0:0|1:0,0:0:0:0:
284,89,152881,2,0,L|166:87,1,107.999996704102,0|2,0:0|1:2,0:0:0:0:
87,25,153533,2,0,P|46:50|50:114,1,107.999996704102,10|2,0:2|0:2,0:0:0:0:
49,159,154022,1,0,3:0:0:0:
49,212,154185,5,0,3:0:0:0:
48,319,154511,2,0,P|101:293|149:307,1,107.999996704102,2|8,0:0|0:0,0:0:0:0:
252,324,155163,2,0,P|294:359|348:343,2,107.999996704102,2|0|0,1:2|0:0|1:0,0:0:0:0:
216,221,156141,2,0,P|244:182|221:120,1,107.999996704102,10|0,0:0|0:0,0:0:0:0:
193,86,156631,1,0,0:0:0:0:
193,86,156794,6,0,P|183:30|231:8,1,107.999996704102,2|0,3:2|0:0,0:0:0:0:
314,60,157446,2,0,L|383:64,1,53.9999983520508,10|0,0:0|3:0,0:0:0:0:
413,34,157772,2,0,B|471:22|471:22|520:61,1,107.999996704102,2|0,1:2|0:0,0:0:0:0:
503,160,158424,2,0,B|464:190|464:190|406:178,1,107.999996704102,2|8,1:2|0:0,0:0:0:0:
312,126,159076,2,0,L|253:137,1,53.9999983520508,2|0,0:0|0:2,0:0:0:0:
215,103,159402,6,0,P|216:56|173:15,2,107.999996704102,0|0|8,3:2|0:0|0:0,0:0:0:0:
118,153,160381,2,0,L|128:214,1,53.9999983520508,0|0,1:0|0:0,0:0:0:0:
93,248,160707,2,0,P|61:305|76:348,1,107.999996704102,0|2,0:0|3:2,0:0:0:0:
124,370,161196,1,0,0:0:0:0:
124,370,161359,2,0,L|241:359,1,107.999996704102,10|2,1:2|3:2,0:0:0:0:
338,346,162011,6,0,B|341:294|289:258|289:258|340:227|342:143,1,215.999993408203,2|10,3:2|1:2,0:0:0:0:
244,115,162989,2,0,B|189:144|186:204|186:204|129:175|85:202,1,215.999993408203,2|0,3:2|1:0,0:0:0:0:
5,129,163967,1,10,0:0:0:0:
52,31,164294,1,2,0:0:0:0:
158,50,164620,6,0,P|219:88|299:38,1,161.999995056153,0|0,3:0|0:0,0:0:0:0:
345,24,165272,2,0,P|432:17|458:39,1,107.999996704102,10|2,1:2|3:2,0:0:0:0:
477,128,165924,2,0,P|466:160|463:189,1,53.9999983520508,2|0,0:0|3:0,0:0:0:0:
430,222,166250,2,0,P|397:213|363:212,1,53.9999983520508,2|0,1:2|0:0,0:0:0:0:
332,181,166576,2,0,P|269:209|212:197,1,107.999996704102,10|2,0:0|0:0,0:0:0:0:
191,104,167228,6,0,P|186:32|149:8,1,107.999996704102,2|2,3:2|0:0,0:0:0:0:
73,75,167881,2,0,P|31:112|-17:89,2,107.999996704102,8|2|2,0:0|3:2|0:2,0:0:0:0:
161,12,168859,1,2,1:2:0:0:
236,85,169185,2,0,P|207:134|226:200,1,107.999996704102,10|2,0:2|0:0,0:0:0:0:
261,208,169674,1,0,0:0:0:0:
261,208,169837,6,0,P|336:201|380:206,1,107.999996704102,2|0,3:2|0:0,0:0:0:0:
373,311,170475,2,0,P|298:304|254:309,1,107.999996704102,10|0,0:0|1:0,0:0:0:0:
168,259,171113,2,0,P|141:319|157:364,2,107.999996704102,2|0|8,0:0|3:0|0:0,0:0:0:0:
102,172,172071,1,0,0:0:0:0:
178,102,172390,5,2,3:2:0:0:
110,340,187709,5,2,0:0:0:0:
60,256,188028,1,2,0:0:0:0:
119,179,188347,1,10,0:0:0:0:
208,217,188666,1,2,3:2:0:0:
287,162,188985,6,0,P|309:117|271:58,2,107.999996704102,2|2|10,0:0|1:2|0:0,0:0:0:0:
208,217,189952,1,2,0:0:0:0:
127,167,190275,2,0,P|105:122|143:63,2,107.999996704102,2|2|10,3:2|0:0|0:0,0:0:0:0:
208,217,191275,1,0,0:0:0:0:
287,162,191608,6,0,B|344:165|317:120|396:127,1,107.999996704102,0|0,0:0|3:0,0:0:0:0:
466,178,192297,2,0,P|442:229|451:281,1,107.999996704102,0|0,1:0|0:0,0:0:0:0:
437,379,192997,5,2,0:0:0:0:
166,267,197633,5,8,0:0:0:0:
150,67,198291,2,0,P|164:115|159:198,1,113.999996955872,2|0,3:2|0:0,0:0:0:0:
108,194,198780,1,0,1:0:0:0:
108,194,198943,2,0,P|76:245|74:263,1,56.9999984779358,8|0,0:0|0:0,0:0:0:0:
24,263,199269,2,0,P|63:307|68:377,1,113.999996955872,2|0,1:2|0:0,0:0:0:0:
173,308,199921,1,0,1:0:0:0:
272,364,200247,2,0,P|308:358|338:359,1,56.9999984779358,10|0,0:0|0:0,0:0:0:0:
365,315,200573,2,0,P|401:321|431:320,1,56.9999984779358,2|0,0:0|3:0,0:0:0:0:
470,291,200899,6,0,P|487:219|442:180,1,113.999996955872,0|0,3:0|0:0,0:0:0:0:
385,110,201551,2,0,P|345:168|297:170,1,113.999996955872,8|0,0:0|1:0,0:0:0:0:
209,111,202204,2,0,B|226:55|226:55|179:2,1,113.999996955872,2|0,0:0|1:0,0:0:0:0:
132,8,202693,1,0,0:0:0:0:
132,8,202856,2,0,P|103:53|37:43,1,113.999996955872,10|0,0:0|0:0,0:0:0:0:
7,157,203508,6,0,B|24:236|82:205|99:298,1,170.999995433807,2|0,3:2|1:0,0:0:0:0:
99,352,204160,1,8,0:0:0:0:
203,306,204486,2,0,P|204:258|184:233,1,56.9999984779358,0|0,1:0|0:0,0:0:0:0:
172,201,204812,2,0,P|151:127|186:88,1,113.999996955872,0|2,0:0|1:2,0:0:0:0:
244,15,205464,2,0,B|294:43|294:43|364:28,1,113.999996955872,10|2,0:0|0:0,0:0:0:0:
404,15,205954,1,0,3:0:0:0:
404,15,206117,6,0,P|453:49|456:101,1,113.999996955872,0|0,3:2|0:0,0:0:0:0:
367,171,206769,2,0,P|338:185|314:180,1,56.9999984779358,10|0,1:2|0:0,0:0:0:0:
270,143,207095,2,0,P|268:80|267:22,1,113.999996955872,2|0,3:2|0:0,0:0:0:0:
177,99,207747,2,0,P|175:155|174:212,1,113.999996955872,2|8,1:2|0:0,0:0:0:0:
85,284,208399,1,2,3:2:0:0:
35,181,208725,6,0,B|141:172|85:107|191:96,1,170.999995433807,2|0,3:2|0:0,0:0:0:0:
212,54,209377,2,0,P|275:93|327:66,1,113.999996955872,8|0,1:2|3:0,0:0:0:0:
417,46,210030,2,0,P|477:66|491:120,2,113.999996955872,2|2|10,0:0|1:2|0:0,0:0:0:0:
380,153,211008,2,0,P|385:197|390:224,1,56.9999984779358,2|0,1:2|3:0,0:0:0:0:
442,224,211334,6,0,P|409:275|414:339,1,113.999996955872,0|0,3:0|0:0,0:0:0:0:
295,326,211986,2,0,P|294:269|262:223,1,113.999996955872,0|0,1:0|3:0,0:0:0:0:
218,187,212475,1,0,0:0:0:0:
218,187,212638,2,0,P|166:240|121:230,1,113.999996955872,2|0,0:2|3:0,0:0:0:0:
37,172,213291,1,8,0:0:0:0:
10,121,213454,1,8,0:0:0:0:
40,72,213617,2,0,L|102:71,1,56.9999984779358,8|0,1:2|0:0,0:0:0:0:
138,32,213943,6,0,P|221:8|258:28,1,113.999996955872,2|0,3:2|0:0,0:0:0:0:
328,92,214595,2,0,P|316:138|315:160,1,56.9999984779358,8|0,0:0|0:0,0:0:0:0:
260,162,214921,2,0,P|272:208|273:230,1,56.9999984779358,0|0,1:0|0:0,0:0:0:0:
256,271,215247,2,0,P|200:306|147:285,1,113.999996955872,0|2,0:0|1:2,0:0:0:0:
43,293,215899,2,0,P|51:257|45:233,1,56.9999984779358,10|0,0:2|0:0,0:0:0:0:
22,186,216225,2,0,P|14:132|27:113,1,56.9999984779358,2|0,0:0|3:0,0:0:0:0:
49,87,216551,5,0,3:0:0:0:
152,135,216877,1,2,0:0:0:0:
231,53,217204,2,0,P|281:106|279:153,1,113.999996955872,8|2,0:0|1:2,0:0:0:0:
244,186,217693,1,0,0:0:0:0:
244,186,217856,2,0,P|217:244|230:301,1,113.999996955872,0|0,3:0|3:0,0:0:0:0:
312,365,218508,2,0,P|364:339|423:345,1,113.999996955872,10|0,1:2|0:0,0:0:0:0:
499,262,219160,6,0,B|488:223|501:181|501:181|457:187|414:147,1,170.999995433807,2|0,0:0|1:0,0:0:0:0:
413,95,219812,1,8,0:0:0:0:
337,9,220138,2,0,P|289:74|309:115,1,113.999996955872,2|0,1:2|0:0,0:0:0:0:
303,159,220627,1,0,3:0:0:0:
303,159,220791,2,0,P|235:141|194:169,1,113.999996955872,2|8,1:2|0:0,0:0:0:0:
133,68,221443,2,0,P|90:89|66:80,1,56.9999984779358,2|0,0:0|0:0,0:0:0:0:
27,74,221769,6,0,P|48:151|50:205,1,113.999996955872,0|0,3:2|0:0,0:0:0:0:
162,202,222421,2,0,P|144:256|138:312,1,113.999996955872,8|0,0:0|1:0,0:0:0:0:
240,364,223073,2,0,P|284:351|307:351,1,56.9999984779358,0|0,0:0|1:0,0:0:0:0:
351,354,223399,2,0,P|341:296|341:284,1,56.9999984779358,2|0,3:2|0:0,0:0:0:0:
337,241,223725,2,0,P|395:253|455:240,1,113.999996955872,8|2,1:2|0:0,0:0:0:0:
510,147,224377,6,0,B|514:69|514:69|446:96|365:31,1,227.999993911743,2|10,3:2|1:2,0:0:0:0:
259,39,225356,2,0,B|187:96|119:69|119:69|123:147,1,227.999993911743,2|0,3:2|1:0,0:0:0:0:
36,221,226334,2,0,P|11:273|16:286,1,56.9999984779358,10|0,0:0|0:0,0:0:0:0:
38,317,226660,2,0,P|71:311|111:318,1,56.9999984779358,2|0,0:0|3:0,0:0:0:0:
150,340,226986,6,0,P|202:360|254:336,1,113.999996955872,0|0,3:0|0:0,0:0:0:0:
324,249,227638,1,10,1:2:0:0:
225,192,227964,1,0,3:0:0:0:
298,104,228291,2,0,P|343:80|409:103,2,113.999996955872,2|2|10,0:0|1:2|0:0,0:0:0:0:
201,42,229269,2,0,P|167:70|146:62,1,56.9999984779358,2|0,0:0|3:0,0:0:0:0:
111,56,229595,6,0,P|74:104|80:147,1,96,0|0,3:0|0:0,0:0:0:0:
160,183,230247,2,0,P|158:243|188:274,1,96,8|0,0:0|1:0,0:0:0:0:
264,225,230899,2,0,P|298:275|340:282,1,96,0|0,3:0|1:0,0:0:0:0:
412,234,231551,2,0,P|398:139|406:83,1,144,8|0,0:0|3:0,0:0:0:0:
437,56,232204,6,0,P|406:20|359:19,1,96,0|0,3:0|0:0,0:0:0:0:
263,23,232856,2,0,P|287:86|283:122,1,96,8|0,0:0|1:0,0:0:0:0:
223,187,233508,1,2,0:0:0:0:
153,269,233834,2,0,P|132:312|156:380,2,107.999996704102,0|10|2,3:0|1:2|0:0,0:0:0:0:
153,269,234861,5,2,0:0:0:0:
