osu file format v14

[General]
AudioFilename: audio.mp3
AudioLeadIn: 0
PreviewTime: 237514
Countdown: 0
SampleSet: Soft
StackLeniency: 0.7
Mode: 0
LetterboxInBreaks: 0
WidescreenStoryboard: 0

[Editor]
Bookmarks: 8574,18669,30281,41894,53507,65120,76733,88346,99959,114475,123185,134798,146410,158023,169636,181249,195765,216088,237817,249383,262395,274007,285620,297233,308846,313201
DistanceSpacing: 0.5
BeatDivisor: 4
GridSize: 32
TimelineZoom: 2.3

[Metadata]
Title:Mistletoe ~Kamigami no Yadorigi~ Daini Gakushou "Tensei no Yadorigi"
TitleUnicode:ミスルトウ ~神々の宿り木~ 第二楽章 "転生の宿り木"
Artist:Lily
ArtistUnicode:リリィ
Creator:Hey lululu
Version:Azure wings transcend cruel fate.
Source:
Tags:The Tree of Reincarnation Gods japanese folk cover vocaloid ひとしずく×やま△ Hitoshizuku Yamasankakkei 鏡音リン 鏡音レン Kagamine Rin Len WAVE Morrigan STORYTELLER C97 comiket comic market Kalibe TtmnZk TT Mouse TT_Mouse lu^3
BeatmapID:4317526
BeatmapSetID:2064221

[Difficulty]
HPDrainRate:6
CircleSize:4.2
OverallDifficulty:9
ApproachRate:9.4
SliderMultiplier:1.8
SliderTickRate:1

[Events]
//Background and Video events
0,0,"BG.jpg",0,0
//Break Periods
//Storyboard Layer 0 (Background)
//Storyboard Layer 1 (Fail)
//Storyboard Layer 2 (Pass)
//Storyboard Layer 3 (Foreground)
//Storyboard Layer 4 (Overlay)
//Storyboard Sound Samples

[TimingPoints]
1364,300,6,2,2,40,1,0
1664,-200,3,2,2,40,0,0
3164,-142.857142857143,3,2,2,40,0,0
4364,-200,3,2,2,40,0,0
8564,-125,3,2,2,40,0,0
11564,-125,3,2,2,60,0,0
13964,-285.714285714286,3,2,3,60,0,0
14864,-1000,3,2,3,60,0,0
17864,265.486725663717,6,2,3,70,1,0
18394,-1000,3,2,3,70,0,0
18659,241.935483870968,6,2,10,70,1,0
18659,-105.263157894737,3,2,10,70,0,0
19384,-133.333333333333,3,2,4,70,0,0
20110,-105.263157894737,3,2,11,70,0,0
20473,-117.64705882353,3,2,4,70,0,0
20836,-105.263157894737,3,2,4,70,0,0
21562,-105.263157894737,3,2,12,70,0,0
23013,-105.263157894737,3,2,13,70,0,0
24465,-105.263157894737,3,2,14,70,0,0
24828,-105.263157894737,3,2,4,70,0,0
25917,-105.263157894737,3,2,13,70,0,0
26279,-105.263157894737,3,2,4,70,0,0
27368,-105.263157894737,3,2,15,70,0,0
28094,-105.263157894737,3,2,4,70,0,0
28820,-105.263157894737,3,2,16,70,0,0
29304,-105.263157894737,3,2,4,70,0,0
30271,-105.263157894737,3,2,10,70,0,0
30512,-105.263157894737,3,2,4,70,0,0
31723,-105.263157894737,3,2,11,70,0,0
31964,-105.263157894737,3,2,4,70,0,0
32691,-86.9565217391306,3,2,4,70,0,0
32933,-74.0740740740741,3,2,4,70,0,0
33175,-105.263157894737,3,2,12,70,0,0
33416,-105.263157894737,3,2,4,70,0,0
33900,-80.0000000000001,3,2,4,70,0,0
34142,-105.263157894737,3,2,4,70,0,0
34384,-80.0000000000001,3,2,4,70,0,0
34626,-95.2380952380952,3,2,13,70,0,0
34867,-95.2380952380952,3,2,4,70,0,0
36078,-95.2380952380952,3,2,14,70,0,0
36320,-181.818181818182,3,2,4,70,0,0
36804,-74.0740740740741,3,2,4,70,0,0
37046,-95.2380952380952,3,2,4,70,0,0
37529,-95.2380952380952,3,2,13,70,0,0
37771,-95.2380952380952,3,2,4,70,0,0
38981,-95.2380952380952,3,2,15,70,0,0
39223,-95.2380952380952,3,2,4,70,0,0
40433,-95.2380952380952,3,2,17,70,0,0
40675,-95.2380952380952,3,2,4,70,0,0
41884,-400,3,2,2,30,0,0
43336,-666.666666666667,3,2,2,30,0,0
44788,-400,3,2,20,30,0,0
45029,-400,3,2,21,30,0,0
45150,-400,3,2,22,30,0,0
45271,-400,3,2,23,30,0,0
45392,-400,3,2,24,30,0,0
45513,-400,3,2,25,30,0,0
45996,-400,3,2,2,30,0,0
46965,-500,3,2,2,30,0,0
47207,-285.714285714286,3,2,2,30,0,0
48054,-400,3,2,2,30,0,0
50594,-400,3,2,26,30,0,0
50835,-400,3,2,2,30,0,0
50957,-400,3,2,22,30,0,0
51078,-400,3,2,23,30,0,0
51199,-400,3,2,24,30,0,0
51320,-400,3,2,23,30,0,0
53013,-285.714285714286,3,2,2,30,0,0
53255,-222.222222222222,3,2,2,30,0,0
53497,-181.818181818182,3,2,27,40,0,0
53739,-181.818181818182,3,2,21,40,0,0
53859,-181.818181818182,3,2,22,40,0,0
53981,-181.818181818182,3,2,28,40,0,0
54102,-181.818181818182,3,2,23,40,0,0
54223,-181.818181818182,3,2,27,40,0,0
54707,-181.818181818182,3,2,2,40,0,0
54949,-400.000000000002,3,2,2,40,0,0
55675,-181.818181818182,3,2,2,40,0,0
55917,-153.846153846154,3,2,2,40,0,0
56159,-133.333333333334,3,2,2,40,0,0
56400,-133.333333333334,3,2,29,40,0,0
56763,-133.333333333334,3,2,30,40,0,0
57973,-285.714285714289,3,2,2,40,0,0
58578,-181.818181818181,3,2,2,40,0,0
59304,-181.818181818181,3,2,25,40,0,0
59546,-181.818181818181,3,2,23,40,0,0
60029,-181.818181818181,3,2,30,40,0,0
60755,-250,3,2,4,40,0,0
62207,-333.333333333333,3,2,4,40,0,0
63659,-200,3,2,4,40,0,0
64384,-166.666666666667,3,2,4,40,0,0
65110,-100,3,2,40,45,0,0
65352,-100,3,2,41,45,0,0
65473,-90.9090909090909,3,2,42,45,0,0
65714,-90.9090909090909,3,2,43,45,0,0
65836,-166.666666666667,3,2,44,45,0,0
66320,-125,3,2,45,45,0,0
66501,-125,3,2,45,5,0,0
66562,-100,3,2,46,45,0,0
66743,-100,3,2,46,5,0,0
66804,-100,3,2,46,45,0,0
66925,-90.9090909090909,3,2,47,45,0,0
67288,-142.857142857143,3,2,47,45,0,0
67529,-142.857142857143,3,2,47,30,0,0
67771,-250,3,2,47,45,0,0
68013,-111.111111111111,3,2,48,45,0,0
68739,-111.111111111111,3,2,49,45,0,0
68981,-111.111111111111,3,2,50,45,0,0
69223,-111.111111111111,3,2,51,45,0,0
69343,-111.111111111111,3,2,52,45,0,0
69465,-111.111111111111,3,2,48,45,0,0
70191,-111.111111111111,3,2,53,45,0,0
70917,-125,3,2,54,45,0,0
71279,-125,3,2,42,45,0,0
71400,-125,3,2,55,45,0,0
71642,-166.666666666666,3,2,56,45,0,0
72368,-125,3,2,69,45,0,0
72610,-125,3,2,57,45,0,0
72731,-125,3,2,69,45,0,0
72852,-125,3,2,57,45,0,0
73094,-125,3,2,69,45,0,0
73335,-125,3,2,58,45,0,0
73577,-125,3,2,59,45,0,0
73820,-125,3,2,60,45,0,0
74183,-125,3,2,61,45,0,0
74546,-200,3,2,62,45,0,0
74787,-200,3,2,62,60,0,0
75271,-111.111111111111,3,2,63,60,0,0
75634,-111.111111111111,3,2,64,60,0,0
75997,-83.3333333333333,3,2,65,60,0,0
76723,-100,3,2,40,45,0,0
76965,-100,3,2,41,45,0,0
77086,-90.9090909090909,3,2,42,45,0,0
77327,-90.9090909090909,3,2,43,45,0,0
77449,-166.666666666667,3,2,44,45,0,0
77933,-125,3,2,45,45,0,0
78114,-125,3,2,45,5,0,0
78175,-100,3,2,46,45,0,0
78356,-100,3,2,46,5,0,0
78417,-100,3,2,46,45,0,0
78538,-100,3,2,47,45,0,0
79142,-100,3,2,47,30,0,0
79384,-100,3,2,47,45,0,0
79626,-90.9090909090909,3,2,66,60,0,0
79989,-90.9090909090909,3,2,67,60,0,0
80352,-250,3,2,68,60,0,0
80594,-90.9090909090909,3,2,50,60,0,0
80836,-90.9090909090909,3,2,51,60,0,0
81017,-90.9090909090909,3,2,52,60,0,0
81078,-90.9090909090909,3,2,48,60,0,0
81804,-90.9090909090909,3,2,53,60,0,0
82529,-111.111111111111,3,2,54,60,0,0
82892,-111.111111111111,3,2,42,60,0,0
83013,-111.111111111111,3,2,55,60,0,0
83255,-111.111111111111,3,2,56,60,0,0
83981,-100,3,2,69,60,0,0
84223,-100,3,2,57,60,0,0
84344,-100,3,2,69,60,0,0
84465,-100,3,2,57,60,0,0
84707,-100,3,2,69,60,0,0
84948,-100,3,2,58,60,0,0
85190,-100,3,2,59,60,0,0
85433,-90.9090909090909,3,2,60,60,0,0
85796,-90.9090909090909,3,2,61,60,0,0
86159,-90.9090909090909,3,2,62,60,0,0
86884,-90.9090909090909,3,2,63,60,0,0
87246,-90.9090909090909,3,2,64,60,0,0
87610,-90.9090909090909,3,2,65,60,0,0
88094,-133.333333333333,3,2,65,60,0,0
88336,-111.111111111111,3,2,70,75,0,1
88366,-111.111111111111,3,2,70,75,0,0
89062,-200,3,2,70,75,0,0
89788,-111.111111111111,3,2,70,75,0,0
90513,-200,3,2,70,75,0,0
90997,-200,3,2,71,75,0,0
91239,-111.111111111111,3,2,72,75,0,0
91904,-111.111111111111,3,2,72,5,0,0
91965,-111.111111111111,3,2,72,75,0,0
92691,-111.111111111111,3,2,71,75,0,0
93900,-111.111111111111,3,2,70,75,0,0
94021,-111.111111111111,3,2,71,75,0,0
94142,-111.111111111111,3,2,91,75,0,0
94868,-83.3333333333333,3,2,91,75,0,0
95473,-83.3333333333333,3,2,72,75,0,0
95594,-111.111111111111,3,2,92,75,0,0
96501,-111.111111111111,3,2,92,5,0,0
96562,-76.9230769230769,3,2,92,75,0,0
96804,-86.9565217391304,3,2,70,75,0,0
97046,-99.9999999999999,3,2,93,75,0,0
98255,-99.9999999999999,3,2,70,75,0,0
98497,-99.9999999999999,3,2,91,75,0,0
98738,-99.9999999999999,3,2,74,75,0,0
99223,-83.3333333333333,3,2,75,75,0,0
99464,-83.3333333333333,3,2,74,75,0,0
99949,-111.111111111111,3,2,70,75,0,1
99979,-111.111111111111,3,2,70,75,0,0
100675,-90.9090909090908,3,2,70,75,0,0
101400,-111.111111111111,3,2,70,75,0,0
102126,-90.9090909090908,3,2,70,75,0,0
102610,-90.9090909090908,3,2,71,75,0,0
102852,-200,3,2,72,75,0,0
103336,-100,3,2,72,75,0,0
103517,-100,3,2,72,5,0,0
103578,-90.9090909090909,3,2,72,75,0,0
104062,-83.3333333333333,3,2,72,75,0,0
104304,-83.3333333333333,3,2,71,75,0,0
105513,-83.3333333333333,3,2,70,75,0,0
105634,-83.3333333333333,3,2,71,75,0,0
105755,-83.3333333333333,3,2,91,75,0,0
106481,-111.111111111111,3,2,91,75,0,0
106662,-111.111111111111,3,2,91,5,0,0
106723,-83.3333333333333,3,2,91,75,0,0
107085,-83.3333333333333,3,2,72,75,0,0
107207,-83.3333333333333,3,2,92,75,0,0
108659,-83.3333333333333,3,2,93,75,0,0
109323,-83.3333333333333,3,2,93,5,0,0
109384,-83.3333333333333,3,2,93,75,0,0
109868,-83.3333333333333,3,2,70,75,0,0
110110,-83.3333333333333,3,2,91,75,0,0
110351,-83.3333333333333,3,2,74,75,0,0
110594,-166.666666666667,3,2,74,75,0,0
110836,-111.111111111111,3,2,75,75,0,0
111078,-111.111111111111,3,2,74,75,0,0
111501,-111.111111111111,3,2,74,5,0,0
111562,-111.111111111111,3,2,70,75,0,0
111804,-111.111111111111,3,2,2,75,0,0
114223,-66.6666666666667,3,2,2,75,0,1
114465,-66.6666666666667,3,2,2,75,0,0
116884,-66.6666666666667,3,2,2,50,0,0
123175,-400,3,2,2,30,0,0
126078,-181.818181818181,3,2,20,30,0,0
126319,-181.818181818181,3,2,21,30,0,0
126441,-181.818181818181,3,2,22,30,0,0
126803,-181.818181818181,3,2,25,30,0,0
127288,-181.818181818181,3,2,2,30,0,0
128618,-285.714285714286,3,2,2,30,0,0
131884,-285.714285714286,3,2,26,30,0,0
132367,-285.714285714286,3,2,23,30,0,0
134062,-133.333333333333,3,2,2,30,0,0
134788,-133.333333333333,3,2,27,40,0,0
134909,-222.222222222221,3,2,2,30,0,0
135513,-222.222222222221,3,2,27,40,0,0
135755,-285.714285714284,3,2,2,30,0,0
135997,-285.714285714284,3,2,2,40,0,0
137691,-181.818181818181,3,2,29,40,0,0
138054,-181.818181818181,3,2,30,40,0,0
138175,-285.714285714284,3,2,2,30,0,0
139263,-285.714285714284,3,2,2,40,0,0
140594,-181.818181818181,3,2,25,40,0,0
140836,-181.818181818181,3,2,23,40,0,0
141320,-181.818181818181,3,2,30,40,0,0
142046,-181.818181818181,3,2,4,40,0,0
143497,-133.333333333333,3,2,4,40,0,0
143981,-181.818181818181,3,2,4,30,0,0
144949,-181.818181818181,3,2,4,40,0,0
145675,-105.263157894737,3,2,4,40,0,0
146400,-100,3,2,40,45,0,0
146642,-100,3,2,41,45,0,0
146763,-90.9090909090909,3,2,42,45,0,0
147004,-90.9090909090909,3,2,43,45,0,0
147126,-166.666666666667,3,2,44,45,0,0
147610,-166.666666666667,3,2,45,45,0,0
147852,-100,3,2,46,45,0,0
148033,-100,3,2,46,5,0,0
148094,-100,3,2,46,45,0,0
148215,-90.9090909090909,3,2,47,45,0,0
148578,-142.857142857143,3,2,47,45,0,0
148819,-142.857142857143,3,2,47,30,0,0
149062,-250,3,2,47,45,0,0
149304,-111.111111111111,3,2,48,45,0,0
150029,-111.111111111111,3,2,49,45,0,0
150271,-111.111111111111,3,2,50,45,0,0
150513,-111.111111111111,3,2,51,45,0,0
150633,-111.111111111111,3,2,52,45,0,0
150755,-111.111111111111,3,2,48,45,0,0
151481,-111.111111111111,3,2,53,45,0,0
152207,-125,3,2,54,45,0,0
152570,-125,3,2,42,45,0,0
152691,-125,3,2,55,45,0,0
152933,-166.666666666666,3,2,56,45,0,0
153658,-166.666666666666,3,2,69,45,0,0
153900,-125,3,2,57,45,0,0
154020,-125,3,2,69,45,0,0
154142,-125,3,2,57,45,0,0
154384,-125,3,2,69,45,0,0
154625,-125,3,2,58,45,0,0
154867,-125,3,2,59,45,0,0
155110,-125,3,2,60,45,0,0
155473,-125,3,2,61,45,0,0
155836,-200,3,2,62,45,0,0
156198,-200,3,2,62,60,0,0
156320,-111.111111111111,3,2,62,50,0,0
156562,-111.111111111111,3,2,63,60,0,0
156925,-111.111111111111,3,2,64,60,0,0
157288,-83.3333333333333,3,2,65,60,0,0
158013,-100,3,2,40,45,0,0
158255,-100,3,2,41,45,0,0
158376,-90.9090909090909,3,2,42,45,0,0
158617,-90.9090909090909,3,2,43,45,0,0
158739,-166.666666666667,3,2,44,45,0,0
159223,-125,3,2,45,45,0,0
159404,-125,3,2,45,5,0,0
159465,-100,3,2,46,45,0,0
159646,-100,3,2,46,5,0,0
159707,-100,3,2,46,45,0,0
159828,-100,3,2,47,45,0,0
160433,-100,3,2,47,30,0,0
160675,-100,3,2,47,45,0,0
160917,-90.9090909090909,3,2,66,60,0,0
161279,-90.9090909090909,3,2,67,60,0,0
161642,-250,3,2,68,60,0,0
161884,-90.9090909090909,3,2,50,60,0,0
162126,-90.9090909090909,3,2,51,60,0,0
162307,-90.9090909090909,3,2,52,60,0,0
162368,-90.9090909090909,3,2,48,60,0,0
163094,-90.9090909090909,3,2,53,60,0,0
163820,-111.111111111111,3,2,54,60,0,0
164183,-111.111111111111,3,2,42,60,0,0
164304,-111.111111111111,3,2,55,60,0,0
164546,-111.111111111111,3,2,56,60,0,0
165271,-100,3,2,69,60,0,0
165513,-100,3,2,57,60,0,0
165634,-100,3,2,69,60,0,0
165755,-100,3,2,57,60,0,0
165997,-100,3,2,69,60,0,0
166238,-100,3,2,58,60,0,0
166480,-100,3,2,59,60,0,0
166723,-100,3,2,60,60,0,0
166844,-90.9090909090909,3,2,60,60,0,0
167086,-90.9090909090909,3,2,61,60,0,0
167449,-90.9090909090909,3,2,62,60,0,0
167933,-125,3,2,62,50,0,0
168175,-90.9090909090909,3,2,63,60,0,0
168537,-90.9090909090909,3,2,64,60,0,0
168900,-90.9090909090909,3,2,65,60,0,0
169626,-111.111111111111,3,2,70,75,0,1
169656,-111.111111111111,3,2,70,75,0,0
170352,-200,3,2,70,75,0,0
171078,-111.111111111111,3,2,70,75,0,0
171804,-200,3,2,70,75,0,0
172288,-200,3,2,71,75,0,0
172529,-111.111111111111,3,2,72,75,0,0
173194,-111.111111111111,3,2,72,5,0,0
173255,-111.111111111111,3,2,72,75,0,0
173981,-111.111111111111,3,2,71,75,0,0
175191,-111.111111111111,3,2,70,75,0,0
175312,-111.111111111111,3,2,71,75,0,0
175433,-111.111111111111,3,2,91,75,0,0
176159,-83.3333333333333,3,2,91,75,0,0
176763,-83.3333333333333,3,2,72,75,0,0
176884,-111.111111111111,3,2,92,75,0,0
177791,-111.111111111111,3,2,92,5,0,0
177852,-76.9230769230769,3,2,92,75,0,0
178094,-86.9565217391304,3,2,70,75,0,0
178336,-99.9999999999999,3,2,93,75,0,0
179546,-99.9999999999999,3,2,70,75,0,0
179788,-99.9999999999999,3,2,91,75,0,0
180029,-99.9999999999999,3,2,74,75,0,0
180513,-83.3333333333333,3,2,75,75,0,0
180755,-83.3333333333333,3,2,74,75,0,0
181239,-111.111111111111,3,2,70,75,0,1
181269,-111.111111111111,3,2,70,75,0,0
181904,-111.111111111111,3,2,70,5,0,0
181965,-90.9090909090909,3,2,70,75,0,0
182691,-111.111111111111,3,2,70,75,0,0
183417,-90.9090909090909,3,2,70,75,0,0
183900,-90.9090909090909,3,2,71,75,0,0
184142,-200,3,2,72,75,0,0
184505,-100,3,2,72,75,0,0
184868,-90.9090909090909,3,2,72,75,0,0
185473,-90.9090909090909,3,2,6,75,0,0
185594,-142.857142857143,3,2,71,75,0,0
185835,-142.857142857143,3,2,71,70,0,0
186078,-100,3,2,71,70,0,0
186562,-90.9090909090909,3,2,71,70,0,0
186804,-90.9090909090909,3,2,70,75,0,0
186925,-90.9090909090909,3,2,71,75,0,0
187046,-90.9090909090909,3,2,91,75,0,0
187771,-76.9230769230769,3,2,91,75,0,0
187952,-76.9230769230769,3,2,91,5,0,0
188013,-111.111111111111,3,2,91,75,0,0
188255,-90.9090909090909,3,2,91,75,0,0
188375,-90.9090909090909,3,2,72,75,0,0
188497,-90.9090909090909,3,2,92,75,0,0
189949,-90.9090909090909,3,2,93,75,0,0
191159,-90.9090909090909,3,2,70,75,0,0
191400,-100,3,2,91,75,0,0
191641,-100,3,2,74,75,0,0
192126,-83.3333333333333,3,2,75,75,0,0
192368,-90.9090909090909,3,2,74,75,0,0
192610,-100,3,2,6,70,0,0
192851,-100,3,2,70,75,0,0
193820,-100,3,2,2,75,0,0
195513,-66.6666666666667,3,2,4,70,0,1
195755,-66.6666666666667,3,2,4,70,0,0
196118,-66.6666666666667,3,2,2,70,0,0
203739,-166.666666666667,3,2,3,70,0,0
204223,-83.3333333333333,3,2,3,70,0,0
204465,-83.3333333333333,3,2,2,70,0,0
204949,-133.333333333333,3,2,2,70,0,0
206642,-222.222222222221,3,2,2,70,0,0
206884,-100,3,2,2,70,0,0
207852,-166.666666666667,3,2,2,70,0,0
209546,-250.000000000001,3,2,2,70,0,0
210513,-133.333333333333,3,2,2,70,0,0
212691,-117.647058823529,3,2,2,70,0,0
215594,-66.6666666666667,3,2,82,56,0,0
215775,-66.6666666666667,3,2,4,70,0,0
215836,-66.6666666666667,3,2,83,56,0,0
216017,-66.6666666666667,3,2,4,70,0,0
216078,-66.6666666666667,3,2,84,56,0,0
216199,-111.111111111111,3,2,85,70,0,0
216440,-111.111111111111,3,2,4,70,0,0
216804,-111.111111111111,3,2,83,56,0,0
216924,-111.111111111111,3,2,4,70,0,0
217046,-111.111111111111,3,2,82,56,0,0
217166,-111.111111111111,3,2,4,70,0,0
217288,-111.111111111111,3,2,84,56,0,0
217408,-111.111111111111,3,2,4,70,0,0
217529,-111.111111111111,3,2,86,56,0,0
217770,-111.111111111111,3,2,4,70,0,0
218255,-111.111111111111,3,2,86,56,0,0
218496,-111.111111111111,3,2,87,56,0,0
218618,-111.111111111111,3,2,88,56,0,0
218739,-111.111111111111,3,2,89,56,0,0
218860,-111.111111111111,3,2,88,56,0,0
218981,-111.111111111111,3,2,4,70,0,0
219707,-111.111111111111,3,2,82,56,0,0
219948,-111.111111111111,3,2,84,56,0,0
220070,-111.111111111111,3,2,82,56,0,0
220311,-111.111111111111,3,2,4,70,0,0
220433,-99.9999999999999,3,2,83,56,0,0
220553,-99.9999999999999,3,2,4,70,0,0
220675,-99.9999999999999,3,2,85,70,0,0
220796,-99.9999999999999,3,2,4,70,0,0
220917,-99.9999999999999,3,2,90,56,0,0
221037,-99.9999999999999,3,2,4,70,0,0
221159,-99.9999999999999,3,2,85,70,0,0
221279,-99.9999999999999,3,2,4,70,0,0
221400,-99.9999999999999,3,2,83,56,0,0
221520,-99.9999999999999,3,2,4,70,0,0
221642,-99.9999999999999,3,2,82,56,0,0
221703,-99.9999999999999,3,2,4,70,0,0
222126,-99.9999999999999,3,2,82,56,0,0
222247,-99.9999999999999,3,2,4,70,0,0
222368,-99.9999999999999,3,2,82,56,0,0
222489,-99.9999999999999,3,2,4,70,0,0
222852,-99.9999999999999,3,2,18,56,0,0
222973,-99.9999999999999,3,2,4,70,0,0
223094,-99.9999999999999,3,2,82,56,0,0
223214,-99.9999999999999,3,2,4,70,0,0
223336,-142.857142857143,3,2,83,56,0,0
223457,-99.9999999999999,3,2,4,70,0,0
223699,-99.9999999999999,3,2,83,56,0,0
223820,-99.9999999999999,3,2,18,56,0,0
223940,-99.9999999999999,3,2,4,70,0,0
224062,-99.9999999999999,3,2,82,56,0,0
224243,-99.9999999999999,3,2,4,70,0,0
224788,-99.9999999999999,3,2,82,56,0,0
224908,-99.9999999999999,3,2,4,70,0,0
225029,-99.9999999999999,3,2,18,56,0,0
225149,-99.9999999999999,3,2,4,70,0,0
225271,-99.9999999999999,3,2,84,56,0,0
225391,-99.9999999999999,3,2,4,70,0,0
225513,-99.9999999999999,3,2,19,56,0,0
225633,-99.9999999999999,3,2,4,70,0,0
225755,-99.9999999999999,3,2,31,56,0,0
225875,-99.9999999999999,3,2,4,70,0,0
225997,-99.9999999999999,3,2,86,56,0,0
226117,-99.9999999999999,3,2,4,70,0,0
226239,-99.9999999999999,3,2,32,56,0,0
226420,-99.9999999999999,3,2,4,70,0,0
226723,-99.9999999999999,3,2,90,56,0,0
226843,-99.9999999999999,3,2,4,70,0,0
226965,-99.9999999999999,3,2,85,70,0,0
227085,-99.9999999999999,3,2,4,70,0,0
227207,-99.9999999999999,3,2,83,56,0,0
227328,-99.9999999999999,3,2,4,70,0,0
227449,-99.9999999999999,3,2,86,56,0,0
227509,-99.9999999999999,3,2,4,70,0,0
227691,-99.9999999999999,3,2,82,56,0,0
227932,-99.9999999999999,3,2,4,70,0,0
228054,-99.9999999999999,3,2,82,56,0,0
228295,-99.9999999999999,3,2,4,70,0,0
228417,-99.9999999999999,3,2,18,56,0,0
228598,-99.9999999999999,3,2,4,70,0,0
229142,-99.9999999999999,3,2,82,56,0,0
229262,-99.9999999999999,3,2,4,70,0,0
229384,-99.9999999999999,3,2,18,56,0,0
229505,-99.9999999999999,3,2,82,56,0,0
229625,-99.9999999999999,3,2,4,70,0,0
229868,-99.9999999999999,3,2,83,56,0,0
229989,-99.9999999999999,3,2,4,70,0,0
230110,-99.9999999999999,3,2,85,70,0,0
230231,-99.9999999999999,3,2,4,70,0,0
230352,-99.9999999999999,3,2,33,56,0,0
230473,-99.9999999999999,3,2,4,70,0,0
230614,297.766749379653,6,2,90,56,1,0
231358,-100,3,2,4,5,0,0
231507,241.935483870968,6,2,32,56,1,0
231507,-200,3,2,32,56,0,0
233200,-200,3,2,4,70,0,0
233261,-100,3,2,2,40,0,0
237817,240.963855421687,6,2,2,30,1,0
238057,-200,3,2,2,30,0,0
239262,-142.857142857143,3,2,2,30,0,0
240226,-200,3,2,2,30,0,0
244323,-133.333333333333,3,2,2,30,0,0
249383,-222.222222222221,3,2,4,40,0,0
249744,-399.999999999997,3,2,4,40,0,0
250829,-222.222222222221,3,2,4,40,0,0
251190,-399.999999999997,3,2,4,40,0,0
252274,-153.846153846153,3,2,4,40,0,0
252756,-222.22222222222,3,2,4,40,0,0
253479,-117.647058823529,3,2,4,40,0,0
253720,-200,3,2,4,40,0,0
255166,-133.333333333333,3,2,4,40,0,0
258419,-222.222222222221,3,2,4,40,0,0
258780,-117.647058823529,3,2,4,40,0,0
259021,-153.846153846153,3,2,4,40,0,0
259503,-117.647058823529,3,2,4,40,0,0
261672,-399.999999999995,3,2,4,40,0,0
262154,-100,3,2,4,40,0,0
262395,241.935483870968,6,2,76,70,1,1
262395,-83.3333333333333,3,2,76,70,0,1
262636,-83.3333333333333,3,2,76,75,0,1
262878,-100,3,2,76,75,0,1
263846,-83.3333333333333,3,2,76,75,0,1
264209,-83.3333333333333,3,2,76,70,0,1
264330,-100,3,2,76,70,0,1
264572,-100,3,2,76,75,0,1
265056,-100,3,2,79,75,0,1
265298,-100,3,2,74,75,0,1
266749,-83.3333333333333,3,2,77,75,0,1
267475,-133.333333333333,3,2,77,70,0,1
267959,-133.333333333333,3,2,76,75,0,1
268080,-133.333333333333,3,2,77,75,0,1
268201,-100,3,2,96,75,0,1
268927,-100,3,2,76,75,0,1
269532,-100,3,2,78,75,0,1
269653,-100,3,2,97,75,0,1
270559,-100,3,2,97,5,0,1
270620,-88.4955752212389,3,2,97,75,0,1
270862,-83.3333333333333,3,2,76,75,0,1
271104,-83.3333333333333,3,2,79,75,0,1
272314,-83.3333333333333,3,2,76,75,0,1
272556,-83.3333333333333,3,2,96,75,0,1
272797,-83.3333333333333,3,2,70,75,0,1
273282,-66.6666666666667,3,2,81,75,0,1
273523,-66.6666666666667,3,2,70,75,0,1
273645,-100,3,2,70,70,0,1
274007,-100,3,2,76,75,0,1
276669,-100,3,2,79,75,0,1
276911,-100,3,2,74,75,0,1
278241,-100,3,2,6,75,0,1
278362,-90.9090909090909,3,2,77,75,0,1
278603,-90.9090909090909,3,2,77,70,0,1
279330,-100,3,2,77,70,0,1
279572,-133.333333333333,3,2,76,75,0,1
279693,-133.333333333333,3,2,77,75,0,1
279814,-86.9565217391304,3,2,96,75,0,1
280056,-86.9565217391304,3,2,96,70,0,1
280540,-95.2380952380952,3,2,76,75,0,1
280782,-105.263157894737,3,2,76,75,0,1
280902,-105.263157894737,3,2,76,70,0,1
281024,-95.2380952380952,3,2,76,75,0,1
281144,-95.2380952380952,3,2,78,75,0,1
281265,-95.2380952380952,3,2,97,75,0,1
282172,-95.2380952380952,3,2,97,5,0,1
282233,-105.263157894737,3,2,97,75,0,1
282353,-105.263157894737,3,2,97,70,0,1
282475,-105.263157894737,3,2,76,75,0,1
282717,-105.263157894737,3,2,98,75,0,1
283443,-95.2380952380952,3,2,98,75,0,1
283927,-95.2380952380952,3,2,76,75,0,1
284169,-117.647058823529,3,2,96,75,0,1
284410,-117.647058823529,3,2,70,75,0,1
284895,-117.647058823529,3,2,81,75,0,1
285136,-117.647058823529,3,2,70,75,0,1
285378,-117.647058823529,3,2,70,70,0,1
285620,-95.2380952380952,3,2,10,70,0,0
286346,-95.2380952380952,3,2,4,70,0,0
287072,-95.2380952380952,3,2,11,70,0,0
287435,-95.2380952380952,3,2,4,70,0,0
288524,-95.2380952380952,3,2,13,70,0,0
291427,-95.2380952380952,3,2,14,70,0,0
291850,-95.2380952380952,3,2,4,70,0,0
292878,-95.2380952380952,3,2,13,70,0,0
293241,-95.2380952380952,3,2,4,70,0,0
294330,-95.2380952380952,3,2,15,70,0,0
295056,-95.2380952380952,3,2,4,70,0,0
295782,-95.2380952380952,3,2,16,70,0,0
296265,-80,3,2,4,70,0,0
297233,-90.9090909090909,3,2,4,70,0,0
297596,-100,3,2,4,70,0,0
298685,-100,3,2,11,70,0,0
298927,-100,3,2,4,70,0,0
300136,-100,3,2,12,70,0,0
300378,-100,3,2,4,70,0,0
301588,-100,3,2,13,70,0,0
301829,-100,3,2,4,70,0,0
303040,-100,3,2,14,70,0,0
303281,-100,3,2,4,70,0,0
303765,-90.9090909090909,3,2,4,70,0,0
304491,-90.9090909090909,3,2,13,70,0,0
304733,-90.9090909090909,3,2,4,70,0,0
305943,-90.9090909090909,3,2,15,70,0,0
306185,-90.9090909090909,3,2,4,70,0,0
306669,-86.9565217391304,3,2,14,70,0,0
307395,-83.3333333333333,3,2,13,70,0,0
308120,-83.3333333333333,3,2,12,90,0,0
308362,-222.222222222221,3,2,4,90,0,0
308846,-222.222222222221,3,2,10,100,0,0
313201,-222.222222222221,3,2,4,80,0,0

[Colours]
Combo1 : 225,174,219
Combo2 : 187,160,151
Combo3 : 128,172,153
Combo4 : 240,162,104
Combo5 : 189,239,143
Combo6 : 251,85,85
Combo7 : 155,177,236
Combo8 : 193,91,227

[HitObjects]
254,0,1364,5,0,2:0:0:0:
270,75,1664,2,0,P|245:83|231:103,1,45,0|0,2:0|2:0,2:0:0:0:
270,75,1964,2,0,P|287:94|290:118,1,45,0|0,2:0|2:0,2:0:0:0:
239,168,2264,5,2,2:0:0:0:
234,199,2414,1,0,2:0:0:0:
263,244,2564,1,0,2:0:0:0:
295,310,2714,1,0,2:0:0:0:
241,384,2864,1,0,2:0:0:0:
512,114,3164,102,0,P|466:92|380:90,1,125.999996154785,0|0,2:0|2:0,2:0:0:0:
325,118,3614,2,0,P|332:144|366:155,2,62.9999980773926,0|0|0,2:0|2:0|2:0,2:0:0:0:
313,23,4064,6,0,P|283:24|229:47,1,62.9999980773926,2|0,2:0|2:0,2:0:0:0:
178,21,4364,2,0,P|159:30|132:61,1,45,0|0,2:0|2:0,2:0:0:0:
120,122,4664,1,0,2:0:0:0:
13,351,4964,102,0,B|57:339|57:339|60:341|60:341|87:273|87:273|89:277|89:277|145:267,1,180,0|0,2:0|2:0,2:0:0:0:
181,255,5864,2,0,L|-17:231,1,180,2|0,2:0|2:0,2:0:0:0:
223,384,6764,6,0,P|247:369|257:354,1,45,0|0,2:0|2:0,2:0:0:0:
248,312,7064,2,0,P|248:340|256:356,1,45,0|0,2:0|2:0,2:0:0:0:
297,369,7364,2,0,P|272:355|254:354,1,45,0|0,2:0|2:0,2:0:0:0:
242,225,7664,101,2,2:0:0:0:
237,189,7814,1,0,2:0:0:0:
259,138,7964,1,0,2:0:0:0:
289,75,8114,1,0,2:0:0:0:
273,0,8264,1,0,2:0:0:0:
0,137,8564,6,0,P|58:167|147:157,1,144,4|0,2:0|2:0,2:0:0:0:
229,146,9014,1,0,2:0:0:0:
320,131,9164,1,0,2:0:0:0:
409,157,9314,1,0,2:0:0:0:
491,131,9464,102,0,B|479:124|479:124|473:129|473:129|321:154,1,144,2|0,2:0|2:0,2:0:0:0:
302,222,9914,1,0,2:0:0:0:
394,254,10064,1,0,2:0:0:0:
338,300,10214,1,0,2:0:0:0:
283,233,10364,6,0,P|210:217|129:222,1,144,4|0,2:0|2:0,2:0:0:0:
72,251,10814,1,0,2:0:0:0:
0,346,10964,2,0,P|39:343|69:326,1,72,0|0,2:0|2:0,2:0:0:0:
179,182,11264,102,0,P|152:135|59:115,1,144,2|0,2:0|2:0,2:0:0:0:
0,138,11864,1,0,2:0:0:0:
185,265,12164,6,0,B|230:272|264:229|264:229|267:224|267:224|271:227|271:227|318:220|323:266|379:269,1,216,6|0,2:0|2:0,2:0:0:0:
467,192,12764,2,0,B|459:224|459:224|463:230|463:230|456:263,1,72,0|0,2:0|2:0,2:0:0:0:
388,347,13064,102,0,B|426:366|464:362|504:348|504:348|484:366|465:372,2,144,2|0|0,2:0|2:0|2:0,2:0:0:0:
354,304,13964,2,0,P|414:338|511:320,1,157.499995193482,2|0,2:0|2:0,2:0:0:0:
494,306,14864,6,0,P|445:301|396:324,1,103.5,6|0,2:0|2:0,2:0:0:0:
142,319,17864,101,0,2:0:0:0:
142,319,18129,1,0,0:0:0:0:
142,319,18394,2,0,L|126:323,1,13.5,0|0,2:0|2:0,2:0:0:0:
54,359,18659,38,0,B|124:327|124:288|199:249,1,170.999995433807,6|0,1:0|3:0,2:0:0:0:
301,213,19021,2,0,B|360:259|405:238|463:287,1,170.999995433807,0|0,1:0|2:0,2:0:0:0:
377,98,19384,86,0,P|255:51|170:95,1,202.500007724762,8|0,1:0|2:0,2:0:0:0:
85,127,19868,2,0,P|108:141|172:143,1,67.5000025749208,0|0,3:0|2:0,2:0:0:0:
427,165,20110,22,0,P|392:169|333:201,1,85.4999977169037,2|0,1:0|2:0,2:0:0:0:
227,269,20352,1,0,2:0:0:0:
227,269,20473,2,0,P|243:232|277:108,1,153.000002918243,0|0,3:1|2:0,2:0:0:0:
274,329,20836,86,0,P|311:347|360:375,1,85.4999977169037,8|0,1:0|2:0,2:0:0:0:
408,197,21078,2,0,P|371:218|333:238,1,85.4999977169037,0|0,1:0|2:0,2:0:0:0:
502,307,21320,2,0,P|505:264|512:222,1,85.4999977169037,0|0,1:0|2:0,2:0:0:0:
512,15,21562,22,0,P|434:82|353:69,1,170.999995433807,2|0,1:0|2:0,2:0:0:0:
259,124,21925,1,0,3:0:0:0:
181,66,22046,2,0,P|201:56|258:8,1,85.4999977169037,0|0,2:1|2:0,2:0:0:0:
161,211,22288,2,0,B|54:220|113:250|-3:260,1,170.999995433807,8|0,1:0|2:0,2:0:0:0:
120,380,22650,1,2,2:0:0:0:
206,338,22771,2,0,P|222:341|294:365,1,85.4999977169037,0|0,1:0|2:0,2:0:0:0:
229,243,23013,86,0,P|249:194|166:108,1,170.999995433807,2|0,1:0|2:0,2:0:0:0:
307,73,23376,2,0,P|354:63|474:8,1,170.999995433807,0|0,3:1|1:0,2:0:0:0:
465,13,23679,1,0,3:0:0:0:
465,13,23739,21,8,1:0:0:0:
408,154,23860,1,0,3:0:0:0:
307,73,23981,1,0,3:1:0:0:
408,154,24102,1,8,3:2:0:0:
266,162,24223,85,2,3:2:0:0:
382,78,24344,1,10,3:0:0:0:
224,13,24465,2,0,P|201:6|60:47,1,170.999995433807,6|6,3:1|3:0,2:0:0:0:
0,76,24828,2,0,B|59:86|59:86|99:110|99:110|171:123,1,170.999995433807,2|2,3:1|2:0,2:0:0:0:
280,184,25191,2,0,L|467:142,2,170.999995433807,8|0|4,1:0|3:0|3:0,2:0:0:0:
20,239,25917,22,0,P|23:262|79:305,1,85.4999977169037,2|0,3:1|1:0,2:0:0:0:
211,379,26159,1,0,3:0:0:0:
307,340,26279,2,0,B|280:317|244:311|244:311|221:260|264:201,1,170.999995433807,2|0,1:0|2:1,2:0:0:0:
277,35,26642,2,0,P|285:56|292:138,1,85.4999977169037,6|0,3:0|2:0,2:0:0:0:
341,248,26884,2,0,P|342:221|373:155,1,85.4999977169037,2|0,3:1|2:0,2:0:0:0:
494,45,27126,85,2,2:0:0:0:
444,115,27247,1,2,2:0:0:0:
311,62,27368,2,0,P|205:38|142:58,1,170.999995433807,6|0,3:1|2:0,2:0:0:0:
52,161,27731,1,2,3:0:0:0:
138,136,27852,2,0,P|152:137|222:171,1,85.4999977169037,0|2,1:0|2:0,2:0:0:0:
353,328,28094,22,0,P|331:304|305:240,1,85.4999977169037,10|0,1:0|2:0,2:0:0:0:
380,69,28336,2,0,P|348:97|329:135,1,85.4999977169037,2|0,2:0|2:0,2:0:0:0:
470,230,28578,2,0,L|375:211,1,85.4999977169037,8|0,1:0|2:0,2:0:0:0:
82,226,28820,86,0,B|132:203|228:250|173:286|259:338|311:312,1,256.499993150711,14|2,3:1|2:0,2:0:0:0:
176,113,29304,2,0,P|172:155|160:198,1,85.4999977169037,2|0,1:0|2:0,2:0:0:0:
276,69,29546,2,0,P|280:101|328:235,1,170.999995433807,10|0,1:0|3:0,2:0:0:0:
384,356,29909,21,2,1:2:0:0:
225,306,30029,1,8,3:2:0:0:
196,271,30090,1,8,3:2:0:0:
215,240,30150,1,8,3:2:0:0:
246,243,30211,1,8,3:2:0:0:
250,261,30271,86,0,P|220:292|99:332,1,170.999995433807,6|0,1:0|1:0,2:0:0:0:
78,229,30634,1,2,3:1:0:0:
0,216,30755,2,0,P|44:210|86:240,1,85.4999977169037,0|0,2:0|2:0,2:0:0:0:
171,154,30997,2,0,P|215:150|257:141,1,85.4999977169037,2|0,1:2|2:0,2:0:0:0:
266,236,31239,2,0,P|245:280|234:316,1,85.4999977169037,0|8,3:0|3:0,2:0:0:0:
107,214,31481,2,0,P|100:174|107:76,1,128.249996575356,4|0,3:0|2:0,2:0:0:0:
35,55,31723,22,0,B|91:27|149:64|218:25,1,170.999995433807,2|2,3:1|1:2,2:0:0:0:
316,5,32086,2,0,P|413:2|462:90,1,170.999995433807,2|0,1:0|2:0,2:0:0:0:
398,128,32449,86,0,P|357:139|306:147,1,85.4999977169037,14|0,1:0|2:0,2:0:0:0:
476,211,32691,2,0,P|489:160|512:100,1,103.500001974106,6|4,3:1|3:0,2:0:0:0:
390,279,32933,2,0,P|309:245|196:246,1,182.250000695229,2|0,3:0|2:0,2:0:0:0:
141,275,33175,22,0,P|123:331|204:302,1,170.999995433807,6|0,1:0|1:0,2:0:0:0:
289,227,33538,1,0,2:0:0:0:
161,117,33659,2,0,B|241:133|219:117|296:135,1,128.249996575356,2|0,1:2|2:0,2:0:0:0:
399,132,33900,86,0,B|478:99|478:99|465:105|465:105|385:91,1,168.75,10|0,1:0|2:0,2:0:0:0:
386,143,34142,2,0,P|384:169|393:212,1,42.7499988584519,2|0,1:2|2:0,2:0:0:0:
458,220,34263,2,0,P|456:246|465:289,1,42.7499988584519,0|0,2:0|2:0,2:0:0:0:
429,350,34384,2,0,B|357:321|357:321|338:327|338:327|289:382,1,168.75,10|0,1:0|2:0,2:0:0:0:
224,311,34626,22,0,P|158:256|56:282,1,188.999994232178,6|0,3:1|1:0,2:0:0:0:
9,357,34989,2,0,P|116:340|159:246,1,188.999994232178,2|0,3:1|2:0,2:0:0:0:
132,167,35352,86,0,B|139:130|139:130|129:112|129:112|141:59,1,94.499997116089,14|2,1:0|2:0,2:0:0:0:
43,14,35594,2,0,B|17:-9|-21:12|-21:12|33:26,1,94.499997116089,10|2,1:0|2:0,2:0:0:0:
64,88,35836,1,14,1:0:0:0:
198,36,35957,1,10,1:0:0:0:
322,121,36078,22,0,B|344:151|403:174|455:148|410:114,1,141.749995674133,6|0,3:1|2:0,2:0:0:0:
319,109,36320,2,0,P|292:108|264:120,1,49.5000015106202,2|2,1:2|3:1,2:0:0:0:
227,186,36562,1,0,2:0:0:0:
129,210,36683,1,2,1:2:0:0:
0,121,36804,86,0,P|99:103|176:143,1,182.250000695229,14|0,1:0|2:0,2:0:0:0:
238,209,37046,2,0,P|259:249|330:236,1,94.499997116089,6|14,1:0|3:0,2:0:0:0:
408,185,37288,2,0,B|457:133|534:153|532:194|494:205,1,141.749995674133,4|0,3:0|2:0,2:0:0:0:
414,199,37529,22,0,P|361:179|334:149,1,94.499997116089,6|0,1:0|2:0,2:0:0:0:
252,39,37771,2,0,P|199:59|172:89,1,94.499997116089,6|0,1:0|2:0,2:0:0:0:
90,233,38013,2,0,B|63:210|26:215|26:215|-14:191|3:135,1,141.749995674133,6|0,1:0|2:0,2:0:0:0:
37,73,38255,2,0,P|123:63|229:36,2,188.999994232178,14|2|2,1:0|2:0|1:2,2:0:0:0:
297,0,38981,86,0,P|339:48|336:110,1,94.499997116089,6|0,3:1|2:0,2:0:0:0:
265,133,39223,1,10,1:0:0:0:
358,201,39344,2,0,B|260:183|287:142|145:137,1,188.999994232178,0|0,1:0|1:0,2:0:0:0:
31,202,39707,22,0,P|104:205|125:180,1,94.499997116089,6|0,2:0|2:0,2:0:0:0:
234,71,39949,1,6,2:0:0:0:
272,0,40070,1,0,2:0:0:0:
398,130,40191,2,0,P|405:181|416:226,1,94.499997116089,6|0,2:0|2:0,2:0:0:0:
458,291,40433,85,6,3:1:0:0:
305,363,40554,1,2,3:0:0:0:
247,213,40675,21,2,3:0:0:0:
333,331,40796,1,14,3:0:0:0:
323,199,40917,6,0,P|318:174|308:137,1,47.2499985580445,12|0,3:0|2:0,2:0:0:0:
368,88,41038,2,0,P|363:63|353:26,1,47.2499985580445,12|0,3:0|2:0,2:0:0:0:
294,3,41159,53,14,3:1:0:0:
294,3,41884,6,0,P|252:23|208:33,1,90,6|0,1:2|2:0,2:0:0:0:
370,158,42610,2,0,P|412:178|456:188,1,90,2|0,2:0|2:0,2:0:0:0:
285,337,43336,54,0,L|147:356,1,134.999995880127,0|0,1:0|1:0,2:0:0:0:
0,352,44788,54,0,P|15:335|28:317,1,45,2|2,2:0|2:0,2:0:0:0:
56,283,45150,1,2,2:0:0:0:
80,227,45271,1,2,2:0:0:0:
72,156,45392,1,2,2:0:0:0:
0,79,45513,54,0,P|4:123|31:167,1,90,2|0,2:0|2:0,2:0:0:0:
182,217,46239,2,0,P|226:221|270:248,1,90,2|0,2:0|2:0,2:0:0:0:
400,350,46965,54,0,L|404:332,1,18,0|0,1:0|1:0,2:0:0:0:
394,140,47207,54,0,L|401:207,2,62.9999980773926,2|0|2,2:0|1:0|1:2,2:0:0:0:
265,63,47933,1,0,2:0:0:0:
265,63,48054,2,0,L|271:13,1,45,2|0,1:2|2:0,2:0:0:0:
242,155,48417,54,0,P|242:190|244:249,1,90,2|0,2:0|2:0,2:0:0:0:
233,280,49142,1,0,1:0:0:0:
248,356,49384,1,0,1:0:0:0:
248,356,49505,1,2,1:2:0:0:
248,356,50352,1,0,2:0:0:0:
332,181,50594,54,0,P|346:153|357:139,1,45,2|0,2:0|2:0,2:0:0:0:
384,124,50957,1,2,2:0:0:0:
431,106,51078,1,2,2:0:0:0:
494,66,51199,1,2,2:0:0:0:
511,17,51320,2,0,L|462:2,2,45,2|0|0,1:2|1:2|1:2,2:0:0:0:
319,22,52046,54,0,P|276:35|237:60,1,90,0|0,2:0|2:0,2:0:0:0:
149,153,52771,1,0,2:0:0:0:
134,59,53013,102,0,P|145:70|161:91,1,31.4999990386963,0|0,1:0|1:0,1:0:0:0:
234,184,53255,6,0,P|217:196|199:205,1,40.4999987640381,12|0,1:3|1:0,1:0:0:0:
59,215,53497,54,0,P|65:192|85:166,1,49.5000015106202,6|6,1:2|2:3,2:0:0:0:
241,43,53739,2,0,P|256:60|274:91,1,49.5000015106202,0|2,2:0|2:0,2:0:0:0:
292,116,53981,1,2,2:0:0:0:
316,172,54102,1,2,2:0:0:0:
308,243,54223,1,2,2:0:0:0:
308,243,54707,1,0,1:0:0:0:
239,210,54949,38,0,P|217:264|220:324,1,112.5,2|0,3:2|2:0,3:0:0:0:
301,351,55675,70,0,L|357:363,1,49.5000015106202,2|2,3:2|2:0,3:0:0:0:
367,218,55917,2,0,P|349:242|320:269,1,58.4999973220826,2|2,3:2|1:2,3:0:0:0:
489,366,56159,2,0,P|478:339|467:291,1,67.5000025749208,2|0,3:2|2:0,3:0:0:0:
486,161,56400,38,0,B|434:149|434:149|410:128|410:128|349:115,1,135.000005149842,2|0,2:0|1:3,2:0:0:0:
265,41,56763,2,0,B|215:60|215:60|183:56|183:56|125:79,1,135.000005149842,2|2,2:0|1:3,2:0:0:0:
60,102,57126,1,2,1:2:0:0:
164,140,57610,69,0,2:0:0:0:
170,145,57852,1,0,1:0:0:0:
242,167,57973,2,0,L|230:211,2,31.4999990386963,2|2|2,3:2|3:2|3:2,3:0:0:0:
317,136,58336,38,2,P|341:123|352:119,1,31.4999990386963,0|0,2:0|2:0,2:0:0:0:
414,196,58578,2,0,L|514:214,2,99.0000030212403,2|0|0,1:3|2:0|2:0,2:0:0:0:
307,253,59304,70,0,P|276:261|249:272,1,49.5000015106202,2|0,2:0|2:0,2:0:0:0:
152,316,59546,1,2,2:0:0:0:
152,316,59667,2,0,P|80:291|56:260,1,99.0000030212403,0|0,1:2|2:3,2:0:0:0:
37,203,60029,1,2,2:0:0:0:
233,373,60755,38,2,P|239:337|238:291,1,72,0|0,2:0|2:0,2:0:0:0:
294,255,61118,2,0,P|288:219|289:173,1,72,0|0,3:0|2:0,1:0:0:0:
250,10,61965,70,0,L|239:58,1,36,0|0,2:0|2:0,2:0:0:0:
141,68,62207,2,6,P|89:73|30:86,1,107.999996704102,6|2,3:0|2:3,2:0:0:0:
40,96,62933,2,6,P|66:98|96:105,2,53.9999983520508,2|2|2,2:3|2:3|2:3,2:0:0:0:
0,171,63659,38,0,P|56:204|186:227,1,180,6|12,2:0|3:0,2:0:0:0:
356,310,64384,2,8,L|362:278,11,26.9999991760254,14|8|8|8|8|8|8|8|8|8|8|8,1:0|1:0|1:0|1:0|1:0|1:0|1:3|1:3|1:3|1:3|1:3|1:3,2:0:0:0:
386,343,65110,86,0,P|380:311|390:199,1,135,6|0,1:0|2:0,2:0:0:0:
387,209,65352,1,2,1:0:0:0:
493,119,65473,2,0,P|390:20|353:50,1,198.000006042481,2|2,1:0|2:1,2:0:0:0:
258,56,65836,54,0,P|269:61|313:72,1,53.9999983520508,2|0,2:1|2:0,2:0:0:0:
242,75,66078,2,0,P|232:49|226:23,1,53.9999983520508,2|0,2:0|2:0,2:0:0:0:
110,164,66320,86,0,P|57:202|9:214,1,108,6|0,1:0|2:0,2:0:0:0:
75,148,66562,86,0,P|107:154|193:213,1,135,6|0,3:1|2:0,2:0:0:0:
190,210,66804,1,0,2:0:0:0:
256,304,66925,2,0,B|292:266|396:270|427:357|356:348|340:321,1,198.000006042481,6|0,3:1|1:0,2:0:0:0:
335,312,67288,2,0,L|476:328,1,125.999996154785,2|0,2:0|1:0,2:0:0:0:
138,338,67771,22,0,P|117:347|92:354,1,36,0|2,2:0|2:0,2:0:0:0:
19,250,68013,22,0,P|48:261|104:280,1,80.9999975280763,2|0,3:1|2:0,2:0:0:0:
216,354,68255,1,2,2:0:0:0:
261,285,68376,2,0,P|276:261|424:235,1,161.999995056153,2|0,3:1|2:1,2:0:0:0:
255,161,68739,2,0,P|236:182|178:219,1,80.9999975280763,2|0,3:1|2:0,2:0:0:0:
352,143,68981,2,0,P|389:128|461:55,1,121.499996292114,2|0,3:1|2:0,2:0:0:0:
449,74,69223,2,2,P|474:95|524:119,1,80.9999975280763,2|2,3:1|2:1,2:0:0:0:
384,9,69465,54,0,P|260:67|211:48,1,161.999995056153,6|0,3:1|2:0,2:0:0:0:
167,163,69828,2,0,B|90:153|81:207|7:197,1,161.999995056153,6|0,3:1|2:0,2:0:0:0:
258,103,70191,54,0,P|348:207|286:271,1,242.999992584229,6|0,3:1|2:0,2:0:0:0:
193,359,70675,1,2,3:0:0:0:
193,359,70917,54,0,P|297:340|349:343,1,144,2|0,1:0|2:0,2:0:0:0:
409,360,71279,1,2,3:1:0:0:
409,360,71400,2,0,P|415:331|430:278,1,72,2|0,2:1|2:0,2:0:0:0:
508,99,71642,54,0,P|325:22|265:56,1,269.999991760254,2|0,1:0|2:0,2:0:0:0:
161,64,72368,54,0,P|192:92|237:109,1,72,2|0,3:1|2:0,2:0:0:0:
326,185,72610,1,2,2:1:0:0:
355,104,72731,1,2,3:1:0:0:
284,176,72852,2,0,L|291:262,1,72,2|0,2:1|2:0,2:0:0:0:
200,145,73094,2,0,L|217:-11,2,144,2|2|2,1:0|1:0|1:0,1:0:0:0:
33,310,73820,54,0,P|62:312|194:262,1,144,6|0,3:1|2:0,2:0:0:0:
315,209,74183,2,0,P|333:211|441:287,1,144,6|0,3:1|2:0,2:0:0:0:
501,374,74546,54,0,P|461:370|406:349,1,90,6|0,2:1|3:0,2:0:0:0:
377,330,74909,1,12,3:0:0:0:
302,298,75029,1,4,3:0:0:0:
202,284,75150,1,12,3:0:0:0:
58,315,75271,54,0,P|131:298|219:228,1,161.999995056153,6|0,1:0|2:0,2:0:0:0:
410,156,75634,2,0,P|337:139|249:69,1,161.999995056153,6|0,1:0|2:0,2:0:0:0:
213,19,75997,22,0,P|330:47|285:214,1,323.999990112305,14|2,1:0|2:0,2:0:0:0:
126,285,76481,21,8,1:0:0:0:
116,288,76542,1,8,1:0:0:0:
111,298,76602,1,8,1:0:0:0:
100,302,76663,1,8,1:0:0:0:
79,315,76723,54,0,L|60:166,1,135,6|0,1:0|2:0,2:0:0:0:
61,181,76965,1,2,1:0:0:0:
21,91,77086,2,0,P|53:37|198:36,1,198.000006042481,2|2,1:0|2:1,2:0:0:0:
263,73,77449,54,0,P|245:99|208:114,1,53.9999983520508,2|0,2:1|2:0,2:0:0:0:
285,56,77691,2,0,P|311:61|334:75,1,53.9999983520508,2|0,2:0|2:0,2:0:0:0:
396,228,77933,22,0,P|456:275|512:272,1,108,6|0,1:0|2:0,2:0:0:0:
490,258,78175,22,0,P|440:270|356:312,1,135,6|0,3:1|2:0,2:0:0:0:
364,306,78417,1,0,2:0:0:0:
256,218,78538,2,0,B|187:202|187:202|142:204|142:204|64:187,1,180,6|0,3:1|1:0,2:0:0:0:
0,99,78900,54,0,P|47:77|88:53,1,90,2|0,2:0|2:0,2:0:0:0:
151,0,79142,2,0,P|199:17|245:29,1,90,0|0,1:0|2:0,2:0:0:0:
460,115,79384,2,0,B|407:128|407:128|371:150|371:150|302:172,1,135,0|0,2:0|2:0,2:0:0:0:
263,194,79626,54,0,L|431:223,1,148.50000453186,2|0,3:1|2:0,2:0:0:0:
409,219,79868,1,2,2:0:0:0:
241,302,79989,2,0,B|189:285|189:285|99:303|99:303|38:283,1,198.000006042481,2|0,3:1|2:1,2:0:0:0:
2,223,80352,86,0,L|13:180,1,36,2|0,3:1|2:0,2:0:0:0:
110,111,80594,86,0,L|91:221,1,99.0000030212403,2|0,3:1|2:0,2:0:0:0:
311,352,80836,2,2,P|343:310|306:205,1,148.50000453186,2|2,3:1|2:1,2:0:0:0:
263,162,81078,54,0,P|248:117|289:67,1,99.0000030212403,6|0,3:1|2:0,2:0:0:0:
415,60,81320,2,0,L|533:83,1,99.0000030212403,0|6,2:0|3:1,2:0:0:0:
343,240,81562,2,0,B|290:226|258:303|182:285,1,148.50000453186,2|0,1:2|2:0,2:0:0:0:
113,332,81804,54,0,P|65:318|42:277,1,99.0000030212403,6|0,3:1|2:0,2:0:0:0:
112,147,82046,2,0,L|84:-6,1,148.50000453186,2|0,1:2|2:0,2:0:0:0:
85,0,82288,1,2,3:0:0:0:
203,171,82529,54,0,P|243:185|278:218,1,80.9999975280763,2|0,1:0|2:0,2:0:0:0:
377,263,82771,1,0,2:0:0:0:
348,343,82892,1,2,3:1:0:0:
363,232,83013,2,0,P|403:217|507:230,1,121.499996292114,2|0,2:1|2:0,2:0:0:0:
503,290,83255,54,0,P|525:234|507:130,2,161.999995056153,2|8|8,1:0|1:0|1:0,2:0:0:0:
335,313,83981,54,0,P|274:295|232:270,1,90,2|0,3:1|2:0,2:0:0:0:
184,202,84223,1,2,2:1:0:0:
89,161,84344,1,2,3:1:0:0:
7,157,84465,2,0,B|74:143|48:113|155:96,1,135,2|0,2:1|2:0,2:0:0:0:
196,49,84707,54,0,P|298:37|397:14,2,180,2|2|2,1:0|1:0|1:0,1:0:0:0:
402,116,85433,54,0,P|336:127|299:140,1,99.0000030212403,6|2,3:1|1:2,2:0:0:0:
206,173,85675,1,0,2:0:0:0:
114,222,85796,1,6,3:1:0:0:
5,159,85917,2,0,P|66:126|133:75,1,148.50000453186,4|0,1:2|2:0,2:0:0:0:
173,15,86159,54,0,P|227:23|271:41,1,99.0000030212403,6|0,2:1|2:0,2:0:0:0:
346,144,86400,2,0,P|394:115|452:101,1,99.0000030212403,0|12,3:0|3:0,2:0:0:0:
446,240,86642,2,0,P|425:353|410:400,1,148.50000453186,4|0,3:0|2:0,2:0:0:0:
512,385,86884,54,0,P|328:306|247:343,1,297.000009063721,6|6,1:0|1:0,2:0:0:0:
186,380,87368,2,0,P|138:384|98:333,1,99.0000030212403,8|0,1:0|2:0,2:0:0:0:
0,166,87610,22,0,B|5:147|5:147|-1:144|-1:144|10:117,7,49.5000015106202,14|8|8|8|8|8|8|8,1:0|2:0|1:0|2:0|1:0|2:0|1:0|2:0,2:0:0:0:
81,73,88094,22,0,B|87:62|87:62|81:55|81:55|87:37,3,33.7500012874604,14|8|8|0,1:0|2:0|1:0|2:0,2:0:0:0:
123,70,88336,70,0,B|195:68|208:138|280:134,1,161.999995056153,6|0,1:0|2:0,2:0:0:0:
473,116,88699,2,0,B|401:114|388:184|316:180,1,161.999995056153,2|0,3:1|2:0,2:0:0:0:
92,165,89062,22,0,P|85:246|78:318,1,135,10|0,1:0|2:0,2:0:0:0:
5,332,89546,1,2,1:2:0:0:
109,384,89667,1,2,1:2:0:0:
174,283,89788,86,0,B|224:290|224:290|259:336|259:336|320:345,1,161.999995056153,6|0,1:0|2:0,2:0:0:0:
160,140,90150,2,0,B|110:147|110:147|75:193|75:193|14:202,1,161.999995056153,2|0,1:0|2:0,2:0:0:0:
307,262,90513,22,0,P|310:219|320:111,1,135,10|0,1:0|1:0,2:0:0:0:
381,191,90997,1,2,3:1:0:0:
253,119,91118,1,0,3:0:0:0:
402,98,91239,86,0,P|409:137|434:258,1,161.999995056153,6|0,1:0|2:0,2:0:0:0:
273,313,91602,1,2,1:0:0:0:
204,251,91723,2,0,B|167:233|122:238|122:238|74:221,1,121.499996292114,0|0,2:0|2:0,2:0:0:0:
87,226,91965,2,0,P|91:248|95:328,1,80.9999975280763,2|0,1:0|2:0,2:0:0:0:
291,199,92207,21,2,1:2:0:0:
176,255,92328,1,0,3:0:0:0:
330,333,92449,2,0,P|334:292|342:252,1,80.9999975280763,8|0,1:0|2:0,2:0:0:0:
486,89,92691,86,0,P|436:169|367:157,1,161.999995056153,6|0,3:1|2:0,2:0:0:0:
266,89,93054,2,0,P|163:45|106:65,1,161.999995056153,2|0,3:1|2:0,2:0:0:0:
10,193,93417,2,0,P|25:191|114:176,1,80.9999975280763,2|0,1:0|2:0,2:0:0:0:
251,230,93659,21,8,1:0:0:0:
166,173,93779,1,0,2:0:0:0:
267,161,93900,5,10,1:0:0:0:
143,240,94021,1,10,1:0:0:0:
322,287,94142,70,0,P|326:252|348:121,1,161.999995056153,6|0,1:0|2:0,2:0:0:0:
370,129,94505,21,2,1:2:0:0:
352,184,94626,1,2,2:0:0:0:
363,269,94747,1,2,2:0:0:0:
396,377,94868,86,0,P|380:319|378:136,1,215.999993408203,2|0,3:1|2:0,2:0:0:0:
411,87,95231,21,2,2:0:0:0:
467,31,95352,1,2,2:1:0:0:
512,12,95473,1,2,2:1:0:0:
512,12,95594,2,0,P|489:40|439:66,1,80.9999975280763,6|0,3:1|2:0,2:0:0:0:
287,132,95836,85,0,2:0:0:0:
216,88,95957,1,2,1:2:0:0:
287,132,96078,1,2,2:0:0:0:
219,180,96199,1,2,2:0:0:0:
148,135,96320,2,0,B|107:120|55:155|55:155|21:145,1,121.499996292114,2|0,3:1|2:0,2:0:0:0:
44,69,96562,22,0,P|7:91|37:149,1,116.999994644165,4|0,1:3|2:0,2:0:0:0:
169,227,96804,2,0,B|210:219|210:219|215:221|215:221|273:211,1,103.500001974106,14|0,1:0|2:0,2:0:0:0:
512,175,97046,86,0,B|447:188|404:133|332:153,1,180,6|0,1:0|2:0,2:0:0:0:
208,325,97409,2,0,P|191:213|129:206,1,180,6|0,3:1|2:0,2:0:0:0:
327,296,97771,2,0,P|321:324|310:390,1,90,2|0,3:1|2:0,2:0:0:0:
361,231,98013,21,0,1:0:0:0:
248,301,98134,1,8,1:3:0:0:
278,198,98255,85,10,1:0:0:0:
394,338,98376,1,8,1:0:0:0:
252,230,98497,2,0,P|236:192|287:58,1,180,6|2,1:0|2:1,2:0:0:0:
412,10,98860,1,0,3:1:0:0:
475,65,98981,2,0,P|445:81|385:95,1,90,2|0,2:1|2:0,2:0:0:0:
163,193,99223,22,0,B|254:145|292:290|371:254,1,215.999993408203,14|2,1:0|2:1,2:0:0:0:
449,206,99586,1,4,1:0:0:0:
258,262,99707,101,10,1:0:0:0:
237,274,99767,1,8,1:0:0:0:
214,274,99828,1,8,1:0:0:0:
195,283,99888,1,8,1:0:0:0:
159,292,99949,22,0,B|211:302|211:302|249:340|249:340|320:352,1,161.999995056153,6|0,1:0|2:0,2:0:0:0:
391,383,100312,1,2,3:1:0:0:
480,277,100433,2,0,B|433:246|433:246|393:161,1,121.499996292114,0|0,1:0|2:0,2:0:0:0:
412,112,100675,6,0,P|378:154|336:167,1,99.0000030212403,10|0,1:0|2:0,2:0:0:0:
236,9,100917,2,0,P|289:13|328:37,1,99.0000030212403,2|0,1:2|2:0,2:0:0:0:
186,235,101159,2,0,P|133:231|94:207,1,99.0000030212403,2|2,1:2|1:2,2:0:0:0:
15,27,101400,102,0,P|103:37|141:131,1,161.999995056153,6|0,1:0|2:0,2:0:0:0:
326,195,101763,2,0,B|356:204|356:204|377:219|377:219|418:231,1,80.9999975280763,2|0,1:0|2:0,2:0:0:0:
303,351,102005,1,2,2:0:0:0:
512,195,102126,6,0,P|498:237|490:299,1,99.0000030212403,10|0,1:0|2:0,2:0:0:0:
331,71,102368,2,0,P|379:60|425:41,1,99.0000030212403,0|0,3:1|1:0,2:0:0:0:
327,228,102610,2,0,P|293:191|254:161,1,99.0000030212403,2|0,3:1|3:0,2:0:0:0:
115,164,102852,6,0,L|14:184,1,90,6|0,1:0|2:0,2:0:0:0:
26,181,103215,85,2,1:0:0:0:
213,171,103336,2,0,B|230:150|217:114|217:114|208:112|208:112|193:74|215:51,1,135,0|0,2:0|2:0,2:0:0:0:
118,5,103578,6,0,L|317:27,1,198.000006042481,2|2,1:0|1:2,2:0:0:0:
407,47,103941,1,0,3:0:0:0:
279,242,104062,2,0,B|245:251|214:255|214:255|177:298|177:298|141:302|111:316,1,161.999995056153,8|0,1:0|2:0,2:0:0:0:
50,261,104304,102,0,P|14:193|113:109,1,215.999993408203,6|0,3:1|2:0,2:0:0:0:
12,14,104667,2,0,P|82:71|204:56,1,215.999993408203,2|0,3:1|2:0,2:0:0:0:
318,30,105029,2,0,P|380:19|408:65,1,107.999996704102,2|0,1:0|2:0,2:0:0:0:
366,327,105271,2,0,P|340:276|355:170,1,161.999995056153,8|0,1:0|2:0,2:0:0:0:
352,174,105513,1,10,1:0:0:0:
421,260,105634,1,10,1:0:0:0:
270,348,105755,6,0,B|191:363|140:297|53:321,1,215.999993408203,6|0,1:0|2:0,2:0:0:0:
127,243,106118,1,2,1:0:0:0:
183,173,106239,1,10,2:3:0:0:
211,94,106360,1,2,2:0:0:0:
211,94,106481,2,0,B|149:81|149:81|116:109|81:115,1,121.499996292114,2|0,3:1|2:0,2:0:0:0:
99,110,106723,102,0,P|71:78|95:16,1,107.999996704102,2|2,2:0|2:0,2:0:0:0:
307,22,106965,2,0,B|348:30|348:30|353:28|353:28|413:38,1,107.999996704102,2|2,2:1|2:1,2:0:0:0:
275,253,107207,6,0,P|227:308|122:288,1,161.999995056153,6|0,3:1|2:0,2:0:0:0:
62,281,107449,2,0,P|91:235|165:236,1,107.999996704102,0|2,2:0|1:0,2:0:0:0:
315,340,107691,2,0,L|429:362,1,107.999996704102,2|2,2:0|2:0,2:0:0:0:
468,223,107933,102,0,B|450:160|450:160|454:143|454:143|497:113|497:113|500:99|500:99|477:20,1,215.999993408203,2|4,3:1|1:3,2:0:0:0:
453,14,108296,2,0,L|472:76,1,53.9999983520508,0|0,2:0|2:0,2:0:0:0:
346,136,108417,5,10,1:0:0:0:
204,170,108538,1,8,2:3:0:0:
68,103,108659,102,0,P|122:62|238:93,1,161.999995056153,6|0,1:0|2:0,2:0:0:0:
250,2,108900,2,0,P|254:64|308:76,1,107.999996704102,0|2,2:0|3:1,2:0:0:0:
493,216,109142,2,0,P|416:215|332:248,1,161.999995056153,0|0,2:0|2:0,2:0:0:0:
267,318,109384,6,0,P|229:355|168:333,1,107.999996704102,2|0,3:1|2:0,2:0:0:0:
91,210,109626,2,0,L|106:97,1,107.999996704102,0|8,1:0|1:3,2:0:0:0:
40,51,109868,1,10,1:0:0:0:
174,155,109989,1,8,1:0:0:0:
274,48,110110,102,0,B|299:7|347:-8|415:-20|462:12|435:48|404:46|386:16,1,215.999993408203,6|2,1:0|2:1,2:0:0:0:
388,21,110473,1,0,3:1:0:0:
480,75,110594,2,0,L|493:169,1,80.9999975280763,2|0,2:1|2:0,2:0:0:0:
469,242,110836,6,0,P|407:222|375:193,1,80.9999975280763,14|6,1:0|2:3,2:0:0:0:
286,83,111078,2,0,P|235:88|184:107,1,80.9999975280763,2|4,2:1|1:0,2:0:0:0:
57,191,111320,2,0,L|31:327,1,121.499996292114,10|8,1:0|1:0,2:0:0:0:
6,384,111562,5,6,1:0:0:0:
90,358,111804,1,0,2:0:0:0:
168,301,112046,1,0,2:0:0:0:
262,254,112288,5,0,1:2:0:0:
362,287,112529,1,2,2:0:0:0:
277,242,112771,1,2,2:0:0:0:
187,167,113013,101,0,1:2:0:0:
270,108,113255,1,2,2:0:0:0:
363,83,113497,1,2,2:0:0:0:
273,18,113739,5,0,1:2:0:0:
171,63,113981,37,6,1:3:0:0:
337,154,114102,1,6,1:3:0:0:
254,9,114223,2,0,P|264:119|247:215,1,202.500007724762,4|0,2:0|2:0,2:0:0:0:
215,278,114465,53,4,1:0:0:0:
235,364,114828,5,0,2:0:0:0:
243,372,114949,1,0,2:0:0:0:
220,325,115191,1,2,2:0:0:0:
209,247,115433,1,0,2:0:0:0:
225,174,115675,1,0,2:0:0:0:
324,39,115917,101,2,1:2:0:0:
332,60,116159,5,0,2:0:0:0:
300,41,116279,1,0,2:0:0:0:
337,28,116400,1,0,2:0:0:0:
307,67,116642,101,2,2:0:0:0:
279,85,116884,37,2,2:3:0:0:
306,163,117005,1,2,2:3:0:0:
234,101,117126,1,2,2:3:0:0:
343,133,117247,1,2,2:3:0:0:
185,206,117368,69,2,1:2:0:0:
161,287,117731,5,0,2:0:0:0:
161,287,117852,1,2,2:0:0:0:
307,231,118094,1,0,2:0:0:0:
218,211,118336,1,2,2:0:0:0:
343,331,118578,1,2,2:0:0:0:
476,140,118820,21,2,1:2:0:0:
436,184,118941,1,2,2:3:0:0:
400,149,119062,1,2,2:3:0:0:
430,216,119183,1,2,2:3:0:0:
509,142,119304,1,2,1:2:0:0:
313,200,119546,69,6,2:0:0:0:
73,137,120029,5,0,1:0:0:0:
50,144,120271,1,2,3:1:0:0:
108,354,120634,101,2,2:0:0:0:
108,354,120755,1,2,2:0:0:0:
154,304,120997,5,0,1:0:0:0:
242,254,121239,21,2,2:3:0:0:
286,219,121360,1,2,2:3:0:0:
359,195,121481,1,2,2:3:0:0:
414,135,121602,1,2,2:3:0:0:
444,22,121723,69,2,3:1:0:0:
401,0,122449,37,2,2:3:0:0:
296,29,122570,85,2,2:3:0:0:
339,106,122691,21,2,2:3:0:0:
272,133,122812,85,2,2:0:0:0:
283,179,122933,21,2,2:0:0:0:
241,200,123054,85,2,2:0:0:0:
254,221,123175,54,0,P|252:275|244:316,1,90,6|0,1:2|2:0,2:0:0:0:
373,358,123900,2,0,P|375:304|383:263,1,90,2|0,2:0|2:0,2:0:0:0:
479,153,124626,54,0,P|435:159|377:175,1,90,0|0,1:0|2:0,2:0:0:0:
305,143,125352,1,2,1:3:0:0:
311,156,125594,1,2,1:3:0:0:
291,152,125836,1,0,1:0:0:0:
294,48,126078,54,0,P|244:57|187:72,1,99.0000030212403,2|2,2:0|2:0,2:0:0:0:
22,95,126441,2,0,B|69:108|69:108|105:143|105:143|156:162,1,148.50000453186,2|2,2:0|2:0,2:0:0:0:
346,357,127288,53,0,2:0:0:0:
326,288,127529,1,2,2:0:0:0:
350,196,128013,1,0,2:0:0:0:
430,107,128497,1,2,2:0:0:0:
503,25,128618,54,0,L|517:68,2,31.4999990386963,0|0|0,2:0|1:0|2:0,2:0:0:0:
402,8,128981,54,0,P|368:11|328:20,1,62.9999980773926,2|0,1:2|2:0,2:0:0:0:
292,74,129344,2,0,P|258:77|218:86,1,62.9999980773926,2|0,1:2|2:0,2:0:0:0:
181,143,129707,1,2,2:0:0:0:
17,196,130433,53,0,1:0:0:0:
6,183,130675,2,0,L|17:130,1,31.4999990386963,0|2,1:0|1:2,1:0:0:0:
78,91,130917,1,0,2:0:0:0:
50,25,131038,1,0,2:0:0:0:
50,25,131642,53,0,2:0:0:0:
117,61,131884,2,0,L|261:83,1,125.999996154785,2|2,2:0|2:0,2:0:0:0:
356,111,132610,1,2,1:2:0:0:
298,151,132852,1,0,1:2:0:0:
403,192,133094,1,0,1:2:0:0:
314,164,133336,54,0,P|304:213|291:258,1,94.499997116089,0|0,2:0|2:0,2:0:0:0:
272,327,133820,1,0,2:0:0:0:
175,237,134062,86,0,B|141:211|90:197|90:197|58:171,2,135.000005149842,0|0|12,2:0|1:0|1:3,1:0:0:0:
471,318,134788,69,6,1:2:0:0:
471,318,134909,2,0,P|324:279|270:296,1,202.499993820191,6|2,2:3|2:0,2:0:0:0:
78,361,135755,70,0,L|74:326,1,31.4999990386963,0|0,2:0|2:0,2:0:0:0:
57,290,135997,2,0,L|63:254,1,31.4999990386963,0|0,1:0|2:0,2:0:0:0:
76,223,136239,1,2,3:2:0:0:
93,146,136360,1,6,2:3:0:0:
62,102,136481,2,0,L|58:67,1,31.4999990386963,0|6,2:0|2:3,2:0:0:0:
93,11,136723,1,0,2:0:0:0:
288,121,136965,37,2,3:2:0:0:
331,103,137086,1,2,2:0:0:0:
288,121,137207,1,2,3:2:0:0:
250,112,137328,1,2,1:2:0:0:
206,57,137449,1,2,3:2:0:0:
206,57,137691,70,0,P|201:82|174:159,1,99.0000030212403,2|0,2:0|1:3,2:0:0:0:
143,215,138054,1,2,2:0:0:0:
197,228,138175,2,6,P|210:238|229:259,1,31.4999990386963,6|2,2:3|1:3,2:0:0:0:
308,318,138417,37,2,1:2:0:0:
376,269,138538,2,0,P|389:243|466:136,1,157.499995193482,6|0,2:3|1:0,2:0:0:0:
492,102,139263,1,2,3:2:0:0:
440,69,139384,1,2,3:2:0:0:
362,74,139505,1,2,3:2:0:0:
299,154,139626,70,2,L|307:114,1,31.4999990386963,0|0,2:0|2:0,2:0:0:0:
240,16,139868,2,0,L|248:90,2,62.9999980773926,2|0|0,1:3|2:0|2:0,2:0:0:0:
246,78,140594,38,0,P|223:83|198:99,1,49.5000015106202,2|0,2:0|2:0,2:0:0:0:
51,176,140836,1,2,2:0:0:0:
111,175,140957,1,0,1:2:0:0:
167,220,141078,1,2,1:3:0:0:
192,262,141199,1,0,2:3:0:0:
264,283,141320,1,0,2:0:0:0:
348,232,141441,1,2,1:3:0:0:
348,232,141925,69,2,2:0:0:0:
391,214,142046,2,2,P|413:217|455:233,1,49.5000015106202,0|0,2:0|2:0,2:0:0:0:
491,111,142288,37,0,2:0:0:0:
425,78,142409,2,0,P|361:75|272:102,1,148.50000453186,2|2,2:0|0:2,1:0:0:0:
207,138,142892,1,2,2:0:0:0:
125,105,143013,1,2,2:0:0:0:
125,105,143255,1,0,2:0:0:0:
0,264,143497,70,6,P|23:260|132:210,1,135.000005149842,6|0,3:0|2:0,2:0:0:0:
207,263,143860,1,6,2:3:0:0:
140,313,143981,2,6,P|117:327|87:331,1,49.5000015106202,10|6,2:3|2:3,2:0:0:0:
286,224,144223,38,6,P|313:228|340:242,1,49.5000015106202,10|6,2:3|2:3,2:0:0:0:
389,355,144465,2,6,P|377:334|373:303,1,49.5000015106202,10|6,2:3|2:3,2:0:0:0:
460,224,144707,2,6,P|456:249|431:279,1,49.5000015106202,10|6,2:3|2:3,2:0:0:0:
230,310,144949,70,0,P|229:271|220:103,1,198.000006042481,6|12,2:0|3:0,2:0:0:0:
244,193,145554,37,8,1:0:0:0:
252,22,145675,70,8,P|247:89|244:210,1,170.999995433807,14|8,1:0|1:0,2:0:0:0:
236,303,146038,101,8,1:3:0:0:
224,316,146098,1,8,1:3:0:0:
247,325,146159,1,8,1:3:0:0:
222,332,146219,1,8,1:3:0:0:
247,339,146279,1,8,1:3:0:0:
234,347,146340,1,8,1:3:0:0:
236,365,146400,22,0,L|397:389,1,135,6|0,1:0|2:0,2:0:0:0:
369,384,146642,1,2,1:0:0:0:
489,258,146763,2,0,P|499:182|364:143,1,198.000006042481,2|2,1:0|2:1,2:0:0:0:
340,55,147126,54,0,P|335:92|327:126,1,53.9999983520508,2|0,2:1|2:0,2:0:0:0:
180,147,147368,2,0,P|174:120|171:93,1,53.9999983520508,2|0,2:0|2:0,2:0:0:0:
248,59,147610,1,6,1:0:0:0:
248,59,147852,54,0,P|257:131|249:221,1,135,6|0,3:1|2:0,2:0:0:0:
253,193,148094,1,0,2:0:0:0:
351,312,148215,2,0,P|256:287|152:345,1,198.000006042481,6|0,3:1|1:0,2:0:0:0:
69,301,148578,2,0,B|25:317|25:317|48:354|48:354|89:340,1,125.999996154785,2|0,2:0|1:0,2:0:0:0:
151,242,149062,22,0,P|175:229|198:222,1,36,0|2,2:0|2:0,2:0:0:0:
258,179,149304,22,0,P|312:164|366:158,1,80.9999975280763,2|0,1:0|2:0,2:0:0:0:
449,129,149546,1,2,2:0:0:0:
371,49,149667,2,0,P|291:72|210:87,1,161.999995056153,2|0,3:1|2:1,2:0:0:0:
97,151,150029,2,0,P|68:149|3:129,1,80.9999975280763,2|0,3:1|2:0,2:0:0:0:
173,213,150271,2,0,P|213:232|315:240,1,121.499996292114,2|0,3:1|2:0,2:0:0:0:
293,243,150513,2,2,P|292:275|306:329,1,80.9999975280763,2|2,3:1|2:1,2:0:0:0:
478,363,150755,54,0,P|505:325|454:228,1,161.999995056153,6|0,1:0|2:0,2:0:0:0:
379,352,151118,2,0,B|290:341|317:377|192:357,1,161.999995056153,6|0,3:1|2:0,2:0:0:0:
113,282,151481,54,0,P|78:198|197:146,1,242.999992584229,6|0,3:1|2:0,2:0:0:0:
257,210,151965,1,2,3:0:0:0:
257,210,152207,54,0,P|267:150|249:59,1,144,2|0,1:0|2:0,2:0:0:0:
222,6,152570,1,2,3:1:0:0:
330,55,152691,2,0,P|342:100|345:136,1,72,2|0,2:1|2:0,2:0:0:0:
89,233,152933,54,0,P|167:206|298:369,1,323.999990112305,2|2,1:0|3:1,2:0:0:0:
298,368,153900,54,0,P|333:362|388:350,1,72,2|2,2:1|3:1,2:0:0:0:
512,334,154142,2,0,P|476:328|422:316,1,72,2|0,2:1|2:0,2:0:0:0:
398,223,154384,2,0,L|368:80,2,144,2|2|2,1:0|1:0|1:0,1:0:0:0:
289,153,155110,54,0,P|186:135|137:116,1,144,6|0,3:1|2:0,2:0:0:0:
88,61,155473,1,6,3:1:0:0:
158,13,155594,2,0,P|215:18|244:30,1,72,4|0,1:2|2:0,2:0:0:0:
370,0,155836,54,0,P|382:91|349:110,1,135,6|12,2:1|3:0,2:0:0:0:
237,122,156320,2,0,P|195:130|150:141,1,80.9999975280763,4|12,3:0|3:0,2:0:0:0:
18,279,156562,54,0,B|70:261|70:261|123:271|190:244,1,161.999995056153,6|0,1:0|2:0,2:0:0:0:
305,204,156925,2,0,P|394:161|478:169,1,161.999995056153,6|0,1:0|2:0,2:0:0:0:
384,253,157288,22,0,P|267:225|312:58,1,323.999990112305,14|2,1:0|2:0,2:0:0:0:
418,30,157771,21,8,1:0:0:0:
417,40,157832,1,8,1:0:0:0:
408,47,157892,1,8,1:0:0:0:
406,58,157953,1,8,1:0:0:0:
398,68,158013,54,0,P|402:89|442:207,1,135,6|0,1:0|2:0,2:0:0:0:
437,196,158255,1,2,1:0:0:0:
505,324,158376,2,0,P|410:225|352:247,1,198.000006042481,2|2,1:0|2:1,2:0:0:0:
227,266,158739,54,0,P|245:279|295:288,1,53.9999983520508,2|0,2:1|2:0,2:0:0:0:
195,169,158981,2,0,P|169:176|146:191,1,53.9999983520508,2|0,2:0|2:0,2:0:0:0:
242,294,159223,22,0,P|261:273|276:183,1,108,6|0,1:0|2:0,2:0:0:0:
278,197,159465,22,0,P|308:205|406:127,1,135,6|0,3:1|2:0,2:0:0:0:
384,162,159707,1,0,2:0:0:0:
512,242,159828,2,0,B|411:228|435:299|333:277,1,180,6|0,3:1|1:0,2:0:0:0:
254,333,160191,54,0,B|221:301|221:301|162:306,1,90,2|0,2:0|2:0,2:0:0:0:
0,246,160433,2,0,B|33:214|33:214|76:217,1,90,0|0,1:0|2:0,2:0:0:0:
122,354,160675,2,0,L|20:336,1,90,0|0,2:0|2:0,2:0:0:0:
161,152,160917,54,0,L|7:172,1,148.50000453186,2|0,3:1|2:0,2:0:0:0:
13,171,161159,1,2,2:0:0:0:
119,122,161279,2,0,B|273:152|278:156|278:156|276:162|237:191,1,198.000006042481,2|0,1:0|2:1,2:0:0:0:
145,236,161642,86,0,L|148:281,1,36,2|0,3:1|2:0,2:0:0:0:
213,181,161884,86,0,L|339:207,1,99.0000030212403,2|0,3:1|2:0,2:0:0:0:
102,333,162126,2,2,B|99:308|105:290|105:290|92:268|92:268|88:266|88:266|72:239|72:239|77:220|75:187,1,148.50000453186,2|2,3:1|2:1,2:0:0:0:
48,166,162368,54,0,P|64:150|158:171,1,99.0000030212403,6|0,1:0|2:0,2:0:0:0:
305,279,162610,2,0,P|289:295|195:274,1,99.0000030212403,0|6,2:0|3:1,2:0:0:0:
105,118,162852,2,0,P|131:111|221:194,1,148.50000453186,2|0,1:2|2:0,2:0:0:0:
219,177,163094,54,0,P|206:147|216:72,1,99.0000030212403,6|0,3:1|2:0,2:0:0:0:
88,223,163336,2,0,P|83:254|25:364,1,148.50000453186,2|0,1:2|2:0,2:0:0:0:
30,357,163578,1,2,3:0:0:0:
304,103,163820,54,0,P|329:106|385:132,1,80.9999975280763,2|0,1:0|2:0,2:0:0:0:
455,177,164062,1,0,2:0:0:0:
341,263,164183,1,2,3:1:0:0:
389,196,164304,2,0,P|378:253|393:332,1,121.499996292114,2|0,2:1|2:0,2:0:0:0:
407,318,164546,54,0,P|297:261|248:278,2,161.999995056153,2|8|8,1:0|1:0|1:0,2:0:0:0:
267,268,165271,54,0,P|226:293|155:275,1,90,2|0,3:1|2:0,2:0:0:0:
29,248,165513,1,2,2:1:0:0:
100,310,165634,1,2,3:1:0:0:
233,201,165755,2,0,P|149:158|106:173,1,135,2|0,2:1|2:0,2:0:0:0:
30,145,165997,54,0,P|58:152|196:67,2,180,2|2|2,1:0|1:0|1:0,1:0:0:0:
455,145,166723,53,6,3:1:0:0:
380,88,166844,2,0,P|380:115|392:205,1,99.0000030212403,2|0,1:2|2:0,2:0:0:0:
260,258,167086,1,6,3:1:0:0:
215,354,167207,2,0,P|248:339|317:335,1,99.0000030212403,4|0,1:2|2:0,2:0:0:0:
460,224,167449,54,0,P|421:233|340:136,1,148.50000453186,6|0,2:1|2:0,2:0:0:0:
341,170,167691,2,0,P|275:205|219:191,1,99.0000030212403,0|12,3:0|3:0,2:0:0:0:
78,319,167933,2,0,P|102:340|146:353,1,72,4|0,3:0|2:0,2:0:0:0:
256,89,168175,54,0,P|184:86|173:281,1,297.000009063721,6|6,1:0|1:0,2:0:0:0:
186,282,168659,85,8,1:0:0:0:
244,226,168779,21,8,1:3:0:0:
228,318,168900,85,14,1:0:0:0:
202,197,169021,21,8,1:0:0:0:
304,335,169142,85,8,1:0:0:0:
131,206,169263,21,8,1:0:0:0:
380,298,169384,21,8,1:0:0:0:
331,317,169445,1,8,1:0:0:0:
309,290,169505,1,8,1:0:0:0:
337,271,169566,1,8,1:0:0:0:
365,276,169626,102,0,L|182:299,1,161.999995056153,6|0,1:0|2:0,2:0:0:0:
161,122,169989,2,0,P|201:95|189:173,1,161.999995056153,2|0,3:1|2:0,2:0:0:0:
52,271,170352,22,0,L|80:130,1,135,10|0,1:0|2:0,2:0:0:0:
24,67,170836,1,2,1:2:0:0:
146,172,170957,1,2,1:2:0:0:
228,103,171078,86,0,B|290:71|343:159|407:125,1,161.999995056153,6|0,1:0|2:0,2:0:0:0:
229,249,171441,2,0,B|167:217|114:305|50:271,1,161.999995056153,2|0,1:0|2:0,2:0:0:0:
329,351,171804,22,0,P|348:287|351:213,1,135,10|0,1:0|1:0,2:0:0:0:
274,162,172288,1,2,3:1:0:0:
439,227,172409,1,0,3:0:0:0:
512,94,172529,86,0,L|331:115,1,161.999995056153,6|0,1:0|2:0,2:0:0:0:
227,39,172892,1,2,1:0:0:0:
110,78,173013,2,0,P|103:147|81:202,1,121.499996292114,0|0,2:0|2:0,2:0:0:0:
84,195,173255,2,0,P|132:175|189:161,1,80.9999975280763,2|0,1:0|2:0,2:0:0:0:
276,212,173497,21,2,1:2:0:0:
405,278,173618,1,0,3:0:0:0:
292,384,173739,2,0,P|296:343|304:303,1,80.9999975280763,8|0,1:0|2:0,2:0:0:0:
507,129,173981,86,0,P|415:149|347:209,1,161.999995056153,6|0,3:1|2:0,2:0:0:0:
178,290,174344,2,0,P|95:245|46:168,1,161.999995056153,2|0,3:1|2:0,2:0:0:0:
9,56,174707,2,0,P|60:43|107:63,1,80.9999975280763,2|0,1:0|2:0,2:0:0:0:
176,124,174949,21,8,1:0:0:0:
295,80,175070,1,0,2:0:0:0:
203,54,175191,5,10,1:0:0:0:
318,162,175312,1,10,1:0:0:0:
454,55,175433,70,0,L|421:227,1,161.999995056153,6|0,1:0|2:0,2:0:0:0:
421,290,175796,21,2,1:2:0:0:
330,264,175917,1,2,2:0:0:0:
229,289,176038,1,2,2:0:0:0:
140,364,176159,86,0,P|170:319|330:248,1,215.999993408203,2|0,3:1|2:0,2:0:0:0:
413,288,176521,21,2,2:0:0:0:
368,197,176642,1,2,2:1:0:0:
283,129,176763,1,2,2:1:0:0:
283,129,176884,2,0,P|250:170|238:221,1,80.9999975280763,6|0,3:1|2:0,2:0:0:0:
118,244,177126,85,0,2:0:0:0:
70,265,177247,1,2,1:2:0:0:
128,269,177368,1,2,2:0:0:0:
41,224,177489,1,2,2:0:0:0:
144,222,177610,2,0,L|273:240,1,121.499996292114,2|0,3:1|2:0,2:0:0:0:
273,251,177852,22,0,B|337:262|337:262|281:292,1,116.999994644165,4|0,1:3|2:0,2:0:0:0:
450,303,178094,2,0,B|439:246|439:246|405:215|405:215|392:123,1,155.250002961159,14|0,1:0|2:0,2:0:0:0:
484,106,178336,86,0,B|429:153|367:70|276:125,1,180,6|0,1:0|2:0,2:0:0:0:
173,53,178699,2,0,B|108:32|108:32|85:99|85:99|128:120,1,180,6|0,3:1|2:0,2:0:0:0:
229,148,179062,2,0,P|270:122|321:108,1,90,2|0,3:1|2:0,2:0:0:0:
399,183,179304,21,0,1:0:0:0:
481,222,179425,1,8,1:3:0:0:
512,150,179546,85,10,1:0:0:0:
380,264,179667,1,8,1:0:0:0:
237,174,179788,2,0,P|151:147|36:165,1,180,6|2,1:0|2:1,2:0:0:0:
213,8,180150,1,0,3:1:0:0:
298,25,180271,2,0,B|318:71|318:71|304:127,1,90,2|0,2:1|2:0,2:0:0:0:
238,188,180513,22,0,P|214:281|246:363,1,161.999995056153,14|0,1:0|2:0,2:0:0:0:
266,382,180755,102,6,P|260:357|263:318,1,53.9999983520508,2|0,2:1|2:0,2:0:0:0:
357,187,180876,2,0,P|357:213|351:240,1,53.9999983520508,4|0,1:0|2:0,2:0:0:0:
418,371,180997,102,0,P|442:247|422:206,1,161.999995056153,10|0,1:0|2:0,2:0:0:0:
512,141,181239,38,0,P|411:122|367:63,1,161.999995056153,6|0,1:0|2:0,2:0:0:0:
230,10,181602,1,2,3:1:0:0:
160,64,181723,2,0,P|133:92|45:104,1,121.499996292114,0|0,1:0|2:0,2:0:0:0:
3,107,181965,2,0,P|18:118|64:199,1,99.0000030212403,10|0,1:0|2:0,2:0:0:0:
138,345,182207,5,2,1:2:0:0:
235,231,182328,1,0,2:0:0:0:
152,174,182449,2,0,P|156:194|161:273,1,99.0000030212403,2|2,1:2|1:2,2:0:0:0:
382,367,182691,102,0,P|386:332|411:193,1,161.999995056153,6|0,1:0|2:0,2:0:0:0:
266,109,183054,2,0,P|227:98|186:74,1,80.9999975280763,2|0,1:0|2:0,2:0:0:0:
263,193,183296,1,2,2:0:0:0:
145,246,183417,2,0,B|62:233|80:290|-18:276,1,148.50000453186,10|0,1:0|2:0,2:0:0:0:
30,266,183659,5,0,3:1:0:0:
101,326,183779,1,0,1:0:0:0:
33,355,183900,1,2,3:1:0:0:
81,378,184021,1,0,3:0:0:0:
196,341,184142,6,0,P|225:344|292:372,1,90,6|0,1:0|2:0,2:0:0:0:
359,257,184505,86,0,P|319:262|256:290,1,90,2|0,1:0|2:0,2:0:0:0:
184,345,184747,1,0,2:0:0:0:
206,151,184868,6,0,P|233:153|311:193,1,99.0000030212403,2|0,1:0|2:0,2:0:0:0:
460,296,185110,101,2,1:2:0:0:
414,208,185231,1,0,3:0:0:0:
408,327,185352,5,8,1:0:0:0:
487,177,185473,1,10,1:0:0:0:
295,304,185594,102,0,P|273:318|158:329,1,125.999996154785,6|0,3:1|2:0,2:0:0:0:
59,206,185957,5,2,3:1:0:0:
128,154,186078,2,0,P|148:155|226:201,1,90,2|0,3:1|2:0,2:0:0:0:
342,224,186320,101,2,1:0:0:0:
464,276,186441,1,0,2:0:0:0:
363,193,186562,2,0,P|331:194|264:234,1,99.0000030212403,8|0,1:0|2:0,2:0:0:0:
126,332,186804,85,10,1:0:0:0:
74,360,186864,1,8,1:0:0:0:
29,362,186925,1,10,1:0:0:0:
3,351,186985,1,8,1:0:0:0:
3,351,187046,22,0,L|224:377,1,198.000006042481,6|0,1:0|2:0,2:0:0:0:
332,374,187409,5,2,1:0:0:0:
393,317,187529,1,10,2:3:0:0:
512,363,187650,1,2,2:0:0:0:
444,289,187771,102,0,B|339:249|337:327|249:309,1,175.499991966248,2|0,3:1|2:0,2:0:0:0:
171,351,188013,6,0,P|166:324|145:259,1,80.9999975280763,0|2,2:0|2:0,2:0:0:0:
397,100,188255,2,0,P|387:131|372:218,1,99.0000030212403,2|2,2:1|2:1,2:0:0:0:
79,132,188497,102,0,P|101:130|173:184,1,99.0000030212403,6|0,3:1|2:0,2:0:0:0:
240,289,188739,1,0,2:0:0:0:
147,179,188860,2,0,P|259:103|328:136,1,198.000006042481,2|2,1:0|2:0,2:0:0:0:
464,191,189223,2,0,P|451:217|430:288,1,99.0000030212403,2|2,3:1|2:0,2:0:0:0:
278,317,189465,5,4,1:3:0:0:
236,247,189586,1,0,2:0:0:0:
354,323,189707,1,10,1:0:0:0:
211,378,189828,1,8,2:3:0:0:
168,191,189949,102,0,P|179:161|291:136,1,148.50000453186,6|0,1:0|2:0,2:0:0:0:
294,136,190191,1,0,2:0:0:0:
512,189,190312,2,0,P|421:102|360:121,1,198.000006042481,2|0,3:1|2:0,2:0:0:0:
281,212,190675,2,0,P|295:223|395:245,1,99.0000030212403,2|0,3:1|2:0,2:0:0:0:
445,276,190917,2,0,P|407:279|350:306,1,99.0000030212403,0|8,1:0|1:3,2:0:0:0:
175,384,191159,5,10,1:0:0:0:
76,270,191279,1,8,1:0:0:0:
204,362,191400,2,0,B|212:265|169:282|173:187,1,180,6|2,1:0|2:1,2:0:0:0:
273,60,191763,1,0,3:1:0:0:
127,20,191884,2,0,P|154:62|203:86,1,90,2|0,2:1|2:0,2:0:0:0:
456,104,192126,70,0,P|415:137|345:149,1,107.999996704102,14|6,1:0|2:3,2:0:0:0:
106,310,192368,22,0,P|142:284|175:225,1,99.0000030212403,2|4,2:1|1:0,2:0:0:0:
289,34,192610,6,0,P|323:115|262:218,1,180,10|6,1:0|1:0,2:0:0:0:
237,204,193820,5,0,2:0:0:0:
204,129,194062,1,0,2:0:0:0:
257,130,194304,5,2,2:0:0:0:
212,245,194546,1,2,2:0:0:0:
260,285,194788,101,0,2:0:0:0:
170,96,195029,1,0,2:0:0:0:
252,182,195271,53,0,1:0:0:0:
252,182,195392,1,0,1:0:0:0:
260,285,195513,2,4,B|266:238|251:189|251:189|253:180|253:180|240:135|242:73,1,202.500007724762,4|0,1:0|2:0,1:0:0:0:
253,15,195755,53,4,3:1:0:0:
372,82,196118,5,0,2:0:0:0:
380,91,196239,1,0,2:0:0:0:
479,123,196481,1,2,2:0:0:0:
383,174,196723,1,0,2:0:0:0:
278,275,196965,1,0,2:0:0:0:
172,359,197207,101,2,2:0:0:0:
102,243,197449,5,0,2:0:0:0:
82,227,197570,1,0,2:0:0:0:
127,210,197691,1,0,2:0:0:0:
323,107,197933,101,2,2:0:0:0:
323,107,198175,37,6,2:3:0:0:
249,60,198296,1,6,2:3:0:0:
218,132,198417,1,6,2:3:0:0:
332,47,198538,1,6,2:3:0:0:
433,50,198659,85,2,3:1:0:0:
384,181,199021,101,0,2:0:0:0:
384,181,199142,1,2,2:0:0:0:
284,215,199384,1,0,1:0:0:0:
147,258,199626,1,2,2:0:0:0:
32,329,199868,1,2,2:0:0:0:
92,178,200110,37,6,3:0:0:0:
112,99,200231,1,6,2:3:0:0:
53,66,200352,1,6,2:3:0:0:
144,137,200473,1,6,2:3:0:0:
209,90,200594,1,0,1:0:0:0:
353,56,200836,53,2,2:0:0:0:
415,101,200957,1,2,2:0:0:0:
344,71,201078,1,0,2:0:0:0:
315,155,201199,1,2,2:0:0:0:
379,245,201320,1,0,1:0:0:0:
253,384,201562,5,2,3:1:0:0:
217,246,201925,5,2,2:0:0:0:
259,226,202046,1,2,2:0:0:0:
269,112,202288,101,0,1:0:0:0:
206,76,202529,1,6,2:3:0:0:
278,19,202771,1,6,2:3:0:0:
278,19,203013,5,2,3:1:0:0:
213,89,203255,21,0,2:0:0:0:
139,149,203376,1,0,2:0:0:0:
100,74,203497,53,0,2:0:0:0:
242,160,203618,1,0,2:0:0:0:
401,78,203739,54,0,P|419:65|469:56,1,53.9999983520508,6|6,2:3|2:3,2:0:0:0:
369,175,203981,2,0,P|343:168|320:153,1,53.9999983520508,6|6,2:3|2:3,2:0:0:0:
416,50,204223,54,0,P|435:71|432:210,1,161.999995056153,6|0,2:3|2:0,2:0:0:0:
440,197,204465,1,6,2:3:0:0:
285,253,204828,53,2,2:3:0:0:
213,178,204949,2,0,P|153:154|80:165,1,135.000005149842,2|0,2:3|1:0,2:0:0:0:
19,240,205433,2,0,P|46:259|79:252,1,67.5000025749208,2|0,2:3|2:0,2:0:0:0:
176,112,205675,2,0,P|126:110|40:177,1,135.000005149842,2|0,2:3|1:0,2:0:0:0:
144,212,206159,53,2,2:0:0:0:
228,212,206279,1,2,2:0:0:0:
315,267,206400,1,2,2:0:0:0:
438,258,206521,1,2,2:0:0:0:
468,268,206642,6,0,L|478:325,1,40.4999987640381,0|0,1:0|2:0,2:0:0:0:
385,192,206884,38,0,P|428:162|481:168,1,90,0|0,2:0|2:0,2:0:0:0:
327,384,207126,54,0,P|263:368|224:291,1,135,0|0,2:0|2:0,2:0:0:0:
282,266,207368,53,2,1:3:0:0:
316,84,207731,1,2,2:3:0:0:
248,128,207852,2,0,L|131:146,1,107.999996704102,2|0,2:3|1:0,2:0:0:0:
12,94,208336,2,0,L|67:83,1,53.9999983520508,2|0,2:3|2:0,2:0:0:0:
179,154,208578,2,0,L|285:137,1,107.999996704102,2|0,2:3|1:0,2:0:0:0:
365,129,209062,53,2,2:0:0:0:
471,158,209183,1,2,2:0:0:0:
311,254,209304,1,2,2:0:0:0:
311,254,209546,54,0,P|307:316|296:374,1,108,2|0,1:2|2:0,2:0:0:0:
299,361,210029,1,0,2:0:0:0:
272,176,210271,53,0,1:0:0:0:
323,115,210513,2,0,P|317:83|316:41,1,67.5000025749208,2|0,2:1|2:0,2:0:0:0:
184,157,210755,2,0,P|142:164|47:203,1,135.000005149842,2|0,2:1|1:0,2:0:0:0:
98,124,211239,54,0,P|137:129|173:138,1,67.5000025749208,2|0,2:1|2:0,2:0:0:0:
289,258,211481,2,0,P|255:253|222:246,1,67.5000025749208,2|0,2:1|2:0,2:0:0:0:
274,158,211723,53,2,1:0:0:0:
375,113,211844,1,2,2:0:0:0:
468,211,211965,1,2,2:0:0:0:
468,211,212207,53,2,2:0:0:0:
389,253,212328,1,2,2:0:0:0:
468,294,212449,2,0,P|472:328|486:387,1,67.5000025749208,0|0,1:0|2:0,2:0:0:0:
512,133,212691,2,0,P|504:71|478:-4,1,114.750002188683,0|0,2:0|2:0,2:0:0:0:
488,21,212933,1,0,2:0:0:0:
391,102,213175,53,0,1:0:0:0:
305,51,213417,2,0,P|240:63|210:79,1,76.5000014591217,2|0,2:1|2:0,2:0:0:0:
266,150,213659,2,0,P|331:162|361:178,1,76.5000014591217,2|0,2:1|2:0,2:0:0:0:
187,184,213900,1,0,1:0:0:0:
250,305,214142,53,2,2:2:0:0:
329,236,214263,1,2,2:2:0:0:
261,334,214384,1,2,2:2:0:0:
172,286,214505,1,2,2:2:0:0:
272,379,214626,1,0,1:0:0:0:
404,255,214868,54,0,P|398:206|382:147,1,76.5000014591217,2|0,2:1|2:0,2:0:0:0:
279,90,215110,2,0,P|285:139|301:198,1,76.5000014591217,2|0,2:1|2:0,2:0:0:0:
417,158,215352,2,0,P|415:110|390:30,1,114.750002188683,0|0,1:0|2:0,2:0:0:0:
478,37,215594,70,0,P|389:1|227:38,1,202.500007724762,2|0,2:0|2:0,2:0:0:0:
160,62,215836,2,0,B|90:125|-7:112|4:35|41:49|65:72,1,202.500007724762,2|0,2:0|2:0,2:0:0:0:
88,183,216078,5,6,1:2:0:0:
88,183,216199,2,0,B|74:230|74:230|101:286|101:286|88:343,1,161.999995056153,2|0,2:0|3:0,2:0:0:0:
170,269,216562,1,0,3:0:0:0:
205,384,216683,1,8,1:0:0:0:
373,333,216804,2,0,P|405:320|469:309,1,80.9999975280763,2|2,2:0|2:0,2:0:0:0:
503,236,217046,2,0,P|474:210|444:164,1,80.9999975280763,2|0,2:0|3:0,2:0:0:0:
366,125,217288,2,0,P|357:160|333:211,1,80.9999975280763,2|0,2:0|3:0,2:0:0:0:
181,289,217529,6,0,B|90:276|106:327|21:309,1,161.999995056153,2|0,2:0|2:0,2:0:0:0:
200,384,217892,1,0,3:0:0:0:
275,345,218013,2,0,P|306:332|362:327,1,80.9999975280763,2|0,2:0|2:0,2:0:0:0:
252,269,218255,2,0,P|249:241|357:189,1,161.999995056153,2|2,1:2|2:0,2:0:0:0:
483,152,218618,101,2,2:0:0:0:
424,194,218739,1,2,2:0:0:0:
389,101,218860,1,2,2:0:0:0:
512,66,218981,2,0,L|498:238,1,161.999995056153,6|0,1:2|2:0,2:0:0:0:
415,355,219344,5,0,3:0:0:0:
512,297,219465,2,0,P|451:272|418:278,1,80.9999975280763,2|0,2:0|2:0,2:0:0:0:
198,192,219707,2,0,P|249:172|285:177,1,80.9999975280763,2|0,1:2|2:0,2:0:0:0:
371,217,219949,1,2,2:0:0:0:
216,326,220070,1,2,2:0:0:0:
98,255,220191,2,0,P|79:244|0:223,1,80.9999975280763,2|0,1:2|2:0,2:0:0:0:
216,326,220433,102,0,P|212:294|223:229,1,90,2|0,2:0|2:0,2:0:0:0:
287,82,220675,1,2,1:2:0:0:
287,202,220796,5,8,2:1:0:0:
224,44,220917,2,0,P|233:80|229:144,1,90,2|0,1:2|2:0,2:0:0:0:
116,289,221159,102,0,P|81:323|40:335,1,90,2|0,2:0|2:0,2:0:0:0:
287,202,221400,2,0,P|310:207|390:223,1,90,2|0,1:2|2:0,2:0:0:0:
122,194,221642,5,10,2:0:0:0:
105,197,221703,1,8,1:0:0:0:
87,203,221763,1,8,1:0:0:0:
70,204,221824,1,8,1:0:0:0:
54,185,221884,102,0,P|52:158|37:44,1,135,6|0,1:0|2:0,2:0:0:0:
41,39,222126,1,2,1:2:0:0:
148,157,222247,1,2,2:0:0:0:
267,9,222368,1,2,1:2:0:0:
154,59,222489,1,0,3:0:0:0:
322,121,222610,2,0,P|349:126|463:166,1,135,6|0,3:1|2:0,2:0:0:0:
450,160,222852,5,2,1:2:0:0:
322,121,222973,1,0,1:0:0:0:
512,201,223094,2,0,P|467:206|430:230,1,90,2|0,1:2|2:0,2:0:0:0:
253,344,223336,102,0,P|307:348|386:360,1,125.999996154785,2|0,0:0|0:0,0:0:0:0:
255,268,223699,5,2,2:0:0:0:
135,380,223820,2,0,P|118:337|82:300,1,90,2|0,2:0|2:0,2:0:0:0:
156,77,224062,102,0,P|154:136|94:182,1,135,2|0,1:2|2:0,2:0:0:0:
86,201,224304,1,10,1:0:0:0:
236,143,224425,1,8,1:0:0:0:
407,195,224546,2,0,P|427:197|551:141,1,135,10|0,1:0|2:0,2:0:0:0:
494,26,224788,6,0,P|491:68|464:130,1,90,2|0,1:2|2:0,2:0:0:0:
285,289,225029,2,0,P|326:286|389:259,1,90,2|0,2:0|2:0,2:0:0:0:
510,181,225271,102,0,P|467:201|411:205,1,90,2|0,2:0|2:0,2:0:0:0:
184,69,225513,6,0,P|220:94|263:107,1,90,2|0,1:2|2:0,2:0:0:0:
402,108,225755,102,0,P|373:141|333:161,1,90,2|0,2:0|2:0,2:0:0:0:
148,361,225997,2,0,P|184:335|206:296,1,90,2|0,2:0|2:0,2:0:0:0:
44,145,226239,6,0,P|43:218|113:246,1,135,2|0,1:2|2:0,2:0:0:0:
157,225,226481,1,2,1:2:0:0:
174,209,226542,1,2,1:2:0:0:
173,188,226602,1,2,1:2:0:0:
156,176,226663,1,2,1:2:0:0:
133,195,226723,2,0,B|126:226|126:226|131:233|131:233|117:301,1,90,2|0,2:0|2:0,2:0:0:0:
329,167,226965,102,0,P|351:162|437:136,1,90,2|0,1:2|2:0,2:0:0:0:
271,347,227207,1,2,1:2:0:0:
354,261,227328,1,2,2:0:0:0:
226,173,227449,1,2,1:2:0:0:
212,189,227509,1,8,1:0:0:0:
238,203,227570,1,8,1:0:0:0:
221,216,227630,1,8,1:0:0:0:
222,234,227691,6,0,B|206:142|265:158|243:51,1,180,2|0,2:0|2:0,2:0:0:0:
339,95,228054,2,0,P|434:45|507:63,1,180,2|0,1:2|2:0,2:0:0:0:
320,222,228417,2,0,P|285:218|217:134,1,135,2|0,2:0|2:0,2:0:0:0:
219,148,228659,2,0,P|193:165|113:170,1,90,2|0,3:1|2:0,2:0:0:0:
0,233,228900,2,0,L|103:253,1,90,10|0,1:0|2:0,2:0:0:0:
367,273,229142,102,0,B|367:231|367:231|391:155,1,90,2|0,1:2|2:0,2:0:0:0:
229,306,229384,1,2,2:0:0:0:
276,118,229505,6,0,B|294:156|294:156|277:220,1,90,2|0,2:0|2:0,2:0:0:0:
342,355,229747,1,0,1:0:0:0:
342,355,229808,1,0,1:0:0:0:
342,355,229868,101,2,1:2:0:0:
297,300,229989,1,12,3:0:0:0:
252,378,230110,5,2,1:2:0:0:
385,293,230231,1,12,3:0:0:0:
214,301,230352,85,2,1:2:0:0:
441,382,230473,1,8,1:0:0:0:
511,103,230614,22,0,P|296:63|62:184,1,450,6|0,2:0|2:0,2:0:0:0:
4,163,231507,102,0,P|215:102|503:353,1,630,6|0,2:0|2:0,2:0:0:0:
467,372,233261,102,0,B|445:381|445:381|431:376|431:376|451:368,15,45,0|0|0|0|0|0|0|0|0|0|0|0|0|0|0|0,3:0|3:0|3:0|3:0|3:0|3:0|3:0|3:0|3:0|3:0|3:0|3:0|3:0|3:0|3:0|3:0,3:0:0:0:
254,0,237817,53,2,2:0:0:0:
270,75,238057,2,0,P|245:83|231:103,1,45,0|0,2:0|2:0,2:0:0:0:
270,75,238298,2,0,P|287:94|290:118,1,45,0|0,2:0|2:0,2:0:0:0:
239,168,238539,5,0,2:0:0:0:
234,199,238660,1,0,2:0:0:0:
263,244,238780,1,0,2:0:0:0:
295,310,238901,1,0,2:0:0:0:
241,384,239021,1,2,2:3:0:0:
241,384,239262,102,0,P|195:375|100:362,1,125.999996154785,2|0,2:0|2:0,2:0:0:0:
52,255,239624,2,0,P|23:276|-3:266,2,62.9999980773926,0|0|0,2:0|2:0|2:0,2:0:0:0:
103,162,239985,6,0,P|128:147|167:147,1,62.9999980773926,0|0,2:0|2:0,2:0:0:0:
196,84,240226,2,0,P|224:88|246:103,1,45,0|0,2:0|2:0,2:0:0:0:
284,173,240467,1,2,2:3:0:0:
53,0,240708,102,0,P|103:-9|198:23,1,135,2|0,3:2|2:0,2:0:0:0:
386,45,241190,2,0,L|322:56,1,45,2|0,3:2|2:0,2:0:0:0:
135,149,241431,6,0,P|159:164|169:179,1,45,2|0,3:0|2:0,2:0:0:0:
160,221,241672,2,0,P|160:193|168:177,1,45,2|0,3:0|2:0,2:0:0:0:
209,164,241913,2,0,P|184:178|166:179,1,45,2|0,3:0|2:0,2:0:0:0:
313,98,242154,102,0,L|300:198,2,90,6|0|0,3:2|2:0|2:0,2:0:0:0:
426,9,242877,2,0,L|435:41,1,22.5,0|0,2:0|2:0,2:0:0:0:
456,323,243359,5,2,2:0:0:0:
456,323,243479,1,2,2:0:0:0:
380,268,243600,2,0,P|343:254|273:245,1,90,2|6,3:0|2:3,2:0:0:0:
207,232,243961,1,2,2:3:0:0:
135,256,244082,1,2,2:3:0:0:
67,305,244202,1,2,2:3:0:0:
45,384,244323,102,0,P|76:325|142:271,1,135.000005149842,6|0,3:2|3:0,3:0:0:0:
221,236,244684,1,0,2:0:0:0:
275,162,244804,1,0,3:0:0:0:
298,68,244925,1,0,2:0:0:0:
240,0,245045,6,0,P|231:52|273:125,1,135.000005149842,2|0,3:0|3:0,2:0:0:0:
353,165,245407,1,0,2:0:0:0:
423,203,245527,1,0,3:0:0:0:
480,283,245648,1,0,2:0:0:0:
512,383,245768,101,6,2:0:0:0:
347,290,246009,2,0,P|313:281|262:271,1,67.5000025749208,2|0,2:0|2:0,2:0:0:0:
243,205,246250,2,0,P|209:196|158:186,1,67.5000025749208,2|0,2:0|2:0,2:0:0:0:
49,121,246491,6,0,P|104:64|248:68,1,202.500007724762,6|2,1:2|1:2,2:0:0:0:
424,171,246973,2,0,P|388:134|295:136,1,135.000005149842,0|2,2:0|1:2,2:0:0:0:
148,193,247455,2,0,P|105:208|72:217,1,67.5000025749208,2|0,1:2|2:0,2:0:0:0:
244,250,247696,2,0,P|256:293|267:326,1,67.5000025749208,6|6,2:3|2:3,2:0:0:0:
137,329,247937,102,0,B|107:326|107:326|62:346|0:356,2,135.000005149842,6|0|6,2:0|2:0|2:3,2:0:0:0:
324,372,248660,2,0,P|386:352|348:176,1,270.000010299683,6|6,2:3|2:3,2:0:0:0:
184,45,249383,6,0,L|274:59,1,80.9999975280763,2|0,1:2|2:0,2:0:0:0:
265,58,249744,2,0,L|251:172,1,112.5,2|0,2:0|3:0,2:0:0:0:
346,252,250588,1,6,2:3:0:0:
414,129,250829,54,0,L|324:143,1,80.9999975280763,2|0,1:2|2:0,2:0:0:0:
333,141,251190,2,0,L|347:255,1,112.5,2|0,2:0|3:0,2:0:0:0:
168,197,252034,1,6,2:3:0:0:
77,346,252274,54,0,P|90:215|92:153,1,175.499991966248,2|0,3:1|2:0,2:0:0:0:
206,92,252756,54,0,P|225:88|254:74,1,40.4999987640381,0|0,3:1|2:0,2:0:0:0:
302,52,252997,2,0,P|286:35|259:23,1,40.4999987640381,0|0,3:1|2:0,2:0:0:0:
196,11,253238,2,0,P|183:28|175:58,1,40.4999987640381,0|0,3:1|2:0,2:0:0:0:
243,213,253479,54,0,P|266:239|315:258,1,76.5000014591217,2|0,3:1|2:0,2:0:0:0:
506,207,253720,54,0,P|406:168|167:260,1,360,4|0,3:0|1:0,2:0:0:0:
45,341,254925,53,2,2:0:0:0:
45,341,255045,1,2,2:0:0:0:
45,341,255166,2,0,P|75:328|110:299,1,67.5000025749208,2|0,3:1|2:0,2:0:0:0:
183,229,255407,53,6,2:3:0:0:
247,157,255527,1,2,2:3:0:0:
282,94,255648,1,2,2:3:0:0:
290,60,255768,1,2,2:3:0:0:
273,48,255889,2,0,P|270:71|301:185,2,135.000005149842,2|0|0,3:1|3:0|3:0,3:0:0:0:
380,169,256612,54,0,P|376:202|351:246,1,67.5000025749208,0|0,3:0|2:0,2:0:0:0:
421,179,256853,2,0,P|452:166|498:165,1,67.5000025749208,0|0,3:0|2:0,2:0:0:0:
406,150,257094,2,0,P|384:126|368:79,1,67.5000025749208,0|0,3:0|2:0,2:0:0:0:
336,0,257335,53,2,2:0:0:0:
144,118,257937,53,0,2:0:0:0:
144,118,258057,2,0,P|165:117|275:166,1,135.000005149842,2|0,2:2|2:0,2:0:0:0:
423,235,258419,2,0,P|458:229|506:197,1,80.9999975280763,2|0,1:2|2:0,2:0:0:0:
324,237,258780,54,0,P|302:270|289:315,1,76.5000014591217,2|0,2:2|2:0,2:0:0:0:
286,230,259021,54,0,P|265:205|237:188,1,58.4999973220826,2|0,2:2|2:0,2:0:0:0:
167,167,259262,1,6,2:3:0:0:
98,177,259383,1,6,2:3:0:0:
0,215,259503,54,0,B|98:168|144:287|227:260,1,229.500004377365,6|0,2:0|3:0,2:0:0:0:
236,237,259985,53,6,2:3:0:0:
275,220,260106,101,6,2:3:0:0:
210,215,260226,69,6,2:3:0:0:
277,197,260347,53,6,2:3:0:0:
188,152,260467,85,6,2:3:0:0:
307,161,260588,37,6,2:3:0:0:
185,43,260708,53,6,2:3:0:0:
384,114,260829,85,6,2:3:0:0:
401,123,261070,38,6,B|400:131|400:131|407:133|407:133|410:145,2,19.1250003647804,6|6|6,2:3|2:3|2:3,2:0:0:0:
114,205,261672,6,0,P|141:186|178:176,1,67.5,10|0,2:3|2:0,2:0:0:0:
178,180,262154,54,0,P|144:187|46:136,1,135,6|0,2:3|2:0,2:0:0:0:
0,75,262395,102,0,P|85:43|201:113,1,215.999993408203,6|0,1:0|2:0,2:0:0:0:
251,206,262757,1,2,3:1:0:0:
239,0,262878,2,0,P|160:3|93:64,1,135,0|0,2:0|2:0,2:0:0:0:
135,114,263120,102,0,B|240:74|242:152|330:134,1,180,10|2,1:0|1:2,2:0:0:0:
429,97,263483,1,0,2:0:0:0:
360,69,263604,1,2,1:2:0:0:
465,29,263725,1,2,1:2:0:0:
366,37,263846,6,0,P|349:130|380:252,1,215.999993408203,6|0,1:0|2:0,2:0:0:0:
450,306,264209,1,2,1:0:0:0:
237,384,264330,2,0,P|263:328|273:245,1,135,0|0,2:0|2:0,2:0:0:0:
273,255,264572,102,0,P|306:296|368:314,1,90,10|0,1:0|2:0,2:0:0:0:
422,163,264814,2,0,P|369:171|323:215,1,90,2|0,3:1|1:0,2:0:0:0:
453,183,265056,2,0,P|477:123|431:30,1,135,2|0,3:1|2:0,2:0:0:0:
512,44,265298,6,0,P|410:33|328:74,1,180,6|0,1:0|2:0,2:0:0:0:
212,132,265661,1,2,1:0:0:0:
69,48,265782,2,0,P|150:53|188:65,1,90,0|0,2:0|2:0,2:0:0:0:
287,185,266024,101,2,1:0:0:0:
430,139,266145,1,0,2:0:0:0:
320,110,266265,5,2,1:2:0:0:
439,215,266386,1,0,3:0:0:0:
198,155,266507,102,0,P|183:219|166:267,1,90,8|0,1:0|2:0,2:0:0:0:
50,293,266749,6,0,P|136:266|246:356,1,215.999993408203,6|0,3:1|2:0,2:0:0:0:
354,358,267112,2,0,P|471:364|508:275,1,215.999993408203,2|0,3:1|2:0,2:0:0:0:
462,221,267475,102,0,B|429:162|429:162|502:198,1,135.000005149842,2|8,1:0|1:0,2:0:0:0:
489,191,267838,1,0,2:0:0:0:
389,264,267959,5,10,1:0:0:0:
291,217,268080,1,10,1:0:0:0:
155,384,268201,102,0,P|176:343|186:290,1,90,6|0,1:0|2:0,2:0:0:0:
191,223,268382,1,0,2:0:0:0:
180,211,268443,1,0,2:0:0:0:
112,166,268564,1,2,1:0:0:0:
14,135,268685,1,2,2:0:0:0:
155,97,268806,1,2,2:0:0:0:
104,15,268927,6,0,L|286:35,1,180,2|0,3:1|2:0,2:0:0:0:
374,52,269290,1,2,2:0:0:0:
455,105,269411,1,2,2:1:0:0:
348,171,269532,1,2,2:1:0:0:
488,32,269653,102,0,P|482:121|496:220,1,180,6|0,3:1|2:0,2:0:0:0:
464,294,270015,1,2,1:0:0:0:
369,263,270136,1,2,2:0:0:0:
251,164,270257,1,2,2:0:0:0:
143,270,270378,6,0,P|77:314|9:328,1,135,2|0,3:1|2:0,2:0:0:0:
41,350,270620,102,0,B|85:358|85:358|98:364|98:364|139:372,1,101.700000310364,4|0,1:3|2:0,2:0:0:0:
373,298,270862,2,0,P|406:259|364:202,1,107.999996704102,14|2,1:0|1:2,2:0:0:0:
342,96,271104,6,0,P|252:76|143:161,1,215.999993408203,6|0,1:0|2:0,2:0:0:0:
55,151,271467,1,6,3:1:0:0:
158,45,271588,2,0,P|216:37|274:81,1,107.999996704102,0|0,2:0|2:0,2:0:0:0:
358,190,271830,2,0,L|481:218,1,107.999996704102,2|0,3:1|2:0,2:0:0:0:
357,278,272072,101,0,1:0:0:0:
217,377,272193,1,8,1:3:0:0:
343,342,272314,5,10,1:0:0:0:
178,237,272435,1,8,1:0:0:0:
259,207,272556,102,0,B|292:146|188:67|249:-11,1,215.999993408203,6|2,1:0|2:1,2:0:0:0:
325,102,272919,1,0,3:1:0:0:
266,220,273040,2,0,B|283:251|229:292|260:332,1,107.999996704102,2|0,2:1|2:0,2:0:0:0:
140,141,273282,6,6,P|251:108|397:207,1,270.000010299683,14|2,1:0|2:1,2:0:0:0:
437,239,273584,1,0,2:0:0:0:
449,247,273645,2,0,L|389:272,1,45,4|0,1:0|2:0,2:0:0:0:
310,307,273765,5,10,1:0:0:0:
271,322,273826,1,8,2:0:0:0:
229,330,273886,1,10,2:0:0:0:
187,345,273947,1,8,1:0:0:0:
153,342,274007,22,0,B|219:327|302:372|302:372|326:352,1,180,6|0,1:0|2:0,2:0:0:0:
182,167,274370,2,0,B|112:104|32:139|32:139|66:171,1,180,2|0,3:1|2:0,2:0:0:0:
231,261,274733,2,0,P|258:262|355:205,1,135,10|0,1:0|2:0,2:0:0:0:
350,212,274975,2,0,P|392:248|443:257,1,90,2|0,1:2|2:0,2:0:0:0:
423,9,275217,54,0,P|419:34|429:113,1,90,2|2,1:2|1:2,2:0:0:0:
250,175,275459,54,0,B|173:175|191:211|109:206,1,135,6|0,1:0|2:0,2:0:0:0:
98,201,275701,1,0,2:0:0:0:
319,77,275822,2,0,P|402:175|374:236,1,180,2|2,1:0|2:0,2:0:0:0:
218,384,276185,2,0,P|260:375|299:341,1,90,10|0,1:0|2:0,2:0:0:0:
213,210,276427,2,0,P|221:242|225:314,1,90,0|0,3:1|1:0,2:0:0:0:
420,366,276669,2,0,P|462:371|523:388,1,90,2|0,3:1|3:0,2:0:0:0:
343,133,276911,54,0,P|316:115|141:122,1,180,6|0,1:0|2:0,2:0:0:0:
46,193,277274,1,2,1:0:0:0:
148,248,277395,2,0,P|190:255|243:278,1,90,0|0,2:0|2:0,2:0:0:0:
448,150,277636,2,0,P|432:110|429:61,1,90,2|0,1:0|2:0,2:0:0:0:
415,220,277878,53,2,1:2:0:0:
512,111,277999,1,0,3:0:0:0:
351,140,278120,85,8,1:0:0:0:
512,283,278241,1,10,1:0:0:0:
320,218,278362,86,0,B|216:178|206:269|120:243,1,198.000006042481,6|0,3:1|2:0,2:0:0:0:
174,93,278725,1,2,3:1:0:0:
86,60,278846,2,0,P|57:50|-10:4,1,99.0000030212403,0|0,1:0|2:0,2:0:0:0:
71,292,279088,2,0,B|91:251|91:251|76:188,1,99.0000030212403,2|0,1:0|2:0,2:0:0:0:
258,111,279330,2,0,L|351:91,1,90,8|0,1:0|2:0,2:0:0:0:
512,318,279572,22,0,L|504:276,1,33.7500012874604,10|8,1:0|1:0,2:0:0:0:
478,220,279693,2,0,L|473:258,1,33.7500012874604,10|8,1:0|1:0,2:0:0:0:
443,370,279814,22,0,B|391:356|367:365|367:365|337:379|284:362,1,155.250002961159,6|0,1:0|2:0,2:0:0:0:
237,342,280056,53,0,2:0:0:0:
173,270,280177,1,2,1:0:0:0:
155,194,280298,1,10,2:3:0:0:
172,144,280419,1,2,2:0:0:0:
274,102,280540,54,0,B|267:127|267:127|275:131|275:131|266:154|266:154|262:206,1,94.499997116089,2|0,3:1|2:0,2:0:0:0:
86,74,280782,2,0,L|172:61,1,85.4999977169037,0|2,2:0|2:0,2:0:0:0:
448,199,281024,54,0,B|466:172|474:157|474:157|473:139|468:102,1,94.499997116089,2|2,2:1|2:1,2:0:0:0:
318,30,281265,2,0,B|315:87|335:116|335:116|356:150|351:226,1,188.999994232178,6|0,3:1|2:0,2:0:0:0:
407,292,281628,1,2,1:0:0:0:
229,374,281749,2,0,P|255:337|265:284,1,94.499997116089,2|2,1:2|2:0,2:0:0:0:
46,88,281991,2,0,P|57:128|145:177,1,141.749995674133,2|0,3:1|2:0,2:0:0:0:
138,177,282233,2,0,P|136:202|114:258,1,85.4999977169037,4|0,1:3|2:0,2:0:0:0:
356,249,282475,53,10,1:0:0:0:
200,330,282596,1,8,2:3:0:0:
408,325,282717,54,0,P|450:329|494:349,1,85.4999977169037,6|0,1:0|2:0,2:0:0:0:
221,260,282959,2,0,B|120:257|155:308|41:297,1,170.999995433807,6|4,2:1|2:3,2:0:0:0:
186,178,283322,1,0,2:0:0:0:
19,146,283443,2,0,P|44:183|109:199,1,94.499997116089,2|0,3:1|2:0,2:0:0:0:
271,313,283685,2,0,P|273:270|291:204,1,94.499997116089,0|8,1:0|1:3,2:0:0:0:
186,310,283927,53,10,1:0:0:0:
285,137,284048,1,8,1:0:0:0:
209,28,284169,54,0,P|202:69|214:185,1,153.000002918243,6|2,1:0|2:1,2:0:0:0:
305,317,284532,21,0,3:1:0:0:
386,362,284653,1,2,2:1:0:0:
451,384,284774,1,0,2:0:0:0:
295,247,284895,21,14,1:0:0:0:
240,282,285015,1,6,2:3:0:0:
339,130,285136,1,2,1:0:0:0:
359,198,285257,1,4,1:0:0:0:
219,29,285378,1,10,1:0:0:0:
288,72,285499,1,10,2:0:0:0:
509,86,285620,70,0,P|426:21|336:32,1,188.999994232178,6|0,1:0|3:0,2:0:0:0:
38,167,285983,2,0,P|121:102|213:114,1,188.999994232178,0|0,1:0|2:0,2:0:0:0:
512,206,286346,54,0,B|397:151|343:290|247:258,1,283.499991348267,8|0,1:0|0:0,2:0:0:0:
309,78,286830,2,0,L|296:203,1,94.499997116089,0|0,3:0|2:0,2:0:0:0:
481,382,287072,22,0,P|457:344|444:276,1,94.499997116089,2|8,1:0|2:3,2:0:0:0:
451,192,287314,1,8,2:3:0:0:
294,271,287435,2,0,B|186:254|233:298|84:275,1,188.999994232178,0|0,3:1|2:0,2:0:0:0:
61,202,287798,86,0,P|95:157|119:113,1,94.499997116089,8|0,1:0|2:0,2:0:0:0:
183,16,288040,2,0,P|228:27|270:77,1,94.499997116089,0|0,1:0|2:0,2:0:0:0:
387,211,288282,2,0,P|338:202|276:162,1,94.499997116089,0|0,1:0|2:0,2:0:0:0:
261,60,288524,22,0,P|318:12|443:27,1,188.999994232178,2|0,1:0|2:0,2:0:0:0:
439,134,288886,1,0,3:0:0:0:
305,188,289007,2,0,P|312:246|328:299,1,94.499997116089,0|0,2:1|2:0,2:0:0:0:
147,305,289249,86,0,P|69:270|88:157,1,188.999994232178,8|0,1:0|2:0,2:0:0:0:
144,25,289612,1,2,2:0:0:0:
249,22,289733,2,0,P|259:69|260:123,1,94.499997116089,0|0,1:0|2:0,2:0:0:0:
323,302,289975,22,0,B|432:351|406:292|550:351,1,188.999994232178,2|0,1:0|2:0,2:0:0:0:
227,221,290338,2,0,B|118:270|144:211|0:270,1,188.999994232178,0|0,3:1|1:0,2:0:0:0:
59,166,290701,86,0,P|99:156|163:129,1,94.499997116089,8|0,1:0|3:0,2:0:0:0:
443,99,290943,2,0,P|403:89|339:62,1,94.499997116089,0|8,3:1|3:2,2:0:0:0:
217,11,291185,21,2,3:2:0:0:
317,148,291306,1,10,3:0:0:0:
167,226,291427,86,0,P|176:176|181:119,1,94.499997116089,6|0,3:1|2:0,2:0:0:0:
0,309,291669,2,0,P|98:291|156:338,1,141.749995674133,6|0,3:0|2:0,2:0:0:0:
141,329,291911,1,0,2:0:0:0:
268,384,292032,1,2,2:0:0:0:
459,270,292153,22,0,P|408:243|301:250,1,141.749995674133,8|0,1:0|2:0,2:0:0:0:
243,247,292395,2,0,P|247:204|233:143,1,94.499997116089,0|14,3:0|3:0,2:0:0:0:
142,46,292636,6,0,L|131:100,1,47.2499985580445,4|0,3:0|2:0,2:0:0:0:
19,149,292757,2,0,L|6:101,1,47.2499985580445,0|0,3:0|2:0,2:0:0:0:
48,21,292878,70,0,P|127:-3|254:45,1,188.999994232178,2|0,3:1|3:0,2:0:0:0:
305,101,293241,2,0,P|345:131|410:121,1,94.499997116089,2|6,1:0|1:0,2:0:0:0:
473,70,293483,1,0,2:1:0:0:
324,6,293604,22,0,P|273:10|219:51,1,94.499997116089,6|0,3:0|2:0,2:0:0:0:
147,187,293846,2,0,L|125:351,1,141.749995674133,2|0,3:1|2:0,2:0:0:0:
138,347,294088,1,2,2:0:0:0:
25,234,294209,1,2,2:0:0:0:
232,176,294330,86,0,P|323:165|415:233,1,188.999994232178,6|0,3:1|2:0,2:0:0:0:
350,315,294693,2,0,B|309:329|309:329|297:327|297:327|245:344,1,94.499997116089,2|0,3:0|1:0,2:0:0:0:
109,259,294935,1,2,2:0:0:0:
109,259,294995,1,0,2:0:0:0:
109,259,295056,22,0,L|101:106,1,141.749995674133,10|0,1:0|2:0,2:0:0:0:
53,57,295298,1,2,2:0:0:0:
218,125,295419,1,0,2:0:0:0:
375,14,295540,2,0,B|430:-36|495:-8|495:-8|467:17,1,141.749995674133,8|0,1:0|2:0,2:0:0:0:
465,66,295782,86,0,L|241:48,1,188.999994232178,14|2,3:1|2:0,2:0:0:0:
161,0,296145,1,4,3:0:0:0:
8,173,296265,2,0,P|89:150|138:106,1,112.5,2|0,1:0|2:0,2:0:0:0:
297,148,296507,22,0,P|399:161|459:290,1,225,10|0,1:0|3:0,2:0:0:0:
391,339,296870,1,2,1:2:0:0:
241,260,296991,85,8,3:2:0:0:
220,271,297052,1,8,3:2:0:0:
191,265,297112,1,8,3:2:0:0:
171,274,297173,1,8,3:2:0:0:
131,293,297233,22,0,P|126:263|103:191,1,99.0000030212403,6|0,1:0|2:0,2:0:0:0:
195,364,297475,1,0,1:0:0:0:
342,317,297596,2,0,P|369:307|526:346,1,180,2|0,3:1|2:0,2:0:0:0:
283,219,297959,2,0,P|242:209|167:142,1,135,2|0,1:2|2:0,2:0:0:0:
172,150,298201,2,0,P|153:176|88:212,1,90,0|8,3:0|3:0,2:0:0:0:
257,117,298443,1,4,3:0:0:0:
379,208,298564,1,4,3:0:0:0:
326,128,298685,86,0,P|301:98|283:37,1,90,2|0,3:1|2:0,2:0:0:0:
160,124,298927,1,2,1:2:0:0:
89,84,299048,2,0,P|18:109|18:232,1,180,2|0,1:0|2:0,2:0:0:0:
146,336,299411,2,0,L|248:312,1,90,14|0,1:0|2:0,2:0:0:0:
363,247,299653,21,6,3:1:0:0:
399,344,299774,1,4,3:0:0:0:
485,276,299895,1,2,3:0:0:0:
404,348,300015,1,14,3:0:0:0:
289,222,300136,86,0,P|253:208|208:175,1,90,6|0,1:0|2:0,2:0:0:0:
144,123,300378,1,0,1:0:0:0:
92,183,300499,1,0,2:0:0:0:
265,118,300620,2,0,P|297:115|398:67,1,135,2|0,1:2|2:0,2:0:0:0:
389,73,300862,2,0,P|399:88|483:143,1,90,10|0,1:0|2:0,2:0:0:0:
391,358,301104,2,0,P|374:322|365:235,1,90,2|0,1:2|2:0,2:0:0:0:
265,118,301346,21,10,1:0:0:0:
396,195,301467,1,8,1:0:0:0:
256,270,301588,2,0,B|153:274|190:322|84:323,1,180,6|0,3:1|1:0,2:0:0:0:
163,275,301951,2,0,P|181:285|346:339,1,180,2|0,3:1|2:0,2:0:0:0:
493,344,302314,85,14,1:0:0:0:
401,261,302435,1,2,2:0:0:0:
400,333,302556,21,10,1:0:0:0:
461,219,302677,1,2,2:0:0:0:
512,268,302798,5,14,1:0:0:0:
335,323,302919,1,10,1:0:0:0:
170,236,303040,2,0,P|158:203|90:65,1,180,6|2,3:1|1:2,2:0:0:0:
113,301,303403,70,0,P|108:322|76:394,1,90,2|0,3:1|2:0,2:0:0:0:
47,258,303645,1,2,1:2:0:0:
246,195,303765,2,0,P|284:185|349:113,1,99.0000030212403,14|0,1:0|2:0,2:0:0:0:
449,38,304007,21,6,1:0:0:0:
367,70,304128,1,14,3:0:0:0:
437,154,304249,1,4,3:0:0:0:
291,86,304370,1,0,3:0:0:0:
435,232,304491,86,0,P|467:194|520:164,1,99.0000030212403,6|0,1:0|2:0,2:0:0:0:
255,286,304733,2,0,P|217:317|191:359,1,99.0000030212403,6|0,1:0|2:0,2:0:0:0:
0,144,304975,2,0,B|58:135|88:191|159:170,1,148.50000453186,6|0,1:0|2:0,2:0:0:0:
261,207,305217,22,0,P|291:169|284:0,2,198.000006042481,14|2|2,1:0|2:0|1:2,2:0:0:0:
140,281,305822,1,0,1:0:0:0:
258,188,305943,54,0,P|319:156|424:182,1,148.50000453186,6|0,3:1|2:0,2:0:0:0:
496,137,306185,2,0,P|478:196|445:242,1,99.0000030212403,10|0,1:0|1:0,2:0:0:0:
287,86,306427,2,0,P|304:39|333:0,1,99.0000030212403,10|0,1:0|1:0,1:0:0:0:
465,311,306669,102,0,P|427:299|368:230,1,103.500001974106,6|0,2:1|2:0,2:0:0:0:
209,72,306911,2,0,P|245:108|263:156,1,103.500001974106,6|0,2:0|2:0,2:0:0:0:
32,384,307153,2,0,P|31:307|79:248,1,155.250002961159,6|0,2:0|2:0,2:0:0:0:
8,134,307395,86,0,B|56:141|107:168|107:168|109:173|109:173|150:202|213:218,1,215.999993408203,6|0,3:1|2:0,2:0:0:0:
257,235,307757,53,12,3:0:0:0:
344,225,307878,5,12,3:0:0:0:
435,174,307999,21,12,3:0:0:0:
512,62,308120,5,14,3:1:0:0:
512,62,308362,2,2,L|502:115,1,40.4999987640381,4|0,2:0|2:0,2:0:0:0:
491,264,308604,101,10,1:2:0:0:
485,301,308665,1,10,1:2:0:0:
481,329,308725,1,10,1:2:0:0:
475,353,308786,1,10,1:2:0:0:
487,360,308846,85,6,1:0:0:0:
256,192,308907,12,4,313201,2:0:0:0:
