osu file format v14

[General]
AudioFilename: audio.mp3
AudioLeadIn: 0
PreviewTime: 26762
Countdown: 0
SampleSet: Soft
StackLeniency: 0.3
Mode: 0
LetterboxInBreaks: 0
WidescreenStoryboard: 0

[Editor]
DistanceSpacing: 0.8
BeatDivisor: 12
GridSize: 4
TimelineZoom: 2.1

[Metadata]
Title:Kuon Towa, Anata to
TitleUnicode:久遠永久、あなたと
Artist:Lilly
ArtistUnicode:リリィ
Creator:F D Flourite
Version:INORI
Source:大正メビウスライン 帝都備忘録
Tags:Fan Disk Taishou Mebius Mebiusline bl yaoi
BeatmapID:955524
BeatmapSetID:444777

[Difficulty]
HPDrainRate:6
CircleSize:4.5
OverallDifficulty:7.5
ApproachRate:8
SliderMultiplier:3
SliderTickRate:1

[Events]
//Background and Video events
0,0,"id=41011400.jpg",0,0
//Break Periods
2,23274,26012
//Storyboard Layer 0 (Background)
//Storyboard Layer 1 (Fail)
//Storyboard Layer 2 (Pass)
//Storyboard Layer 3 (Foreground)
//Storyboard Sound Samples

[TimingPoints]
9012,750,4,2,1,20,1,0
9012,-200,4,2,1,20,0,0
20012,-200,4,2,1,10,0,0
21012,-200,4,2,1,50,0,0
21137,-200,4,2,2,20,0,0
26762,-100,4,2,2,20,0,0
37512,-200,4,2,2,25,0,0
39012,-100,4,2,2,45,0,0
51012,-100,4,2,2,55,0,0
74262,-133.333333333333,4,2,2,55,0,0
75012,-100,4,2,2,65,0,1
102012,-100,4,2,2,65,0,0
104137,-100,4,2,2,5,0,0
105012,-100,4,2,2,35,0,0
110262,-133.333333333333,4,2,2,20,0,0
111012,-100,4,2,2,35,0,0
117012,-100,4,2,2,5,0,0

[Colours]
Combo1 : 164,100,206
Combo2 : 172,214,232
Combo3 : 100,159,225
Combo4 : 189,163,233

[HitObjects]
68,156,9012,6,0,L|87:156,1,18.75
226,82,9762,2,0,L|216:236,1,150,2|0,0:0|0:0,0:0:0:0:
281,294,11012,1,0,0:0:0:0:
362,255,11262,2,0,P|421:251|443:220,1,100,2|0,0:0|0:0,0:0:0:0:
457,102,12012,6,0,L|445:103,1,12.5
356,114,12262,1,0,0:0:0:0:
266,124,12512,1,2,0:0:0:0:
231,104,12637,2,0,L|232:91,2,12.5
137,178,13262,1,0,0:0:0:0:
131,268,13512,2,0,B|123:371,1,100
213,359,14262,2,0,B|262:355|262:355|315:371,1,100
431,360,15012,6,0,L|456:356,1,18.75
356,265,15762,2,0,P|345:221|366:162,1,100,2|0,0:0|0:0,0:0:0:0:
403,90,16512,1,2,0:0:0:0:
313,95,16762,1,0,0:0:0:0:
260,22,17012,1,0,0:0:0:0:
170,28,17262,2,0,B|162:142,1,100,2|0,0:0|0:0,0:0:0:0:
73,109,18012,6,0,L|80:128,1,12.5
103,195,18262,1,0,0:0:0:0:
191,211,18512,1,2,0:0:0:0:
250,144,18762,2,0,L|356:157,1,100,2|0,0:0|0:0,0:0:0:0:
389,154,19387,2,0,L|409:153,2,12.5
255,243,20012,5,0,0:0:0:0:
215,240,20137,2,0,L|195:239,2,12.5
321,272,21012,5,0,0:3:0:0:
256,192,21137,12,0,23074,0:0:0:0:
84,128,26762,5,0,0:0:0:0:
84,128,26887,1,0,0:0:0:0:
84,128,27012,2,0,L|187:135,1,100,4|0,0:0|0:0,0:0:0:0:
293,85,27512,1,2,0:0:0:0:
392,177,27762,2,0,L|289:184,1,100,0|2,0:0|0:0,0:0:0:0:
183,134,28262,1,2,0:0:0:0:
194,253,28512,5,4,0:0:0:0:
88,309,28762,1,0,0:0:0:0:
43,304,28887,1,0,0:0:0:0:
1,300,29012,1,0,0:0:0:0:
160,384,29262,1,0,0:0:0:0:
266,328,29512,1,0,0:0:0:0:
311,333,29637,1,0,0:0:0:0:
353,337,29762,1,2,0:0:0:0:
394,318,29887,1,0,0:0:0:0:
432,301,30012,6,0,L|419:195,1,100,4|0,0:0|0:0,0:0:0:0:
409,121,30387,1,0,0:0:0:0:
409,121,30512,1,0,0:0:0:0:
260,63,30762,2,0,L|209:73,1,50,2|0,0:0|0:0,0:0:0:0:
113,155,31012,2,0,L|177:168,1,50
253,224,31262,1,2,0:0:0:0:
397,293,31512,6,0,L|337:297,1,50
241,339,31762,2,0,L|181:343,1,50,2|0,0:0|0:0,0:0:0:0:
253,224,32012,1,0,0:0:0:0:
347,296,32262,1,2,0:0:0:0:
363,56,32762,1,2,0:0:0:0:
318,60,32887,1,0,0:0:0:0:
273,64,33012,6,0,L|172:72,1,100,4|0,0:0|0:0,0:0:0:0:
54,81,33512,1,0,0:0:0:0:
182,191,33762,2,0,L|281:183,1,100,0|2,0:0|0:0,0:0:0:0:
63,201,34262,1,2,0:0:0:0:
193,284,34512,6,0,B|209:332|209:332|197:380,1,100,4|0,0:0|0:0,0:0:0:0:
172,376,34887,1,0,0:0:0:0:
147,372,35012,1,0,0:0:0:0:
296,314,35262,1,0,0:0:0:0:
296,314,35512,1,0,0:0:0:0:
339,301,35637,1,0,0:0:0:0:
382,289,35762,1,2,0:0:0:0:
425,277,35887,1,0,0:0:0:0:
468,265,36012,6,0,L|466:211,1,50
364,133,36262,2,0,L|365:182,1,50
435,44,36512,1,2,0:0:0:0:
418,34,36762,6,0,L|358:36,1,50
224,110,37012,2,0,L|284:112,1,50
379,197,37262,1,2,0:0:0:0:
212,294,37512,6,0,P|147:311|84:231,1,150,4|0,0:0|0:0,0:0:0:0:
141,68,38762,1,0,0:0:0:0:
184,54,38887,1,0,0:0:0:0:
227,40,39012,6,0,L|337:49,1,100,4|0,0:0|0:0,0:0:0:0:
466,65,39512,1,2,0:0:0:0:
381,176,39762,1,0,0:0:0:0:
435,306,40012,1,2,0:0:0:0:
241,157,40262,1,2,0:0:0:0:
207,165,40387,1,0,0:0:0:0:
173,173,40512,6,0,L|73:164,1,100,2|0,0:0|0:0,0:0:0:0:
117,276,41012,1,0,0:0:0:0:
169,89,41262,1,2,0:0:0:0:
236,269,41512,1,0,0:0:0:0:
73,164,41762,2,0,L|126:169,1,50
268,154,42012,6,0,L|260:272,1,100,4|0,0:0|0:0,0:0:0:0:
292,328,42387,1,0,0:0:0:0:
292,328,42512,1,0,0:0:0:0:
365,209,42762,1,0,0:0:0:0:
181,287,43012,1,0,0:0:0:0:
378,359,43262,1,2,0:0:0:0:
181,287,43512,6,0,L|73:292,1,100
266,367,44012,1,2,0:0:0:0:
300,231,44262,1,2,0:0:0:0:
311,187,44387,1,0,0:0:0:0:
321,143,44512,1,0,0:0:0:0:
354,174,44637,1,0,0:0:0:0:
387,206,44762,1,0,0:0:0:0:
343,219,44887,1,0,0:0:0:0:
300,231,45012,6,0,B|252:240|252:240|186:218,1,100,4|0,0:0|0:0,0:0:0:0:
73,172,45512,1,2,0:0:0:0:
198,323,45762,6,0,B|151:306|151:306|105:254,1,100,0|2,0:0|0:0,0:0:0:0:
30,158,46262,1,2,0:0:0:0:
73,172,46387,1,0,0:0:0:0:
116,186,46512,6,0,L|116:83,1,100
117,268,47012,1,0,0:0:0:0:
275,359,47262,2,0,L|189:309,1,100,2|0,0:0|0:0,0:0:0:0:
187,225,47762,2,0,L|236:197,1,50
340,180,48012,6,0,P|334:155|338:131,1,50
409,82,48262,2,0,P|432:89|451:105,1,50
438,203,48512,1,2,0:0:0:0:
260,104,48762,6,0,P|241:86|218:77,1,50
140,114,49012,2,0,P|134:137|138:161,1,50
230,200,49262,1,2,0:0:0:0:
108,363,49512,6,0,L|208:365,1,100
290,306,49887,1,0,0:0:0:0:
290,306,50012,2,0,L|368:306,1,50,2|0,0:0|0:0,0:0:0:0:
426,358,50262,2,0,P|442:302|417:245,1,100,2|0,0:0|0:0,0:0:0:0:
256,192,50762,1,0,0:0:0:0:
348,74,51012,6,0,P|399:49|457:108,1,150,4|0,0:0|0:0,0:0:0:0:
443,181,51512,1,0,0:0:0:0:
255,94,51762,1,2,0:0:0:0:
48,180,52012,6,0,B|39:230|39:230|50:285,1,100
197,302,52512,2,0,P|217:225|186:139,1,150
149,93,53012,1,0,0:0:0:0:
48,278,53262,1,2,0:0:0:0:
298,255,53512,6,0,L|405:243,1,100
483,354,54012,2,0,P|513:290|479:217,1,150,4|0,0:0|0:0,0:0:0:0:
419,157,54512,1,0,0:0:0:0:
374,328,54762,1,2,0:0:0:0:
167,285,55012,6,0,P|87:291|64:311,1,100
202,371,55512,2,0,B|191:258|191:258|206:204,1,150
225,153,56012,1,0,0:0:0:0:
97,63,56262,1,2,0:0:0:0:
340,51,56512,6,0,L|443:46,1,100
464,196,57012,2,0,P|391:178|336:234,1,150,4|0,0:0|0:0,0:0:0:0:
412,256,57512,2,0,B|409:295|409:295|414:306|414:306|409:357,1,100,0|2,0:0|0:0,0:0:0:0:
131,318,58012,5,0,0:0:0:0:
230,207,58262,1,0,0:0:0:0:
55,57,58512,2,0,P|28:127|71:200,1,150
130,212,59012,2,0,L|239:206,1,100,0|2,0:0|0:0,0:0:0:0:
400,109,59512,6,0,L|388:225,1,100
439,338,60012,2,0,P|353:351|295:299,1,150,4|0,0:0|0:0,0:0:0:0:
310,207,60512,1,0,0:0:0:0:
483,117,60762,1,2,0:0:0:0:
208,55,61012,6,0,B|194:101|194:101|208:158,1,100
58,237,61512,2,0,B|112:234|112:234|151:246|151:246|222:243,1,150
206,151,62012,2,0,B|194:101|194:101|208:55,1,100,0|2,0:0|0:0,0:0:0:0:
366,24,62512,5,0,0:0:0:0:
465,150,62762,1,0,0:0:0:0:
450,187,62887,1,0,0:0:0:0:
435,224,63012,2,0,L|451:378,1,150,4|0,0:0|0:0,0:0:0:0:
345,379,63512,2,0,P|334:332|357:289,1,100,0|2,0:0|0:0,0:0:0:0:
206,238,64012,5,0,0:0:0:0:
66,381,64262,1,0,0:0:0:0:
0,192,64512,2,0,B|70:174|70:174|152:213,1,150
206,238,65012,2,0,L|218:136,1,100,0|2,0:0|0:0,0:0:0:0:
397,53,65512,6,0,P|418:113|412:155,1,100
512,233,66012,2,0,B|416:258|416:258|359:242,1,150,4|0,0:0|0:0,0:0:0:0:
294,218,66512,1,0,0:0:0:0:
397,53,66762,1,2,0:0:0:0:
168,78,67012,6,0,L|173:190,1,100
62,270,67512,2,0,B|142:245|119:300|220:270,1,150
172,177,68012,1,0,0:0:0:0:
89,365,68262,1,2,0:0:0:0:
321,343,68512,6,0,L|439:331,1,100
494,189,69012,2,0,P|425:203|371:133,1,150,4|0,0:0|0:0,0:0:0:0:
447,131,69512,1,0,0:0:0:0:
305,244,69762,1,2,0:0:0:0:
167,117,70012,6,0,B|159:64|159:64|168:16,1,100
36,200,70512,2,0,B|101:235|101:235|185:219,1,150
253,200,71012,1,0,0:0:0:0:
167,18,71262,1,2,0:0:0:0:
403,62,71512,6,0,P|419:120|402:163,1,100,2|0,0:0|0:0,0:0:0:0:
371,310,72012,2,0,P|433:338|409:284,1,150,4|0,0:0|0:0,0:0:0:0:
364,227,72512,2,0,L|263:229,1,100,0|2,0:0|0:0,0:0:0:0:
155,348,73012,5,2,0:0:0:0:
47,229,73262,1,0,0:0:0:0:
211,115,73512,1,0,0:0:0:0:
147,240,73762,1,0,0:0:0:0:
149,269,73887,1,0,0:0:0:0:
151,298,74012,2,0,L|155:352,1,50,2|0,0:0|0:0,0:0:0:0:
331,262,74262,6,0,P|402:254|425:187,1,150.000005722046,2|0,0:0|0:0,0:0:0:0:
300,51,75012,6,0,L|292:154,1,100,4|0,0:0|0:0,0:0:0:0:
278,310,75512,1,0,0:0:0:0:
425,187,75762,1,2,0:0:0:0:
153,157,76012,1,0,0:0:0:0:
278,310,76262,1,0,0:0:0:0:
351,60,76512,5,0,0:0:0:0:
425,187,76762,1,2,0:0:0:0:
443,218,76887,1,0,0:0:0:0:
278,310,77137,1,0,0:0:0:0:
267,344,77262,1,2,0:0:0:0:
153,157,77512,1,0,0:0:0:0:
83,342,77762,1,0,0:0:0:0:
0,100,78012,6,0,L|122:107,1,100
153,157,78387,1,0,0:0:0:0:
169,176,78512,2,0,L|164:235,1,50
198,76,78762,1,2,0:0:0:0:
341,145,79012,1,0,0:0:0:0:
461,38,79262,1,0,0:0:0:0:
341,145,79512,6,0,P|340:227|378:256,1,100
399,287,79887,1,0,0:0:0:0:
454,185,80137,1,0,0:0:0:0:
454,185,80262,1,2,0:0:0:0:
225,191,80512,2,0,L|118:194,1,100
58,39,81012,5,4,0:0:0:0:
0,199,81262,1,0,0:0:0:0:
69,354,81512,1,0,0:0:0:0:
231,206,81762,2,0,P|317:182|367:272,1,200,2|0,0:0|0:0,0:0:0:0:
483,347,82512,6,0,L|472:232,1,100
403,152,82887,1,0,0:0:0:0:
403,152,83012,2,0,L|397:202,1,50
291,257,83262,1,2,0:0:0:0:
510,142,83512,1,2,0:0:0:0:
301,10,83762,1,2,0:0:0:0:
95,133,84012,6,0,L|209:128,1,100
10,50,84512,1,0,0:0:0:0:
32,209,84762,1,2,0:0:0:0:
32,209,85012,1,0,0:0:0:0:
36,248,85137,1,0,0:0:0:0:
40,287,85262,1,2,0:0:0:0:
227,375,85512,6,0,L|232:264,1,100
269,204,85887,1,2,0:0:0:0:
386,284,86137,1,0,0:0:0:0:
404,264,86262,2,0,P|407:220|400:202,1,50,2|0,0:0|0:0,0:0:0:0:
341,135,86512,2,0,P|304:110|285:107,1,50,2|0,0:0|0:0,0:0:0:0:
197,125,86762,2,0,P|157:144|145:159,1,50,2|0,0:0|0:0,0:0:0:0:
103,260,87012,6,0,L|224:257,1,100,4|0,0:0|0:0,0:0:0:0:
284,256,87387,1,0,0:0:0:0:
284,256,87512,1,0,0:0:0:0:
197,125,87762,1,2,0:0:0:0:
171,334,88012,1,0,0:0:0:0:
366,252,88262,1,0,0:0:0:0:
197,125,88512,5,0,0:0:0:0:
197,125,88762,1,0,0:0:0:0:
160,108,88887,1,0,0:0:0:0:
123,91,89012,1,0,0:0:0:0:
158,72,89137,1,0,0:0:0:0:
193,54,89262,1,2,0:0:0:0:
343,0,89512,2,0,L|336:113,1,100
478,172,90012,6,0,P|419:166|378:209,1,100
331,260,90387,1,0,0:0:0:0:
331,260,90512,1,0,0:0:0:0:
478,172,90762,1,2,0:0:0:0:
262,96,91012,1,0,0:0:0:0:
358,325,91262,1,0,0:0:0:0:
196,246,91512,6,0,P|133:243|93:291,1,100,2|0,0:0|0:0,0:0:0:0:
164,317,91887,1,0,0:0:0:0:
177,333,92012,2,0,L|170:395,1,50
28,283,92262,1,2,0:0:0:0:
157,132,92512,1,0,0:0:0:0:
261,303,92762,1,0,0:0:0:0:
92,206,93012,6,0,B|50:207|50:207|35:203|35:203|-9:204,1,100,4|0,0:0|0:0,0:0:0:0:
208,218,93512,1,0,0:0:0:0:
208,218,93762,2,0,P|280:229|343:127,1,200,2|0,0:0|0:0,0:0:0:0:
256,47,94512,6,0,P|253:96|258:146,1,100
208,218,94887,1,0,0:0:0:0:
217,249,95012,2,0,P|219:286|215:300,1,50
110,188,95262,1,2,0:0:0:0:
343,133,95512,1,2,0:0:0:0:
274,362,95762,1,2,0:0:0:0:
125,299,96012,6,0,P|70:301|23:301,1,100
54,169,96387,1,0,0:0:0:0:
54,169,96512,2,0,L|60:225,1,50
79,382,96762,1,2,0:0:0:0:
159,203,97012,1,0,0:0:0:0:
274,362,97262,2,0,L|343:357,1,50
413,371,97512,6,0,P|390:315|412:255,1,100
454,214,97887,1,0,0:0:0:0:
469,231,98012,2,0,P|481:269|477:288,1,50,2|0,0:0|0:0,0:0:0:0:
339,211,98262,2,0,P|339:186|349:163,1,50
442,100,98512,1,2,0:0:0:0:
397,277,98762,1,2,0:0:0:0:
224,211,99012,6,0,L|116:215,1,100
32,320,99387,2,0,P|105:310|126:274,1,100
56,247,99762,1,2,0:0:0:0:
285,318,100012,1,0,0:0:0:0:
232,85,100262,1,0,0:0:0:0:
156,272,100512,6,0,L|160:380,1,100
247,332,100887,2,0,L|244:233,1,100
332,194,101262,1,2,0:0:0:0:
334,244,101387,1,0,0:0:0:0:
335,293,101512,1,0,0:0:0:0:
461,102,101762,1,2,0:0:0:0:
500,328,102012,5,0,0:0:0:0:
256,192,102137,12,0,104262,0:0:0:0:
97,117,105012,5,4,0:0:0:0:
268,189,105262,1,0,0:0:0:0:
97,257,105512,1,0,0:0:0:0:
213,113,105762,1,2,0:0:0:0:
322,263,106012,1,0,0:0:0:0:
439,117,106262,1,0,0:0:0:0:
493,321,106512,6,0,L|380:324,1,100,4|0,0:0|0:0,0:0:0:0:
322,261,106887,1,0,0:0:0:0:
322,261,107012,1,0,0:0:0:0:
497,66,107262,2,0,P|514:126|499:164,1,100,2|0,0:0|0:0,0:0:0:0:
439,117,107637,1,0,0:0:0:0:
439,117,107762,1,0,0:0:0:0:
239,75,108012,6,0,P|199:75|178:84,1,50,4|0,0:0|0:0,0:0:0:0:
149,172,108262,2,0,P|169:206|187:220,1,50
279,202,108512,2,0,P|298:167|301:144,1,50
361,254,108762,6,0,P|381:288|399:302,1,50,2|0,0:0|0:0,0:0:0:0:
500,259,109012,1,0,0:0:0:0:
426,156,109262,1,0,0:0:0:0:
270,293,109512,1,4,0:0:0:0:
272,332,109637,1,0,0:0:0:0:
275,371,109762,1,0,0:0:0:0:
115,280,110012,1,0,0:0:0:0:
273,186,110262,6,0,P|283:120|243:43,1,150.000005722046,2|0,0:0|0:0,0:0:0:0:
59,127,111012,6,0,L|175:133,1,100,4|0,0:0|0:0,0:0:0:0:
351,65,111512,1,0,0:0:0:0:
450,194,111762,2,0,L|334:200,1,100,2|0,0:0|0:0,0:0:0:0:
158,132,112262,1,0,0:0:0:0:
196,332,112512,5,4,0:0:0:0:
165,171,112762,1,0,0:0:0:0:
158,132,112887,1,0,0:0:0:0:
151,93,113012,1,0,0:0:0:0:
100,264,113262,1,2,0:0:0:0:
261,233,113512,1,0,0:0:0:0:
300,226,113637,1,0,0:0:0:0:
339,219,113762,1,0,0:0:0:0:
442,49,114012,5,4,0:0:0:0:
435,88,114137,1,0,0:0:0:0:
438,127,114262,2,0,P|445:159|459:179,1,50
349,87,114512,2,0,P|324:109|314:131,1,50
419,267,114762,2,0,P|450:276|474:274,1,50,2|0,0:0|0:0,0:0:0:0:
339,219,115012,1,0,0:0:0:0:
101,253,115262,1,0,0:0:0:0:
190,29,115512,5,4,0:0:0:0:
256,192,115637,12,0,120012,0:0:0:0:
