osu file format v14

[General]
AudioFilename: audio.mp3
AudioLeadIn: 0
PreviewTime: 26762
Countdown: 0
SampleSet: Soft
StackLeniency: 0.3
Mode: 0
LetterboxInBreaks: 0
WidescreenStoryboard: 0

[Editor]
DistanceSpacing: 1.4
BeatDivisor: 6
GridSize: 4
TimelineZoom: 2.1

[Metadata]
Title:Kuon Towa, Anata to
TitleUnicode:久遠永久、あなたと
Artist:Lilly
ArtistUnicode:リリィ
Creator:F D Flourite
Version:Hard
Source:大正メビウスライン 帝都備忘録
Tags:Fan Disk Taishou Mebius Mebiusline bl yaoi
BeatmapID:964057
BeatmapSetID:444777

[Difficulty]
HPDrainRate:5
CircleSize:4
OverallDifficulty:6
ApproachRate:6.5
SliderMultiplier:2.6
SliderTickRate:1

[Events]
//Background and Video events
0,0,"id=41011400.jpg",0,0
//Break Periods
2,23212,25712
//Storyboard Layer 0 (Background)
//Storyboard Layer 1 (Fail)
//Storyboard Layer 2 (Pass)
//Storyboard Layer 3 (Foreground)
//Storyboard Sound Samples

[TimingPoints]
9012,750,4,2,1,20,1,0
9012,-200,4,2,1,20,0,0
21012,-200,4,2,1,50,0,0
21137,-200,4,2,2,20,0,0
26762,-100,4,2,2,20,0,0
37512,-200,4,2,2,20,0,0
39012,-100,4,2,2,40,0,0
51012,-100,4,2,2,60,0,0
75012,-100,4,2,2,60,0,1
102012,-100,4,2,2,60,0,0
104137,-100,4,2,2,5,0,0
105012,-100,4,2,2,35,0,0
110262,-133.333333333333,4,2,2,20,0,0
111012,-100,4,2,2,35,0,0
117012,-100,4,2,2,5,0,0

[Colours]
Combo1 : 164,100,206
Combo2 : 172,214,232
Combo3 : 100,159,225
Combo4 : 189,163,233

[HitObjects]
251,196,9105,6,0,L|256:82,1,113.75,0|2,0:0|0:0,0:0:0:0:
345,326,10512,1,0,0:0:0:0:
345,326,11012,1,0,0:0:0:0:
265,358,11262,2,0,L|170:362,1,86.6666666666667,2|0,0:0|0:0,0:0:0:0:
96,291,12012,5,0,0:0:0:0:
105,205,12262,1,0,0:0:0:0:
114,119,12512,1,2,0:0:0:0:
185,169,12762,2,0,P|237:173|272:144,1,86.6666666666667,0|0,0:0|0:0,0:0:0:0:
329,97,13512,5,0,0:0:0:0:
429,239,14012,1,0,0:0:0:0:
359,290,14262,2,0,L|365:380,1,86.6666666666667,0|0,0:0|0:0,0:0:0:0:
263,294,15012,6,0,L|272:197,1,86.6666666666667,0|0,0:0|0:0,0:0:0:0:
317,124,15762,2,0,L|216:132,1,86.6666666666667,2|0,0:0|0:0,0:0:0:0:
148,100,16512,1,2,0:0:0:0:
55,173,16762,2,0,L|99:171,1,43.3333333333333,0|0,0:0|0:0,0:0:0:0:
154,237,17262,2,0,B|164:277|164:277|152:328,1,86.6666666666667,2|0,0:0|0:0,0:0:0:0:
72,352,18012,5,0,0:0:0:0:
153,321,18262,1,0,0:0:0:0:
234,349,18512,1,2,0:0:0:0:
292,284,18762,2,0,B|332:290|332:290|365:280|365:280|350:337,1,130,2|0,0:0|0:0,0:0:0:0:
256,192,21012,12,0,23012,0:0:0:0:
141,53,26762,5,2,0:0:0:0:
141,53,26887,1,0,0:0:0:0:
141,53,27012,2,0,L|143:145,1,86.6666666666667,4|0,0:0|0:0,0:0:0:0:
77,222,27512,1,2,0:0:0:0:
241,165,27762,2,0,L|337:171,1,86.6666666666667,0|2,0:0|0:0,0:0:0:0:
417,118,28262,1,2,0:0:0:0:
482,198,28512,6,0,P|506:278|458:357,1,173.333333333333,4|0,0:0|0:0,0:0:0:0:
367,313,29262,1,2,0:0:0:0:
273,359,29512,1,0,0:0:0:0:
182,307,29762,1,2,0:0:0:0:
182,307,29887,1,0,0:0:0:0:
182,307,30012,6,0,L|81:311,1,86.6666666666667,4|0,0:0|0:0,0:0:0:0:
3,360,30512,1,0,0:0:0:0:
67,207,30762,2,0,L|244:214,1,173.333333333333,2|0,0:0|0:0,0:0:0:0:
322,278,31512,6,0,P|342:197|318:146,1,130,2|0,0:0|0:0,0:0:0:0:
293,115,32012,1,2,0:0:0:0:
160,197,32262,1,0,0:0:0:0:
8,45,32762,1,2,0:0:0:0:
8,45,32887,1,0,0:0:0:0:
8,45,33012,6,0,L|115:51,1,86.6666666666667,4|0,0:0|0:0,0:0:0:0:
193,13,33512,1,2,0:0:0:0:
104,146,33762,1,0,0:0:0:0:
205,176,34012,1,2,0:0:0:0:
94,49,34262,1,2,0:0:0:0:
257,91,34512,6,0,L|366:82,1,86.6666666666667,4|0,0:0|0:0,0:0:0:0:
360,97,34887,1,0,0:0:0:0:
376,111,35012,1,0,0:0:0:0:
452,181,35262,2,0,P|397:249|304:204,1,173.333333333333,2|2,0:0|0:0,0:0:0:0:
305,216,35887,1,0,0:0:0:0:
292,198,36012,6,0,L|289:300,1,86.6666666666667,0|2,0:0|0:0,0:0:0:0:
344,372,36512,1,2,0:0:0:0:
240,372,36762,2,0,P|189:366|139:379,1,86.6666666666667,0|2,0:0|0:0,0:0:0:0:
66,318,37262,1,2,0:0:0:0:
126,233,37512,6,0,B|123:186|123:186|137:158|137:158|133:99,1,130,4|0,0:0|0:0,0:0:0:0:
302,197,38762,1,2,0:0:0:0:
324,202,38887,1,0,0:0:0:0:
346,207,39012,6,0,L|443:211,1,86.6666666666667,4|0,0:0|0:0,0:0:0:0:
493,126,39512,1,2,0:0:0:0:
385,26,39762,2,0,L|389:124,1,86.6666666666667,0|2,0:0|0:0,0:0:0:0:
346,207,40262,1,2,0:0:0:0:
336,227,40387,1,0,0:0:0:0:
325,247,40512,6,0,L|330:337,1,86.6666666666667,2|0,0:0|0:0,0:0:0:0:
234,374,41012,1,0,0:0:0:0:
132,352,41262,2,0,P|121:309|132:264,1,86.6666666666667,2|0,0:0|0:0,0:0:0:0:
233,271,41762,1,2,0:0:0:0:
239,250,41887,1,0,0:0:0:0:
245,229,42012,6,0,L|239:125,1,86.6666666666667,4|0,0:0|0:0,0:0:0:0:
169,75,42512,1,0,0:0:0:0:
150,177,42762,1,2,0:0:0:0:
245,229,43012,1,0,0:0:0:0:
321,157,43262,1,0,0:0:0:0:
276,63,43512,6,0,L|372:60,1,86.6666666666667,2|0,0:0|0:0,0:0:0:0:
459,23,44012,1,2,0:0:0:0:
420,138,44262,2,0,L|424:188,1,43.3333333333333,2|0,0:0|0:0,0:0:0:0:
415,198,44512,2,0,L|419:248,1,43.3333333333333,2|0,0:0|0:0,0:0:0:0:
410,258,44762,2,0,L|414:308,1,43.3333333333333,2|0,0:0|0:0,0:0:0:0:
430,326,45012,6,0,P|382:352|332:330,1,86.6666666666667,4|0,0:0|0:0,0:0:0:0:
251,320,45512,1,2,0:0:0:0:
147,333,45762,2,0,L|45:340,1,86.6666666666667,0|2,0:0|0:0,0:0:0:0:
22,241,46262,1,2,0:0:0:0:
22,241,46387,1,0,0:0:0:0:
22,241,46512,6,0,L|121:246,1,86.6666666666667,2|0,0:0|0:0,0:0:0:0:
212,237,47012,1,0,0:0:0:0:
212,237,47262,2,0,P|225:187|212:145,1,86.6666666666667,2|0,0:0|0:0,0:0:0:0:
153,71,47762,1,2,0:0:0:0:
153,71,47887,1,0,0:0:0:0:
153,71,48012,6,0,L|257:77,1,86.6666666666667
331,26,48512,1,2,0:0:0:0:
417,120,48762,2,0,L|313:126,1,86.6666666666667
239,75,49262,1,2,0:0:0:0:
244,178,49512,2,0,L|251:343,1,130,0|2,0:0|0:0,0:0:0:0:
251,342,50012,1,0,0:0:0:0:
156,236,50262,1,2,0:0:0:0:
328,262,50512,6,0,L|423:260,1,86.6666666666667,0|2,0:0|0:0,0:0:0:0:
509,215,51012,2,0,P|493:164|410:144,1,130,4|0,0:0|0:0,0:0:0:0:
391,138,51512,1,2,0:0:0:0:
328,262,51762,1,0,0:0:0:0:
198,215,52012,6,0,L|106:218,1,86.6666666666667
29,121,52512,2,0,P|77:82|136:102,1,130,2|0,0:0|0:0,0:0:0:0:
157,130,53012,1,2,0:0:0:0:
254,30,53262,1,0,0:0:0:0:
303,159,53512,6,0,P|349:166|396:140,1,86.6666666666667,0|2,0:0|0:0,0:0:0:0:
445,66,54012,2,0,B|403:139|485:148|428:246,1,173.333333333333,4|2,0:0|0:0,0:0:0:0:
346,288,54762,1,0,0:0:0:0:
242,291,55012,6,0,L|138:286,1,86.6666666666667,0|2,0:0|0:0,0:0:0:0:
60,329,55512,2,0,L|68:184,1,130
70,164,56012,1,2,0:0:0:0:
192,182,56262,1,0,0:0:0:0:
300,126,56512,6,0,P|348:121|388:149,1,86.6666666666667,0|2,0:0|0:0,0:0:0:0:
473,186,57012,2,0,P|446:260|369:241,1,173.333333333333,4|0,0:0|0:0,0:0:0:0:
266,229,57762,1,2,0:0:0:0:
169,266,58012,6,0,P|161:321|166:357,1,86.6666666666667,0|0,0:0|0:0,0:0:0:0:
62,275,58512,2,0,P|66:217|11:151,1,130,2|0,0:0|0:0,0:0:0:0:
6,132,59012,2,0,P|82:145|119:137,1,86.6666666666667,2|0,0:0|0:0,0:0:0:0:
268,108,59512,6,0,P|338:111|369:124,1,86.6666666666667,2|0,0:0|0:0,0:0:0:0:
431,185,60012,2,0,B|402:229|402:229|428:353,1,173.333333333333,4|0,0:0|0:0,0:0:0:0:
327,379,60762,1,2,0:0:0:0:
225,356,61012,6,0,P|168:353|115:377,1,86.6666666666667,2|0,0:0|0:0,0:0:0:0:
44,228,61512,2,0,P|115:275|156:256,1,130,2|0,0:0|0:0,0:0:0:0:
169,233,62012,2,0,P|183:184|179:140,1,86.6666666666667
339,86,62512,6,0,P|325:135|329:179,1,86.6666666666667
418,219,63012,2,0,B|476:250|476:250|420:280,1,130,4|0,0:0|0:0,0:0:0:0:
388,293,63512,1,2,0:0:0:0:
288,321,63762,1,0,0:0:0:0:
189,352,64012,5,0,0:0:0:0:
150,255,64262,1,2,0:0:0:0:
63,312,64512,2,0,B|45:255|45:255|67:170,1,130,2|0,0:0|0:0,0:0:0:0:
73,154,65012,1,2,0:0:0:0:
176,155,65262,1,0,0:0:0:0:
273,118,65512,6,0,P|329:124|375:87,1,86.6666666666667,0|2,0:0|0:0,0:0:0:0:
431,40,66012,2,0,P|402:129|458:192,1,173.333333333333,4|0,0:0|0:0,0:0:0:0:
363,277,66762,1,0,0:0:0:0:
255,224,67012,6,0,P|197:219|156:245,1,86.6666666666667,0|2,0:0|0:0,0:0:0:0:
86,288,67512,2,0,P|64:207|101:158,1,130,0|0,0:0|0:0,0:0:0:0:
112,149,68012,1,2,0:0:0:0:
210,116,68262,1,0,0:0:0:0:
309,84,68512,6,0,L|409:91,1,86.6666666666667,0|2,0:0|0:0,0:0:0:0:
449,179,69012,2,0,B|470:242|470:242|445:315,1,130,4|0,0:0|0:0,0:0:0:0:
435,334,69512,1,2,0:0:0:0:
337,263,69762,1,0,0:0:0:0:
235,329,70012,6,0,L|145:332,1,86.6666666666667,0|2,0:0|0:0,0:0:0:0:
59,214,70512,2,0,L|203:223,1,130,2|0,0:0|0:0,0:0:0:0:
224,224,71012,1,2,0:0:0:0:
205,120,71262,1,0,0:0:0:0:
341,178,71512,6,0,P|332:220|342:261,1,86.6666666666667,2|2,0:0|0:0,0:0:0:0:
447,300,72012,2,0,L|272:318,1,173.333333333333,4|0,0:0|0:0,0:0:0:0:
174,348,72762,1,0,0:0:0:0:
103,271,73012,5,2,0:0:0:0:
195,219,73262,1,0,0:0:0:0:
195,219,73512,2,0,P|205:160|105:126,1,173.333333333333
103,271,74262,2,0,L|311:261,1,173.333333333333,2|0,0:0|0:0,0:0:0:0:
437,312,75012,6,0,P|447:240|429:206,1,86.6666666666667,4|0,0:0|0:0,0:0:0:0:
350,150,75512,1,0,0:0:0:0:
230,173,75762,2,0,B|144:184|144:184|69:130,1,173.333333333333,2|0,0:0|0:0,0:0:0:0:
72,256,76512,6,0,P|55:310|144:368,1,173.333333333333,0|0,0:0|0:0,0:0:0:0:
244,308,77262,2,0,L|336:304,1,86.6666666666667,2|0,0:0|0:0,0:0:0:0:
439,360,77762,1,0,0:0:0:0:
495,252,78012,6,0,P|445:221|395:235,1,86.6666666666667
297,228,78512,1,0,0:0:0:0:
178,253,78762,2,0,L|189:145,1,86.6666666666667,2|0,0:0|0:0,0:0:0:0:
297,228,79262,1,0,0:0:0:0:
144,264,79512,6,0,P|119:324|228:346,1,173.333333333333,0|0,0:0|0:0,0:0:0:0:
316,344,80262,1,2,0:0:0:0:
437,358,80512,2,0,L|445:269,1,86.6666666666667
333,158,81012,6,0,L|339:271,1,86.6666666666667,4|0,0:0|0:0,0:0:0:0:
460,240,81512,1,0,0:0:0:0:
414,113,81762,2,0,P|357:67|259:97,1,173.333333333333,2|0,0:0|0:0,0:0:0:0:
161,151,82512,6,0,P|72:164|15:126,1,130,0|0,0:0|0:0,0:0:0:0:
104,46,83137,1,0,0:0:0:0:
104,46,83262,2,0,P|182:34|210:48,2,86.6666666666667,2|2|2,0:0|0:0|0:0,0:0:0:0:
79,164,84012,6,0,L|73:265,1,86.6666666666667,0|0,0:0|0:0,0:0:0:0:
169,325,84512,1,0,0:0:0:0:
274,264,84762,2,0,P|390:268|430:335,1,173.333333333333,2|0,0:0|0:0,0:0:0:0:
491,206,85512,6,0,P|428:144|460:60,1,173.333333333333,0|0,0:0|0:0,0:0:0:0:
329,95,86262,2,0,L|281:99,1,43.3333333333333,2|0,0:0|0:0,0:0:0:0:
263,86,86512,2,0,L|215:90,1,43.3333333333333,2|0,0:0|0:0,0:0:0:0:
197,77,86762,2,0,L|149:81,1,43.3333333333333,2|0,0:0|0:0,0:0:0:0:
131,68,87012,6,0,P|157:178|199:175,1,173.333333333333,4|0,0:0|0:0,0:0:0:0:
313,178,87762,1,2,0:0:0:0:
358,290,88012,1,0,0:0:0:0:
260,362,88262,1,0,0:0:0:0:
160,293,88512,6,0,B|79:310|79:310|0:267,1,173.333333333333,0|0,0:0|0:0,0:0:0:0:
70,168,89263,2,0,L|156:172,1,86.6666666666667,2|0,0:0|0:0,0:0:0:0:
267,220,89762,1,0,0:0:0:0:
341,124,90012,6,0,P|381:179|371:286,1,173.333333333333,0|0,0:0|0:0,0:0:0:0:
269,341,90762,2,0,B|172:313|198:373|81:344,1,173.333333333333,2|0,0:0|0:0,0:0:0:0:
140,233,91512,6,0,P|93:158|148:92,1,173.333333333333
250,50,92262,1,2,0:0:0:0:
318,149,92512,2,0,L|404:142,1,86.6666666666667
216,144,93012,6,0,L|225:253,1,86.6666666666667,4|0,0:0|0:0,0:0:0:0:
297,326,93512,1,2,0:0:0:0:
144,320,93762,2,0,P|80:302|93:189,1,173.333333333333,2|0,0:0|0:0,0:0:0:0:
169,133,94512,6,0,B|222:138|222:138|245:153|245:153|305:158,1,130,0|0,0:0|0:0,0:0:0:0:
405,108,95137,1,0,0:0:0:0:
405,108,95262,2,0,P|417:51|403:16,2,86.6666666666667,2|2|0,0:0|0:0|0:0,0:0:0:0:
394,220,96012,6,0,P|377:285|386:318,1,86.6666666666667,0|0,0:0|0:0,0:0:0:0:
499,278,96512,1,0,0:0:0:0:
457,164,96762,2,0,L|332:175,1,86.6666666666667,2|0,0:0|0:0,0:0:0:0:
336,175,97137,1,0,0:0:0:0:
336,175,97262,1,2,0:0:0:0:
223,130,97512,6,0,P|213:189|230:230,1,86.6666666666667,0|0,0:0|0:0,0:0:0:0:
279,319,98012,1,2,0:0:0:0:
157,318,98262,1,0,0:0:0:0:
157,318,98387,1,0,0:0:0:0:
157,318,98512,2,0,L|59:322,1,86.6666666666667,2|2,0:0|0:0,0:0:0:0:
11,177,99012,6,0,L|188:192,1,173.333333333333,0|0,0:0|0:0,0:0:0:0:
286,125,99762,2,0,B|296:81|296:81|283:38,2,86.6666666666667,2|0|0,0:0|0:0|0:0,0:0:0:0:
291,246,100512,2,0,P|276:302|338:356,1,130,0|0,0:0|0:0,0:0:0:0:
446,220,101262,1,2,0:0:0:0:
433,187,101387,1,0,0:0:0:0:
420,154,101512,6,0,L|409:255,1,86.6666666666667,0|2,0:0|0:0,0:0:0:0:
319,352,102012,1,0,0:0:0:0:
256,192,102137,12,0,104262,0:0:0:0:
143,63,105012,6,0,L|137:158,1,86.6666666666667,4|0,0:0|0:0,0:0:0:0:
254,182,105512,1,0,0:0:0:0:
116,168,105762,2,0,L|123:260,1,86.6666666666667,2|0,0:0|0:0,0:0:0:0:
240,286,106262,1,0,0:0:0:0:
356,252,106512,6,0,P|446:261|488:185,1,173.333333333333,4|0,0:0|0:0,0:0:0:0:
441,86,107262,2,0,P|351:77|309:153,1,173.333333333333,2|0,0:0|0:0,0:0:0:0:
195,133,108012,5,4,0:0:0:0:
195,133,108137,1,0,0:0:0:0:
195,133,108262,2,0,L|202:243,1,86.6666666666667,0|0,0:0|0:0,0:0:0:0:
104,292,108762,5,2,0:0:0:0:
104,292,108887,1,0,0:0:0:0:
104,292,109012,2,0,L|111:182,1,86.6666666666667
14,147,109512,5,4,0:0:0:0:
14,147,109637,1,0,0:0:0:0:
14,147,109762,2,0,L|21:257,1,86.6666666666667,0|0,0:0|0:0,0:0:0:0:
53,353,110262,6,0,P|103:372|173:329,1,130.000004959107,2|0,0:0|0:0,0:0:0:0:
320,268,111012,6,0,L|421:276,1,86.6666666666667,4|0,0:0|0:0,0:0:0:0:
493,189,111512,1,0,0:0:0:0:
384,135,111762,2,0,L|281:146,1,86.6666666666667,2|0,0:0|0:0,0:0:0:0:
193,80,112262,1,0,0:0:0:0:
81,127,112512,6,0,P|74:229|155:240,1,173.333333333333,4|0,0:0|0:0,0:0:0:0:
247,238,113262,2,0,P|314:281|292:359,1,173.333333333333,2|0,0:0|0:0,0:0:0:0:
171,344,114012,6,0,L|128:350,1,43.3333333333333,4|0,0:0|0:0,0:0:0:0:
109,339,114262,2,0,L|66:345,1,43.3333333333333,0|0,0:0|0:0,0:0:0:0:
47,334,114512,1,0,0:0:0:0:
100,224,114762,6,0,L|94:181,1,43.3333333333333,2|0,0:0|0:0,0:0:0:0:
105,162,115012,2,0,L|99:119,1,43.3333333333333,0|0,0:0|0:0,0:0:0:0:
110,100,115262,1,0,0:0:0:0:
222,51,115512,5,4,0:0:0:0:
256,192,115637,12,0,120012,0:0:0:0:
