osu file format v14

[General]
AudioFilename: Arcadia.mp3
AudioLeadIn: 0
PreviewTime: 4
Countdown: 1
SampleSet: Soft
StackLeniency: 0.7
Mode: 0
LetterboxInBreaks: 0
WidescreenStoryboard: 1

[Editor]
DistanceSpacing: 0.5
BeatDivisor: 4
GridSize: 8
TimelineZoom: 2.2

[Metadata]
Title:Arcadia
TitleUnicode:Arcadia
Artist:Lilith
ArtistUnicode:Lilith
Creator:Kayano
Version:8
Source:一人之下
Tags:
BeatmapID:4546584
BeatmapSetID:526618

[Difficulty]
HPDrainRate:6
CircleSize:4
OverallDifficulty:9.8
ApproachRate:10
SliderMultiplier:1.6
SliderTickRate:1

[Events]
//Background and Video events
0,0,"BG.jpg",0,0
//Break Periods
//Storyboard Layer 0 (Background)
//Storyboard Layer 1 (Fail)
//Storyboard Layer 2 (Pass)
//Storyboard Layer 3 (Foreground)
//Storyboard Layer 4 (Overlay)
//Storyboard Sound Samples

[TimingPoints]
4,249.791840133222,4,2,2,90,1,0
4000,249.791840133222,4,2,2,80,1,0
4000,-200,4,2,2,80,0,0
4874,-100,4,2,2,80,0,0
5498,-133.333333333333,4,2,2,80,0,0
5998,-200,4,2,2,80,0,0
7247,-100,4,2,2,80,0,0
7372,-100,4,2,2,20,0,0
7497,-200,4,2,2,80,0,0
9371,-133.333333333333,4,2,2,80,0,0
10745,-100,4,2,2,80,0,0
11993,-100,4,2,1,80,0,0
59828,-100,4,2,1,80,0,1
75815,-100,4,2,1,80,0,0
83933,-100,4,2,2,50,0,0
87930,-100,4,2,2,5,0,0

[HitObjects]
256,192,4,12,0,2002,0:0:0:0:
180,244,3001,6,0,L|190:328,1,80,0|8,3:0|3:2,3:0:0:0:
392,348,3376,1,0,3:0:0:0:
260,280,3501,1,8,3:2:0:0:
262,292,3563,1,8,3:2:0:0:
264,304,3625,1,0,3:0:0:0:
266,316,3688,1,0,3:0:0:0:
268,328,3750,1,8,3:2:0:0:
473,183,4000,6,0,P|384:186|338:124,1,160,4|2,0:1|0:3,0:0:0:0:
337,117,4750,1,0,0:0:0:0:
423,12,4874,1,0,0:0:0:0:
423,12,4936,1,0,0:0:0:0:
423,12,4999,2,0,L|433:96,1,80,8|0,0:0|0:0,0:0:0:0:
408,294,5498,6,0,P|345:269|294:279,1,120,2|0,0:3|0:0,0:0:0:0:
210,337,5998,6,0,L|78:319,2,120,4|8|8,0:0|0:3|0:3,0:0:0:0:
345,357,6998,1,2,0:3:0:0:
320,142,7247,6,0,L|310:62,1,80,8|0,0:0|0:0,0:0:0:0:
309,50,7497,1,0,3:0:0:0:
307,37,7997,6,0,P|361:91|438:83,1,160,4|2,0:1|0:3,0:0:0:0:
454,71,8746,1,0,0:0:0:0:
483,209,8871,1,0,0:0:0:0:
345,357,8996,1,8,0:0:0:0:
512,335,9371,6,0,L|331:326,1,180.000006866455,8|0,0:3|0:0,0:0:0:0:
206,318,9870,1,0,0:0:0:0:
206,318,9933,1,0,0:0:0:0:
206,318,9995,2,0,P|141:354|68:346,2,150.000005722046,4|0|0,0:0|0:0|0:0,0:0:0:0:
258,208,10745,6,0,L|244:118,1,80
227,10,10994,1,8,0:0:0:0:
285,374,11369,1,8,0:0:0:0:
227,10,11744,1,8,0:0:0:0:
440,80,11994,5,4,0:1:0:0:
234,42,12243,1,0,0:0:0:0:
450,166,12493,1,0,0:0:0:0:
204,119,12743,1,0,0:0:0:0:
460,252,12993,5,0,0:0:0:0:
174,196,13242,1,0,0:0:0:0:
470,338,13492,1,0,0:0:0:0:
144,273,13742,1,0,0:0:0:0:
460,252,13992,5,4,0:0:0:0:
114,350,14242,1,0,0:0:0:0:
423,164,14491,1,0,0:0:0:0:
196,338,14741,1,0,0:0:0:0:
354,83,14990,5,0,0:0:0:0:
278,326,15241,1,0,0:0:0:0:
253,27,15491,1,0,0:0:0:0:
360,314,15740,1,0,0:0:0:0:
129,10,15990,1,0,0:0:0:0:
129,10,16240,5,0,1:0:0:0:
377,44,16365,1,0,1:0:0:0:
106,18,16490,5,0,1:0:0:0:
403,58,16615,1,0,1:0:0:0:
83,26,16740,5,0,1:0:0:0:
429,72,16864,1,0,1:0:0:0:
97,98,16989,5,0,1:0:0:0:
443,0,17114,1,0,1:0:0:0:
27,74,17239,5,0,1:0:0:0:
498,48,17364,1,0,1:0:0:0:
13,2,17488,5,0,1:0:0:0:
484,120,17614,1,0,1:0:0:0:
41,146,17739,5,0,1:0:0:0:
512,264,17864,2,0,L|433:254,1,80,4|0,0:1|1:0,0:0:0:0:
0,315,18113,2,0,L|79:325,1,80,0|0,0:0|1:0,0:0:0:0:
422,218,18363,6,0,L|501:228,1,80,0|0,0:0|1:0,0:0:0:0:
69,290,18613,2,0,L|-10:280,1,80,0|0,0:0|1:0,0:0:0:0:
450,362,18863,5,0,0:0:0:0:
55,218,18988,1,0,1:0:0:0:
436,290,19113,5,0,0:0:0:0:
436,290,19175,1,0,0:0:0:0:
436,290,19237,1,0,1:0:0:0:
83,362,19362,1,0,0:0:0:0:
83,362,19425,1,0,0:0:0:0:
83,362,19487,1,0,1:0:0:0:
197,20,19612,1,0,0:0:0:0:
197,20,19986,6,0,L|277:28,1,80,4|0,0:0|0:0,0:0:0:0:
512,45,20236,1,0,0:0:0:0:
277,28,20361,2,0,P|278:68|289:107,1,80,4|0,0:0|0:0,0:0:0:0:
399,312,20611,1,0,0:0:0:0:
165,352,20736,6,0,L|173:272,1,80,4|0,0:0|0:0,0:0:0:0:
197,20,20985,1,0,0:0:0:0:
173,272,21111,2,0,P|213:272|252:261,1,80,4|0,0:0|0:0,0:0:0:0:
435,215,21360,1,0,0:0:0:0:
156,172,21485,6,0,L|76:168,1,80,8|0,0:0|0:0,0:0:0:0:
356,212,21735,2,0,L|436:216,1,80,8|0,0:0|0:0,0:0:0:0:
142,384,21985,5,4,0:0:0:0:
53,189,22109,2,0,P|33:220|35:282,1,80,0|0,0:0|0:0,0:0:0:0:
213,336,22359,5,4,0:0:0:0:
179,151,22484,2,0,L|165:69,1,80,0|0,0:0|0:0,0:0:0:0:
299,336,22734,5,4,0:0:0:0:
333,151,22859,2,0,L|347:69,1,80,0|0,0:0|0:0,0:0:0:0:
370,384,23109,5,4,0:0:0:0:
459,189,23233,2,0,P|479:220|477:282,1,80,0|0,0:0|0:0,0:0:0:0:
256,304,23483,5,8,3:0:0:0:
256,292,23546,1,8,3:0:0:0:
256,280,23608,1,8,3:0:0:0:
256,268,23671,1,8,3:0:0:0:
256,256,23733,1,8,0:0:0:0:
53,189,23983,5,4,0:0:0:0:
256,128,24108,1,0,0:0:0:0:
36,87,24233,1,0,0:0:0:0:
205,319,24358,5,4,0:0:0:0:
256,128,24482,1,0,0:0:0:0:
113,272,24607,1,0,0:0:0:0:
399,272,24732,5,4,0:0:0:0:
256,128,24857,1,0,0:0:0:0:
307,319,24981,1,0,0:0:0:0:
476,87,25107,5,4,0:0:0:0:
256,128,25232,1,0,0:0:0:0:
459,189,25357,1,0,0:0:0:0:
273,26,25482,6,0,P|228:28|185:53,1,80,8|0,0:0|0:0,0:0:0:0:
238,351,25731,2,0,P|278:350|315:335,1,80,8|0,0:0|0:0,0:0:0:0:
53,189,25981,1,4,0:0:0:0:
500,294,26231,5,8,0:0:0:0:
476,87,26356,1,0,0:0:0:0:
270,57,26481,5,8,0:0:0:0:
187,248,26606,1,0,0:0:0:0:
397,279,26731,5,8,0:0:0:0:
373,72,26856,1,0,0:0:0:0:
167,42,26981,5,8,0:0:0:0:
84,233,27106,1,0,0:0:0:0:
294,264,27230,6,0,L|284:173,1,80,8|0,0:0|0:0,0:0:0:0:
64,27,27480,1,8,0:0:0:0:
64,27,27605,1,8,0:0:0:0:
500,294,27855,6,0,P|443:286|354:354,1,160,4|0,0:1|0:0,0:0:0:0:
230,384,28229,2,0,L|125:371,1,80,8|0,0:2|0:0,0:0:0:0:
49,361,28479,5,2,0:2:0:0:
199,301,28604,1,0,0:0:0:0:
18,278,28729,2,0,P|8:238|17:188,1,80,8|0,0:2|0:0,0:0:0:0:
234,130,28979,6,0,P|244:170|235:220,1,80,2|0,0:2|0:0,0:0:0:0:
199,301,29228,1,8,0:2:0:0:
239,102,29478,5,0,0:0:0:0:
194,329,29603,1,0,0:0:0:0:
194,329,29666,1,0,0:0:0:0:
194,329,29728,1,8,0:0:0:0:
414,255,29853,6,0,P|345:257|273:190,1,160,12|0,0:0|0:0,0:0:0:0:
239,102,30228,2,0,L|253:20,1,80,8|0,0:0|0:0,0:0:0:0:
432,248,30477,5,2,0:0:0:0:
256,4,30602,1,0,0:0:0:0:
449,150,30727,2,0,L|435:232,1,80,8|0,0:0|0:0,0:0:0:0:
261,300,30977,6,0,L|275:218,1,80,2|0,0:0|0:0,0:0:0:0:
467,143,31227,2,0,L|481:61,1,80,8|0,0:0|0:0,0:0:0:0:
437,330,31477,5,0,0:0:0:0:
291,113,31601,1,8,0:0:0:0:
512,343,31726,5,0,0:0:0:0:
216,100,31851,2,0,P|132:95|71:145,1,160,12|0,0:0|0:0,0:0:0:0:
39,336,32226,6,0,P|27:280|-3:239,1,80,8|0,0:0|0:0,0:0:0:0:
135,31,32476,2,0,P|117:66|111:106,1,80,2|0,0:0|0:0,0:0:0:0:
0,234,32726,6,0,P|35:251|75:257,1,80,8|0,0:0|0:0,0:0:0:0:
463,348,32975,2,0,P|427:330|387:325,1,80,2|0,0:0|0:0,0:0:0:0:
258,361,33225,1,8,0:0:0:0:
463,348,33475,5,0,0:0:0:0:
245,239,33600,1,0,0:0:0:0:
264,243,33662,1,0,0:0:0:0:
283,247,33725,2,0,L|322:256,1,40,8|0,0:0|0:0,0:0:0:0:
436,329,33850,6,0,P|358:323|296:370,1,160,12|0,0:0|0:0,0:0:0:0:
277,365,34162,1,0,0:0:0:0:
258,361,34224,1,8,0:0:0:0:
450,226,34474,5,2,0:0:0:0:
188,170,34599,1,0,0:0:0:0:
437,104,34724,5,8,0:0:0:0:
175,48,34849,2,0,P|252:54|315:7,1,160,4|0,0:0|0:0,0:0:0:0:
341,4,35223,5,8,0:0:0:0:
354,126,35348,1,0,0:0:0:0:
92,70,35473,5,2,0:0:0:0:
105,192,35598,1,0,0:0:0:0:
437,104,35723,5,8,0:0:0:0:
450,226,35848,2,0,L|290:211,1,160,12|0,0:0|0:0,0:0:0:0:
236,283,36223,6,0,P|220:330|232:375,1,80,8|0,0:0|0:0,0:0:0:0:
303,333,36472,1,2,0:0:0:0:
290,211,36597,1,0,0:0:0:0:
369,238,36722,2,0,P|372:198|357:161,1,80,8|0,0:0|0:0,0:0:0:0:
258,26,36972,6,0,L|178:33,1,80,2|0,0:0|0:0,0:0:0:0:
391,245,37222,2,0,L|471:252,1,80,8|0,0:0|0:0,0:0:0:0:
442,77,37472,1,0,0:0:0:0:
282,173,37597,1,0,0:0:0:0:
286,192,37659,1,0,0:0:0:0:
290,211,37721,1,8,0:0:0:0:
373,337,37846,6,0,P|299:304|214:325,1,160,12|0,0:0|0:0,0:0:0:0:
119,377,38221,2,0,L|37:371,1,80,8|0,0:0|0:0,0:0:0:0:
213,328,38471,5,2,0:0:0:0:
28,362,38596,1,0,0:0:0:0:
91,184,38721,2,0,P|99:143|92:94,1,80,8|0,0:0|0:0,0:0:0:0:
137,300,38970,6,0,L|147:406,1,80,2|0,0:0|0:0,0:0:0:0:
268,89,39220,2,0,L|258:-17,1,80,8|0,0:0|0:0,0:0:0:0:
388,253,39470,5,0,0:0:0:0:
171,160,39595,1,0,0:0:0:0:
171,160,39657,1,0,0:0:0:0:
171,160,39720,1,8,0:0:0:0:
314,329,39845,6,0,L|483:319,1,160,12|0,0:0|0:0,0:0:0:0:
499,196,40219,6,0,P|457:191|405:170,1,80,8|0,0:0|0:0,0:0:0:0:
345,86,40469,2,0,P|337:45|342:5,1,80,2|0,0:0|0:0,0:0:0:0:
508,215,40719,2,0,P|516:256|511:296,1,80,8|0,0:0|0:0,0:0:0:0:
456,73,40969,5,2,0:0:0:0:
231,220,41094,1,0,0:0:0:0:
417,259,41218,1,8,0:0:0:0:
270,34,41343,2,0,P|232:21|192:16,1,80
318,323,41593,5,0,0:0:0:0:
318,323,41656,1,0,0:0:0:0:
318,323,41718,2,0,L|361:330,1,40,8|0,0:0|0:0,0:0:0:0:
463,344,41843,2,0,P|448:287|528:211,1,160,12|0,0:0|0:0,0:0:0:0:
471,28,42218,6,0,L|485:111,1,80,8|0,0:0|0:0,0:0:0:0:
296,349,42467,2,0,L|280:262,1,80,2|0,0:0|0:0,0:0:0:0:
21,107,42717,2,0,L|36:191,1,80,8|0,0:0|0:0,0:0:0:0:
324,368,42967,6,0,P|366:379|423:370,1,80,2|0,0:0|0:0,0:0:0:0:
188,16,43217,2,0,P|146:5|89:14,1,80,8|0,0:0|0:0,0:0:0:0:
372,293,43467,5,0,0:0:0:0:
357,76,43592,1,2,0:0:0:0:
140,91,43716,1,8,0:0:0:0:
155,308,43841,1,10,0:0:0:0:
372,293,43966,5,4,0:1:0:0:
232,257,44091,1,0,0:0:0:0:
92,221,44216,1,2,0:0:0:0:
232,257,44341,1,0,0:0:0:0:
372,293,44466,1,2,0:0:0:0:
70,382,44716,5,0,0:0:0:0:
106,242,44840,1,2,0:0:0:0:
3,140,44965,1,0,0:0:0:0:
39,0,45090,1,2,0:0:0:0:
488,273,45465,5,2,0:0:0:0:
348,309,45589,1,0,0:0:0:0:
246,206,45714,1,2,0:0:0:0:
106,242,45839,1,0,0:0:0:0:
422,30,46214,5,2,0:0:0:0:
208,345,46464,1,2,0:0:0:0:
39,0,46964,5,2,0:0:0:0:
179,36,47089,1,2,0:0:0:0:
319,72,47213,1,0,0:0:0:0:
77,139,47338,1,2,0:0:0:0:
217,175,47463,1,2,0:0:0:0:
357,211,47588,1,0,0:0:0:0:
115,278,47713,1,2,0:0:0:0:
255,314,47838,1,2,0:0:0:0:
395,350,47963,5,4,0:1:0:0:
357,211,48087,1,2,0:0:0:0:
319,72,48213,1,0,0:0:0:0:
357,211,48337,1,2,0:0:0:0:
395,350,48462,1,0,0:0:0:0:
488,111,48712,5,0,0:0:0:0:
386,214,48837,1,2,0:0:0:0:
246,178,48961,1,0,0:0:0:0:
348,75,49087,1,2,0:0:0:0:
70,2,49462,5,2,0:0:0:0:
106,142,49586,1,0,0:0:0:0:
3,244,49711,1,2,0:0:0:0:
39,384,49836,1,0,0:0:0:0:
210,38,50211,5,2,0:0:0:0:
284,317,50461,1,0,0:0:0:0:
348,75,50711,1,2,0:0:0:0:
106,142,50960,5,0,0:0:0:0:
106,142,51023,1,0,0:0:0:0:
106,142,51085,1,2,0:0:0:0:
246,178,51210,1,0,0:0:0:0:
348,75,51335,1,2,0:0:0:0:
284,317,51585,5,2,0:0:0:0:
284,317,51648,1,2,0:0:0:0:
284,317,51710,1,0,0:0:0:0:
256,192,51960,5,4,0:1:0:0:
296,52,52084,1,0,0:0:0:0:
156,88,52209,1,2,0:0:0:0:
306,244,52334,1,0,0:0:0:0:
346,104,52459,1,2,0:0:0:0:
106,36,52709,5,0,0:0:0:0:
66,176,52834,1,2,0:0:0:0:
166,280,52959,1,0,0:0:0:0:
206,140,53084,1,2,0:0:0:0:
356,300,53458,5,2,0:0:0:0:
216,334,53582,1,0,0:0:0:0:
76,368,53708,1,2,0:0:0:0:
116,228,53833,1,0,0:0:0:0:
176,18,54208,5,2,0:0:0:0:
96,298,54457,1,2,0:0:0:0:
36,54,54957,5,2,0:0:0:0:
136,158,55082,1,2,0:0:0:0:
236,262,55207,1,0,0:0:0:0:
336,366,55332,1,2,0:0:0:0:
376,226,55457,1,2,0:0:0:0:
416,86,55582,1,0,0:0:0:0:
276,122,55706,1,2,0:0:0:0:
512,191,55831,1,2,0:0:0:0:
436,16,55956,5,4,0:1:0:0:
396,156,56081,1,2,0:0:0:0:
496,260,56206,1,0,0:0:0:0:
486,68,56331,1,2,0:0:0:0:
446,208,56456,1,0,0:0:0:0:
226,70,56706,5,0,0:0:0:0:
186,210,56831,1,2,0:0:0:0:
146,350,56956,1,0,0:0:0:0:
46,246,57081,1,2,0:0:0:0:
286,314,57455,5,2,0:0:0:0:
326,174,57580,1,0,0:0:0:0:
366,34,57705,1,2,0:0:0:0:
466,138,57830,1,0,0:0:0:0:
426,278,57955,5,4,0:1:0:0:
176,18,58204,1,2,0:0:0:0:
336,366,58454,5,2,0:0:0:0:
86,106,58703,1,0,0:0:0:0:
436,16,58954,5,2,0:0:0:0:
429,39,59016,1,2,0:0:0:0:
422,62,59078,1,0,0:0:0:0:
416,85,59141,1,0,0:0:0:0:
409,108,59203,1,2,0:0:0:0:
402,131,59266,1,2,0:0:0:0:
396,154,59328,1,0,0:0:0:0:
389,177,59391,1,0,0:0:0:0:
382,200,59453,1,10,0:0:0:0:
336,366,59578,1,10,0:0:0:0:
86,106,59828,6,0,P|176:119|250:86,1,160,4|0,0:1|0:0,0:0:0:0:
436,16,60203,2,0,P|421:69|426:107,1,80,8|0,0:0|0:0,0:0:0:0:
495,257,60452,2,0,P|510:310|505:348,1,80
322,158,60702,1,8,0:0:0:0:
490,352,60827,6,0,B|435:347|435:347|388:370|388:370|335:365,1,160,4|0,0:0|0:0,0:0:0:0:
246,210,61202,2,0,P|231:157|236:119,1,80,8|0,0:0|0:0,0:0:0:0:
152,330,61452,2,0,L|65:323,1,80
291,288,61701,1,8,0:0:0:0:
26,196,61826,6,0,P|83:247|72:324,1,160,4|0,0:0|0:0,0:0:0:0:
12,110,62201,2,0,L|24:25,1,80,8|0,0:0|0:0,0:0:0:0:
204,166,62451,5,0,0:0:0:0:
1,221,62576,1,0,0:0:0:0:
180,333,62701,1,8,0:0:0:0:
4,203,62825,6,0,B|29:251|29:251|14:358,1,160,4|0,0:0|0:0,0:0:0:0:
213,246,63200,2,0,L|204:166,1,80,8|0,0:0|0:0,0:0:0:0:
186,7,63450,5,0,0:0:0:0:
93,220,63575,1,0,0:0:0:0:
323,194,63700,1,8,0:0:0:0:
186,7,63825,6,0,L|204:170,1,160,4|0,0:0|0:0,0:0:0:0:
310,335,64199,2,0,P|370:329|406:304,1,80,8|0,0:0|0:0,0:0:0:0:
441,154,64449,2,0,L|456:64,1,80
498,261,64699,5,8,0:0:0:0:
445,30,64824,2,0,P|377:8|302:47,1,160,4|0,0:0|0:0,0:0:0:0:
269,234,65199,2,0,L|284:324,1,80,8|0,0:0|0:0,0:0:0:0:
512,340,65448,2,0,L|497:250,1,80
382,97,65698,5,8,0:0:0:0:
290,348,65823,2,0,L|130:332,1,160,4|0,0:0|0:0,0:0:0:0:
117,316,66135,1,0,0:0:0:0:
103,300,66198,1,8,0:0:0:0:
341,206,66323,1,0,0:0:0:0:
126,51,66447,5,8,0:0:0:0:
190,265,66572,1,0,0:0:0:0:
126,51,66697,1,8,0:0:0:0:
190,265,66822,6,0,L|205:105,1,160,4|0,0:0|0:0,0:0:0:0:
222,92,67134,1,0,0:0:0:0:
238,78,67197,1,8,0:0:0:0:
341,206,67322,1,0,0:0:0:0:
211,340,67447,5,8,0:0:0:0:
0,76,67572,1,8,0:0:0:0:
211,340,67696,1,8,0:0:0:0:
0,76,67821,6,0,P|19:147|6:244,1,160,4|0,0:0|0:0,0:0:0:0:
132,350,68196,2,0,P|170:340|219:341,1,80,8|0,0:0|0:0,0:0:0:0:
165,53,68446,2,0,P|203:63|252:62,1,80
431,36,68696,1,8,0:0:0:0:
493,315,68820,6,0,L|331:302,1,160,4|0,0:0|0:0,0:0:0:0:
165,253,69195,2,0,L|177:340,1,80,8|0,0:0|0:0,0:0:0:0:
448,216,69445,2,0,L|460:129,1,80
349,0,69695,1,8,0:0:0:0:
424,221,69820,6,0,B|440:267|440:267|423:376,1,160,4|0,0:0|0:0,0:0:0:0:
175,228,70194,2,0,L|163:141,1,80,8|0,0:0|0:0,0:0:0:0:
355,273,70444,5,0,0:0:0:0:
87,203,70569,1,0,0:0:0:0:
331,128,70694,1,8,0:0:0:0:
64,197,70819,6,0,L|42:31,1,160,4|0,0:0|0:0,0:0:0:0:
224,160,71194,2,0,L|304:184,1,80,8|0,0:0|0:0,0:0:0:0:
77,295,71443,5,0,0:0:0:0:
284,97,71568,1,0,0:0:0:0:
351,375,71693,1,8,0:0:0:0:
201,128,71818,6,0,P|259:180|352:155,1,160,4|0,0:0|0:0,0:0:0:0:
416,81,72193,2,0,L|404:1,1,80,8|0,0:0|0:0,0:0:0:0:
410,302,72442,2,0,L|422:382,1,80,8|0,0:0|0:0,0:0:0:0:
490,214,72692,1,8,0:0:0:0:
335,169,72817,6,0,B|280:164|280:164|233:187|233:187|168:182,1,160,4|0,0:0|0:0,0:0:0:0:
73,110,73192,2,0,P|48:72|40:22,1,80,8|0,0:0|0:0,0:0:0:0:
0,303,73442,2,0,P|25:341|33:391,1,80,8|0,0:0|0:0,0:0:0:0:
107,230,73691,1,8,0:0:0:0:
258,337,73816,6,0,B|338:329|338:329|416:361,1,160,4|0,0:0|0:0,0:0:0:0:
490,214,74191,2,0,L|400:218,1,80,8|0,0:0|0:0,0:0:0:0:
222,225,74441,5,8,0:0:0:0:
430,368,74566,1,0,0:0:0:0:
327,151,74691,2,0,P|314:88|320:54,1,80,8|0,0:0|0:0,0:0:0:0:
498,188,74940,5,4,0:0:0:0:
306,223,75065,1,0,0:0:0:0:
512,285,75190,5,8,0:0:0:0:
230,199,75315,1,0,0:0:0:0:
506,162,75440,5,8,0:0:0:0:
203,203,75565,1,0,0:0:0:0:
508,299,75690,5,8,0:0:0:0:
176,207,75815,1,4,0:1:0:0:
460,63,76064,5,0,0:0:0:0:
207,320,76189,1,0,0:0:0:0:
512,210,76314,5,0,0:0:0:0:
155,173,76439,1,0,0:0:0:0:
430,343,76564,5,0,0:0:0:0:
237,40,76689,1,0,0:0:0:0:
275,362,76814,5,0,0:0:0:0:
392,21,76939,1,0,0:0:0:0:
164,252,77064,5,0,0:0:0:0:
503,131,77189,1,0,0:0:0:0:
181,97,77313,5,0,0:0:0:0:
486,286,77438,1,0,0:0:0:0:
312,13,77563,5,0,0:0:0:0:
355,370,77688,1,0,0:0:0:0:
472,29,77813,1,4,0:1:0:0:
3,242,78063,5,0,0:0:0:0:
237,40,78188,1,0,0:0:0:0:
237,349,78313,1,0,0:0:0:0:
3,146,78437,5,0,0:0:0:0:
310,102,78562,1,0,0:0:0:0:
142,363,78687,5,0,0:0:0:0:
55,66,78812,1,0,0:0:0:0:
337,195,78937,5,0,0:0:0:0:
26,148,79062,1,0,0:0:0:0:
366,189,79187,5,0,0:0:0:0:
30,238,79312,1,0,0:0:0:0:
392,183,79437,5,0,0:0:0:0:
3,146,79562,1,0,0:0:0:0:
415,178,79686,5,0,0:0:0:0:
3,242,79811,1,4,0:1:0:0:
442,329,80061,5,0,0:0:0:0:
173,209,80186,1,0,0:0:0:0:
412,36,80311,1,0,0:0:0:0:
360,361,80436,5,0,0:0:0:0:
187,122,80561,1,0,0:0:0:0:
480,92,80686,5,0,0:0:0:0:
273,347,80810,1,0,0:0:0:0:
243,54,80935,5,0,0:0:0:0:
512,174,81060,1,0,0:0:0:0:
205,291,81185,5,0,0:0:0:0:
325,22,81310,1,0,0:0:0:0:
498,261,81435,5,0,0:0:0:0:
256,152,81560,1,0,0:0:0:0:
14,261,81685,5,0,0:0:0:0:
187,22,81810,1,4,0:1:0:0:
307,291,81935,5,0,0:0:0:0:
0,174,82060,1,0,0:0:0:0:
269,54,82185,5,0,0:0:0:0:
239,347,82310,1,0,0:0:0:0:
32,92,82434,5,0,0:0:0:0:
325,122,82559,1,0,0:0:0:0:
152,361,82684,5,0,0:0:0:0:
100,36,82809,1,0,0:0:0:0:
339,209,82934,2,0,P|284:209|249:225,1,80,4|0,0:0|0:0,0:0:0:0:
70,329,83184,5,0,0:0:0:0:
92,328,83246,1,0,0:0:0:0:
115,334,83308,1,0,0:0:0:0:
135,344,83371,1,0,0:0:0:0:
152,361,83433,2,0,L|148:308,1,40
127,192,83558,2,0,L|131:139,1,40
442,329,83808,5,4,0:1:0:0:
256,192,83933,12,0,87930,0:0:0:0:
