osu file format v14

[General]
AudioFilename: Life-Ru is Love-Ru!! (TV Size).mp3
AudioLeadIn: 1985
PreviewTime: 58236
Countdown: 0
SampleSet: Soft
StackLeniency: 0.7
Mode: 0
LetterboxInBreaks: 1
WidescreenStoryboard: 0

[Editor]
DistanceSpacing: 1
BeatDivisor: 4
GridSize: 4
TimelineZoom: 2.899999

[Metadata]
Title:Life-Ru is Love-Ru!! (TV Size)
TitleUnicode:Lifeる is LOVEる!! (TVサイズ)
Artist:Liliana Sisters
ArtistUnicode:リリアナシスターズ
Creator:raririn
Version:Insane
Source:Oniichan dakedo Ai sae Areba Kankeinai yo ne!
Tags:onii-ai ending flower irie miyuki popner silver link. kido ibuki chihara minori shimoda asami kitamura eri 姫小路秋子 木戸衣吹 那須原アナスタシア 茅原実里 猿渡銀兵衛春臣 下田麻美 二階堂嵐 喜多村英梨
BeatmapID:200419
BeatmapSetID:69505

[Difficulty]
HPDrainRate:7.2
CircleSize:4
OverallDifficulty:8.2
ApproachRate:9
SliderMultiplier:1.6
SliderTickRate:1

[Events]
//Background and Video events
0,0,"BG.jpg",0,0
//Break Periods
//Storyboard Layer 0 (Background)
//Storyboard Layer 1 (Fail)
//Storyboard Layer 2 (Pass)
//Storyboard Layer 3 (Foreground)
//Storyboard Sound Samples

[TimingPoints]
150,333.333333333333,4,2,1,70,1,0
9483,-100,4,2,1,70,0,0
21483,-153.846153846154,4,2,1,45,0,0
26816,-153.846153846154,4,2,1,55,0,0
29149,-133.333333333333,4,2,1,55,0,0
29316,-100,4,2,1,55,0,0
29649,-100,4,2,1,70,0,0
30649,-76.9230769230769,4,2,1,70,0,0
31649,-100,4,2,1,70,0,0
41483,-100,4,2,1,70,0,0
46149,-100,4,1,0,40,0,0
46150,-100,4,1,1,40,0,0
46566,-100,4,2,1,70,0,0
52149,-100,4,2,2,70,0,0
58649,-100,4,2,2,70,0,1
69149,-100,4,2,2,70,0,0
69316,-100,4,2,2,70,0,1
80149,-100,4,2,1,70,0,0

[Colours]
Combo1 : 0,128,255
Combo2 : 255,128,128
Combo3 : 192,192,192
Combo4 : 128,64,0

[HitObjects]
176,120,150,5,0,0:0:0:0:
100,208,316,2,0,P|53:235|16:240,2,80,0|8|0,0:0|0:0|0:0,0:0:0:0:
176,120,816,1,0,0:0:0:0:
216,236,983,1,0,0:0:0:0:
216,236,1150,2,0,P|276:288|380:272,1,160,8|0,0:0|0:0,0:0:0:0:
316,188,1649,5,0,0:0:0:0:
388,84,1816,2,0,L|399:4,1,80,8|0,0:0|0:0,0:0:0:0:
480,148,2149,2,0,L|468:227,1,80
444,336,2483,2,0,L|500:368,2,40,8|0|0,0:0|0:0|0:0,0:0:0:0:
280,244,2816,5,0,0:0:0:0:
152,312,2983,1,0,0:0:0:0:
92,180,3150,1,8,0:0:0:0:
220,120,3316,2,0,P|272:104|296:72,1,80
460,136,3649,1,0,0:0:0:0:
460,136,3816,2,0,P|408:152|384:184,1,80,8|0,0:0|0:0,0:0:0:0:
280,244,4150,5,0,0:0:0:0:
396,280,4316,1,0,0:0:0:0:
284,352,4483,2,0,L|204:360,1,80,8|0,0:0|0:0,0:0:0:0:
76,352,4816,2,0,P|34:336|1:286,1,80
104,220,5149,2,0,P|165:201|198:178,1,80,8|0,0:0|0:0,0:0:0:0:
276,152,5483,5,0,0:0:0:0:
208,28,5649,2,0,P|166:22|128:24,1,80,0|8,0:0|0:0,0:0:0:0:
48,104,5983,2,0,P|88:112|128:108,1,80
276,152,6316,1,0,0:0:0:0:
320,288,6483,1,8,0:0:0:0:
180,252,6649,1,0,0:0:0:0:
400,184,6816,6,0,P|430:155|477:145,1,80
264,356,7149,2,0,P|229:379|192:383,1,80,8|0,0:0|0:0,0:0:0:0:
12,292,7483,1,0,0:0:0:0:
104,160,7649,1,0,0:0:0:0:
108,332,7816,1,8,0:0:0:0:
180,252,7983,1,0,0:0:0:0:
8,196,8149,6,0,P|-8:100|32:36,1,160,4|0,0:0|0:0,0:0:0:0:
344,72,8816,2,0,P|281:121|202:132,1,160,4|0,0:0|0:0,0:0:0:0:
224,356,9483,6,0,P|240:300|224:232,1,120,4|0,0:0|0:0,0:0:0:0:
392,280,9816,2,0,P|359:231|296:204,1,120,8|0,0:0|0:0,0:0:0:0:
420,92,10150,2,0,P|362:85|308:120,1,120,4|0,0:0|0:0,0:0:0:0:
172,96,10483,2,0,L|272:156,1,80,12|0,0:0|0:0,0:0:0:0:
208,200,10816,6,0,P|132:208|104:168,1,120
56,152,11149,2,0,L|72:256,1,80,8|0,0:0|0:0,0:0:0:0:
84,328,11483,1,0,0:0:0:0:
176,356,11650,1,0,0:0:0:0:
224,364,11733,1,0,0:0:0:0:
268,348,11816,2,0,P|300:312|308:280,1,80,8|0,0:0|0:0,0:0:0:0:
356,196,12150,5,0,0:0:0:0:
368,148,12233,1,0,0:0:0:0:
360,100,12316,1,0,0:0:0:0:
332,60,12400,1,0,0:0:0:0:
292,36,12483,2,0,P|260:20|208:8,1,80,8|0,0:0|0:0,0:0:0:0:
92,80,12816,2,0,L|44:60,2,40
108,212,13150,1,8,0:0:0:0:
244,256,13316,1,0,0:0:0:0:
388,248,13483,6,0,B|420:300|420:300|416:344|336:344,1,160,0|8,0:0|0:0,0:0:0:0:
252,264,13983,1,0,0:0:0:0:
252,264,14066,1,0,0:0:0:0:
252,264,14149,2,0,L|224:292,2,40
288,160,14483,1,8,0:0:0:0:
348,80,14650,6,0,P|352:40|340:3,1,80
392,184,14983,2,0,P|421:228|454:243,1,80,0|8,0:0|0:0,0:0:0:0:
288,160,15316,2,0,P|234:163|205:184,1,80
128,240,15649,1,0,0:0:0:0:
60,308,15816,2,0,P|20:286|-4:236,1,80,8|0,0:0|0:0,0:0:0:0:
16,136,16150,6,0,B|60:120|120:124|120:124,1,80
272,124,16483,1,8,0:0:0:0:
272,124,16566,1,0,0:0:0:0:
272,124,16649,1,0,0:0:0:0:
335,225,16816,1,0,0:0:0:0:
412,128,16983,1,0,0:0:0:0:
208,272,17150,1,8,0:0:0:0:
312,300,17316,6,0,B|308:257|336:225,1,80
436,308,17650,2,0,B|439:350|411:382,2,80,0|8|0,0:0|0:0|0:0,0:0:0:0:
312,300,18149,1,0,0:0:0:0:
168,328,18316,1,0,0:0:0:0:
82,211,18483,2,0,P|116:231|156:232,1,80,8|0,0:0|0:0,2:0:0:0:
264,180,18816,5,8,0:0:0:0:
268,72,18983,1,0,0:0:0:0:
168,136,19150,1,0,0:0:0:0:
372,232,19316,2,0,P|408:204|412:160,1,80,4|0,0:0|0:0,0:0:0:0:
320,88,19649,5,0,0:0:0:0:
84,44,19816,1,0,0:0:0:0:
148,272,19983,1,12,0:0:0:0:
432,328,20316,5,4,0:0:0:0:
220,336,20483,1,4,0:0:0:0:
460,312,20649,1,12,0:0:0:0:
252,248,20816,1,4,0:0:0:0:
60,112,21483,6,0,L|72:232,1,103.999995239258
84,288,21983,1,0,0:0:0:0:
140,336,22149,2,0,B|176:332|200:348|248:340,1,103.999995239258
416,320,22816,5,0,0:0:0:0:
256,172,23316,5,0,0:0:0:0:
164,92,23483,2,0,L|108:88,1,51.999997619629,2|0,0:0|0:0,0:0:0:0:
320,56,23816,2,0,L|376:52,1,51.999997619629
408,152,24149,6,0,P|472:220|456:328,1,207.999990478516,2|2,0:0|0:0,0:0:0:0:
344,368,25149,2,0,L|284:336,1,51.999997619629
240,296,25483,5,2,0:0:0:0:
172,276,25649,2,0,P|120:312|36:268,1,155.999992858887,0|2,0:0|0:0,0:0:0:0:
36,204,26316,1,0,0:0:0:0:
96,160,26483,1,0,0:0:0:0:
88,88,26649,1,0,0:0:0:0:
68,20,26816,6,0,L|172:20,1,103.999995239258,2|0,0:0|0:0,0:0:0:0:
440,160,27483,2,0,L|332:160,1,103.999995239258,2|0,0:0|0:0,0:0:0:0:
260,160,27983,1,0,0:0:0:0:
168,264,28149,6,0,L|108:264,1,51.999997619629
316,328,28483,2,0,L|372:328,1,51.999997619629
160,380,28816,1,0,0:0:0:0:
32,240,28983,1,0,0:0:0:0:
184,118,29149,2,0,L|252:106,1,60.0000022888184,0|4,0:0|0:0,0:0:0:0:
260,244,29649,6,0,P|284:200|268:152,1,80,8|0,0:0|0:0,0:0:0:0:
408,216,29983,2,0,P|389:169|342:150,1,80,8|0,0:0|0:0,0:0:0:0:
432,64,30316,2,0,P|384:48|340:72,1,80,8|0,0:0|0:0,0:0:0:0:
276,104,30649,6,0,P|200:63|128:-4,1,155.999992858887,8|0,0:0|0:0,0:0:0:0:
88,48,30983,2,0,P|97:98|60:208,1,155.999992858887,8|0,0:0|0:0,0:0:0:0:
24,244,31316,1,8,0:0:0:0:
180,236,31649,6,0,L|264:236,1,80,0|8,0:0|0:0,0:0:0:0:
424,84,32149,6,0,P|456:144|448:216,1,120,4|0,0:0|0:0,0:0:0:0:
408,248,32483,2,0,L|324:240,1,80,8|0,0:0|0:0,0:0:0:0:
180,236,32816,1,0,0:0:0:0:
128,340,32983,1,0,0:0:0:0:
128,340,33066,1,0,0:0:0:0:
128,340,33149,1,8,0:0:0:0:
240,336,33316,1,0,0:0:0:0:
400,288,33483,6,0,P|407:332|386:367,2,80,0|0|8,0:0|0:0|0:0,0:0:0:0:
480,200,33983,2,0,P|378:174|367:102,1,160
360,16,34483,1,8,0:0:0:0:
360,16,34566,1,0,0:0:0:0:
360,16,34649,1,0,0:0:0:0:
232,84,34816,6,0,P|194:101|157:102,1,80
28,168,35149,2,0,P|56:184|116:200,1,80,8|0,0:0|0:0,0:0:0:0:
196,356,35483,2,0,P|196:308|184:264,1,80
184,228,35733,1,0,0:0:0:0:
208,180,35816,2,0,P|264:160|296:148,1,80,8|0,0:0|0:0,0:0:0:0:
372,268,36149,6,0,P|416:264|444:240,2,80,0|0|8,0:0|0:0|0:0,0:0:0:0:
282,168,36649,1,0,0:0:0:0:
420,132,36816,1,0,0:0:0:0:
340,40,36983,1,0,0:0:0:0:
176,80,37149,2,0,P|152:128|104:160,1,80,8|0,0:0|0:0,0:0:0:0:
282,168,37483,1,0,0:0:0:0:
372,292,37649,5,0,0:0:0:0:
464,324,37816,1,8,0:0:0:0:
448,228,37983,1,0,0:0:0:0:
408,116,38149,2,0,P|344:180|260:148,1,160,0|8,0:0|0:0,0:0:0:0:
176,80,38649,1,0,0:0:0:0:
48,168,38816,6,0,L|120:216,1,80
160,348,39149,1,8,0:0:0:0:
284,272,39316,1,0,0:0:0:0:
182,194,39483,2,0,P|194:146|174:78,1,120
200,36,39816,2,0,P|240:52|288:40,1,80,8|0,0:0|0:0,0:0:0:0:
444,88,40150,6,0,L|352:120,1,80
360,264,40483,2,0,L|460:228,1,80,8|0,0:0|0:0,0:0:0:0:
280,172,40816,1,0,0:0:0:0:
360,264,40983,1,0,0:0:0:0:
228,272,41150,2,0,P|168:236|152:208,1,80,8|0,0:0|0:0,0:0:0:0:
52,184,41483,5,0,0:0:0:0:
52,184,41650,2,0,P|36:224|52:272,2,80,0|8|0,0:0|0:0|0:0,0:0:0:0:
148,112,42150,1,0,0:0:0:0:
152,264,42316,2,0,P|164:316|196:340,1,80,0|8,0:0|0:0,0:0:0:0:
296,340,42650,6,0,P|340:300|380:280,1,80
492,236,42983,1,0,0:0:0:0:
416,116,43149,2,0,P|372:156|332:176,1,80
208,312,43483,1,0,0:0:0:0:
236,224,43650,1,0,0:0:0:0:
97,107,43816,2,0,P|106:146|129:179,1,80,8|0,0:0|0:0,0:0:0:0:
120,16,44149,1,0,0:0:0:0:
228,96,44316,6,0,L|308:68,2,80,0|8|0,0:0|0:0|0:0,0:0:0:0:
97,107,44816,1,0,0:0:0:0:
236,224,44983,2,0,L|160:250,1,80
44,192,45316,6,0,P|12:232|40:336,1,160
260,344,45816,1,8,0:0:0:0:
392,224,45983,1,0,0:0:0:0:
320,136,46150,2,0,P|256:168|192:132,1,120
164,124,46483,2,0,L|292:24,1,160
396,84,46983,5,0,0:0:0:0:
508,128,47150,1,0,0:0:0:0:
468,240,47316,1,2,0:0:0:0:
352,196,47483,2,0,P|320:244|324:288,1,80
348,384,47816,1,0,0:0:0:0:
180,328,47983,1,0,0:0:0:0:
32,144,48150,6,0,P|96:152|132:136,1,80,2|0,0:0|0:0,0:0:0:0:
256,208,48483,2,0,P|192:200|156:216,1,80
276,88,48816,1,2,0:0:0:0:
400,40,48983,1,0,0:0:0:0:
448,160,49149,1,0,0:0:0:0:
336,212,49316,1,0,0:0:0:0:
268,304,49483,6,0,L|168:304,1,80,2|0,0:0|0:0,0:0:0:0:
96,228,49816,1,0,0:0:0:0:
136,116,49983,1,0,0:0:0:0:
224,200,50150,2,0,P|260:131|239:56,1,160,2|0,0:0|0:0,0:0:0:0:
448,164,50650,1,0,0:0:0:0:
384,272,50816,6,0,L|309:246,1,80,2|0,0:0|0:0,0:0:0:0:
140,316,51150,2,0,L|217:343,1,80
164,188,51483,2,0,L|88:160,1,80,2|0,0:0|0:0,0:0:0:0:
92,48,51816,2,0,P|180:24|240:88,1,160,0|2,0:0|0:0,0:0:0:0:
296,164,52316,5,0,0:0:0:0:
168,192,52483,1,8,0:0:0:0:
168,192,52650,2,0,P|168:264|148:304,2,80
72,232,53150,1,8,0:0:0:0:
124,28,53316,1,0,0:0:0:0:
296,164,53483,5,0,0:0:0:0:
412,272,53650,2,0,P|472:292|512:276,2,80,0|8|0,0:0|0:0|0:0,0:0:0:0:
296,164,54150,1,0,0:0:0:0:
444,144,54316,1,0,0:0:0:0:
412,272,54483,1,8,0:0:0:0:
272,48,54650,1,0,0:0:0:0:
272,48,54816,6,0,P|216:64|152:36,1,120
104,64,55150,2,0,P|128:100|136:136,1,80,8|0,0:0|0:0,0:0:0:0:
128,340,55483,1,0,0:0:0:0:
60,220,55650,1,0,0:0:0:0:
212,240,55816,1,8,0:0:0:0:
340,200,55983,6,0,P|360:172|384:116,1,80
240,36,56316,1,0,0:0:0:0:
132,80,56483,1,8,0:0:0:0:
72,192,56650,1,0,0:0:0:0:
128,304,56816,1,0,0:0:0:0:
240,352,56983,1,0,0:0:0:0:
360,320,57150,1,8,0:0:0:0:
360,320,57316,6,0,B|424:292|424:292|416:244|476:200,1,160
451,87,57816,2,0,P|417:69|368:72,1,80,8|0,0:0|0:0,0:0:0:0:
280,176,58150,2,0,L|316:216,2,40
248,168,58399,1,0,0:0:0:0:
216,160,58483,1,0,0:0:0:0:
184,152,58566,1,0,0:0:0:0:
152,148,58649,6,0,L|161:227,1,80,2|0,0:0|0:0,0:0:0:0:
176,348,58983,1,0,0:0:0:0:
176,348,59066,1,0,0:0:0:0:
180,352,59150,1,8,0:0:0:0:
280,272,59316,2,0,P|344:248|384:256,1,80
472,376,59650,2,0,P|436:352|400:347,1,80,2|8,0:0|0:0,0:0:0:0:
172,352,59983,6,0,L|80:352,1,80
24,244,60316,1,0,0:0:0:0:
44,116,60483,1,8,0:0:0:0:
160,64,60650,2,0,P|220:96|280:96,1,120,2|0,0:0|0:0,0:0:0:0:
248,156,60983,2,0,L|296:220,1,80,0|8,0:0|0:0,0:0:0:0:
348,336,61316,6,0,P|421:258|412:212,1,160,2|0,0:0|0:0,0:0:0:0:
360,76,61816,2,0,P|346:52|298:36,1,80,8|0,0:0|0:0,0:0:0:0:
252,160,62150,1,0,0:0:0:0:
252,160,62316,1,0,0:0:0:0:
132,268,62483,2,0,P|188:300|276:296,1,120,8|0,0:0|0:0,0:0:0:0:
272,360,62816,6,0,L|194:378,1,80
412,224,63150,2,0,L|490:206,1,80,8|0,0:0|0:0,0:0:0:0:
292,56,63483,2,0,L|213:73,1,80
72,96,63816,1,8,0:0:0:0:
48,240,63983,1,0,0:0:0:0:
180,316,64150,6,0,P|268:344|332:316,1,160,0|8,0:0|0:0,0:0:0:0:
256,216,64650,1,0,0:0:0:0:
448,352,64816,2,0,P|476:264|448:200,1,160,0|8,0:0|0:0,0:0:0:0:
296,140,65316,1,0,0:0:0:0:
296,140,65399,1,0,0:0:0:0:
296,140,65483,6,0,P|356:164|396:172,1,80
184,244,65816,2,0,P|124:220|84:212,1,80,8|0,0:0|0:0,0:0:0:0:
148,72,66150,2,0,P|205:-3|288:24,1,160,0|8,0:0|0:0,0:0:0:0:
292,28,66566,1,0,0:0:0:0:
324,56,66650,1,0,0:0:0:0:
364,60,66733,1,0,0:0:0:0:
400,48,66816,6,0,P|444:60|492:100,1,80
472,224,67149,1,8,0:0:0:0:
324,204,67316,2,0,L|260:320,1,120,4|0,0:0|0:0,0:0:0:0:
228,352,67650,2,0,L|151:377,1,80,4|0,0:0|0:0,0:0:0:0:
24,272,67983,6,0,P|42:200|32:166,1,80
32,52,68316,1,0,0:0:0:0:
160,120,68483,2,0,L|236:96,1,80,8|0,0:0|0:0,0:0:0:0:
376,124,68816,1,0,0:0:0:0:
420,276,68983,2,0,P|454:275|494:255,2,80,8|0|0,0:0|0:0|0:0,0:0:0:0:
248,264,69483,5,0,0:0:0:0:
98,252,69649,2,0,P|63:252|23:272,2,80,8|0|0,0:0|0:0|0:0,0:0:0:0:
160,120,70150,1,0,0:0:0:0:
304,124,70316,2,0,L|392:120,1,80,0|8,0:0|0:0,0:0:0:0:
448,20,70650,6,0,P|504:84|488:180,1,160,2|0,0:0|0:0,0:0:0:0:
420,276,71150,1,8,0:0:0:0:
292,340,71316,2,0,L|216:388,1,80
172,216,71650,2,0,L|248:168,1,80,0|8,0:0|0:0,0:0:0:0:
232,48,71983,6,0,P|332:84|344:164,1,160,2|0,0:0|0:0,0:0:0:0:
340,252,72483,1,8,0:0:0:0:
340,252,72566,1,0,0:0:0:0:
340,252,72650,2,0,L|268:324,1,80
172,216,72983,2,0,P|92:208|40:132,1,160
228,40,73483,6,0,P|252:76|248:112,1,80,4|0,0:0|0:0,0:0:0:0:
373,91,73816,2,0,P|354:130|321:145,1,80,0|0,0:0|0:0,0:0:0:0:
401,243,74150,2,0,P|358:246|329:225,1,80,8|0,0:0|0:0,0:0:0:0:
284,344,74483,2,0,P|259:308|264:272,1,80
256,192,74816,6,0,P|236:156|144:120,1,120
96,112,75149,1,8,0:0:0:0:
60,232,75316,1,0,0:0:0:0:
148,316,75483,2,0,L|316:276,1,160,0|8,0:0|0:0,0:0:0:0:
404,216,75983,5,0,0:0:0:0:
404,216,76066,1,0,0:0:0:0:
404,216,76150,2,0,P|392:148|372:112,1,80
228,20,76483,2,0,P|240:88|272:140,1,120,8|0,0:0|0:0,0:0:0:0:
256,192,76816,2,0,L|176:180,1,80
28,284,77149,2,0,L|108:296,1,80,8|0,0:0|0:0,0:0:0:0:
92,188,77483,6,0,P|84:111|137:54,1,160,0|8,0:0|0:0,0:0:0:0:
208,160,77983,1,0,0:0:0:0:
208,160,78066,1,0,0:0:0:0:
208,160,78150,2,0,B|252:156|252:156|296:132,1,80
424,28,78483,2,0,B|380:36|380:36|336:56,1,80,8|0,0:0|0:0,0:0:0:0:
400,176,78816,5,0,0:0:0:0:
436,191,78899,1,0,0:0:0:0:
462,221,78982,1,0,0:0:0:0:
470,260,79065,1,0,0:0:0:0:
460,298,79149,1,8,0:0:0:0:
434,327,79232,1,0,0:0:0:0:
397,341,79315,1,0,0:0:0:0:
357,336,79399,1,0,0:0:0:0:
325,314,79482,1,0,0:0:0:0:
312,276,79566,1,0,0:0:0:0:
320,236,79649,2,0,L|252:236,1,40
128,296,79816,2,0,L|168:296,1,40,8|0,0:0|0:0,0:0:0:0:
72,176,79983,2,0,L|32:176,1,40,8|0,0:0|0:0,0:0:0:0:
208,160,80316,5,0,0:0:0:0:
320,60,80483,1,8,0:0:0:0:
320,60,80566,1,0,0:0:0:0:
320,60,80649,1,0,0:0:0:0:
188,24,80816,1,0,0:0:0:0:
188,24,80899,1,0,0:0:0:0:
188,24,80982,1,0,0:0:0:0:
72,176,81149,2,0,P|51:219|-1:247,1,80,8|0,0:0|0:0,0:0:0:0:
12,352,81483,5,0,0:0:0:0:
176,356,81649,1,0,0:0:0:0:
328,284,81816,2,0,P|348:250|348:210,1,80,8|0,0:0|0:0,0:0:0:0:
208,160,82149,2,0,L|242:180,1,40
328,324,82316,2,0,L|328:284,1,40
440,160,82483,2,0,L|406:182,1,40,8|0,0:0|0:0,0:0:0:0:
348,210,82649,6,0,P|368:172|364:120,1,80
260,60,82983,2,0,L|208:72,2,40,0|0|8,0:0|0:0|0:0,0:0:0:0:
56,224,83316,2,0,L|96:216,2,40
56,108,83649,2,0,P|28:79|8:44,2,80,0|8|0,0:0|0:0|0:0,0:0:0:0:
244,192,84149,5,0,0:0:0:0:
244,192,84316,1,0,0:0:0:0:
388,172,84483,2,0,L|492:160,1,80,8|0,0:0|0:0,0:0:0:0:
400,288,84816,2,0,L|316:296,1,80
188,352,85149,2,0,P|100:312|108:228,1,160,8|0,0:0|0:0,0:0:0:0:
152,124,85649,5,0,0:0:0:0:
152,124,85816,2,0,L|212:32,1,80
376,116,86316,5,0,1:0:0:0:
392,128,86649,5,0,1:0:0:0:
416,212,86816,6,0,P|396:276|332:308,1,120,0|0,1:0|0:0,0:0:0:0:
296,320,87149,2,0,P|292:280|244:232,1,80
144,76,87483,2,0,P|102:117|95:175,1,120,8|0,0:0|0:0,0:0:0:0:
156,256,87816,2,0,L|196:156,1,80,0|8,0:0|0:0,0:0:0:0:
