osu file format v14

[General]
AudioFilename: Life-Ru is Love-Ru!! (TV Size).mp3
AudioLeadIn: 1985
PreviewTime: 58236
Countdown: 0
SampleSet: Soft
StackLeniency: 0.7
Mode: 0
LetterboxInBreaks: 1
WidescreenStoryboard: 0

[Editor]
DistanceSpacing: 1
BeatDivisor: 4
GridSize: 4
TimelineZoom: 0.6999997

[Metadata]
Title:Life-Ru is Love-Ru!! (TV Size)
TitleUnicode:Lifeる is LOVEる!! (TVサイズ)
Artist:Liliana Sisters
ArtistUnicode:リリアナシスターズ
Creator:raririn
Version:Easy
Source:Oniichan dakedo Ai sae Areba Kankeinai yo ne!
Tags:onii-ai ending flower irie miyuki popner silver link. kido ibuki chihara minori shimoda asami kitamura eri 姫小路秋子 木戸衣吹 那須原アナスタシア 茅原実里 猿渡銀兵衛春臣 下田麻美 二階堂嵐 喜多村英梨
BeatmapID:202796
BeatmapSetID:69505

[Difficulty]
HPDrainRate:2
CircleSize:2.5
OverallDifficulty:2
ApproachRate:3.5
SliderMultiplier:0.8
SliderTickRate:1

[Events]
//Background and Video events
0,0,"BG.jpg",0,0
Video,0,"video.avi"
//Break Periods
//Storyboard Layer 0 (Background)
//Storyboard Layer 1 (Fail)
//Storyboard Layer 2 (Pass)
//Storyboard Layer 3 (Foreground)
//Storyboard Sound Samples

[TimingPoints]
150,333.333333333333,4,2,1,70,1,0
21483,-100,4,1,0,40,0,0
21566,-100,4,2,1,70,0,0
29316,-100,4,1,1,70,0,0
32149,-100,4,2,1,70,0,0
46149,-100,4,2,0,40,0,0
46566,-100,4,2,1,70,0,0
58649,-100,4,2,1,70,0,1
69149,-100,4,2,1,70,0,0
69316,-100,4,2,1,70,0,1
80149,-100,4,2,1,70,0,0

[Colours]
Combo1 : 0,128,255
Combo2 : 255,128,128
Combo3 : 192,192,192
Combo4 : 128,64,0

[HitObjects]
120,80,150,6,0,P|68:132|72:224,1,160,8|8,0:0|0:0,0:0:0:0:
151,350,1483,2,0,P|185:326|201:279,1,80,8|8,0:0|0:0,0:0:0:0:
292,376,2149,2,0,P|310:341|348:316,1,80,8|8,0:0|0:0,0:0:0:0:
413,280,2816,1,8,0:0:0:0:
436,121,3483,2,0,P|340:133|280:181,1,160,8|0,0:0|0:0,0:0:0:0:
152,252,4816,2,0,P|124:212|124:176,1,80,8|0,0:0|0:0,0:0:0:0:
156,108,5483,6,0,P|72:80|0:84,1,160,8|8,0:0|0:0,0:0:0:0:
52,236,6816,2,0,L|35:314,1,80,8|0,0:0|0:0,0:0:0:0:
116,336,7483,2,0,L|132:257,1,80,8|0,0:0|0:0,0:0:0:0:
148,180,8149,1,4,0:0:0:0:
304,140,8816,1,4,0:0:0:0:
308,300,9483,2,0,P|396:292|436:228,2,160,0|0|4,0:0|0:0|0:0,0:0:0:0:
156,256,11483,5,8,0:0:0:0:
296,180,12149,2,0,P|236:112|160:96,1,160,8|8,0:0|0:0,0:0:0:0:
44,196,13483,2,0,L|12:284,2,80,8|0|8,0:0|0:0|0:0,0:0:0:0:
56,356,14816,6,0,B|92:352|112:320|112:320|148:224,1,160,8|8,0:0|0:0,0:0:0:0:
196,84,16149,2,0,B|176:132|176:132|240:156|252:216,1,160,8|8,0:0|0:0,0:0:0:0:
308,356,17483,5,8,0:0:0:0:
456,292,18149,2,0,P|404:224|328:196,1,160,8|8,0:0|0:0,0:0:0:0:
220,172,19316,6,0,P|188:132|184:92,1,80
304,80,20149,2,0,L|279:3,2,80,4|8|4,1:0|0:0|0:0,0:0:0:0:
464,108,21483,6,0,B|480:192|420:264,2,160,0|0|2,0:0|0:0|0:0,0:0:0:0:
312,164,23483,2,0,P|244:184|148:156,1,160,2|2,0:0|0:0,0:0:0:0:
24,76,24816,5,2,0:0:0:0:
76,228,25483,2,0,P|116:308|92:400,1,160,0|2,0:0|0:0,0:0:0:0:
264,368,26816,5,2,0:0:0:0:
408,300,27483,1,2,0:0:0:0:
388,140,28149,6,0,B|161:239|216:196,1,160,2|0,0:0|0:0,0:0:0:0:
172,300,29316,2,0,P|129:233|132:155,1,160
284,104,30649,2,0,P|341:50|419:39,1,160
416,240,32149,6,0,L|373:312,1,80,2|0,0:0|0:0,0:0:0:0:
332,376,32816,1,2,0:0:0:0:
166,355,33483,6,0,P|187:280|252:236,1,160,2|2,0:0|0:0,0:0:0:0:
380,140,34816,2,0,P|301:151|224:131,1,160,2|2,0:0|0:0,0:0:0:0:
80,64,36149,5,2,0:0:0:0:
8,208,36816,2,0,P|-8:280|36:353,1,160,2|2,0:0|0:0,0:0:0:0:
160,252,38149,1,2,0:0:0:0:
304,180,38816,6,0,L|284:268,2,80,2|0|2,0:0|0:0|0:0,0:0:0:0:
276,24,40149,2,0,P|356:28|440:72,1,160,2|2,0:0|0:0,0:0:0:0:
480,212,41483,5,4,0:0:0:0:
380,336,42149,2,0,P|302:349|228:320,1,160,8|2,0:0|0:0,0:0:0:0:
324,192,43483,1,8,0:0:0:0:
216,76,44149,5,8,0:0:0:0:
96,68,44649,2,0,P|126:156|192:184,1,160,8|8,0:0|0:0,0:0:0:0:
384,176,46149,2,0,L|356:72,1,80,2|0,0:0|0:0,0:0:0:0:
328,28,46816,6,0,P|420:60|504:52,1,160,2|2,0:0|0:0,0:0:0:0:
512,216,48149,2,0,P|496:292|433:339,1,160,2|0,0:0|0:0,0:0:0:0:
276,360,49483,6,0,L|192:360,1,80
188,280,50149,2,0,L|100:280,1,80
128,200,50816,2,0,P|65:150|72:64,1,160,2|8,0:0|0:0,0:0:0:0:
228,72,52149,5,8,0:0:0:0:
256,228,52816,1,2,0:0:0:0:
388,136,53483,2,0,P|460:168|508:231,1,160,8|2,0:0|0:0,0:0:0:0:
360,296,54816,6,0,L|317:363,2,80,8|0|0,0:0|0:0|0:0,0:0:0:0:
256,192,55983,12,0,58649,0:0:0:0:
92,296,59983,6,0,P|152:340|252:348,1,160,8|8,0:0|0:0,0:0:0:0:
368,260,61316,2,0,P|421:208|446:111,1,160,8|8,0:0|0:0,0:0:0:0:
248,108,62816,2,0,L|148:116,1,80,8|0,0:0|0:0,0:0:0:0:
88,116,63483,1,0,0:0:0:0:
36,176,63816,1,8,0:0:0:0:
52,256,64149,6,0,P|104:316|196:336,1,160,8|8,0:0|0:0,0:0:0:0:
204,180,65483,2,0,L|270:122,2,80,8|0|8,0:0|0:0|0:0,0:0:0:0:
348,252,66816,6,0,P|400:176|376:48,1,200,8|0,0:0|0:0,0:0:0:0:
256,192,67983,12,4,69316,0:0:0:0:
376,360,70649,6,0,P|436:296|428:188,1,200,8|0,0:0|0:0,0:0:0:0:
356,92,71983,2,0,P|303:21|195:10,1,200,8|0,0:0|0:0,0:0:0:0:
216,168,73483,6,0,L|164:236,2,80,4|0|0,0:0|0:0|0:0,0:0:0:0:
316,292,74816,2,0,P|364:348|456:348,1,160,8|0,0:0|0:0,0:0:0:0:
444,192,76149,6,0,L|488:108,2,80,8|0|2,0:0|0:0|0:0,0:0:0:0:
284,184,77483,1,8,0:0:0:0:
172,300,78149,1,8,0:0:0:0:
108,152,78816,6,0,P|68:92|104:12,1,160,8|0,0:0|0:0,0:0:0:0:
248,72,80149,2,0,L|344:72,2,80,8|0|0,0:0|0:0|0:0,0:0:0:0:
88,72,81483,5,8,0:0:0:0:
188,196,82149,2,0,L|108:196,2,80,0|0|8,0:0|0:0|0:0,0:0:0:0:
348,200,83483,1,8,0:0:0:0:
448,328,84149,2,0,P|504:272|503:191,1,160,8|0,0:0|0:0,0:0:0:0:
348,200,85483,6,0,B|283:189|272:108|272:108|120:108,1,280
256,192,86816,12,4,87983,0:0:0:0:
